  0
SECTION
  2
HEADER
  9
$ACADVER
  1
AC1021
  9
$ACADMAINTVER
 70
    50
  9
$DWGCODEPAGE
  3
ANSI_1252
  9
$LASTSAVEDBY
  1
mstaweczny
  9
$INSBASE
 10
0.0
 20
0.0
 30
0.0
  9
$EXTMIN
 10
27199.58293248101
 20
23858.09899032217
 30
0.0
  9
$EXTMAX
 10
28794.31325655592
 20
24994.37732017668
 30
0.0000000023487396
  9
$LIMMIN
 10
0.0
 20
0.0
  9
$LIMMAX
 10
420.0
 20
297.0
  9
$ORTHOMODE
 70
     1
  9
$REGENMODE
 70
     1
  9
$FILLMODE
 70
     1
  9
$QTEXTMODE
 70
     0
  9
$MIRRTEXT
 70
     0
  9
$LTSCALE
 40
1.0
  9
$ATTMODE
 70
     1
  9
$TEXTSIZE
 40
2.5
  9
$TRACEWID
 40
1.0
  9
$TEXTSTYLE
  7
STANDARD
  9
$CLAYER
  8
0
  9
$CELTYPE
  6
ByLayer
  9
$CECOLOR
 62
   256
  9
$CELTSCALE
 40
1.0
  9
$DISPSILH
 70
     0
  9
$DIMSCALE
 40
1.0
  9
$DIMASZ
 40
0.12
  9
$DIMEXO
 40
0.05
  9
$DIMDLI
 40
0.5
  9
$DIMRND
 40
0.0
  9
$DIMDLE
 40
0.0
  9
$DIMEXE
 40
0.1
  9
$DIMTP
 40
0.1
  9
$DIMTM
 40
0.1
  9
$DIMTXT
 40
0.12
  9
$DIMCEN
 40
0.0
  9
$DIMTSZ
 40
0.0
  9
$DIMTOL
 70
     0
  9
$DIMLIM
 70
     0
  9
$DIMTIH
 70
     1
  9
$DIMTOH
 70
     1
  9
$DIMSE1
 70
     0
  9
$DIMSE2
 70
     0
  9
$DIMTAD
 70
     0
  9
$DIMZIN
 70
     7
  9
$DIMBLK
  1

  9
$DIMASO
 70
     1
  9
$DIMSHO
 70
     1
  9
$DIMPOST
  1

  9
$DIMAPOST
  1
mm
  9
$DIMALT
 70
     0
  9
$DIMALTD
 70
     2
  9
$DIMALTF
 40
25.4
  9
$DIMLFAC
 40
1.0
  9
$DIMTOFL
 70
     0
  9
$DIMTVP
 40
0.0
  9
$DIMTIX
 70
     0
  9
$DIMSOXD
 70
     0
  9
$DIMSAH
 70
     0
  9
$DIMBLK1
  1

  9
$DIMBLK2
  1

  9
$DIMSTYLE
  2
AM_ANSI
  9
$DIMCLRD
 70
   256
  9
$DIMCLRE
 70
   256
  9
$DIMCLRT
 70
   140
  9
$DIMTFAC
 40
0.71
  9
$DIMGAP
 40
0.06
  9
$DIMJUST
 70
     0
  9
$DIMSD1
 70
     0
  9
$DIMSD2
 70
     0
  9
$DIMTOLJ
 70
     1
  9
$DIMTZIN
 70
     7
  9
$DIMALTZ
 70
     0
  9
$DIMALTTZ
 70
     0
  9
$DIMUPT
 70
     0
  9
$DIMDEC
 70
     4
  9
$DIMTDEC
 70
     4
  9
$DIMALTU
 70
     2
  9
$DIMALTTD
 70
     4
  9
$DIMTXSTY
  7
STANDARD
  9
$DIMAUNIT
 70
     0
  9
$DIMADEC
 70
     0
  9
$DIMALTRND
 40
0.0
  9
$DIMAZIN
 70
     2
  9
$DIMDSEP
 70
    46
  9
$DIMATFIT
 70
     3
  9
$DIMFRAC
 70
     0
  9
$DIMLDRBLK
  1

  9
$DIMLUNIT
 70
     2
  9
$DIMLWD
 70
    -1
  9
$DIMLWE
 70
    -1
  9
$DIMTMOVE
 70
     0
  9
$DIMFXL
 40
1.0
  9
$DIMFXLON
 70
     0
  9
$DIMJOGANG
 40
0.7853981633974483
  9
$DIMTFILL
 70
     0
  9
$DIMTFILLCLR
 70
     0
  9
$DIMARCSYM
 70
     1
  9
$DIMLTYPE
  6
ByBlock
  9
$DIMLTEX1
  6
ByBlock
  9
$DIMLTEX2
  6
ByBlock
  9
$LUNITS
 70
     2
  9
$LUPREC
 70
     2
  9
$SKETCHINC
 40
1.0
  9
$FILLETRAD
 40
2.5
  9
$AUNITS
 70
     0
  9
$AUPREC
 70
     0
  9
$MENU
  1
.
  9
$ELEVATION
 40
0.0
  9
$PELEVATION
 40
0.0
  9
$THICKNESS
 40
0.0
  9
$LIMCHECK
 70
     0
  9
$CHAMFERA
 40
2.5
  9
$CHAMFERB
 40
2.5
  9
$CHAMFERC
 40
0.0
  9
$CHAMFERD
 40
0.0
  9
$SKPOLY
 70
     0
  9
$TDCREATE
 40
2455251.684584873
  9
$TDUCREATE
 40
2455251.642918206
  9
$TDUPDATE
 40
2458305.450304040
  9
$TDUUPDATE
 40
2458305.408637373
  9
$TDINDWG
 40
0.0466800694
  9
$TDUSRTIMER
 40
0.0466797454
  9
$USRTIMER
 70
     1
  9
$ANGBASE
 50
0.0
  9
$ANGDIR
 70
     0
  9
$PDMODE
 70
     0
  9
$PDSIZE
 40
0.0
  9
$PLINEWID
 40
0.0
  9
$SPLFRAME
 70
     0
  9
$SPLINETYPE
 70
     6
  9
$SPLINESEGS
 70
     8
  9
$HANDSEED
  5
4AE45
  9
$SURFTAB1
 70
     6
  9
$SURFTAB2
 70
     6
  9
$SURFTYPE
 70
     6
  9
$SURFU
 70
     6
  9
$SURFV
 70
     6
  9
$UCSBASE
  2

  9
$UCSNAME
  2

  9
$UCSORG
 10
0.0
 20
0.0
 30
0.0
  9
$UCSXDIR
 10
1.0
 20
0.0
 30
0.0
  9
$UCSYDIR
 10
0.0
 20
1.0
 30
0.0
  9
$UCSORTHOREF
  2

  9
$UCSORTHOVIEW
 70
     0
  9
$UCSORGTOP
 10
0.0
 20
0.0
 30
0.0
  9
$UCSORGBOTTOM
 10
0.0
 20
0.0
 30
0.0
  9
$UCSORGLEFT
 10
0.0
 20
0.0
 30
0.0
  9
$UCSORGRIGHT
 10
0.0
 20
0.0
 30
0.0
  9
$UCSORGFRONT
 10
0.0
 20
0.0
 30
0.0
  9
$UCSORGBACK
 10
0.0
 20
0.0
 30
0.0
  9
$PUCSBASE
  2

  9
$PUCSNAME
  2

  9
$PUCSORG
 10
0.0
 20
0.0
 30
0.0
  9
$PUCSXDIR
 10
1.0
 20
0.0
 30
0.0
  9
$PUCSYDIR
 10
0.0
 20
1.0
 30
0.0
  9
$PUCSORTHOREF
  2

  9
$PUCSORTHOVIEW
 70
     0
  9
$PUCSORGTOP
 10
0.0
 20
0.0
 30
0.0
  9
$PUCSORGBOTTOM
 10
0.0
 20
0.0
 30
0.0
  9
$PUCSORGLEFT
 10
0.0
 20
0.0
 30
0.0
  9
$PUCSORGRIGHT
 10
0.0
 20
0.0
 30
0.0
  9
$PUCSORGFRONT
 10
0.0
 20
0.0
 30
0.0
  9
$PUCSORGBACK
 10
0.0
 20
0.0
 30
0.0
  9
$USERI1
 70
     0
  9
$USERI2
 70
     0
  9
$USERI3
 70
     0
  9
$USERI4
 70
     0
  9
$USERI5
 70
     0
  9
$USERR1
 40
0.0
  9
$USERR2
 40
0.0
  9
$USERR3
 40
0.0
  9
$USERR4
 40
0.0
  9
$USERR5
 40
0.0
  9
$WORLDVIEW
 70
     1
  9
$SHADEDGE
 70
     3
  9
$SHADEDIF
 70
    70
  9
$TILEMODE
 70
     1
  9
$MAXACTVP
 70
    64
  9
$PINSBASE
 10
0.0
 20
0.0
 30
0.0
  9
$PLIMCHECK
 70
     0
  9
$PEXTMIN
 10
1.000000000000000E+20
 20
1.000000000000000E+20
 30
1.000000000000000E+20
  9
$PEXTMAX
 10
-1.000000000000000E+20
 20
-1.000000000000000E+20
 30
-1.000000000000000E+20
  9
$PLIMMIN
 10
0.0
 20
0.0
  9
$PLIMMAX
 10
420.0
 20
297.0
  9
$UNITMODE
 70
     0
  9
$VISRETAIN
 70
     1
  9
$PLINEGEN
 70
     0
  9
$PSLTSCALE
 70
     1
  9
$TREEDEPTH
 70
  3020
  9
$CMLSTYLE
  2
Standard
  9
$CMLJUST
 70
     0
  9
$CMLSCALE
 40
1.0
  9
$PROXYGRAPHICS
 70
     1
  9
$MEASUREMENT
 70
     0
  9
$CELWEIGHT
370
    -1
  9
$ENDCAPS
280
     0
  9
$JOINSTYLE
280
     0
  9
$LWDISPLAY
290
     0
  9
$INSUNITS
 70
     0
  9
$HYPERLINKBASE
  1

  9
$STYLESHEET
  1

  9
$XEDIT
290
     1
  9
$CEPSNTYPE
380
     0
  9
$PSTYLEMODE
290
     1
  9
$FINGERPRINTGUID
  2
{2A149A26-9B45-4AC2-AE5A-5DC02954AAB5}
  9
$VERSIONGUID
  2
{A178C9BE-3AEC-4339-93ED-A55D636E93F6}
  9
$EXTNAMES
290
     1
  9
$PSVPSCALE
 40
0.0
  9
$OLESTARTUP
290
     0
  9
$SORTENTS
280
   127
  9
$INDEXCTL
280
     0
  9
$HIDETEXT
280
     0
  9
$XCLIPFRAME
290
     0
  9
$HALOGAP
280
     0
  9
$OBSCOLOR
 70
   257
  9
$OBSLTYPE
280
     0
  9
$INTERSECTIONDISPLAY
280
     0
  9
$INTERSECTIONCOLOR
 70
   257
  9
$DIMASSOC
280
     1
  9
$PROJECTNAME
  1

  9
$CAMERADISPLAY
290
     0
  9
$LENSLENGTH
 40
50.0
  9
$CAMERAHEIGHT
 40
0.0
  9
$STEPSPERSEC
 40
2.0
  9
$STEPSIZE
 40
6.0
  9
$3DDWFPREC
 40
2.0
  9
$PSOLWIDTH
 40
0.25
  9
$PSOLHEIGHT
 40
4.0
  9
$LOFTANG1
 40
1.570796326794896
  9
$LOFTANG2
 40
1.570796326794896
  9
$LOFTMAG1
 40
0.0
  9
$LOFTMAG2
 40
0.0
  9
$LOFTPARAM
 70
     7
  9
$LOFTNORMALS
280
     1
  9
$LATITUDE
 40
37.795
  9
$LONGITUDE
 40
-122.394
  9
$NORTHDIRECTION
 40
0.0
  9
$TIMEZONE
 70
 -8000
  9
$LIGHTGLYPHDISPLAY
280
     1
  9
$TILEMODELIGHTSYNCH
280
     1
  9
$CMATERIAL
347
4A62C
  9
$SOLIDHIST
280
     1
  9
$SHOWHIST
280
     1
  9
$DWFFRAME
280
     2
  9
$DGNFRAME
280
     0
  9
$REALWORLDSCALE
290
     1
  9
$INTERFERECOLOR
 62
     1
  9
$INTERFEREOBJVS
345
4A64E
  9
$INTERFEREVPVS
346
4A64B
  9
$CSHADOW
280
     0
  9
$SHADOWPLANELOCATION
 40
0.0
  0
ENDSEC
  0
SECTION
  2
CLASSES
  0
CLASS
  1
ACDBDICTIONARYWDFLT
  2
AcDbDictionaryWithDefault
  3
ObjectDBX Classes
 90
        0
 91
        1
280
     0
281
     0
  0
CLASS
  1
MATERIAL
  2
AcDbMaterial
  3
ObjectDBX Classes
 90
     1153
 91
        3
280
     0
281
     0
  0
CLASS
  1
VISUALSTYLE
  2
AcDbVisualStyle
  3
ObjectDBX Classes
 90
     4095
 91
       16
280
     0
281
     0
  0
CLASS
  1
SCALE
  2
AcDbScale
  3
ObjectDBX Classes
 90
     1153
 91
       33
280
     0
281
     0
  0
CLASS
  1
TABLESTYLE
  2
AcDbTableStyle
  3
ObjectDBX Classes
 90
     4095
 91
        1
280
     0
281
     0
  0
CLASS
  1
MLEADERSTYLE
  2
AcDbMLeaderStyle
  3
ACDB_MLEADERSTYLE_CLASS
 90
     4095
 91
        1
280
     0
281
     0
  0
CLASS
  1
AMGSETTINGSOBJ
  2
AmgSettingsObj
  3
"AcadM|Product Description: AutoCAD Mechanical|Company: Autodesk, Inc."
 90
     1024
 91
        2
280
     0
281
     0
  0
CLASS
  1
ACME_DOCUMENT
  2
AcMeDbDoc
  3
AcMeServices
 90
     1024
 91
        1
280
     0
281
     0
  0
CLASS
  1
ACMESCOPE
  2
AcMeScope
  3
AcMeServices
 90
     1024
 91
        1
280
     0
281
     0
  0
CLASS
  1
ACMECOMMANDHISTORY
  2
AcMeCommandHistory
  3
AcMeServices
 90
     1024
 91
        1
280
     0
281
     0
  0
CLASS
  1
ACIMSYSVARMAN
  2
AcImSysVarManager
  3
AcMeServices
 90
     1024
 91
        5
280
     0
281
     0
  0
CLASS
  1
ACIMINTSYSVAR
  2
AcImIntSysVar
  3
AcMeServices
 90
     1024
 91
       27
280
     0
281
     0
  0
CLASS
  1
ACMEDRAWINGMAN
  2
AcMeDrawingMan
  3
AcMeServices
 90
     1024
 91
        1
280
     0
281
     0
  0
CLASS
  1
ACMEVIEW
  2
AcMeView
  3
AcMeServices
 90
     1024
 91
        1
280
     0
281
     0
  0
CLASS
  1
ACDBENTITYCACHE
  2
AcMeEntityCache
  3
AcMeServices
 90
     1024
 91
        1
280
     0
281
     0
  0
CLASS
  1
GSMANAGER
  2
AcMeGSManager
  3
AcMeServices
 90
     1024
 91
        1
280
     0
281
     0
  0
CLASS
  1
AMDTINTERNALREACTOR
  2
AmdtInternalReactor
  3
AcMeServices
 90
     1024
 91
        2
280
     0
281
     0
  0
CLASS
  1
ACMESTATEMGR
  2
AcMeStateMgr
  3
AcMeServices
 90
     1024
 91
        1
280
     0
281
     0
  0
CLASS
  1
ACGREFMASTER
  2
AcGrefMaster
  3
AcAttribServices
 90
     1024
 91
        1
280
     0
281
     0
  0
CLASS
  1
AM_DRAWING_MGR
  2
AcDmDwgMgr
  3
AcMechDwgViewMgmt
 90
     1024
 91
        1
280
     0
281
     0
  0
CLASS
  1
AM_DWG_DOCUMENT
  2
AcDmDwgDocument
  3
AcMechDwgViewMgmt
 90
     1024
 91
        1
280
     0
281
     0
  0
CLASS
  1
AM_DWG_SHEET
  2
AcDmSheet
  3
AcMechDwgViewMgmt
 90
     1024
 91
        1
280
     0
281
     0
  0
CLASS
  1
AM_VIEWDIMPARMAP
  2
AcDmViewDimParMap
  3
AcMechDwgViewMgmt
 90
     1024
 91
        1
280
     0
281
     0
  0
CLASS
  1
ACIMREALSYSVAR
  2
AcImRealSysVar
  3
AcMeServices
 90
     1024
 91
        1
280
     0
281
     0
  0
CLASS
  1
AM_DWGMGR_NAME
  2
AcDmDwgMgrName
  3
AcMechDwgViewMgmt
 90
     1024
 91
        1
280
     0
281
     0
  0
CLASS
  1
ACME_DATABASE
  2
AcMeDbDatabase
  3
AcMeServices
 90
     1024
 91
        2
280
     0
281
     0
  0
CLASS
  1
ACRFINSADJUSTERMGR
  2
AcRfInsAdjusterMgr
  3
AcMeServices
 90
     1024
 91
        1
280
     0
281
     0
  0
CLASS
  1
ACGREFACADMASTER
  2
AcGrefacadMaster
  3
AcGrefServices
 90
     1024
 91
        1
280
     0
281
     0
  0
CLASS
  1
AMDTMENUSTATEMGR
  2
AmdtMenuStateMgr
  3
McadcomServices
 90
     1024
 91
        1
280
     0
281
     0
  0
CLASS
  1
AMDTMCOMMENUSTATE
  2
AmdtMcomMenuState
  3
McadcomServices
 90
     1024
 91
        1
280
     0
281
     0
  0
CLASS
  1
AMIMASTER
  2
AmiMaster
  3
AmiServices
 90
     1024
 91
        1
280
     0
281
     0
  0
CLASS
  1
MAPIAMMOUDLE
  2
MApiAmModule
  3
MApiAmServices
 90
     1024
 91
        1
280
     0
281
     0
  0
CLASS
  1
ACIMSTRSYSVAR
  2
AcImStrSysVar
  3
AcMeServices
 90
     1024
 91
        5
280
     0
281
     0
  0
CLASS
  1
AMDTADMENUSTATE
  2
AmdtAdMenuState
  3
DesignerServices
 90
     1024
 91
        1
280
     0
281
     0
  0
CLASS
  1
ADAPPL
  2
AcAdAppl
  3
DesignerServices
 90
     1024
 91
        1
280
     0
281
     0
  0
CLASS
  1
DEPMGR
  2
AcAdDepMgr
  3
DesignerServices
 90
     1024
 91
        1
280
     0
281
     0
  0
CLASS
  1
PARAMMGR
  2
AcAdParamMgr
  3
DesignerServices
 90
     1024
 91
        1
280
     0
281
     0
  0
CLASS
  1
PARAMSCOPE
  2
AcAdParamScope
  3
DesignerServices
 90
     1024
 91
        1
280
     0
281
     0
  0
CLASS
  1
NAMEDAPPL
  2
AcAdNamedAppl
  3
DesignerServices
 90
     1024
 91
        1
280
     0
281
     0
  0
CLASS
  1
AMDTDMMENUSTATE
  2
AmdtDmMenuState
  3
AcMechDwgViewMgmt
 90
     1024
 91
        1
280
     0
281
     0
  0
CLASS
  1
AMDTAMMENUSTATE
  2
AmdtAmMenuState
  3
DesignerAssemblies
 90
     1024
 91
        1
280
     0
281
     0
  0
CLASS
  1
ACAMPROJECT
  2
AcAmProject
  3
DesignerAssemblies
 90
     1024
 91
        1
280
     0
281
     0
  0
CLASS
  1
ACAMGRCOMPDEF
  2
AcAmGrCompDef
  3
DesignerAssemblies
 90
     1024
 91
        1
280
     0
281
     0
  0
CLASS
  1
ACCMCONTEXT
  2
AcCmContext
  3
DesignerAssemblies
 90
     1024
 91
        1
280
     0
281
     0
  0
CLASS
  1
ACAMCOMPDEF
  2
AcAmCompDef
  3
DesignerAssemblies
 90
     1024
 91
        1
280
     0
281
     0
  0
CLASS
  1
ACAMCOMPDEFMGR
  2
AcAmCompDefMgr
  3
DesignerAssemblies
 90
     1024
 91
        1
280
     0
281
     0
  0
CLASS
  1
AMCONTEXTMGR
  2
AcAmContextMgr
  3
DesignerAssemblies
 90
     1024
 91
        1
280
     0
281
     0
  0
CLASS
  1
ACAMCONTEXTMODELER
  2
AcAmContextModeler
  3
DesignerAssemblies
 90
     1024
 91
        1
280
     0
281
     0
  0
CLASS
  1
ACMDATADICTIONARY
  2
AcmDataDictionary
  3
"AcmSymBB|Product Description: AutoCAD Mechanical|Company: Autodesk, Inc."
 90
     1024
 91
        1
280
     0
281
     0
  0
CLASS
  1
CATALOGSTATE
  2
AcAmCatalogState
  3
DesignerAssemblies
 90
     1024
 91
        1
280
     0
281
     0
  0
CLASS
  1
ACAMGRCOMPDEFSET
  2
AcAmGrCompDefSet
  3
DesignerAssemblies
 90
     1024
 91
        1
280
     0
281
     0
  0
CLASS
  1
AMDTBROWSERDBTAB
  2
AmdtBrowserDbTab
  3
McadcomServices
 90
     1024
 91
        1
280
     0
281
     0
  0
CLASS
  1
CBROWSERAPPOBJECT
  2
CBrowserAppObject
  3
McadcomServices
 90
     1024
 91
        3
280
     0
281
     0
  0
CLASS
  1
DM_PLACEHOLDER
  2
AcDmSelsetPlaceholder
  3
AcMechDwgViewMgmt
 90
     1024
 91
        1
280
     0
281
     0
  0
CLASS
  1
EXACXREFPANELOBJECT
  2
ExAcXREFPanelObject
  3
EXAC_ESW
 90
     1025
 91
        1
280
     0
281
     0
  0
CLASS
  1
NPOCOLLECTION
  2
AcDbImpNonPersistentObjectsCollection
  3
ObjectDBX Classes
 90
     1153
 91
        1
280
     0
281
     0
  0
CLASS
  1
ACMSTANDARDANSI
  2
AcmStandardANSI
  3
"Amdt_StdImp|Product Description: AutoCAD Mechanical|Company: Autodesk, Inc."
 90
     1024
 91
        1
280
     0
281
     0
  0
CLASS
  1
ACMSURFSTANDARDANSI
  2
AcmSurfTextStdANSI
  3
"Amdt_StdImp|Product Description: AutoCAD Mechanical|Company: Autodesk, Inc."
 90
     1024
 91
        1
280
     0
281
     0
  0
CLASS
  1
ACMFCFSTANDARDANSI
  2
AcmFCFStdANSI
  3
"Amdt_StdImp|Product Description: AutoCAD Mechanical|Company: Autodesk, Inc."
 90
     1024
 91
        1
280
     0
281
     0
  0
CLASS
  1
ACMWELDSTANDARDANSI
  2
AcmWeldingStdANSI
  3
"Amdt_StdImp|Product Description: AutoCAD Mechanical|Company: Autodesk, Inc."
 90
     1024
 91
        1
280
     0
281
     0
  0
CLASS
  1
ACMIDSTANDARDANSI
  2
AcmIdStdANSI
  3
"Amdt_StdImp|Product Description: AutoCAD Mechanical|Company: Autodesk, Inc."
 90
     1024
 91
        1
280
     0
281
     0
  0
CLASS
  1
ACMDATUMSTANDARDANSI
  2
AcmDatumStdANSI
  3
"Amdt_StdImp|Product Description: AutoCAD Mechanical|Company: Autodesk, Inc."
 90
     1024
 91
        1
280
     0
281
     0
  0
CLASS
  1
ACMBOMSTANDARDANSI
  2
AcmBOMStdANSI
  3
"Amdt_StdImp|Product Description: AutoCAD Mechanical|Company: Autodesk, Inc."
 90
     1024
 91
        1
280
     0
281
     0
  0
CLASS
  1
ACMDETAILSTANDARDANSI
  2
AmdtDetailSymStdANSI
  3
"Amdt_StdImp|Product Description: AutoCAD Mechanical|Company: Autodesk, Inc."
 90
     1024
 91
        1
280
     0
281
     0
  0
CLASS
  1
ACMSECTIONSTANDARDANSI
  2
AmdtSectionSymStdANSI
  3
"Amdt_StdImp|Product Description: AutoCAD Mechanical|Company: Autodesk, Inc."
 90
     1024
 91
        1
280
     0
281
     0
  0
CLASS
  1
ACMCENTERLINESTANDARDANSI
  2
AmdtCenterLineStdANSI
  3
"Amdt_StdImp|Product Description: AutoCAD Mechanical|Company: Autodesk, Inc."
 90
     1024
 91
        1
280
     0
281
     0
  0
CLASS
  1
ACMTHREADLINESTANDARDANSI
  2
AmdtThreadLineStdANSI
  3
"Amdt_StdImp|Product Description: AutoCAD Mechanical|Company: Autodesk, Inc."
 90
     1024
 91
        1
280
     0
281
     0
  0
CLASS
  1
ACMNOTESTANDARDANSI
  2
AmdtNoteStdANSI
  3
"Amdt_StdImp|Product Description: AutoCAD Mechanical|Company: Autodesk, Inc."
 90
     1024
 91
        1
280
     0
281
     0
  0
CLASS
  1
ACMTAPERSTANDARDANSI
  2
AcmTaperStdANSI
  3
"Amdt_StdImp|Product Description: AutoCAD Mechanical|Company: Autodesk, Inc."
 90
     1024
 91
        1
280
     0
281
     0
  0
CLASS
  1
ACMANOOTATIONVIEWSTANDARDANSI
  2
AmdtAnViewStdANSI
  3
"Amdt_StdImp|Product Description: AutoCAD Mechanical|Company: Autodesk, Inc."
 90
     1024
 91
        1
280
     0
281
     0
  0
CLASS
  1
ACAMGLAYSTD
  2
AcAmgLayStd
  3
"AmgLay|Product Description: AutoCAD Mechanical|Company: Autodesk, Inc."
 90
     1024
 91
        2
280
     0
281
     0
  0
CLASS
  1
ACAMGDIMSTD
  2
AcAmgDimStd
  3
"AmgDim|Product Description: AutoCAD Mechanical|Company: Autodesk, Inc."
 90
     1024
 91
        2
280
     0
281
     0
  0
CLASS
  1
AMGOBJPROPCFG
  2
AmgObjPropCfg
  3
"AmgLay|Product Description: AutoCAD Mechanical|Company: Autodesk, Inc."
 90
     1025
 91
        1
280
     0
281
     0
  0
CLASS
  1
ACAMGHOLECHARTSTDANSI
  2
AcAmgHoleChartStdANSI
  3
AmgDim|Product Description: AutoCAD Mechanical|Company: Autodesk, Inc.
 90
     1024
 91
        1
280
     0
281
     0
  0
CLASS
  1
ACAMGTITLESTD
  2
AcAmgTitleStd
  3
"AmgTitle|Product Description: AutoCAD Mechanical|Company: Autodesk, Inc."
 90
     4095
 91
        2
280
     0
281
     0
  0
CLASS
  1
AMDTNOTETEMPLATEDB
  2
AmdtNoteTemplateDB
  3
AcmSymBB|Product Description: AutoCAD Mechanical|Company: Autodesk, Inc.
 90
     1024
 91
       12
280
     0
281
     0
  0
CLASS
  1
DIMASSOC
  2
AcDbDimAssoc
  3
"AcDbDimAssoc|Product Desc:     AcDim ARX App For Dimension|Company:          Autodesk, Inc.|WEB Address:      www.autodesk.com"
 90
        0
 91
        4
280
     0
281
     0
  0
CLASS
  1
SORTENTSTABLE
  2
AcDbSortentsTable
  3
ObjectDBX Classes
 90
        0
 91
        1
280
     0
281
     0
  0
CLASS
  1
ACMSTANDARDISO
  2
AcmStandardISO
  3
"Amdt_StdImp|Product Description: AutoCAD Mechanical|Company: Autodesk, Inc."
 90
     1024
 91
        1
280
     0
281
     0
  0
CLASS
  1
ACMSURFSTANDARDISO2002
  2
AcmSurfTextStdISO2002
  3
"Amdt_StdImp|Product Description: AutoCAD Mechanical|Company: Autodesk, Inc."
 90
     1024
 91
        1
280
     0
281
     0
  0
CLASS
  1
ACMFCFSTANDARDISO
  2
AcmFCFStdISO
  3
"Amdt_StdImp|Product Description: AutoCAD Mechanical|Company: Autodesk, Inc."
 90
     1024
 91
        1
280
     0
281
     0
  0
CLASS
  1
ACMWELDSTANDARDISO
  2
AcmWeldingStdISO
  3
"Amdt_StdImp|Product Description: AutoCAD Mechanical|Company: Autodesk, Inc."
 90
     1024
 91
        1
280
     0
281
     0
  0
CLASS
  1
ACMIDSTANDARDISO
  2
AcmIdStdISO
  3
"Amdt_StdImp|Product Description: AutoCAD Mechanical|Company: Autodesk, Inc."
 90
     1024
 91
        1
280
     0
281
     0
  0
CLASS
  1
ACMDATUMSTANDARDISO
  2
AcmDatumStdISO
  3
"Amdt_StdImp|Product Description: AutoCAD Mechanical|Company: Autodesk, Inc."
 90
     1024
 91
        1
280
     0
281
     0
  0
CLASS
  1
ACMBOMSTANDARDISO
  2
AcmBOMStdISO
  3
"Amdt_StdImp|Product Description: AutoCAD Mechanical|Company: Autodesk, Inc."
 90
     1024
 91
        1
280
     0
281
     0
  0
CLASS
  1
ACMDETAILSTANDARDISO
  2
AmdtDetailSymStdISO
  3
"Amdt_StdImp|Product Description: AutoCAD Mechanical|Company: Autodesk, Inc."
 90
     1024
 91
        1
280
     0
281
     0
  0
CLASS
  1
ACMSECTIONSTANDARDISO2001
  2
AmdtSectionSymStdISO2001
  3
"Amdt_StdImp|Product Description: AutoCAD Mechanical|Company: Autodesk, Inc."
 90
     1024
 91
        1
280
     0
281
     0
  0
CLASS
  1
ACMCENTERLINESTANDARDISO
  2
AmdtCenterLineStdISO
  3
"Amdt_StdImp|Product Description: AutoCAD Mechanical|Company: Autodesk, Inc."
 90
     1024
 91
        1
280
     0
281
     0
  0
CLASS
  1
ACMNOTESTANDARDISO
  2
AmdtNoteStdISO
  3
"Amdt_StdImp|Product Description: AutoCAD Mechanical|Company: Autodesk, Inc."
 90
     1024
 91
        1
280
     0
281
     0
  0
CLASS
  1
ACAMGHOLECHARTSTDISO
  2
AcAmgHoleChartStdISO
  3
AmgDim|Product Description: AutoCAD Mechanical|Company: Autodesk, Inc.
 90
     1024
 91
        1
280
     0
281
     0
  0
CLASS
  1
ACMTHREADLINESTANDARDISO
  2
AmdtThreadLineStdISO
  3
"Amdt_StdImp|Product Description: AutoCAD Mechanical|Company: Autodesk, Inc."
 90
     1024
 91
        1
280
     0
281
     0
  0
CLASS
  1
ACMTAPERSTANDARDISO
  2
AcmTaperStdISO
  3
"Amdt_StdImp|Product Description: AutoCAD Mechanical|Company: Autodesk, Inc."
 90
     1024
 91
        1
280
     0
281
     0
  0
CLASS
  1
ACMANOOTATIONVIEWSTANDARDISO
  2
AmdtAnViewStdISO
  3
"Amdt_StdImp|Product Description: AutoCAD Mechanical|Company: Autodesk, Inc."
 90
     1024
 91
        1
280
     0
281
     0
  0
CLASS
  1
AMDTEDGESTANDARDISO13715
  2
AmdtEdgeStdISO13715
  3
"Amdt_StdImp|Product Description: AutoCAD Mechanical|Company: Autodesk, Inc."
 90
     1024
 91
        1
280
     0
281
     0
  0
CLASS
  1
ACMDATAENTRYBLOCK
  2
AcmDataEntryBlock
  3
AcmSymBB|Product Description: AutoCAD Mechanical|Company: Autodesk, Inc.
 90
     1024
 91
        1
280
     0
281
     0
  0
CLASS
  1
ACAMGFILTERDAT
  2
AcAmgFilterDat
  3
"AcadM|Product Description: AutoCAD Mechanical|Company: Autodesk, Inc."
 90
     1024
 91
        0
280
     0
281
     0
  0
CLASS
  1
CAMSSTRUCTBTNSTATE
  2
StructBtnState
  3
DesignerAssemblies
 90
     1024
 91
        0
280
     0
281
     0
  0
CLASS
  1
CELLSTYLEMAP
  2
AcDbCellStyleMap
  3
ObjectDBX Classes
 90
     1152
 91
        2
280
     0
281
     0
  0
CLASS
  1
DICTIONARYVAR
  2
AcDbDictionaryVar
  3
ObjectDBX Classes
 90
        0
 91
        7
280
     0
281
     0
  0
ENDSEC
  0
SECTION
  2
TABLES
  0
TABLE
  2
VPORT
  5
4A623
330
0
100
AcDbSymbolTable
 70
     1
  0
VPORT
  5
4A693
330
4A623
100
AcDbSymbolTableRecord
100
AcDbViewportTableRecord
  2
*ACTIVE
 70
     0
 10
0.0
 20
0.0
 11
1.0
 21
1.0
 12
28620.1788084585
 22
24282.91228895896
 13
0.0
 23
0.0
 14
2.5
 24
2.5
 15
10.0
 25
10.0
 16
0.0
 26
0.0
 36
1.0
 17
0.0
 27
0.0
 37
0.0
 40
1919.020027134144
 41
1.929455445544554
 42
50.0
 43
0.0
 44
0.0
 50
0.0
 51
0.0
 71
     0
 72
  1000
 73
     1
 74
     3
 75
     0
 76
     0
 77
     0
 78
     0
281
     0
 65
     0
110
0.0
120
0.0
130
0.0
111
1.0
121
0.0
131
0.0
112
0.0
122
1.0
132
0.0
 79
     0
146
0.0
348
4A64A
 60
     3
 61
     5
292
     1
282
     0
141
0.0
142
0.0
 63
   250
421
  3355443
  0
ENDTAB
  0
TABLE
  2
LTYPE
  5
4A620
330
0
100
AcDbSymbolTable
 70
    22
  0
LTYPE
  5
4A67D
330
4A620
100
AcDbSymbolTableRecord
100
AcDbLinetypeTableRecord
  2
ByBlock
 70
     0
  3

 72
    65
 73
     0
 40
0.0
  0
LTYPE
  5
4A67E
330
4A620
100
AcDbSymbolTableRecord
100
AcDbLinetypeTableRecord
  2
ByLayer
 70
     0
  3

 72
    65
 73
     0
 40
0.0
  0
LTYPE
  5
4A67F
330
4A620
100
AcDbSymbolTableRecord
100
AcDbLinetypeTableRecord
  2
CONTINUOUS
 70
     0
  3
Solid line
 72
    65
 73
     0
 40
0.0
  0
LTYPE
  5
4A694
330
4A620
100
AcDbSymbolTableRecord
100
AcDbLinetypeTableRecord
  2
DASHED2
 70
     0
  3
Dashed (.5x) _ _ _ _ _ _ _ _ _ _ _ _ _ _ _ _ _
 72
    65
 73
     2
 40
9.524999999999996
 49
6.349999999999997
 74
     0
 49
-3.174999999999998
 74
     0
  0
LTYPE
  5
4A6FD
330
4A620
100
AcDbSymbolTableRecord
100
AcDbLinetypeTableRecord
  2
HIDDEN
 70
     0
  3
Hidden __ __ __ __ __ __ __ __ __ __ __ __ __ _
 72
    65
 73
     2
 40
0.375
 49
0.25
 74
     0
 49
-0.125
 74
     0
  0
LTYPE
  5
4A6FE
330
4A620
100
AcDbSymbolTableRecord
100
AcDbLinetypeTableRecord
  2
PHANTOM2
 70
     0
  3
Phantom (.5x) ___ _ _ ___ _ _ ___ _ _ ___ _ _
 72
    65
 73
     6
 40
1.25
 49
0.625
 74
     0
 49
-0.125
 74
     0
 49
0.125
 74
     0
 49
-0.125
 74
     0
 49
0.125
 74
     0
 49
-0.125
 74
     0
  0
LTYPE
  5
4A6FF
330
4A620
100
AcDbSymbolTableRecord
100
AcDbLinetypeTableRecord
  2
CENTER
 70
     0
  3
Center ____ _ ____ _ ____ _ ____ _ ____ _ ____
 72
    65
 73
     4
 40
2.0
 49
1.25
 74
     0
 49
-0.25
 74
     0
 49
0.25
 74
     0
 49
-0.25
 74
     0
  0
LTYPE
  5
4A744
330
4A620
100
AcDbSymbolTableRecord
100
AcDbLinetypeTableRecord
  2
Amconstr
 70
     0
  3
_______________________
 72
    65
 73
     2
 40
9999.0
 49
9999.0
 74
     0
 49
0.0
 74
     0
  0
LTYPE
  5
4A74A
330
4A620
100
AcDbSymbolTableRecord
100
AcDbLinetypeTableRecord
  2
CENTER2
 70
     0
  3
Center (.5x) ___ _ ___ _ ___ _ ___ _ ___ _ ___
 72
    65
 73
     4
 40
1.125
 49
0.75
 74
     0
 49
-0.125
 74
     0
 49
0.125
 74
     0
 49
-0.125
 74
     0
  0
LTYPE
  5
4A74B
330
4A620
100
AcDbSymbolTableRecord
100
AcDbLinetypeTableRecord
  2
HIDDEN2
 70
     0
  3
Hidden (.5x) _ _ _ _ _ _ _ _ _ _ _ _ _ _ _ _ _
 72
    65
 73
     2
 40
0.1875
 49
0.125
 74
     0
 49
-0.0625
 74
     0
  0
LTYPE
  5
4A74C
330
4A620
100
AcDbSymbolTableRecord
100
AcDbLinetypeTableRecord
  2
Amzigzag2
 70
     0
  3
/\/-/\/-/\/-/\/-/\/-/\/
 72
    65
 73
     2
 40
0.4401
 49
0.0001
 74
     4
 75
   136
340
4A748
 46
0.0016
 50
0.0
 44
0.0
 45
0.0
 49
-0.4400000000000003
 74
     0
  0
LTYPE
  5
4A75A
330
4A620
100
AcDbSymbolTableRecord
100
AcDbLinetypeTableRecord
  2
ACANSTGB
 70
     0
  3
__ . . __ . .
 72
    65
 73
     6
 40
0.35433070866
 49
0.15748031496
 74
     0
 49
-0.03937007874
 74
     0
 49
0.03937007874
 74
     0
 49
-0.03937007874
 74
     0
 49
0.03937007874
 74
     0
 49
-0.03937007874
 74
     0
  0
LTYPE
  5
4A75B
330
4A620
100
AcDbSymbolTableRecord
100
AcDbLinetypeTableRecord
  2
ACANSTGL
 70
     0
  3
_ _ _ _ _
 72
    65
 73
     2
 40
0.11811023622
 49
0.07874015748
 74
     0
 49
-0.03937007874
 74
     0
  0
LTYPE
  5
4A79F
330
4A620
100
AcDbSymbolTableRecord
100
AcDbLinetypeTableRecord
  2
ACISOWELD
 70
     0
  3
_ _ _ _ _
 72
    65
 73
     2
 40
2.0
 49
2.0
 74
     0
 49
-1.0
 74
     0
  0
LTYPE
  5
4A7A0
330
4A620
100
AcDbSymbolTableRecord
100
AcDbLinetypeTableRecord
  2
ACISOTGB
 70
     0
  3
__ . . __ . .
 72
    65
 73
     6
 40
9.0
 49
4.0
 74
     0
 49
-1.0
 74
     0
 49
1.0
 74
     0
 49
-1.0
 74
     0
 49
1.0
 74
     0
 49
-1.0
 74
     0
  0
LTYPE
  5
4A7A1
330
4A620
100
AcDbSymbolTableRecord
100
AcDbLinetypeTableRecord
  2
ACISOTGL
 70
     0
  3
_ _ _ _ _
 72
    65
 73
     2
 40
3.0
 49
2.0
 74
     0
 49
-1.0
 74
     0
  0
ENDTAB
  0
TABLE
  2
LAYER
  5
4A61D
102
{ACAD_XDICTIONARY
360
4A7AE
102
}
330
0
100
AcDbSymbolTable
 70
     8
  0
LAYER
  5
4A677
102
{ACAD_XDICTIONARY
360
4A90D
102
}
330
4A61D
100
AcDbSymbolTableRecord
100
AcDbLayerTableRecord
  2
0
 70
     0
 62
     7
  6
CONTINUOUS
370
    -3
390
4A62A
347
4A63C
  0
LAYER
  5
4A695
102
{ACAD_XDICTIONARY
360
4A90F
102
}
330
4A61D
100
AcDbSymbolTableRecord
100
AcDbLayerTableRecord
  2
LAYER1
 70
     0
 62
     1
  6
CONTINUOUS
370
    -3
390
4A62A
347
4A63C
  0
LAYER
  5
4A696
330
4A61D
100
AcDbSymbolTableRecord
100
AcDbLayerTableRecord
  2
DEFPOINTS
 70
     0
 62
     7
  6
CONTINUOUS
290
     0
370
    -3
390
4A62A
347
4A63C
  0
LAYER
  5
4A698
102
{ACAD_XDICTIONARY
360
4A913
102
}
330
4A61D
100
AcDbSymbolTableRecord
100
AcDbLayerTableRecord
  2
CUTOUT
 70
     0
 62
    60
  6
CONTINUOUS
370
    -3
390
4A62A
347
4A63C
  0
LAYER
  5
4A7A3
102
{ACAD_XDICTIONARY
360
4A915
102
}
330
4A61D
100
AcDbSymbolTableRecord
100
AcDbLayerTableRecord
  2
DIMS SPECS
 70
     0
 62
    41
  6
CONTINUOUS
370
    35
390
4A62A
347
4A63C
  0
ENDTAB
  0
TABLE
  2
STYLE
  5
4A61E
330
0
100
AcDbSymbolTable
 70
     9
  0
STYLE
  5
4A678
330
4A61E
100
AcDbSymbolTableRecord
100
AcDbTextStyleTableRecord
  2
STANDARD
 70
     0
 40
0.0
 41
1.0
 50
0.0
 71
     0
 42
2.5
  3
ISOCP.SHX
  4

  0
STYLE
  5
4A699
330
4A61E
100
AcDbSymbolTableRecord
100
AcDbTextStyleTableRecord
  2
ACISOTS
 70
     0
 40
1.0
 41
1.0
 50
0.0
 71
     0
 42
2.5
  3
isocp.shx
  4

  0
STYLE
  5
4A69A
330
4A61E
100
AcDbSymbolTableRecord
100
AcDbTextStyleTableRecord
  2
ABODE-ISO
 70
     0
 40
17.0
 41
0.9
 50
0.0
 71
     0
 42
0.2
  3
txt
  4

  0
STYLE
  5
4A748
330
4A61E
100
AcDbSymbolTableRecord
100
AcDbTextStyleTableRecord
  2

 70
     1
 40
0.0
 41
1.0
 50
0.0
 71
     0
 42
2.5
  3
genltshp.shx
  4

  0
STYLE
  5
4A759
330
4A61E
100
AcDbSymbolTableRecord
100
AcDbTextStyleTableRecord
  2
ACANSGDT
 70
     0
 40
0.0
 41
1.0
 50
0.0
 71
     0
 42
2.5
  3
amgdt.shx
  4

  0
STYLE
  5
4A7A5
330
4A61E
100
AcDbSymbolTableRecord
100
AcDbTextStyleTableRecord
  2
ACISOGDT
 70
     0
 40
0.0
 41
1.0
 50
0.0
 71
     0
 42
2.5
  3
amgdt.shx
  4

  0
STYLE
  5
4ADB8
330
4A61E
100
AcDbSymbolTableRecord
100
AcDbTextStyleTableRecord
  2
Abode ISO Bold
 70
     0
 40
17.0
 41
0.9
 50
0.0
 71
     0
 42
1.0
  3
GOTHICB.TTF
  4

1001
ACAD
1000
Century Gothic
1071
 33554466
  0
ENDTAB
  0
TABLE
  2
VIEW
  5
4A621
330
0
100
AcDbSymbolTable
 70
     0
  0
ENDTAB
  0
TABLE
  2
UCS
  5
4A622
330
0
100
AcDbSymbolTable
 70
     0
  0
ENDTAB
  0
TABLE
  2
APPID
  5
4A624
330
0
100
AcDbSymbolTable
 70
    23
  0
APPID
  5
4A679
330
4A624
100
AcDbSymbolTableRecord
100
AcDbRegAppTableRecord
  2
ACAD
 70
     0
  0
APPID
  5
4A680
330
4A624
100
AcDbSymbolTableRecord
100
AcDbRegAppTableRecord
  2
ACADANNOTATIVE
 70
     0
  0
APPID
  5
4A68A
330
4A624
100
AcDbSymbolTableRecord
100
AcDbRegAppTableRecord
  2
ACAD_MLEADERVER
 70
     0
  0
APPID
  5
4A69B
330
4A624
100
AcDbSymbolTableRecord
100
AcDbRegAppTableRecord
  2
MCAD_NO_VIS
 70
     0
  0
APPID
  5
4A69C
330
4A624
100
AcDbSymbolTableRecord
100
AcDbRegAppTableRecord
  2
ACAD_TEMP_GRAPHIC
 70
     0
  0
APPID
  5
4A69D
330
4A624
100
AcDbSymbolTableRecord
100
AcDbRegAppTableRecord
  2
AD_DRAW
 70
     0
  0
APPID
  5
4A69E
330
4A624
100
AcDbSymbolTableRecord
100
AcDbRegAppTableRecord
  2
ACATTRIBSERVICES
 70
     0
  0
APPID
  5
4A69F
330
4A624
100
AcDbSymbolTableRecord
100
AcDbRegAppTableRecord
  2
DESIGNERASSEMBLIES
 70
     0
  0
APPID
  5
4A6A0
330
4A624
100
AcDbSymbolTableRecord
100
AcDbRegAppTableRecord
  2
ACADM_DIM_EDIT
 70
     0
  0
APPID
  5
4A6A1
330
4A624
100
AcDbSymbolTableRecord
100
AcDbRegAppTableRecord
  2
AMDT_DM_ADJ
 70
     0
  0
APPID
  5
4A6A2
330
4A624
100
AcDbSymbolTableRecord
100
AcDbRegAppTableRecord
  2
ACAD_DSTYLE_DIMJOGGED_JOGA
 70
     0
  0
APPID
  5
4A6A3
330
4A624
100
AcDbSymbolTableRecord
100
AcDbRegAppTableRecord
  2
ACAECLAYERSTANDARD
 70
     0
  0
APPID
  5
4A6A4
330
4A624
100
AcDbSymbolTableRecord
100
AcDbRegAppTableRecord
  2
ACAD_PSEXT
 70
     0
  0
APPID
  5
4A6A5
330
4A624
100
AcDbSymbolTableRecord
100
AcDbRegAppTableRecord
  2
ACAD_DSTYLE_DIMJAG
 70
     0
  0
APPID
  5
4A6A6
330
4A624
100
AcDbSymbolTableRecord
100
AcDbRegAppTableRecord
  2
ACAD_DSTYLE_DIMTALN
 70
     0
  0
APPID
  5
4A6A7
330
4A624
100
AcDbSymbolTableRecord
100
AcDbRegAppTableRecord
  2
GENIUS_GENODEF_13
 70
     0
  0
APPID
  5
4A6A8
330
4A624
100
AcDbSymbolTableRecord
100
AcDbRegAppTableRecord
  2
ACAD_DSTYLE_DIMINSPECT
 70
     0
  0
APPID
  5
4A6A9
330
4A624
100
AcDbSymbolTableRecord
100
AcDbRegAppTableRecord
  2
GENIUS_GENREC_14
 70
     0
  0
APPID
  5
4A6AA
330
4A624
100
AcDbSymbolTableRecord
100
AcDbRegAppTableRecord
  2
GENIUS_GENOBJ-N-REC_13
 70
     0
  0
APPID
  5
4A6AB
330
4A624
100
AcDbSymbolTableRecord
100
AcDbRegAppTableRecord
  2
ACAD_DSTYLE_DIMRADIAL_EXTENSION
 70
     0
  0
APPID
  5
4A6AC
330
4A624
100
AcDbSymbolTableRecord
100
AcDbRegAppTableRecord
  2
ACAD_DSTYLE_DIMBREAK
 70
     0
  0
APPID
  5
4A7AD
330
4A624
100
AcDbSymbolTableRecord
100
AcDbRegAppTableRecord
  2
ACAD_DSTYLE_DIMJOGGED_JOGANGLE_SYMBOL
 70
     0
  0
APPID
  5
4A886
330
4A624
100
AcDbSymbolTableRecord
100
AcDbRegAppTableRecord
  2
ACAD_EXEMPT_FROM_CAD_STANDARDS
 70
     0
  0
ENDTAB
  0
TABLE
  2
DIMSTYLE
  5
4A625
330
0
100
AcDbSymbolTable
 70
    17
100
AcDbDimStyleTable
 71
     2
340
4A73F
340
4A7A7
  0
DIMSTYLE
105
4A67A
330
4A625
100
AcDbSymbolTableRecord
100
AcDbDimStyleTableRecord
  2
STANDARD
 70
     0
271
     2
272
     2
279
     2
284
     8
285
     8
286
     8
340
4A678
  0
DIMSTYLE
105
4A6AD
330
4A625
100
AcDbSymbolTableRecord
100
AcDbDimStyleTableRecord
  2
AM_ISO
 70
     0
  4
"
 41
3.5
 42
1.0
 43
10.0
 44
1.0
 47
0.1
 48
0.1
 73
     0
 74
     0
 77
     1
 78
     8
140
3.5
141
0.0
143
0.0393701
146
0.71
147
1.5
172
     1
176
   256
177
   256
178
     2
271
     2
272
     2
279
     2
284
     8
285
     8
286
     8
340
4A678
  0
DIMSTYLE
105
4A73F
102
{ACAD_REACTORS
330
4AD60
102
}
330
4A625
100
AcDbSymbolTableRecord
100
AcDbDimStyleTableRecord
  2
AM_ANSI
 70
     0
  4
mm
 41
0.12
 42
0.05
 43
0.5
 44
0.1
 47
0.1
 48
0.1
 78
     7
 79
     2
 90
     1
140
0.12
141
0.0
146
0.71
147
0.06
176
   256
177
   256
178
   140
274
     4
284
     7
340
4A678
345
4A67D
346
4A67D
347
4A67D
371
    -1
372
    -1
  0
DIMSTYLE
105
4A74D
330
4A625
100
AcDbSymbolTableRecord
100
AcDbDimStyleTableRecord
  2
AM_ANSI$3
 70
     0
  4
mm
 41
0.12
 42
0.05
 43
0.5
 44
0.1
 47
0.1
 48
0.1
 78
     7
 79
     2
 90
     1
140
0.12
141
0.0
146
0.71
147
0.06
176
   256
177
   256
178
   140
274
     4
284
     7
288
     1
289
     0
340
4A678
345
4A67D
346
4A67D
347
4A67D
371
    -1
372
    -1
  0
DIMSTYLE
105
4A74E
330
4A625
100
AcDbSymbolTableRecord
100
AcDbDimStyleTableRecord
  2
AM_ANSI$4
 70
     0
  4
mm
 41
0.12
 42
0.05
 43
0.5
 44
0.1
 47
0.1
 48
0.1
 78
     7
 79
     2
 90
     1
140
0.12
141
0.0
146
0.71
147
0.06
176
   256
177
   256
178
   140
274
     4
284
     7
340
4A678
345
4A67D
346
4A67D
347
4A67D
371
    -1
372
    -1
  0
DIMSTYLE
105
4A74F
330
4A625
100
AcDbSymbolTableRecord
100
AcDbDimStyleTableRecord
  2
AM_ANSI$7
 70
     0
  4
mm
 41
0.12
 42
0.05
 43
0.5
 44
0.1
 47
0.1
 48
0.1
 78
     7
 79
     2
 90
     1
140
0.12
141
0.0
146
0.71
147
0.06
176
   256
177
   256
178
   140
274
     4
284
     7
340
4A678
345
4A67D
346
4A67D
347
4A67D
371
    -1
372
    -1
  0
DIMSTYLE
105
4A750
330
4A625
100
AcDbSymbolTableRecord
100
AcDbDimStyleTableRecord
  2
AM_ANSI$SF
 70
     0
  4
mm
 41
0.12
 42
0.05
 43
0.5
 44
0.1
 47
0.1
 48
0.1
 75
     1
 76
     1
 78
     7
 79
     2
 90
     1
140
0.12
141
0.0
146
0.71
147
0.06
176
   256
177
   256
178
   140
274
     4
284
     7
340
4A678
345
4A67D
346
4A67D
347
4A67D
371
    -1
372
    -1
  0
DIMSTYLE
105
4A755
330
4A625
100
AcDbSymbolTableRecord
100
AcDbDimStyleTableRecord
  2
AM_ANSI$SH
 70
     0
  4
mm
 41
0.12
 42
0.05
 43
0.5
 44
0.1
 47
0.1
 48
0.1
 75
     1
 76
     1
 78
     7
 79
     2
 90
     1
140
0.12
141
0.0
146
0.71
147
0.06
173
     1
176
   256
177
   256
178
   140
274
     4
284
     7
340
4A678
343
4A751
345
4A67D
346
4A67D
347
4A67D
371
    -1
372
    -1
  0
DIMSTYLE
105
4A7A7
330
4A625
100
AcDbSymbolTableRecord
100
AcDbDimStyleTableRecord
  2
abode-iso
 70
     0
 40
10.0
 41
1.25
 42
1.5
 43
6.0
 44
0.0
 45
0.00000001
 46
10.0
 77
     1
 78
    12
 79
     3
140
17.0
143
0.03937
147
0.75
171
     3
172
     1
176
   256
177
   256
178
   256
271
     0
272
     0
274
     3
340
4A69A
342
4A6B4
371
    25
372
    25
1001
ACAD_DSTYLE_DIMJAG
1070
   388
1040
1.5
1001
ACAD_DSTYLE_DIMTALN
1070
   392
1070
     0
  0
DIMSTYLE
105
4A7A8
330
4A625
100
AcDbSymbolTableRecord
100
AcDbDimStyleTableRecord
  2
abode-iso$7
 70
     0
 40
10.0
 41
2.5
 42
1.5
 43
6.0
 44
3.174999999999998
 45
0.00000001
 46
10.0
 77
     1
 78
    12
 79
     3
140
2.5
143
0.03937
146
1.399999999999999
147
0.762
171
     3
172
     1
176
     7
177
   256
178
   256
271
     0
272
     0
274
     3
340
4A69A
371
    25
372
    25
1001
ACAD_DSTYLE_DIMBREAK
1070
   391
1040
3.75
1001
ACAD_DSTYLE_DIMJAG
1070
   388
1040
1.5
1001
ACAD_DSTYLE_DIMTALN
1070
   392
1070
     0
  0
DIMSTYLE
105
4A7A9
102
{ACAD_REACTORS
330
4ADFE
102
}
330
4A625
100
AcDbSymbolTableRecord
100
AcDbDimStyleTableRecord
  2
abode-iso$4
 70
     0
 40
10.0
 41
1.25
 42
1.5
 43
6.0
 44
0.0
 45
0.00000001
 46
10.0
 77
     1
 78
    12
 79
     3
140
17.0
143
0.03937
147
0.75
171
     3
172
     1
176
   256
177
   256
178
   256
271
     0
272
     0
274
     3
340
4A69A
342
4A6B4
371
    25
372
    25
1001
ACAD_DSTYLE_DIMBREAK
1070
   391
1040
3.75
1001
ACAD_DSTYLE_DIMJAG
1070
   388
1040
1.5
1001
ACAD_DSTYLE_DIMTALN
1070
   392
1070
     0
  0
DIMSTYLE
105
4A7AA
102
{ACAD_REACTORS
330
4ADFC
330
4ADFD
330
4ADFF
330
4AE00
102
}
330
4A625
100
AcDbSymbolTableRecord
100
AcDbDimStyleTableRecord
  2
abode-iso$0
 70
     0
 40
10.0
 41
1.25
 42
1.5
 43
6.0
 44
0.0
 45
0.00000001
 46
10.0
 77
     1
 78
    12
 79
     3
140
17.0
143
0.03937
147
0.75
171
     3
172
     1
176
   256
177
   256
178
   256
271
     0
272
     0
274
     3
340
4A69A
342
4A6B4
371
    25
372
    25
1001
ACAD_DSTYLE_DIMJAG
1070
   388
1040
1.5
1001
ACAD_DSTYLE_DIMTALN
1070
   392
1070
     0
  0
DIMSTYLE
105
4A7AB
330
4A625
100
AcDbSymbolTableRecord
100
AcDbDimStyleTableRecord
  2
abode-iso$2
 70
     0
 40
10.0
 41
1.25
 42
1.5
 43
6.0
 44
0.0
 45
0.00000001
 46
10.0
 77
     1
 78
    12
 79
     3
140
17.0
143
0.03937
147
0.75
171
     3
172
     1
176
   256
177
   256
178
   256
271
     0
272
     0
274
     3
340
4A69A
342
4A6B4
371
    25
372
    25
1001
ACAD_DSTYLE_DIMJAG
1070
   388
1040
1.5
1001
ACAD_DSTYLE_DIMTALN
1070
   392
1070
     0
  0
DIMSTYLE
105
4A7AC
330
4A625
100
AcDbSymbolTableRecord
100
AcDbDimStyleTableRecord
  2
abode-iso$3
 70
     0
 40
10.0
 41
1.25
 42
1.5
 43
6.0
 44
0.0
 45
0.00000001
 46
10.0
 77
     1
 78
    12
 79
     3
140
17.0
143
0.03937
147
0.75
171
     3
172
     1
176
   256
177
   256
178
   256
271
     0
272
     0
274
     3
340
4A69A
342
4A6B4
371
    25
372
    25
1001
ACAD_DSTYLE_DIMJAG
1070
   388
1040
1.5
1001
ACAD_DSTYLE_DIMTALN
1070
   392
1070
     0
  0
DIMSTYLE
105
4A889
330
4A625
100
AcDbSymbolTableRecord
100
AcDbDimStyleTableRecord
  2
AM_ANSI$0
 70
     0
  4
mm
 41
0.12
 42
0.05
 43
0.5
 44
0.1
 47
0.1
 48
0.1
 78
     7
 79
     2
 90
     1
140
0.12
141
0.0
146
0.71
147
0.06
176
   256
177
   256
178
   140
274
     4
284
     7
340
4A678
345
4A67D
346
4A67D
347
4A67D
371
    -1
372
    -1
  0
ENDTAB
  0
TABLE
  2
BLOCK_RECORD
  5
4A61C
330
0
100
AcDbSymbolTable
 70
    49
  0
BLOCK_RECORD
  5
4A68F
330
4A61C
100
AcDbSymbolTableRecord
100
AcDbBlockTableRecord
  2
*Model_Space
340
4A692
 70
     0
280
     1
281
     0
  0
BLOCK_RECORD
  5
4A68B
330
4A61C
100
AcDbSymbolTableRecord
100
AcDbBlockTableRecord
  2
*Paper_Space
340
4A68E
 70
     0
280
     1
281
     0
  0
BLOCK_RECORD
  5
4A6B4
330
4A61C
100
AcDbSymbolTableRecord
100
AcDbBlockTableRecord
  2
FILLED-1
340
0
102
{BLKREFS
331
4A8E4
331
4A8E5
331
4A8ED
331
4A8F3
331
4A8F4
331
4A8FC
331
4A8FD
331
4A907
331
4A908
331
4A9D5
331
4A9D6
331
4A9E2
331
4A9E3
331
4A9CC
331
4A9F0
331
4A9F1
331
4A9FC
331
4A9FD
331
4AA8E
331
4AA8F
331
4AA97
331
4AA98
331
4AB19
331
4AB1A
331
4AB23
331
4AB24
331
4AB2C
331
4AB34
331
4AB35
331
4AB3D
331
4AB3E
331
4ABCE
331
4ABCF
331
4ABDB
331
4ABDC
331
4ABE7
331
4ABF2
331
4ABF3
331
4ABFE
331
4ABFF
331
4AC90
331
4AC91
331
4ACCF
331
4ACD0
331
4ACD9
331
4ACDA
331
4ACE2
331
4ACEA
331
4ACEB
331
4ACF3
331
4ACF4
331
4AD8A
331
4AD8B
331
4AD97
331
4AD98
331
4AD81
331
4ADA5
331
4ADA6
331
4ADB1
331
4ADB2
331
4AE09
331
4AE0A
331
4AE16
331
4AE17
331
4AE23
331
4AE2E
331
4AE2F
331
4AE3A
331
4AE3B
102
}
 70
     0
280
     1
281
     0
  0
BLOCK_RECORD
  5
4A6CA
330
4A61C
100
AcDbSymbolTableRecord
100
AcDbBlockTableRecord
  2
*U7
340
0
102
{BLKREFS
331
46C49
102
}
 70
     0
280
     1
281
     0
  0
BLOCK_RECORD
  5
4A751
330
4A61C
100
AcDbSymbolTableRecord
100
AcDbBlockTableRecord
  2
GENAXEH
340
0
 70
     0
280
     1
281
     0
  0
BLOCK_RECORD
  5
4AE03
330
4A61C
100
AcDbSymbolTableRecord
100
AcDbBlockTableRecord
  2
*D44
340
0
 70
     0
280
     1
281
     0
  0
BLOCK_RECORD
  5
4AE0F
330
4A61C
100
AcDbSymbolTableRecord
100
AcDbBlockTableRecord
  2
*D45
340
0
 70
     0
280
     1
281
     0
  0
BLOCK_RECORD
  5
4AE1C
330
4A61C
100
AcDbSymbolTableRecord
100
AcDbBlockTableRecord
  2
*D46
340
0
 70
     0
280
     1
281
     0
  0
BLOCK_RECORD
  5
4AE26
330
4A61C
100
AcDbSymbolTableRecord
100
AcDbBlockTableRecord
  2
*D47
340
0
 70
     0
280
     1
281
     0
  0
BLOCK_RECORD
  5
4AE34
330
4A61C
100
AcDbSymbolTableRecord
100
AcDbBlockTableRecord
  2
*D48
340
0
 70
     0
280
     1
281
     0
  0
ENDTAB
  0
ENDSEC
  0
SECTION
  2
BLOCKS
  0
BLOCK
  5
4A690
330
4A68F
100
AcDbEntity
  8
0
100
AcDbBlockBegin
  2
*Model_Space
 70
     0
 10
0.0
 20
0.0
 30
0.0
  3
*Model_Space
  1

  0
ENDBLK
  5
4A691
330
4A68F
100
AcDbEntity
  8
0
100
AcDbBlockEnd
  0
BLOCK
  5
4A68C
330
4A68B
100
AcDbEntity
 67
     1
  8
0
100
AcDbBlockBegin
  2
*Paper_Space
 70
     0
 10
0.0
 20
0.0
 30
0.0
  3
*Paper_Space
  1

  0
ENDBLK
  5
4A68D
330
4A68B
100
AcDbEntity
 67
     1
  8
0
100
AcDbBlockEnd
  0
BLOCK
  5
4A6B5
330
4A6B4
100
AcDbEntity
  8
0
100
AcDbBlockBegin
  2
FILLED-1
 70
     0
 10
0.0
 20
0.0
 30
0.0
  3
FILLED-1
  1

  0
LINE
  5
13A
330
4A6B4
100
AcDbEntity
  8
0
 62
     0
100
AcDbLine
 10
-1.0
 20
0.0
 30
0.0
 11
0.0
 21
0.0
 31
0.0
  0
POLYLINE
  5
13B
330
4A6B4
100
AcDbEntity
  8
0
 62
     0
100
AcDb2dPolyline
 66
     1
 10
0.0
 20
0.0
 30
0.0
 70
   128
  0
VERTEX
  5
4A5F9
330
13B
100
AcDbEntity
  8
0
 62
     0
100
AcDbVertex
100
AcDb2dVertex
 10
-1.0
 20
-0.3333333333333333
 30
0.0
  0
VERTEX
  5
4A5FA
330
13B
100
AcDbEntity
  8
0
 62
     0
100
AcDbVertex
100
AcDb2dVertex
 10
0.0
 20
0.0
 30
0.0
  0
VERTEX
  5
4A5FB
330
13B
100
AcDbEntity
  8
0
 62
     0
100
AcDbVertex
100
AcDb2dVertex
 10
-1.0
 20
0.3333333333333333
 30
0.0
  0
VERTEX
  5
4A5FC
330
13B
100
AcDbEntity
  8
0
 62
     0
100
AcDbVertex
100
AcDb2dVertex
 10
-1.0
 20
-0.3333333333333333
 30
0.0
  0
SEQEND
  5
4A5FD
330
13B
100
AcDbEntity
  8
0
 62
     0
  0
SOLID
  5
141
330
4A6B4
100
AcDbEntity
  8
0
 62
     0
100
AcDbTrace
 10
-1.0
 20
-0.3333333333333333
 30
0.0
 11
0.0
 21
0.0
 31
0.0
 12
-1.0
 22
0.3333333333333333
 32
0.0
 13
-1.0
 23
-0.3333333333333333
 33
0.0
  0
LINE
  5
142
330
4A6B4
100
AcDbEntity
  8
0
 62
     0
100
AcDbLine
 10
-1.0
 20
-0.3333333333333333
 30
0.0
 11
0.0
 21
0.0
 31
0.0
  0
LINE
  5
143
330
4A6B4
100
AcDbEntity
  8
0
 62
     0
100
AcDbLine
 10
0.0
 20
0.0
 30
0.0
 11
-1.0
 21
0.3333333333333333
 31
0.0
  0
LINE
  5
144
330
4A6B4
100
AcDbEntity
  8
0
 62
     0
100
AcDbLine
 10
-1.0
 20
0.3333333333333333
 30
0.0
 11
-1.0
 21
-0.3333333333333333
 31
0.0
  0
ENDBLK
  5
145
330
4A6B4
100
AcDbEntity
  8
0
100
AcDbBlockEnd
  0
BLOCK
  5
4A6CB
330
4A6CA
100
AcDbEntity
  8
0
100
AcDbBlockBegin
  2
*U7
 70
     1
 10
0.0
 20
0.0
 30
0.0
  3
*U7
  1

  0
TEXT
  5
496B7
330
4A6CA
100
AcDbEntity
  8
0
 62
     1
100
AcDbText
 10
27216.85780347565
 20
24224.0366160831
 30
0.0
 40
8.0
  1
All details are provided in good faith and
  7
ACISOTS
100
AcDbText
  0
TEXT
  5
496B8
330
4A6CA
100
AcDbEntity
  8
0
 62
     1
100
AcDbText
 10
27198.40980347565
 20
24210.70328274976
 30
0.0
 40
8.0
  1
within
  7
ACISOTS
100
AcDbText
  0
TEXT
  5
496B9
330
4A6CA
100
AcDbEntity
  8
0
 62
     1
100
AcDbText
 10
27234.38080347565
 20
24197.36994941644
 30
0.0
 40
8.0
  1
the tolerances of the manufacturing process.
  7
ACISOTS
100
AcDbText
  0
TEXT
  5
496BA
330
4A6CA
100
AcDbEntity
  8
0
 62
     1
100
AcDbText
 10
27199.71460347565
 20
24184.03661608311
 30
0.0
 40
8.0
  1
Note: the dimensions on ceramic fireclay
  7
ACISOTS
100
AcDbText
  0
TEXT
  5
496BB
330
4A6CA
100
AcDbEntity
  8
0
 62
     1
100
AcDbText
 10
27198.40980347565
 20
24170.70328274978
 30
0.0
 40
8.0
  1
products
  7
ACISOTS
100
AcDbText
  0
TEXT
  5
496BC
330
4A6CA
100
AcDbEntity
  8
0
 62
     1
100
AcDbText
 10
27201.23840347565
 20
24157.36994941644
 30
0.0
 40
8.0
  1
are subject to wider tolerances due to the
  7
ACISOTS
100
AcDbText
  0
TEXT
  5
496BD
330
4A6CA
100
AcDbEntity
  8
0
 62
     1
100
AcDbText
 10
27198.40980347565
 20
24144.03661608311
 30
0.0
 40
8.0
  1
nature
  7
ACISOTS
100
AcDbText
  0
TEXT
  5
496BE
330
4A6CA
100
AcDbEntity
  8
0
 62
     1
100
AcDbText
 10
27222.95280347565
 20
24130.70328274978
 30
0.0
 40
8.0
  1
of this natural material and the firing
  7
ACISOTS
100
AcDbText
  0
TEXT
  5
496BF
330
4A6CA
100
AcDbEntity
  8
0
 62
     1
100
AcDbText
 10
27198.40980347565
 20
24117.36994941645
 30
0.0
 40
8.0
  1
process.
  7
ACISOTS
100
AcDbText
  0
TEXT
  5
496C0
330
4A6CA
100
AcDbEntity
  8
0
 62
     1
100
AcDbText
 10
27227.90480347565
 20
24090.70328274978
 30
0.0
 40
8.0
  1
We recommend that a test cutout is made in
  7
ACISOTS
100
AcDbText
  0
TEXT
  5
496C1
330
4A6CA
100
AcDbEntity
  8
0
 62
     1
100
AcDbText
 10
27203.52410347565
 20
24077.36994941645
 30
0.0
 40
8.0
  1
scrap timber and checked against the actual
  7
ACISOTS
100
AcDbText
  0
TEXT
  5
496C2
330
4A6CA
100
AcDbEntity
  8
0
 62
     1
100
AcDbText
 10
27198.40980347565
 20
24064.03661608312
 30
0.0
 40
8.0
  1
sink
  7
ACISOTS
100
AcDbText
  0
TEXT
  5
496C3
330
4A6CA
100
AcDbEntity
  8
0
 62
     1
100
AcDbText
 10
27254.57180347565
 20
24050.70328274979
 30
0.0
 40
8.0
  1
supplied before committing to cutting
  7
ACISOTS
100
AcDbText
  0
TEXT
  5
496C4
330
4A6CA
100
AcDbEntity
  8
0
 62
     1
100
AcDbText
 10
27198.40980347565
 20
24037.36994941645
 30
0.0
 40
8.0
  1
the
  7
ACISOTS
100
AcDbText
  0
TEXT
  5
496C5
330
4A6CA
100
AcDbEntity
  8
0
 62
     1
100
AcDbText
 10
27445.04980347565
 20
24024.03661608312
 30
0.0
 40
8.0
  1
worksurface.
  7
ACISOTS
100
AcDbText
  0
TEXT
  5
496C6
330
4A6CA
100
AcDbEntity
  8
0
 62
     1
100
AcDbText
 10
27225.23880347565
 20
23997.36994941646
 30
0.0
 40
8.0
  1
Abode can not accept liability for problems
  7
ACISOTS
100
AcDbText
  0
TEXT
  5
496C7
330
4A6CA
100
AcDbEntity
  8
0
 62
     1
100
AcDbText
 10
27198.40980347565
 20
23984.03661608313
 30
0.0
 40
8.0
  1
or
  7
ACISOTS
100
AcDbText
  0
TEXT
  5
496C8
330
4A6CA
100
AcDbEntity
  8
0
 62
     1
100
AcDbText
 10
27229.42880347565
 20
23970.70328274979
 30
0.0
 40
8.0
  1
costs incurred by failure to follow this advise,
  7
ACISOTS
100
AcDbText
  0
TEXT
  5
496C9
330
4A6CA
100
AcDbEntity
  8
0
 62
     1
100
AcDbText
 10
27222.19080347565
 20
23957.36994941646
 30
0.0
 40
8.0
  1
dimensions weights & measures are subject
  7
ACISOTS
100
AcDbText
  0
TEXT
  5
496CA
330
4A6CA
100
AcDbEntity
  8
0
 62
     1
100
AcDbText
 10
27198.40980347565
 20
23944.03661608313
 30
0.0
 40
8.0
  1
to
  7
ACISOTS
100
AcDbText
  0
TEXT
  5
496CB
330
4A6CA
100
AcDbEntity
  8
0
 62
     1
100
AcDbText
 10
27205.42880347565
 20
23930.7032827498
 30
0.0
 40
8.0
  1
change without prior notice. Errors and omissions
  7
ACISOTS
100
AcDbText
  0
TEXT
  5
496CC
330
4A6CA
100
AcDbEntity
  8
0
 62
     1
100
AcDbText
 10
27465.99980347565
 20
23917.36994941647
 30
0.0
 40
8.0
  1
excepted
  7
ACISOTS
100
AcDbText
  0
ENDBLK
  5
496CE
330
4A6CA
100
AcDbEntity
  8
0
100
AcDbBlockEnd
  0
BLOCK
  5
4A753
330
4A751
100
AcDbEntity
  8
0
100
AcDbBlockBegin
  2
GENAXEH
 70
     0
 10
0.0
 20
0.0
 30
0.0
  3
GENAXEH
  1

  0
LINE
  5
4A752
330
4A751
100
AcDbEntity
  8
0
100
AcDbLine
 10
-1.0
 20
0.0
 30
0.0
 11
1.0
 21
0.0
 31
0.0
  0
ENDBLK
  5
4A754
330
4A751
100
AcDbEntity
  8
0
100
AcDbBlockEnd
  0
BLOCK
  5
4AE04
330
4AE03
100
AcDbEntity
  8
0
100
AcDbBlockBegin
  2
*D44
 70
     1
 10
0.0
 20
0.0
 30
0.0
  3
*D44
  1

  0
LINE
  5
4AE06
330
4AE03
100
AcDbEntity
  8
DIMS SPECS
100
AcDbLine
 10
27850.81961404149
 20
23944.90661062546
 30
0.0
 11
27850.81961404149
 21
23862.26565698883
 31
0.0
  0
LINE
  5
4AE07
330
4AE03
100
AcDbEntity
  8
DIMS SPECS
100
AcDbLine
 10
28690.81961404149
 20
23948.90661062546
 30
0.0
 11
28690.81961404149
 21
23862.26565698883
 31
0.0
  0
LINE
  5
4AE08
330
4AE03
100
AcDbEntity
  8
DIMS SPECS
100
AcDbLine
 10
27863.31961404148
 20
23862.26565698883
 30
0.0
 11
28678.31961404148
 21
23862.26565698883
 31
0.0
  0
INSERT
  5
4AE09
330
4AE03
100
AcDbEntity
  8
DIMS SPECS
100
AcDbBlockReference
  2
FILLED-1
 10
27850.81961404149
 20
23862.26565698883
 30
0.0
 41
12.5
 42
12.5
 43
12.5
 50
180.0
  0
INSERT
  5
4AE0A
330
4AE03
100
AcDbEntity
  8
DIMS SPECS
100
AcDbBlockReference
  2
FILLED-1
 10
28690.81961404149
 20
23862.26565698883
 30
0.0
 41
12.5
 42
12.5
 43
12.5
  0
MTEXT
  5
4AE0B
330
4AE03
100
AcDbEntity
  8
DIMS SPECS
100
AcDbMText
 10
28270.81961404148
 20
23878.69325726076
 30
0.0
 40
17.0
 41
0.0
 46
0.0
 71
     5
 72
     1
  1
\A1;840
  7
Abode ISO Bold
 73
     1
 44
1.0
  0
POINT
  5
4AE0C
330
4AE03
100
AcDbEntity
  8
DEFPOINTS
 62
     0
100
AcDbPoint
 10
27850.81961404149
 20
23959.90661062546
 30
0.0
  0
POINT
  5
4AE0D
330
4AE03
100
AcDbEntity
  8
DEFPOINTS
 62
     0
100
AcDbPoint
 10
28690.81961404149
 20
23963.90661062546
 30
0.0
  0
POINT
  5
4AE0E
330
4AE03
100
AcDbEntity
  8
DEFPOINTS
 62
     0
100
AcDbPoint
 10
28690.81961404149
 20
23862.26565698883
 30
0.0
  0
ENDBLK
  5
4AE05
330
4AE03
100
AcDbEntity
  8
0
100
AcDbBlockEnd
  0
BLOCK
  5
4AE10
330
4AE0F
100
AcDbEntity
  8
0
100
AcDbBlockBegin
  2
*D45
 70
     1
 10
0.0
 20
0.0
 30
0.0
  3
*D45
  1

  0
LINE
  5
4AE12
330
4AE0F
100
AcDbEntity
  8
DIMS SPECS
100
AcDbLine
 10
28695.81961404148
 20
23949.90661062546
 30
0.0
 11
28732.48108005081
 21
23949.90661062546
 31
0.0
  0
LINE
  5
4AE13
330
4AE0F
100
AcDbEntity
  8
DIMS SPECS
100
AcDbLine
 10
28695.81961404148
 20
24429.90661062546
 30
0.0
 11
28732.48108005081
 21
24429.90661062546
 31
0.0
  0
LINE
  5
4AE14
330
4AE0F
100
AcDbEntity
  8
DIMS SPECS
100
AcDbLine
 10
28732.48108005081
 20
23962.40661062546
 30
0.0
 11
28732.48108005081
 21
24177.47901035353
 31
0.0
  0
LINE
  5
4AE15
330
4AE0F
100
AcDbEntity
  8
DIMS SPECS
100
AcDbLine
 10
28732.48108005081
 20
24417.40661062546
 30
0.0
 11
28732.48108005081
 21
24210.33421089738
 31
0.0
  0
INSERT
  5
4AE16
330
4AE0F
100
AcDbEntity
  8
DIMS SPECS
100
AcDbBlockReference
  2
FILLED-1
 10
28732.48108005081
 20
23949.90661062546
 30
0.0
 41
12.5
 42
12.5
 43
12.5
 50
270.0
  0
INSERT
  5
4AE17
330
4AE0F
100
AcDbEntity
  8
DIMS SPECS
100
AcDbBlockReference
  2
FILLED-1
 10
28732.48108005081
 20
24429.90661062546
 30
0.0
 41
12.5
 42
12.5
 43
12.5
 50
90.0
  0
MTEXT
  5
4AE18
330
4AE0F
100
AcDbEntity
  8
DIMS SPECS
100
AcDbMText
 10
28732.4810800508
 20
24193.90661062546
 30
0.0
 40
17.0
 41
0.0
 46
0.0
 71
     5
 72
     1
  1
\A1;480
  7
Abode ISO Bold
 73
     1
 44
1.0
  0
POINT
  5
4AE19
330
4AE0F
100
AcDbEntity
  8
DEFPOINTS
 62
     0
100
AcDbPoint
 10
28680.81961404148
 20
23949.90661062546
 30
0.0
  0
POINT
  5
4AE1A
330
4AE0F
100
AcDbEntity
  8
DEFPOINTS
 62
     0
100
AcDbPoint
 10
28680.81961404148
 20
24429.90661062546
 30
0.0
  0
POINT
  5
4AE1B
330
4AE0F
100
AcDbEntity
  8
DEFPOINTS
 62
     0
100
AcDbPoint
 10
28732.48108005081
 20
24429.90661062546
 30
0.0
  0
ENDBLK
  5
4AE11
330
4AE0F
100
AcDbEntity
  8
0
100
AcDbBlockEnd
  0
BLOCK
  5
4AE1D
330
4AE1C
100
AcDbEntity
  8
0
100
AcDbBlockBegin
  2
*D46
 70
     1
 10
0.0
 20
0.0
 30
0.0
  3
*D46
  1

  0
LINE
  5
4AE1F
330
4AE1C
100
AcDbEntity
  8
DIMS SPECS
100
AcDbLine
 10
28776.97385910062
 20
23914.12366583388
 30
0.0
 11
28735.68072517829
 21
23914.12366583387
 31
0.0
  0
LINE
  5
4AE20
330
4AE1C
100
AcDbEntity
  8
DIMS SPECS
100
AcDbLine
 10
28735.68072517829
 20
23914.12366583387
 30
0.0
 11
28697.48198418577
 21
23948.78657685651
 31
0.0
  0
MTEXT
  5
4AE21
330
4AE1C
100
AcDbEntity
  8
DIMS SPECS
100
AcDbMText
 10
28760.1344981217
 20
23930.5512661058
 30
0.0
 40
17.0
 41
0.0
 46
0.0
 71
     5
 72
     1
  1
\A1;R10
  7
Abode ISO Bold
 73
     1
 44
1.0
  0
LINE
  5
4AE22
330
4AE1C
100
AcDbEntity
  8
DIMS SPECS
100
AcDbLine
 10
28680.81961404148
 20
23963.90661062544
 30
0.0
 11
28688.22511188337
 21
23957.18659561704
 31
0.0
  0
INSERT
  5
4AE23
330
4AE1C
100
AcDbEntity
  8
DIMS SPECS
100
AcDbBlockReference
  2
FILLED-1
 10
28688.22511188337
 20
23957.18659561704
 30
0.0
 41
12.5
 42
12.5
 43
12.5
 50
137.7782698259345
  0
POINT
  5
4AE24
330
4AE1C
100
AcDbEntity
  8
DEFPOINTS
 62
     0
100
AcDbPoint
 10
28688.22511188337
 20
23957.18659561704
 30
0.0
  0
POINT
  5
4AE25
330
4AE1C
100
AcDbEntity
  8
DEFPOINTS
 62
     0
100
AcDbPoint
 10
28680.81961404148
 20
23963.90661062544
 30
0.0
  0
ENDBLK
  5
4AE1E
330
4AE1C
100
AcDbEntity
  8
0
100
AcDbBlockEnd
  0
BLOCK
  5
4AE27
330
4AE26
100
AcDbEntity
  8
0
100
AcDbBlockBegin
  2
*D47
 70
     1
 10
0.0
 20
0.0
 30
0.0
  3
*D47
  1

  0
LINE
  5
4AE29
330
4AE26
100
AcDbEntity
  8
DIMS SPECS
100
AcDbLine
 10
27850.81961404149
 20
23944.90661062546
 30
0.0
 11
27850.81961404149
 21
23905.04210017886
 31
0.0
  0
LINE
  5
4AE2A
330
4AE26
100
AcDbEntity
  8
DIMS SPECS
100
AcDbLine
 10
27878.5181242207
 20
23934.90661062546
 30
0.0
 11
27878.5181242207
 21
23905.04210017886
 31
0.0
  0
LINE
  5
4AE2B
330
4AE26
100
AcDbEntity
  8
DIMS SPECS
100
AcDbLine
 10
27838.31961404148
 20
23905.04210017886
 30
0.0
 11
27825.81961404149
 21
23905.04210017886
 31
0.0
  0
LINE
  5
4AE2C
330
4AE26
100
AcDbEntity
  8
DIMS SPECS
100
AcDbLine
 10
27891.01812422071
 20
23905.04210017886
 30
0.0
 11
27903.5181242207
 21
23905.04210017886
 31
0.0
  0
LINE
  5
4AE2D
330
4AE26
100
AcDbEntity
  8
DIMS SPECS
100
AcDbLine
 10
27850.81961404149
 20
23905.04210017886
 30
0.0
 11
27878.5181242207
 21
23905.04210017886
 31
0.0
  0
INSERT
  5
4AE2E
330
4AE26
100
AcDbEntity
  8
DIMS SPECS
100
AcDbBlockReference
  2
FILLED-1
 10
27850.81961404149
 20
23905.04210017886
 30
0.0
 41
12.5
 42
12.5
 43
12.5
  0
INSERT
  5
4AE2F
330
4AE26
100
AcDbEntity
  8
DIMS SPECS
100
AcDbBlockReference
  2
FILLED-1
 10
27878.5181242207
 20
23905.04210017886
 30
0.0
 41
12.5
 42
12.5
 43
12.5
 50
180.0
  0
MTEXT
  5
4AE30
330
4AE26
100
AcDbEntity
  8
DIMS SPECS
100
AcDbMText
 10
27864.66886913109
 20
23921.46970045078
 30
0.0
 40
17.0
 41
0.0
 46
0.0
 71
     5
 72
     1
  1
\A1;28
  7
Abode ISO Bold
 73
     1
 44
1.0
  0
POINT
  5
4AE31
330
4AE26
100
AcDbEntity
  8
DEFPOINTS
 62
     0
100
AcDbPoint
 10
27850.81961404149
 20
23959.90661062546
 30
0.0
  0
POINT
  5
4AE32
330
4AE26
100
AcDbEntity
  8
DEFPOINTS
 62
     0
100
AcDbPoint
 10
27878.5181242207
 20
23949.90661062546
 30
0.0
  0
POINT
  5
4AE33
330
4AE26
100
AcDbEntity
  8
DEFPOINTS
 62
     0
100
AcDbPoint
 10
27878.5181242207
 20
23905.04210017886
 30
0.0
  0
ENDBLK
  5
4AE28
330
4AE26
100
AcDbEntity
  8
0
100
AcDbBlockEnd
  0
BLOCK
  5
4AE35
330
4AE34
100
AcDbEntity
  8
0
100
AcDbBlockBegin
  2
*D48
 70
     1
 10
0.0
 20
0.0
 30
0.0
  3
*D48
  1

  0
LINE
  5
4AE37
330
4AE34
100
AcDbEntity
  8
DIMS SPECS
100
AcDbLine
 10
27878.5181242207
 20
23934.90661062546
 30
0.0
 11
27878.5181242207
 21
23905.04210017887
 31
0.0
  0
LINE
  5
4AE38
330
4AE34
100
AcDbEntity
  8
DIMS SPECS
100
AcDbLine
 10
28265.8639065762
 20
23934.90661062546
 30
0.0
 11
28265.8639065762
 21
23905.04210017887
 31
0.0
  0
LINE
  5
4AE39
330
4AE34
100
AcDbEntity
  8
DIMS SPECS
100
AcDbLine
 10
27891.01812422071
 20
23905.04210017887
 30
0.0
 11
28253.3639065762
 21
23905.04210017887
 31
0.0
  0
INSERT
  5
4AE3A
330
4AE34
100
AcDbEntity
  8
DIMS SPECS
100
AcDbBlockReference
  2
FILLED-1
 10
27878.5181242207
 20
23905.04210017887
 30
0.0
 41
12.5
 42
12.5
 43
12.5
 50
180.0
  0
INSERT
  5
4AE3B
330
4AE34
100
AcDbEntity
  8
DIMS SPECS
100
AcDbBlockReference
  2
FILLED-1
 10
28265.8639065762
 20
23905.04210017887
 30
0.0
 41
12.5
 42
12.5
 43
12.5
  0
MTEXT
  5
4AE3C
330
4AE34
100
AcDbEntity
  8
DIMS SPECS
100
AcDbMText
 10
28072.19101539845
 20
23921.46970045079
 30
0.0
 40
17.0
 41
0.0
 46
0.0
 71
     5
 72
     1
  1
\A1;387
  7
Abode ISO Bold
 73
     1
 44
1.0
  0
POINT
  5
4AE3D
330
4AE34
100
AcDbEntity
  8
DEFPOINTS
 62
     0
100
AcDbPoint
 10
27878.5181242207
 20
23949.90661062546
 30
0.0
  0
POINT
  5
4AE3E
330
4AE34
100
AcDbEntity
  8
DEFPOINTS
 62
     0
100
AcDbPoint
 10
28265.8639065762
 20
23949.90661062546
 30
0.0000000023487396
  0
POINT
  5
4AE3F
330
4AE34
100
AcDbEntity
  8
DEFPOINTS
 62
     0
100
AcDbPoint
 10
28265.8639065762
 20
23905.04210017887
 30
0.0
  0
ENDBLK
  5
4AE36
330
4AE34
100
AcDbEntity
  8
0
100
AcDbBlockEnd
  0
ENDSEC
  0
SECTION
  2
ENTITIES
  0
TEXT
  5
46C38
330
4A68F
100
AcDbEntity
  8
LAYER1
100
AcDbText
 10
27842.47310966858
 20
24851.81826505856
 30
0.0
 40
150.0
  1
AW5101
100
AcDbText
  0
INSERT
  5
46C49
330
4A68F
100
AcDbEntity
  8
0
100
AcDbBlockReference
  2
*U7
 10
0.0
 20
0.0
 30
0.0
  0
LINE
  5
4ADEF
330
4A68F
100
AcDbEntity
  8
CUTOUT
100
AcDbLine
 10
28690.81961404149
 20
24419.90661062546
 30
0.0
 11
28690.81961404149
 21
23959.90661062546
 31
0.0
  0
ARC
  5
4ADF0
330
4A68F
100
AcDbEntity
  8
CUTOUT
100
AcDbCircle
 10
28680.81961404148
 20
24419.90661062546
 30
0.0
 40
10.0
100
AcDbArc
 50
0.0
 51
90.0
  0
LINE
  5
4ADF1
330
4A68F
100
AcDbEntity
  8
CUTOUT
100
AcDbLine
 10
27850.81961404149
 20
24419.90661062546
 30
0.0
 11
27850.81961404149
 21
23959.90661062546
 31
0.0
  0
ARC
  5
4ADF2
330
4A68F
100
AcDbEntity
  8
CUTOUT
100
AcDbCircle
 10
27860.81961404148
 20
23959.90661062546
 30
0.0
 40
10.0
100
AcDbArc
 50
180.0
 51
270.0
  0
LINE
  5
4ADF3
330
4A68F
100
AcDbEntity
  8
CUTOUT
100
AcDbLine
 10
28680.81961404148
 20
24429.90661062546
 30
0.0
 11
27860.81961404148
 21
24429.90661062546
 31
0.0
  0
LINE
  5
4ADF4
330
4A68F
100
AcDbEntity
  8
CUTOUT
100
AcDbLine
 10
28680.81961404148
 20
23949.90661062546
 30
0.0
 11
27860.81961404148
 21
23949.90661062546
 31
0.0
  0
ARC
  5
4ADF5
330
4A68F
100
AcDbEntity
  8
CUTOUT
100
AcDbCircle
 10
27860.81961404148
 20
24419.90661062546
 30
0.0
 40
10.0
100
AcDbArc
 50
90.0
 51
180.0
  0
ARC
  5
4ADF6
330
4A68F
100
AcDbEntity
  8
CUTOUT
100
AcDbCircle
 10
28680.81961404148
 20
23959.90661062546
 30
0.0
 40
10.0
100
AcDbArc
 50
270.0
 51
0.0
  0
LINE
  5
4ADF7
102
{ACAD_REACTORS
330
4AE02
102
}
330
4A68F
100
AcDbEntity
  8
CUTOUT
  6
DASHED2
 48
5.0
100
AcDbLine
 10
27878.5181242207
 20
24429.90661062546
 30
0.0
 11
27878.5181242207
 21
23949.90661062546
 31
0.0
  0
LINE
  5
4ADF8
330
4A68F
100
AcDbEntity
  8
CUTOUT
  6
DASHED2
 48
5.0
100
AcDbLine
 10
28265.8639065762
 20
24429.90661062546
 30
0.0000000023487396
 11
28265.8639065762
 21
23949.90661062546
 31
0.0000000023487396
  0
MTEXT
  5
4ADF9
102
{ACAD_XDICTIONARY
360
4AE41
102
}
330
4A68F
100
AcDbEntity
  8
CUTOUT
100
AcDbMText
 10
28354.26998880627
 20
24283.90022639762
 30
0.0
 40
40.0
 41
559.4757407245924
 46
0.0
 71
     3
 72
     5
  1
BOWL(S), \POVERFLOW,\PTAP AREA
 73
     1
 44
1.0
  0
LWPOLYLINE
  5
4ADFA
330
4A68F
100
AcDbEntity
  8
CUTOUT
  6
DASHED2
 48
5.0
100
AcDbPolyline
 90
        8
 70
     1
 43
0.0
 10
27949.65820918843
 20
24295.8855879919
 10
28202.81848321131
 20
24295.8855879919
 42
-0.4142135623730951
 10
28222.8184832113
 20
24275.8855879919
 10
28222.8184832113
 20
24107.92763325902
 42
-0.4142135623730951
 10
28202.81848321131
 20
24087.92763325902
 10
27949.65820918843
 20
24087.92763325902
 42
-0.4142135623730951
 10
27929.65820918844
 20
24107.92763325902
 10
27929.65820918844
 20
24275.8855879919
 42
-0.4142135623730951
1001
GENIUS_GENREC_14
1002
{
1000
PYDIR
1011
27929.65820918844
1021
24087.92763325902
1031
0.0
1002
}
1002
{
1000
PXDIR
1011
28222.8184832113
1021
24295.8855879919
1031
0.0
1002
}
1002
{
1000
PORI
1011
27929.65820918844
1021
24295.8855879919
1031
0.0
1002
}
1002
{
1000
PINS
1011
27929.65820918844
1021
24295.8855879919
1031
0.0
1002
}
1002
{
1000
PINS2
1011
28222.8184832113
1021
24087.92763325902
1031
0.0
1002
}
1002
{
1000
C
1070
     1
1002
}
1001
GENIUS_GENOBJ-N-REC_13
1002
{
1000
OWNER
1000
GEN
1002
}
1001
GENIUS_GENODEF_13
1002
{
1000
HIER
1070
     0
1002
}
1002
{
1000
MANEDIT
1070
     0
1002
}
1002
{
1000
NOSEL
1070
     0
1002
}
1002
{
1000
BEHIND
1070
     0
1002
}
1002
{
1000
OTHER
1070
     0
1002
}
1002
{
1000
REACTOR
1002
}
  0
MTEXT
  5
4ADFB
102
{ACAD_XDICTIONARY
360
4AE43
102
}
330
4A68F
100
AcDbEntity
  8
CUTOUT
100
AcDbMText
 10
28510.11849830861
 20
24488.57423130712
 30
0.0
 40
40.0
 41
559.4757407245924
 46
0.0
 71
     3
 72
     5
  1
INSET CUT OUT
 73
     1
 44
1.0
  0
DIMENSION
  5
4ADFC
330
4A68F
100
AcDbEntity
  8
DIMS SPECS
100
AcDbDimension
  2
*D44
 10
28690.81961404149
 20
23862.26565698883
 30
0.0
 11
28270.81961404148
 21
23862.26565698883
 31
0.0
 70
   160
 71
     5
 42
840.0
 73
     0
 74
     0
 75
     0
  3
abode-iso$0
100
AcDbAlignedDimension
 13
27850.81961404149
 23
23959.90661062546
 33
0.0
 14
28690.81961404149
 24
23963.90661062546
 34
0.0
100
AcDbRotatedDimension
1001
ACAD_DSTYLE_DIMINSPECT
1070
   396
1000
100%
1070
   395
1000

1070
   394
1070
    33
1070
   393
1070
     0
1001
ACAD
1000
DSTYLE
1002
{
1070
   340
1005
4ADB8
1070
   371
1070
    -1
1070
   372
1070
    -1
1002
}
  0
DIMENSION
  5
4ADFD
330
4A68F
100
AcDbEntity
  8
DIMS SPECS
100
AcDbDimension
  2
*D45
 10
28732.48108005081
 20
24429.90661062546
 30
0.0
 11
28732.4810800508
 21
24193.90661062546
 31
0.0
 70
   160
 71
     5
 42
480.0
 73
     0
 74
     0
 75
     0
  3
abode-iso$0
100
AcDbAlignedDimension
 13
28680.81961404148
 23
23949.90661062546
 33
0.0
 14
28680.81961404148
 24
24429.90661062546
 34
0.0
 50
90.0
100
AcDbRotatedDimension
1001
ACAD_DSTYLE_DIMINSPECT
1070
   396
1000
100%
1070
   395
1000

1070
   394
1070
    33
1070
   393
1070
     0
1001
ACAD
1000
DSTYLE
1002
{
1070
   340
1005
4ADB8
1070
   371
1070
    -1
1070
   372
1070
    -1
1002
}
  0
DIMENSION
  5
4ADFE
330
4A68F
100
AcDbEntity
  8
DIMS SPECS
100
AcDbDimension
  2
*D46
 10
28680.81961404148
 20
23963.90661062544
 30
0.0
 11
28760.1344981217
 21
23914.12366583387
 31
0.0
 70
   164
 71
     5
 42
9.999999999972715
 73
     0
 74
     0
 75
     0
  3
abode-iso$4
100
AcDbRadialDimension
 15
28688.22511188337
 25
23957.18659561704
 35
0.0
 40
0.0
1001
ACAD_DSTYLE_DIMINSPECT
1070
   396
1000
100%
1070
   395
1000

1070
   394
1070
    33
1070
   393
1070
     0
1001
ACAD_DSTYLE_DIMRADIAL_EXTENSION
1070
   387
1070
     1
1070
   388
1040
4.712388980384689
1070
   390
1040
0.0
1001
ACAD
1000
DSTYLE
1002
{
1070
   340
1005
4ADB8
1070
   371
1070
    -1
1070
   372
1070
    -1
1002
}
  0
DIMENSION
  5
4ADFF
330
4A68F
100
AcDbEntity
  8
DIMS SPECS
100
AcDbDimension
  2
*D47
 10
27878.5181242207
 20
23905.04210017886
 30
0.0
 11
27864.66886913109
 21
23905.04210017886
 31
0.0
 70
   160
 71
     5
 42
27.69851017921974
 73
     0
 74
     0
 75
     0
  3
abode-iso$0
100
AcDbAlignedDimension
 13
27850.81961404149
 23
23959.90661062546
 33
0.0
 14
27878.5181242207
 24
23949.90661062546
 34
0.0
100
AcDbRotatedDimension
1001
ACAD_DSTYLE_DIMINSPECT
1070
   396
1000
100%
1070
   395
1000

1070
   394
1070
    33
1070
   393
1070
     0
1001
ACAD
1000
DSTYLE
1002
{
1070
   340
1005
4ADB8
1070
   371
1070
    -1
1070
   372
1070
    -1
1002
}
  0
DIMENSION
  5
4AE00
102
{ACAD_XDICTIONARY
360
4AE01
102
}
102
{ACAD_REACTORS
330
4AE02
102
}
330
4A68F
100
AcDbEntity
  8
DIMS SPECS
100
AcDbDimension
  2
*D48
 10
28265.8639065762
 20
23905.04210017887
 30
0.0
 11
28072.19101539845
 21
23905.04210017887
 31
0.0
 70
   161
 71
     5
 42
387.3457823555
 73
     0
 74
     0
 75
     0
  3
abode-iso$0
100
AcDbAlignedDimension
 13
27878.5181242207
 23
23949.90661062546
 33
0.0
 14
28265.8639065762
 24
23949.90661062546
 34
0.0000000023487396
1001
ACAD_DSTYLE_DIMINSPECT
1070
   396
1000
100%
1070
   395
1000

1070
   394
1070
    33
1070
   393
1070
     0
1001
ACAD
1000
DSTYLE
1002
{
1070
   340
1005
4ADB8
1070
   371
1070
    -1
1070
   372
1070
    -1
1002
}
  0
ENDSEC
  0
SECTION
  2
OBJECTS
  0
DICTIONARY
  5
4A627
330
0
100
AcDbDictionary
281
     1
  3
ACAD_COLOR
350
4A685
  3
ACAD_GROUP
350
4A628
  3
ACAD_LAYOUT
350
4A684
  3
ACAD_MATERIAL
350
4A62B
  3
ACAD_MLEADERSTYLE
350
4A688
  3
ACAD_MLINESTYLE
350
4A681
  3
ACAD_PLOTSETTINGS
350
4A683
  3
ACAD_PLOTSTYLENAME
350
4A629
  3
ACAD_SCALELIST
350
4A655
  3
ACAD_TABLESTYLE
350
4A686
  3
ACAD_VISUALSTYLE
350
4A644
  3
ACDB_RECOMPOSE_DATA
350
4A920
  3
AcDbVariableDictionary
350
4A921
  3
AcmDictionary
350
4A723
  3
AMG
350
4A6CD
  3
AMGSNAPSETTINGS
350
4A7E9
  0
DICTIONARY
  5
4A7AE
330
4A61D
100
AcDbDictionary
280
     1
281
     1
  3
ACAD_LAYERSTATES
360
4A7AF
  0
DICTIONARY
  5
4A90D
330
4A677
100
AcDbDictionary
280
     1
281
     1
  3
ADSK_XREC_LAYER_RECONCILED
360
4A90E
  0
DICTIONARY
  5
4A90F
330
4A695
100
AcDbDictionary
280
     1
281
     1
  3
ADSK_XREC_LAYER_RECONCILED
360
4A910
  0
DICTIONARY
  5
4A913
330
4A698
100
AcDbDictionary
280
     1
281
     1
  3
ADSK_XREC_LAYER_RECONCILED
360
4A914
  0
DICTIONARY
  5
4A915
330
4A7A3
100
AcDbDictionary
280
     1
281
     1
  3
ADSK_XREC_LAYER_RECONCILED
360
4A916
  0
DICTIONARY
  5
4AE41
330
4ADF9
100
AcDbDictionary
280
     1
281
     1
  3
ACAD_MTEXT_2008_RT
360
4AE42
  0
DICTIONARY
  5
4AE43
330
4ADFB
100
AcDbDictionary
280
     1
281
     1
  3
ACAD_MTEXT_2008_RT
360
4AE44
  0
DICTIONARY
  5
4AE01
330
4AE00
100
AcDbDictionary
280
     1
281
     1
  3
ACAD_DIMASSOC
360
4AE02
  0
DICTIONARY
  5
4A685
102
{ACAD_REACTORS
330
4A627
102
}
330
4A627
100
AcDbDictionary
281
     1
  0
DICTIONARY
  5
4A628
102
{ACAD_REACTORS
330
4A627
102
}
330
4A627
100
AcDbDictionary
281
     1
  0
DICTIONARY
  5
4A684
102
{ACAD_REACTORS
330
4A627
102
}
330
4A627
100
AcDbDictionary
281
     1
  3
Layout1
350
4A68E
  3
Model
350
4A692
  0
DICTIONARY
  5
4A62B
102
{ACAD_REACTORS
330
4A627
102
}
330
4A627
100
AcDbDictionary
281
     1
  3
ByBlock
350
4A634
  3
ByLayer
350
4A62C
  3
Global
350
4A63C
  0
DICTIONARY
  5
4A688
102
{ACAD_REACTORS
330
4A627
102
}
330
4A627
100
AcDbDictionary
281
     1
  3
Standard
350
4A689
  0
DICTIONARY
  5
4A681
102
{ACAD_REACTORS
330
4A627
102
}
330
4A627
100
AcDbDictionary
281
     1
  3
Standard
350
4A682
  0
DICTIONARY
  5
4A683
102
{ACAD_REACTORS
330
4A627
102
}
330
4A627
100
AcDbDictionary
281
     1
  0
ACDBDICTIONARYWDFLT
  5
4A629
102
{ACAD_REACTORS
330
4A627
102
}
330
4A627
100
AcDbDictionary
281
     1
  3
Normal
350
4A62A
100
AcDbDictionaryWithDefault
340
4A62A
  0
DICTIONARY
  5
4A655
102
{ACAD_REACTORS
330
4A627
102
}
330
4A627
100
AcDbDictionary
281
     1
  3
A0
350
4A656
  3
A1
350
4A657
  3
A2
350
4A658
  3
A3
350
4A659
  3
A4
350
4A65A
  3
A5
350
4A65B
  3
A6
350
4A65C
  3
A7
350
4A65D
  3
A8
350
4A65E
  3
A9
350
4A65F
  3
B0
350
4A660
  3
B1
350
4A661
  3
B2
350
4A662
  3
B3
350
4A663
  3
B4
350
4A664
  3
B5
350
4A665
  3
B6
350
4A666
  3
B7
350
4A667
  3
B8
350
4A668
  3
B9
350
4A669
  3
C0
350
4A66A
  3
C1
350
4A66B
  3
C2
350
4A66C
  3
C3
350
4A66D
  3
C4
350
4A66E
  3
C5
350
4A66F
  3
C6
350
4A670
  3
C7
350
4A671
  3
C8
350
4A672
  3
C9
350
4A673
  3
D0
350
4A674
  3
D1
350
4A675
  3
D2
350
4A676
  0
DICTIONARY
  5
4A686
102
{ACAD_REACTORS
330
4A627
102
}
330
4A627
100
AcDbDictionary
281
     1
  3
Standard
350
4A687
  0
DICTIONARY
  5
4A644
102
{ACAD_REACTORS
330
4A627
102
}
330
4A627
100
AcDbDictionary
281
     1
  3
2dWireframe
350
4A64A
  3
3D Hidden
350
4A64C
  3
3dWireframe
350
4A64B
  3
Basic
350
4A649
  3
Brighten
350
4A650
  3
ColorChange
350
4A654
  3
Conceptual
350
4A64D
  3
Dim
350
4A64F
  3
Facepattern
350
4A653
  3
Flat
350
4A645
  3
FlatWithEdges
350
4A646
  3
Gouraud
350
4A647
  3
GouraudWithEdges
350
4A648
  3
Linepattern
350
4A652
  3
Realistic
350
4A64E
  3
Thicken
350
4A651
  0
XRECORD
  5
4A920
102
{ACAD_REACTORS
330
4A627
102
}
330
4A627
100
AcDbXrecord
280
     1
 90
        1
330
4A687
330
4ADF9
330
4ADFB
  0
DICTIONARY
  5
4A921
102
{ACAD_REACTORS
330
4A627
102
}
330
4A627
100
AcDbDictionary
281
     1
  3
CANNOSCALE
350
4A925
  3
CMLEADERSTYLE
350
4A923
  3
CTABLESTYLE
350
4A922
  3
LAYEREVAL
350
4A927
  3
LAYERNOTIFY
350
4A928
  3
LIGHTINGUNITS
350
4A926
  3
MSLTSCALE
350
4A924
  0
DICTIONARY
  5
4A723
102
{ACAD_REACTORS
330
4A627
102
}
330
4A627
100
AcDbDictionary
281
     1
  3
AcmStdDictionary
350
4A72E
  0
DICTIONARY
  5
4A6CD
102
{ACAD_REACTORS
330
4A627
102
}
330
4A627
100
AcDbDictionary
281
     1
  0
DICTIONARY
  5
4A7E9
102
{ACAD_REACTORS
330
4A627
102
}
330
4A627
100
AcDbDictionary
281
     1
  0
DICTIONARY
  5
4A7AF
102
{ACAD_REACTORS
330
4A7AE
102
}
330
4A7AE
100
AcDbDictionary
281
     1
  0
XRECORD
  5
4A90E
102
{ACAD_REACTORS
330
4A90D
102
}
330
4A90D
100
AcDbXrecord
280
     1
290
     1
  0
XRECORD
  5
4A910
102
{ACAD_REACTORS
330
4A90F
102
}
330
4A90F
100
AcDbXrecord
280
     1
290
     1
  0
XRECORD
  5
4A914
102
{ACAD_REACTORS
330
4A913
102
}
330
4A913
100
AcDbXrecord
280
     1
290
     1
  0
XRECORD
  5
4A916
102
{ACAD_REACTORS
330
4A915
102
}
330
4A915
100
AcDbXrecord
280
     1
290
     1
  0
XRECORD
  5
4AE42
102
{ACAD_REACTORS
330
4AE41
102
}
330
4AE41
100
AcDbXrecord
280
     1
 40
32861.0
  1
\pxqc;BOWL(S), \POVERFLOW,\PTAP AREA
  0
XRECORD
  5
4AE44
102
{ACAD_REACTORS
330
4AE43
102
}
330
4AE43
100
AcDbXrecord
280
     1
 40
6572.0
  1
\pxqc;INSET CUT OUT
  0
DIMASSOC
  5
4AE02
102
{ACAD_REACTORS
330
4AE01
102
}
330
4AE01
100
AcDbDimAssoc
330
4AE00
 90
        1
 70
     0
 71
     0
  1
AcDbOsnapPointRef
 72
     1
331
4ADF7
 73
     0
 91
        0
 40
0.0
 10
0.0
 20
0.0
 30
2.000000000000000E+50
 75
     0
  0
LAYOUT
  5
4A68E
102
{ACAD_REACTORS
330
4A684
102
}
330
4A684
100
AcDbPlotSettings
  1

  2
\\abode-sbs\Upstairs
  4

  6

 40
0.0
 41
0.0
 42
0.0
 43
0.0
 44
0.0
 45
0.0
 46
0.0
 47
0.0
 48
0.0
 49
0.0
140
0.0
141
0.0
142
1.0
143
1.0
 70
   688
 72
     0
 73
     0
 74
     5
  7

 75
    16
147
1.0
 76
     0
 77
     2
 78
   300
148
0.0
149
0.0
100
AcDbLayout
  1
Layout1
 70
     1
 71
     1
 10
0.0
 20
0.0
 11
420.0
 21
297.0
 12
0.0
 22
0.0
 32
0.0
 14
1.000000000000000E+20
 24
1.000000000000000E+20
 34
1.000000000000000E+20
 15
-1.000000000000000E+20
 25
-1.000000000000000E+20
 35
-1.000000000000000E+20
146
0.0
 13
0.0
 23
0.0
 33
0.0
 16
1.0
 26
0.0
 36
0.0
 17
0.0
 27
1.0
 37
0.0
 76
     0
330
4A68B
  0
LAYOUT
  5
4A692
102
{ACAD_REACTORS
330
4A684
102
}
330
4A684
100
AcDbPlotSettings
  1

  2
\\abode-sbs\Upstairs
  4

  6

 40
0.0
 41
0.0
 42
0.0
 43
0.0
 44
0.0
 45
0.0
 46
0.0
 47
0.0
 48
0.0
 49
0.0
140
0.0
141
0.0
142
1.0
143
1.0
 70
  1712
 72
     0
 73
     0
 74
     0
  7

 75
     0
147
1.0
 76
     0
 77
     2
 78
   300
148
0.0
149
0.0
100
AcDbLayout
  1
Model
 70
     1
 71
     0
 10
0.0
 20
0.0
 11
12.0
 21
9.0
 12
0.0
 22
0.0
 32
0.0
 14
0.0
 24
0.0
 34
0.0
 15
0.0
 25
0.0
 35
0.0
146
0.0
 13
0.0
 23
0.0
 33
0.0
 16
1.0
 26
0.0
 36
0.0
 17
0.0
 27
1.0
 37
0.0
 76
     0
330
4A68F
331
4A693
  0
MATERIAL
  5
4A634
102
{ACAD_XDICTIONARY
360
4A635
102
}
102
{ACAD_REACTORS
330
4A62B
102
}
330
4A62B
100
AcDbMaterial
  1
ByBlock
 72
     0
 43
0.0208333333333333
 43
0.0
 43
0.0
 43
0.0
 43
0.0
 43
0.0208333333333333
 43
0.0
 43
0.0
 43
0.0
 43
0.0
 43
1.0
 43
0.0
 43
0.0
 43
0.0
 43
0.0
 43
1.0
 77
     0
 47
0.0208333333333333
 47
0.0
 47
0.0
 47
0.0
 47
0.0
 47
0.0208333333333333
 47
0.0
 47
0.0
 47
0.0
 47
0.0
 47
1.0
 47
0.0
 47
0.0
 47
0.0
 47
0.0
 47
1.0
171
     0
 49
0.0208333333333333
 49
0.0
 49
0.0
 49
0.0
 49
0.0
 49
0.0208333333333333
 49
0.0
 49
0.0
 49
0.0
 49
0.0
 49
1.0
 49
0.0
 49
0.0
 49
0.0
 49
0.0
 49
1.0
175
     0
142
0.0208333333333333
142
0.0
142
0.0
142
0.0
142
0.0
142
0.0208333333333333
142
0.0
142
0.0
142
0.0
142
0.0
142
1.0
142
0.0
142
0.0
142
0.0
142
0.0
142
1.0
179
     0
144
0.0208333333333333
144
0.0
144
0.0
144
0.0
144
0.0
144
0.0208333333333333
144
0.0
144
0.0
144
0.0
144
0.0
144
1.0
144
0.0
144
0.0
144
0.0
144
0.0
144
1.0
147
0.0208333333333333
147
0.0
147
0.0
147
0.0
147
0.0
147
0.0208333333333333
147
0.0
147
0.0
147
0.0
147
0.0
147
1.0
147
0.0
147
0.0
147
0.0
147
0.0
147
1.0
  0
MATERIAL
  5
4A62C
102
{ACAD_XDICTIONARY
360
4A62D
102
}
102
{ACAD_REACTORS
330
4A62B
102
}
330
4A62B
100
AcDbMaterial
  1
ByLayer
 72
     0
 43
0.0208333333333333
 43
0.0
 43
0.0
 43
0.0
 43
0.0
 43
0.0208333333333333
 43
0.0
 43
0.0
 43
0.0
 43
0.0
 43
1.0
 43
0.0
 43
0.0
 43
0.0
 43
0.0
 43
1.0
 77
     0
 47
0.0208333333333333
 47
0.0
 47
0.0
 47
0.0
 47
0.0
 47
0.0208333333333333
 47
0.0
 47
0.0
 47
0.0
 47
0.0
 47
1.0
 47
0.0
 47
0.0
 47
0.0
 47
0.0
 47
1.0
171
     0
 49
0.0208333333333333
 49
0.0
 49
0.0
 49
0.0
 49
0.0
 49
0.0208333333333333
 49
0.0
 49
0.0
 49
0.0
 49
0.0
 49
1.0
 49
0.0
 49
0.0
 49
0.0
 49
0.0
 49
1.0
175
     0
142
0.0208333333333333
142
0.0
142
0.0
142
0.0
142
0.0
142
0.0208333333333333
142
0.0
142
0.0
142
0.0
142
0.0
142
1.0
142
0.0
142
0.0
142
0.0
142
0.0
142
1.0
179
     0
144
0.0208333333333333
144
0.0
144
0.0
144
0.0
144
0.0
144
0.0208333333333333
144
0.0
144
0.0
144
0.0
144
0.0
144
1.0
144
0.0
144
0.0
144
0.0
144
0.0
144
1.0
147
0.0208333333333333
147
0.0
147
0.0
147
0.0
147
0.0
147
0.0208333333333333
147
0.0
147
0.0
147
0.0
147
0.0
147
1.0
147
0.0
147
0.0
147
0.0
147
0.0
147
1.0
  0
MATERIAL
  5
4A63C
102
{ACAD_XDICTIONARY
360
4A63D
102
}
102
{ACAD_REACTORS
330
4A62B
102
}
330
4A62B
100
AcDbMaterial
  1
Global
 72
     0
 43
0.0208333333333333
 43
0.0
 43
0.0
 43
0.0
 43
0.0
 43
0.0208333333333333
 43
0.0
 43
0.0
 43
0.0
 43
0.0
 43
1.0
 43
0.0
 43
0.0
 43
0.0
 43
0.0
 43
1.0
 77
     0
 47
0.0208333333333333
 47
0.0
 47
0.0
 47
0.0
 47
0.0
 47
0.0208333333333333
 47
0.0
 47
0.0
 47
0.0
 47
0.0
 47
1.0
 47
0.0
 47
0.0
 47
0.0
 47
0.0
 47
1.0
171
     0
 49
0.0208333333333333
 49
0.0
 49
0.0
 49
0.0
 49
0.0
 49
0.0208333333333333
 49
0.0
 49
0.0
 49
0.0
 49
0.0
 49
1.0
 49
0.0
 49
0.0
 49
0.0
 49
0.0
 49
1.0
175
     0
142
0.0208333333333333
142
0.0
142
0.0
142
0.0
142
0.0
142
0.0208333333333333
142
0.0
142
0.0
142
0.0
142
0.0
142
1.0
142
0.0
142
0.0
142
0.0
142
0.0
142
1.0
179
     0
144
0.0208333333333333
144
0.0
144
0.0
144
0.0
144
0.0
144
0.0208333333333333
144
0.0
144
0.0
144
0.0
144
0.0
144
1.0
144
0.0
144
0.0
144
0.0
144
0.0
144
1.0
147
0.0208333333333333
147
0.0
147
0.0
147
0.0
147
0.0
147
0.0208333333333333
147
0.0
147
0.0
147
0.0
147
0.0
147
1.0
147
0.0
147
0.0
147
0.0
147
0.0
147
1.0
  0
MLEADERSTYLE
  5
4A689
102
{ACAD_REACTORS
330
4A688
102
}
330
4A688
100
AcDbMLeaderStyle
170
     2
171
     1
172
     0
 90
        2
 40
0.0
 41
0.0
173
     1
 91
-1056964608
340
4A67D
 92
       -2
290
     1
 42
0.09
291
     1
 43
0.36
  3
Standard
 44
0.18
300

342
4A678
174
     1
178
     6
175
     1
176
     0
 93
-1056964608
 45
0.18
292
     0
297
     0
 46
0.18
 94
-1056964608
 47
1.0
 49
1.0
140
1.0
293
     1
141
0.0
294
     1
177
     0
142
1.0
295
     0
296
     0
143
0.125
1001
ACAD_MLEADERVER
1070
     2
  0
MLINESTYLE
  5
4A682
102
{ACAD_REACTORS
330
4A681
102
}
330
4A681
100
AcDbMlineStyle
  2
STANDARD
 70
     0
  3

 62
   256
 51
90.0
 52
90.0
 71
     2
 49
0.5
 62
   256
  6
BYLAYER
 49
-0.5
 62
   256
  6
BYLAYER
  0
ACDBPLACEHOLDER
  5
4A62A
102
{ACAD_REACTORS
330
4A629
102
}
330
4A629
  0
SCALE
  5
4A656
102
{ACAD_REACTORS
330
4A655
102
}
330
4A655
100
AcDbScale
 70
     0
300
1:1
140
1.0
141
1.0
290
     1
  0
SCALE
  5
4A657
102
{ACAD_REACTORS
330
4A655
102
}
330
4A655
100
AcDbScale
 70
     0
300
1:2
140
1.0
141
2.0
290
     0
  0
SCALE
  5
4A658
102
{ACAD_REACTORS
330
4A655
102
}
330
4A655
100
AcDbScale
 70
     0
300
1:4
140
1.0
141
4.0
290
     0
  0
SCALE
  5
4A659
102
{ACAD_REACTORS
330
4A655
102
}
330
4A655
100
AcDbScale
 70
     0
300
1:5
140
1.0
141
5.0
290
     0
  0
SCALE
  5
4A65A
102
{ACAD_REACTORS
330
4A655
102
}
330
4A655
100
AcDbScale
 70
     0
300
1:8
140
1.0
141
8.0
290
     0
  0
SCALE
  5
4A65B
102
{ACAD_REACTORS
330
4A655
102
}
330
4A655
100
AcDbScale
 70
     0
300
1:10
140
1.0
141
10.0
290
     0
  0
SCALE
  5
4A65C
102
{ACAD_REACTORS
330
4A655
102
}
330
4A655
100
AcDbScale
 70
     0
300
1:16
140
1.0
141
16.0
290
     0
  0
SCALE
  5
4A65D
102
{ACAD_REACTORS
330
4A655
102
}
330
4A655
100
AcDbScale
 70
     0
300
1:20
140
1.0
141
20.0
290
     0
  0
SCALE
  5
4A65E
102
{ACAD_REACTORS
330
4A655
102
}
330
4A655
100
AcDbScale
 70
     0
300
1:30
140
1.0
141
30.0
290
     0
  0
SCALE
  5
4A65F
102
{ACAD_REACTORS
330
4A655
102
}
330
4A655
100
AcDbScale
 70
     0
300
1:40
140
1.0
141
40.0
290
     0
  0
SCALE
  5
4A660
102
{ACAD_REACTORS
330
4A655
102
}
330
4A655
100
AcDbScale
 70
     0
300
1:50
140
1.0
141
50.0
290
     0
  0
SCALE
  5
4A661
102
{ACAD_REACTORS
330
4A655
102
}
330
4A655
100
AcDbScale
 70
     0
300
1:100
140
1.0
141
100.0
290
     0
  0
SCALE
  5
4A662
102
{ACAD_REACTORS
330
4A655
102
}
330
4A655
100
AcDbScale
 70
     0
300
2:1
140
2.0
141
1.0
290
     0
  0
SCALE
  5
4A663
102
{ACAD_REACTORS
330
4A655
102
}
330
4A655
100
AcDbScale
 70
     0
300
4:1
140
4.0
141
1.0
290
     0
  0
SCALE
  5
4A664
102
{ACAD_REACTORS
330
4A655
102
}
330
4A655
100
AcDbScale
 70
     0
300
8:1
140
8.0
141
1.0
290
     0
  0
SCALE
  5
4A665
102
{ACAD_REACTORS
330
4A655
102
}
330
4A655
100
AcDbScale
 70
     0
300
10:1
140
10.0
141
1.0
290
     0
  0
SCALE
  5
4A666
102
{ACAD_REACTORS
330
4A655
102
}
330
4A655
100
AcDbScale
 70
     0
300
100:1
140
100.0
141
1.0
290
     0
  0
SCALE
  5
4A667
102
{ACAD_REACTORS
330
4A655
102
}
330
4A655
100
AcDbScale
 70
     0
300
1/128" = 1'-0"
140
0.0078125
141
12.0
290
     0
  0
SCALE
  5
4A668
102
{ACAD_REACTORS
330
4A655
102
}
330
4A655
100
AcDbScale
 70
     0
300
1/64" = 1'-0"
140
0.015625
141
12.0
290
     0
  0
SCALE
  5
4A669
102
{ACAD_REACTORS
330
4A655
102
}
330
4A655
100
AcDbScale
 70
     0
300
1/32" = 1'-0"
140
0.03125
141
12.0
290
     0
  0
SCALE
  5
4A66A
102
{ACAD_REACTORS
330
4A655
102
}
330
4A655
100
AcDbScale
 70
     0
300
1/16" = 1'-0"
140
0.0625
141
12.0
290
     0
  0
SCALE
  5
4A66B
102
{ACAD_REACTORS
330
4A655
102
}
330
4A655
100
AcDbScale
 70
     0
300
3/32" = 1'-0"
140
0.09375
141
12.0
290
     0
  0
SCALE
  5
4A66C
102
{ACAD_REACTORS
330
4A655
102
}
330
4A655
100
AcDbScale
 70
     0
300
1/8" = 1'-0"
140
0.125
141
12.0
290
     0
  0
SCALE
  5
4A66D
102
{ACAD_REACTORS
330
4A655
102
}
330
4A655
100
AcDbScale
 70
     0
300
3/16" = 1'-0"
140
0.1875
141
12.0
290
     0
  0
SCALE
  5
4A66E
102
{ACAD_REACTORS
330
4A655
102
}
330
4A655
100
AcDbScale
 70
     0
300
1/4" = 1'-0"
140
0.25
141
12.0
290
     0
  0
SCALE
  5
4A66F
102
{ACAD_REACTORS
330
4A655
102
}
330
4A655
100
AcDbScale
 70
     0
300
3/8" = 1'-0"
140
0.375
141
12.0
290
     0
  0
SCALE
  5
4A670
102
{ACAD_REACTORS
330
4A655
102
}
330
4A655
100
AcDbScale
 70
     0
300
1/2" = 1'-0"
140
0.5
141
12.0
290
     0
  0
SCALE
  5
4A671
102
{ACAD_REACTORS
330
4A655
102
}
330
4A655
100
AcDbScale
 70
     0
300
3/4" = 1'-0"
140
0.75
141
12.0
290
     0
  0
SCALE
  5
4A672
102
{ACAD_REACTORS
330
4A655
102
}
330
4A655
100
AcDbScale
 70
     0
300
1" = 1'-0"
140
1.0
141
12.0
290
     0
  0
SCALE
  5
4A673
102
{ACAD_REACTORS
330
4A655
102
}
330
4A655
100
AcDbScale
 70
     0
300
1-1/2" = 1'-0"
140
1.5
141
12.0
290
     0
  0
SCALE
  5
4A674
102
{ACAD_REACTORS
330
4A655
102
}
330
4A655
100
AcDbScale
 70
     0
300
3" = 1'-0"
140
3.0
141
12.0
290
     0
  0
SCALE
  5
4A675
102
{ACAD_REACTORS
330
4A655
102
}
330
4A655
100
AcDbScale
 70
     0
300
6" = 1'-0"
140
6.0
141
12.0
290
     0
  0
SCALE
  5
4A676
102
{ACAD_REACTORS
330
4A655
102
}
330
4A655
100
AcDbScale
 70
     0
300
1'-0" = 1'-0"
140
12.0
141
12.0
290
     0
  0
TABLESTYLE
  5
4A687
102
{ACAD_XDICTIONARY
360
4A91C
102
}
102
{ACAD_REACTORS
330
4A686
102
}
330
4A686
100
AcDbTableStyle
  3
Standard
 70
     0
 71
     0
 40
0.06
 41
0.06
280
     0
281
     0
  7
STANDARD
140
0.18
170
     2
 62
     0
 63
     7
283
     0
 90
      512
 91
        0
  1

274
    -2
284
     1
 64
     0
275
    -2
285
     1
 65
     0
276
    -2
286
     1
 66
     0
277
    -2
287
     1
 67
     0
278
    -2
288
     1
 68
     0
279
    -2
289
     1
 69
     0
  7
STANDARD
140
0.25
170
     5
 62
     0
 63
     7
283
     0
 90
      512
 91
        0
  1

274
    -2
284
     1
 64
     0
275
    -2
285
     1
 65
     0
276
    -2
286
     1
 66
     0
277
    -2
287
     1
 67
     0
278
    -2
288
     1
 68
     0
279
    -2
289
     1
 69
     0
  7
STANDARD
140
0.18
170
     5
 62
     0
 63
     7
283
     0
 90
      512
 91
        0
  1

274
    -2
284
     1
 64
     0
275
    -2
285
     1
 65
     0
276
    -2
286
     1
 66
     0
277
    -2
287
     1
 67
     0
278
    -2
288
     1
 68
     0
279
    -2
289
     1
 69
     0
  0
VISUALSTYLE
  5
4A64A
102
{ACAD_REACTORS
330
4A644
102
}
330
4A644
100
AcDbVisualStyle
  2
2dWireframe
 70
     4
 71
     0
 72
     2
 73
     0
 90
        0
 40
-0.6
 41
-30.0
 62
     5
 63
     7
421
 16777215
 74
     1
 91
        4
 64
     7
 65
   257
 75
     1
175
     1
 42
1.0
 92
        0
 66
   257
 43
1.0
 76
     1
 77
     6
 78
     2
 67
     7
 79
     5
170
     0
171
     0
290
     0
174
     0
 93
        1
 44
0.0
173
     0
291
     0
 45
0.0
  0
VISUALSTYLE
  5
4A64C
102
{ACAD_REACTORS
330
4A644
102
}
330
4A644
100
AcDbVisualStyle
  2
3D Hidden
 70
     6
 71
     1
 72
     2
 73
     2
 90
        0
 40
-0.6
 41
-30.0
 62
     5
 63
     7
421
 16777215
 74
     2
 91
        2
 64
     7
 65
   257
 75
     2
175
     1
 42
40.0
 92
        0
 66
   257
 43
1.0
 76
     1
 77
     6
 78
     2
 67
     7
 79
     3
170
     0
171
     0
290
     0
174
     0
 93
        1
 44
0.0
173
     0
291
     0
 45
0.0
  0
VISUALSTYLE
  5
4A64B
102
{ACAD_REACTORS
330
4A644
102
}
330
4A644
100
AcDbVisualStyle
  2
3dWireframe
 70
     5
 71
     0
 72
     2
 73
     0
 90
        0
 40
-0.6
 41
-30.0
 62
     5
 63
     7
421
 16777215
 74
     1
 91
        4
 64
     7
 65
   257
 75
     1
175
     1
 42
1.0
 92
        0
 66
   257
 43
1.0
 76
     1
 77
     6
 78
     2
 67
     7
 79
     5
170
     0
171
     0
290
     0
174
     0
 93
        1
 44
0.0
173
     0
291
     0
 45
0.0
  0
VISUALSTYLE
  5
4A649
102
{ACAD_REACTORS
330
4A644
102
}
330
4A644
100
AcDbVisualStyle
  2
Basic
 70
     7
 71
     1
 72
     0
 73
     1
 90
        0
 40
-0.6
 41
-30.0
 62
     5
 63
     7
421
 16777215
 74
     0
 91
        4
 64
     7
 65
   257
 75
     1
175
     1
 42
1.0
 92
        8
 66
     7
 43
1.0
 76
     1
 77
     6
 78
     2
 67
     7
 79
     5
170
     0
171
     0
290
     0
174
     0
 93
        1
 44
0.0
173
     0
291
     1
 45
0.0
  0
VISUALSTYLE
  5
4A650
102
{ACAD_REACTORS
330
4A644
102
}
330
4A644
100
AcDbVisualStyle
  2
Brighten
 70
    12
 71
     2
 72
     2
 73
     0
 90
        0
 40
-0.6
 41
-30.0
 62
     5
 63
     7
421
 16777215
 74
     1
 91
        4
 64
     7
 65
   257
 75
     1
175
     1
 42
1.0
 92
        8
 66
     7
 43
1.0
 76
     1
 77
     6
 78
     2
 67
     7
 79
     5
170
     0
171
     0
290
     0
174
     0
 93
        1
 44
50.0
173
     0
291
     1
 45
0.0
  0
VISUALSTYLE
  5
4A654
102
{ACAD_REACTORS
330
4A644
102
}
330
4A644
100
AcDbVisualStyle
  2
ColorChange
 70
    16
 71
     2
 72
     2
 73
     3
 90
        0
 40
-0.6
 41
-30.0
 62
     5
 63
     8
421
  8421504
 74
     1
 91
        4
 64
     7
 65
   257
 75
     1
175
     1
 42
1.0
 92
        8
 66
     8
424
  8421504
 43
1.0
 76
     1
 77
     6
 78
     2
 67
     7
 79
     5
170
     0
171
     0
290
     0
174
     0
 93
        1
 44
0.0
173
     0
291
     1
 45
0.0
  0
VISUALSTYLE
  5
4A64D
102
{ACAD_REACTORS
330
4A644
102
}
330
4A644
100
AcDbVisualStyle
  2
Conceptual
 70
     9
 71
     3
 72
     2
 73
     0
 90
        0
 40
-0.6
 41
-30.0
 62
     5
 63
     7
421
 16777215
 74
     2
 91
        2
 64
     7
 65
   257
 75
     1
175
     1
 42
40.0
 92
        8
 66
     7
 43
1.0
 76
     1
 77
     6
 78
     2
 67
     7
 79
     3
170
     0
171
     0
290
     0
174
     0
 93
        1
 44
0.0
173
     0
291
     0
 45
0.0
  0
VISUALSTYLE
  5
4A64F
102
{ACAD_REACTORS
330
4A644
102
}
330
4A644
100
AcDbVisualStyle
  2
Dim
 70
    11
 71
     2
 72
     2
 73
     0
 90
        0
 40
-0.6
 41
-30.0
 62
     5
 63
     7
421
 16777215
 74
     1
 91
        4
 64
     7
 65
   257
 75
     1
175
     1
 42
1.0
 92
        8
 66
     7
 43
1.0
 76
     1
 77
     6
 78
     2
 67
     7
 79
     5
170
     0
171
     0
290
     0
174
     0
 93
        1
 44
-50.0
173
     0
291
     1
 45
0.0
  0
VISUALSTYLE
  5
4A653
102
{ACAD_REACTORS
330
4A644
102
}
330
4A644
100
AcDbVisualStyle
  2
Facepattern
 70
    15
 71
     2
 72
     2
 73
     0
 90
        0
 40
-0.6
 41
-30.0
 62
     5
 63
     7
421
 16777215
 74
     1
 91
        4
 64
     7
 65
   257
 75
     1
175
     1
 42
1.0
 92
        8
 66
     7
 43
1.0
 76
     1
 77
     6
 78
     2
 67
     7
 79
     5
170
     0
171
     0
290
     0
174
     0
 93
        1
 44
0.0
173
     0
291
     1
 45
0.0
  0
VISUALSTYLE
  5
4A645
102
{ACAD_REACTORS
330
4A644
102
}
330
4A644
100
AcDbVisualStyle
  2
Flat
 70
     0
 71
     2
 72
     1
 73
     1
 90
        2
 40
-0.6
 41
30.0
 62
     5
 63
     7
421
 16777215
 74
     0
 91
        4
 64
     7
 65
   257
 75
     1
175
     1
 42
1.0
 92
        8
 66
     7
 43
1.0
 76
     1
 77
     6
 78
     2
 67
     7
 79
     5
170
     0
171
     0
290
     0
174
     0
 93
       13
 44
0.0
173
     0
291
     1
 45
0.0
  0
VISUALSTYLE
  5
4A646
102
{ACAD_REACTORS
330
4A644
102
}
330
4A644
100
AcDbVisualStyle
  2
FlatWithEdges
 70
     1
 71
     2
 72
     1
 73
     1
 90
        2
 40
-0.6
 41
30.0
 62
     5
 63
     7
421
 16777215
 74
     1
 91
        4
 64
     7
 65
   257
 75
     1
175
     1
 42
1.0
 92
        0
 66
   257
 43
1.0
 76
     1
 77
     6
 78
     2
 67
     7
 79
     5
170
     0
171
     0
290
     0
174
     0
 93
       13
 44
0.0
173
     0
291
     1
 45
0.0
  0
VISUALSTYLE
  5
4A647
102
{ACAD_REACTORS
330
4A644
102
}
330
4A644
100
AcDbVisualStyle
  2
Gouraud
 70
     2
 71
     2
 72
     2
 73
     1
 90
        2
 40
-0.6
 41
30.0
 62
     5
 63
     7
421
 16777215
 74
     0
 91
        4
 64
     7
 65
   257
 75
     1
175
     1
 42
1.0
 92
        0
 66
     7
 43
1.0
 76
     1
 77
     6
 78
     2
 67
     7
 79
     5
170
     0
171
     0
290
     0
174
     0
 93
       13
 44
0.0
173
     0
291
     1
 45
0.0
  0
VISUALSTYLE
  5
4A648
102
{ACAD_REACTORS
330
4A644
102
}
330
4A644
100
AcDbVisualStyle
  2
GouraudWithEdges
 70
     3
 71
     2
 72
     2
 73
     1
 90
        2
 40
-0.6
 41
30.0
 62
     5
 63
     7
421
 16777215
 74
     1
 91
        4
 64
     7
 65
   257
 75
     1
175
     1
 42
1.0
 92
        0
 66
   257
 43
1.0
 76
     1
 77
     6
 78
     2
 67
     7
 79
     5
170
     0
171
     0
290
     0
174
     0
 93
       13
 44
0.0
173
     0
291
     1
 45
0.0
  0
VISUALSTYLE
  5
4A652
102
{ACAD_REACTORS
330
4A644
102
}
330
4A644
100
AcDbVisualStyle
  2
Linepattern
 70
    14
 71
     2
 72
     2
 73
     0
 90
        0
 40
-0.6
 41
-30.0
 62
     5
 63
     7
421
 16777215
 74
     1
 91
        4
 64
     7
 65
   257
 75
     7
175
     7
 42
1.0
 92
        8
 66
     7
 43
1.0
 76
     1
 77
     6
 78
     2
 67
     7
 79
     5
170
     0
171
     0
290
     0
174
     0
 93
        1
 44
0.0
173
     0
291
     1
 45
0.0
  0
VISUALSTYLE
  5
4A64E
102
{ACAD_REACTORS
330
4A644
102
}
330
4A644
100
AcDbVisualStyle
  2
Realistic
 70
     8
 71
     2
 72
     2
 73
     0
 90
        0
 40
-0.6
 41
-30.0
 62
     5
 63
     7
421
 16777215
 74
     1
 91
        0
 64
     7
 65
   257
 75
     1
175
     1
 42
1.0
 92
        8
 66
     8
424
  7895160
 43
1.0
 76
     1
 77
     6
 78
     2
 67
     7
 79
     5
170
     0
171
     0
290
     0
174
     0
 93
       13
 44
0.0
173
     0
291
     0
 45
0.0
  0
VISUALSTYLE
  5
4A651
102
{ACAD_REACTORS
330
4A644
102
}
330
4A644
100
AcDbVisualStyle
  2
Thicken
 70
    13
 71
     2
 72
     2
 73
     0
 90
        0
 40
-0.6
 41
-30.0
 62
     5
 63
     7
421
 16777215
 74
     1
 91
        4
 64
     7
 65
   257
 75
     1
175
     1
 42
1.0
 92
       12
 66
     7
 43
1.0
 76
     1
 77
     6
 78
     2
 67
     7
 79
     5
170
     0
171
     0
290
     0
174
     0
 93
        1
 44
0.0
173
     0
291
     1
 45
0.0
  0
DICTIONARYVAR
  5
4A925
102
{ACAD_REACTORS
330
4A921
102
}
330
4A921
100
DictionaryVariables
280
     0
  1
1:1
  0
DICTIONARYVAR
  5
4A923
102
{ACAD_REACTORS
330
4A921
102
}
330
4A921
100
DictionaryVariables
280
     0
  1
STANDARD
  0
DICTIONARYVAR
  5
4A922
102
{ACAD_REACTORS
330
4A921
102
}
330
4A921
100
DictionaryVariables
280
     0
  1
STANDARD
  0
DICTIONARYVAR
  5
4A927
102
{ACAD_REACTORS
330
4A921
102
}
330
4A921
100
DictionaryVariables
280
     0
  1
1
  0
DICTIONARYVAR
  5
4A928
102
{ACAD_REACTORS
330
4A921
102
}
330
4A921
100
DictionaryVariables
280
     0
  1
15
  0
DICTIONARYVAR
  5
4A926
102
{ACAD_REACTORS
330
4A921
102
}
330
4A921
100
DictionaryVariables
280
     0
  1
0
  0
DICTIONARYVAR
  5
4A924
102
{ACAD_REACTORS
330
4A921
102
}
330
4A921
100
DictionaryVariables
280
     0
  1
0
  0
DICTIONARY
  5
4A72E
102
{ACAD_REACTORS
330
4A723
102
}
330
4A723
100
AcDbDictionary
281
     1
  0
DICTIONARY
  5
4A635
330
4A634
100
AcDbDictionary
280
     1
281
     1
  3
BUMPTILE
360
4A637
  3
DIFFUSETILE
360
4A636
  3
OPACITYTILE
360
4A63A
  3
REFLECTIONTILE
360
4A639
  3
REFRACTIONTILE
360
4A63B
  3
SPECULARTILE
360
4A638
  0
DICTIONARY
  5
4A62D
330
4A62C
100
AcDbDictionary
280
     1
281
     1
  3
BUMPTILE
360
4A62F
  3
DIFFUSETILE
360
4A62E
  3
OPACITYTILE
360
4A632
  3
REFLECTIONTILE
360
4A631
  3
REFRACTIONTILE
360
4A633
  3
SPECULARTILE
360
4A630
  0
DICTIONARY
  5
4A63D
330
4A63C
100
AcDbDictionary
280
     1
281
     1
  3
BUMPTILE
360
4A63F
  3
DIFFUSETILE
360
4A63E
  3
OPACITYTILE
360
4A642
  3
REFLECTIONTILE
360
4A641
  3
REFRACTIONTILE
360
4A643
  3
SPECULARTILE
360
4A640
  0
DICTIONARY
  5
4A91C
330
4A687
100
AcDbDictionary
280
     1
281
     1
  3
ACAD_ROUNDTRIP_2008_TABLESTYLE_CELLSTYLEMAP
360
4AE40
  0
XRECORD
  5
4A637
102
{ACAD_REACTORS
330
4A635
102
}
330
4A635
100
AcDbXrecord
280
     1
270
     1
271
     1
  0
XRECORD
  5
4A636
102
{ACAD_REACTORS
330
4A635
102
}
330
4A635
100
AcDbXrecord
280
     1
270
     1
271
     1
  0
XRECORD
  5
4A63A
102
{ACAD_REACTORS
330
4A635
102
}
330
4A635
100
AcDbXrecord
280
     1
270
     1
271
     1
  0
XRECORD
  5
4A639
102
{ACAD_REACTORS
330
4A635
102
}
330
4A635
100
AcDbXrecord
280
     1
270
     1
271
     1
  0
XRECORD
  5
4A63B
102
{ACAD_REACTORS
330
4A635
102
}
330
4A635
100
AcDbXrecord
280
     1
270
     1
271
     1
  0
XRECORD
  5
4A638
102
{ACAD_REACTORS
330
4A635
102
}
330
4A635
100
AcDbXrecord
280
     1
270
     1
271
     1
  0
XRECORD
  5
4A62F
102
{ACAD_REACTORS
330
4A62D
102
}
330
4A62D
100
AcDbXrecord
280
     1
270
     1
271
     1
  0
XRECORD
  5
4A62E
102
{ACAD_REACTORS
330
4A62D
102
}
330
4A62D
100
AcDbXrecord
280
     1
270
     1
271
     1
  0
XRECORD
  5
4A632
102
{ACAD_REACTORS
330
4A62D
102
}
330
4A62D
100
AcDbXrecord
280
     1
270
     1
271
     1
  0
XRECORD
  5
4A631
102
{ACAD_REACTORS
330
4A62D
102
}
330
4A62D
100
AcDbXrecord
280
     1
270
     1
271
     1
  0
XRECORD
  5
4A633
102
{ACAD_REACTORS
330
4A62D
102
}
330
4A62D
100
AcDbXrecord
280
     1
270
     1
271
     1
  0
XRECORD
  5
4A630
102
{ACAD_REACTORS
330
4A62D
102
}
330
4A62D
100
AcDbXrecord
280
     1
270
     1
271
     1
  0
XRECORD
  5
4A63F
102
{ACAD_REACTORS
330
4A63D
102
}
330
4A63D
100
AcDbXrecord
280
     1
270
     1
271
     1
  0
XRECORD
  5
4A63E
102
{ACAD_REACTORS
330
4A63D
102
}
330
4A63D
100
AcDbXrecord
280
     1
270
     1
271
     1
  0
XRECORD
  5
4A642
102
{ACAD_REACTORS
330
4A63D
102
}
330
4A63D
100
AcDbXrecord
280
     1
270
     1
271
     1
  0
XRECORD
  5
4A641
102
{ACAD_REACTORS
330
4A63D
102
}
330
4A63D
100
AcDbXrecord
280
     1
270
     1
271
     1
  0
XRECORD
  5
4A643
102
{ACAD_REACTORS
330
4A63D
102
}
330
4A63D
100
AcDbXrecord
280
     1
270
     1
271
     1
  0
XRECORD
  5
4A640
102
{ACAD_REACTORS
330
4A63D
102
}
330
4A63D
100
AcDbXrecord
280
     1
270
     1
271
     1
  0
CELLSTYLEMAP
  5
4AE40
102
{ACAD_REACTORS
330
4A91C
102
}
330
4A91C
100
AcDbCellStyleMap
 90
        3
300
CELLSTYLE
  1
TABLEFORMAT_BEGIN
 90
        5
170
     1
 91
        0
 92
    32768
 62
   257
 93
        1
300
CONTENTFORMAT
  1
CONTENTFORMAT_BEGIN
 90
        0
 91
        0
 92
      512
 93
        0
300

 40
0.0
140
1.0
 94
        5
 62
     0
340
4A678
144
0.25
309
CONTENTFORMAT_END
171
     1
301
MARGIN
  1
CELLMARGIN_BEGIN
 40
0.06
 40
0.06
 40
0.06
 40
0.06
 40
0.18
 40
0.18
309
CELLMARGIN_END
 94
        6
 95
        1
302
GRIDFORMAT
  1
GRIDFORMAT_BEGIN
 90
        0
 91
        1
 62
     0
 92
       -2
340
0
 93
        0
 40
0.045
309
GRIDFORMAT_END
 95
        2
302
GRIDFORMAT
  1
GRIDFORMAT_BEGIN
 90
        0
 91
        1
 62
     0
 92
       -2
340
0
 93
        0
 40
0.045
309
GRIDFORMAT_END
 95
        4
302
GRIDFORMAT
  1
GRIDFORMAT_BEGIN
 90
        0
 91
        1
 62
     0
 92
       -2
340
0
 93
        0
 40
0.045
309
GRIDFORMAT_END
 95
        8
302
GRIDFORMAT
  1
GRIDFORMAT_BEGIN
 90
        0
 91
        1
 62
     0
 92
       -2
340
0
 93
        0
 40
0.045
309
GRIDFORMAT_END
 95
       16
302
GRIDFORMAT
  1
GRIDFORMAT_BEGIN
 90
        0
 91
        1
 62
     0
 92
       -2
340
0
 93
        0
 40
0.045
309
GRIDFORMAT_END
 95
       32
302
GRIDFORMAT
  1
GRIDFORMAT_BEGIN
 90
        0
 91
        1
 62
     0
 92
       -2
340
0
 93
        0
 40
0.045
309
GRIDFORMAT_END
309
TABLEFORMAT_END
  1
CELLSTYLE_BEGIN
 90
        1
 91
        1
300
_TITLE
309
CELLSTYLE_END
300
CELLSTYLE
  1
TABLEFORMAT_BEGIN
 90
        5
170
     1
 91
        0
 92
        0
 62
   257
 93
        1
300
CONTENTFORMAT
  1
CONTENTFORMAT_BEGIN
 90
        0
 91
        0
 92
      512
 93
        0
300

 40
0.0
140
1.0
 94
        5
 62
     0
340
4A678
144
0.18
309
CONTENTFORMAT_END
171
     1
301
MARGIN
  1
CELLMARGIN_BEGIN
 40
0.06
 40
0.06
 40
0.06
 40
0.06
 40
0.18
 40
0.18
309
CELLMARGIN_END
 94
        6
 95
        1
302
GRIDFORMAT
  1
GRIDFORMAT_BEGIN
 90
        0
 91
        1
 62
     0
 92
       -2
340
0
 93
        0
 40
0.045
309
GRIDFORMAT_END
 95
        2
302
GRIDFORMAT
  1
GRIDFORMAT_BEGIN
 90
        0
 91
        1
 62
     0
 92
       -2
340
0
 93
        0
 40
0.045
309
GRIDFORMAT_END
 95
        4
302
GRIDFORMAT
  1
GRIDFORMAT_BEGIN
 90
        0
 91
        1
 62
     0
 92
       -2
340
0
 93
        0
 40
0.045
309
GRIDFORMAT_END
 95
        8
302
GRIDFORMAT
  1
GRIDFORMAT_BEGIN
 90
        0
 91
        1
 62
     0
 92
       -2
340
0
 93
        0
 40
0.045
309
GRIDFORMAT_END
 95
       16
302
GRIDFORMAT
  1
GRIDFORMAT_BEGIN
 90
        0
 91
        1
 62
     0
 92
       -2
340
0
 93
        0
 40
0.045
309
GRIDFORMAT_END
 95
       32
302
GRIDFORMAT
  1
GRIDFORMAT_BEGIN
 90
        0
 91
        1
 62
     0
 92
       -2
340
0
 93
        0
 40
0.045
309
GRIDFORMAT_END
309
TABLEFORMAT_END
  1
CELLSTYLE_BEGIN
 90
        2
 91
        1
300
_HEADER
309
CELLSTYLE_END
300
CELLSTYLE
  1
TABLEFORMAT_BEGIN
 90
        5
170
     1
 91
        0
 92
        0
 62
   257
 93
        1
300
CONTENTFORMAT
  1
CONTENTFORMAT_BEGIN
 90
        0
 91
        0
 92
      512
 93
        0
300

 40
0.0
140
1.0
 94
        2
 62
     0
340
4A678
144
0.18
309
CONTENTFORMAT_END
171
     1
301
MARGIN
  1
CELLMARGIN_BEGIN
 40
0.06
 40
0.06
 40
0.06
 40
0.06
 40
0.18
 40
0.18
309
CELLMARGIN_END
 94
        6
 95
        1
302
GRIDFORMAT
  1
GRIDFORMAT_BEGIN
 90
        0
 91
        1
 62
     0
 92
       -2
340
0
 93
        0
 40
0.045
309
GRIDFORMAT_END
 95
        2
302
GRIDFORMAT
  1
GRIDFORMAT_BEGIN
 90
        0
 91
        1
 62
     0
 92
       -2
340
0
 93
        0
 40
0.045
309
GRIDFORMAT_END
 95
        4
302
GRIDFORMAT
  1
GRIDFORMAT_BEGIN
 90
        0
 91
        1
 62
     0
 92
       -2
340
0
 93
        0
 40
0.045
309
GRIDFORMAT_END
 95
        8
302
GRIDFORMAT
  1
GRIDFORMAT_BEGIN
 90
        0
 91
        1
 62
     0
 92
       -2
340
0
 93
        0
 40
0.045
309
GRIDFORMAT_END
 95
       16
302
GRIDFORMAT
  1
GRIDFORMAT_BEGIN
 90
        0
 91
        1
 62
     0
 92
       -2
340
0
 93
        0
 40
0.045
309
GRIDFORMAT_END
 95
       32
302
GRIDFORMAT
  1
GRIDFORMAT_BEGIN
 90
        0
 91
        1
 62
     0
 92
       -2
340
0
 93
        0
 40
0.045
309
GRIDFORMAT_END
309
TABLEFORMAT_END
  1
CELLSTYLE_BEGIN
 90
        3
 91
        2
300
_DATA
309
CELLSTYLE_END
  0
ENDSEC
  0
EOF
