  0
SECTION
  2
HEADER
  9
$ACADVER
  1
AC1009
  9
$INSBASE
 10
0.0
 20
0.0
 30
0.0
  9
$EXTMIN
 10
23424.30969267352
 20
19686.107554771359
 30
0.0
  9
$EXTMAX
 10
24989.338099745539
 20
20856.15965655652
 30
0.0
  9
$LIMMIN
 10
0.0
 20
0.0
  9
$LIMMAX
 10
420.0
 20
297.0
  9
$ORTHOMODE
 70
     0
  9
$REGENMODE
 70
     1
  9
$FILLMODE
 70
     1
  9
$QTEXTMODE
 70
     0
  9
$MIRRTEXT
 70
     0
  9
$DRAGMODE
 70
     2
  9
$LTSCALE
 40
1.0
  9
$OSMODE
 70
    39
  9
$ATTMODE
 70
     1
  9
$TEXTSIZE
 40
2.5
  9
$TRACEWID
 40
1.0
  9
$TEXTSTYLE
  7
STANDARD
  9
$CLAYER
  8
0
  9
$CELTYPE
  6
BYLAYER
  9
$CECOLOR
 62
   256
  9
$DIMSCALE
 40
1.0
  9
$DIMASZ
 40
3.5
  9
$DIMEXO
 40
1.0
  9
$DIMDLI
 40
10.0
  9
$DIMRND
 40
0.0
  9
$DIMDLE
 40
0.0
  9
$DIMEXE
 40
1.0
  9
$DIMTP
 40
0.1
  9
$DIMTM
 40
0.1
  9
$DIMTXT
 40
3.5
  9
$DIMCEN
 40
0.0
  9
$DIMTSZ
 40
0.0
  9
$DIMTOL
 70
     0
  9
$DIMLIM
 70
     0
  9
$DIMTIH
 70
     0
  9
$DIMTOH
 70
     0
  9
$DIMSE1
 70
     0
  9
$DIMSE2
 70
     0
  9
$DIMTAD
 70
     1
  9
$DIMZIN
 70
     8
  9
$DIMBLK
  1

  9
$DIMASO
 70
     1
  9
$DIMSHO
 70
     1
  9
$DIMPOST
  1

  9
$DIMAPOST
  1
"
  9
$DIMALT
 70
     0
  9
$DIMALTD
 70
     2
  9
$DIMALTF
 40
0.0393701
  9
$DIMLFAC
 40
1.0
  9
$DIMTOFL
 70
     1
  9
$DIMTVP
 40
0.0
  9
$DIMTIX
 70
     0
  9
$DIMSOXD
 70
     0
  9
$DIMSAH
 70
     0
  9
$DIMBLK1
  1

  9
$DIMBLK2
  1

  9
$DIMSTYLE
  2
AM_ISO
  9
$DIMCLRD
 70
   256
  9
$DIMCLRE
 70
   256
  9
$DIMCLRT
 70
     2
  9
$DIMTFAC
 40
0.71
  9
$DIMGAP
 40
1.5
  9
$LUNITS
 70
     2
  9
$LUPREC
 70
     2
  9
$SKETCHINC
 40
1.0
  9
$FILLETRAD
 40
2.5
  9
$AUNITS
 70
     0
  9
$AUPREC
 70
     0
  9
$MENU
  1
.
  9
$ELEVATION
 40
0.0
  9
$PELEVATION
 40
0.0
  9
$THICKNESS
 40
0.0
  9
$LIMCHECK
 70
     0
  9
$BLIPMODE
 70
     0
  9
$CHAMFERA
 40
2.5
  9
$CHAMFERB
 40
2.5
  9
$SKPOLY
 70
     0
  9
$TDCREATE
 40
2455251.6429182058
  9
$TDUPDATE
 40
2455251.69761228
  9
$TDINDWG
 40
0.03181
  9
$TDUSRTIMER
 40
0.0318097801
  9
$USRTIMER
 70
     1
  9
$ANGBASE
 50
0.0
  9
$ANGDIR
 70
     0
  9
$PDMODE
 70
     0
  9
$PDSIZE
 40
0.0
  9
$PLINEWID
 40
0.0
  9
$COORDS
 70
     1
  9
$SPLFRAME
 70
     0
  9
$SPLINETYPE
 70
     6
  9
$SPLINESEGS
 70
     8
  9
$ATTDIA
 70
     0
  9
$ATTREQ
 70
     1
  9
$HANDLING
 70
     1
  9
$HANDSEED
  5
32C4C
  9
$SURFTAB1
 70
     6
  9
$SURFTAB2
 70
     6
  9
$SURFTYPE
 70
     6
  9
$SURFU
 70
     6
  9
$SURFV
 70
     6
  9
$UCSNAME
  2

  9
$UCSORG
 10
0.0
 20
0.0
 30
0.0
  9
$UCSXDIR
 10
1.0
 20
0.0
 30
0.0
  9
$UCSYDIR
 10
0.0
 20
1.0
 30
0.0
  9
$PUCSNAME
  2

  9
$PUCSORG
 10
0.0
 20
0.0
 30
0.0
  9
$PUCSXDIR
 10
1.0
 20
0.0
 30
0.0
  9
$PUCSYDIR
 10
0.0
 20
1.0
 30
0.0
  9
$USERI1
 70
     0
  9
$USERI2
 70
     0
  9
$USERI3
 70
     0
  9
$USERI4
 70
     0
  9
$USERI5
 70
     0
  9
$USERR1
 40
0.0
  9
$USERR2
 40
0.0
  9
$USERR3
 40
0.0
  9
$USERR4
 40
0.0
  9
$USERR5
 40
0.0
  9
$WORLDVIEW
 70
     1
  9
$SHADEDGE
 70
     3
  9
$SHADEDIF
 70
    70
  9
$TILEMODE
 70
     1
  9
$MAXACTVP
 70
    64
  9
$PLIMCHECK
 70
     0
  9
$PEXTMIN
 10
1.0000000000000000E+020
 20
1.0000000000000000E+020
 30
1.0000000000000000E+020
  9
$PEXTMAX
 10
-1.0000000000000000E+020
 20
-1.0000000000000000E+020
 30
-1.0000000000000000E+020
  9
$PLIMMIN
 10
0.0
 20
0.0
  9
$PLIMMAX
 10
420.0
 20
297.0
  9
$UNITMODE
 70
     0
  9
$VISRETAIN
 70
     1
  9
$PLINEGEN
 70
     0
  9
$PSLTSCALE
 70
     1
  0
ENDSEC
  0
SECTION
  2
TABLES
  0
TABLE
  2
VPORT
 70
     1
  0
VPORT
  2
*ACTIVE
 70
     0
 10
0.0
 20
0.0
 11
1.0
 21
1.0
 12
25502.149026033909
 22
20472.60709855035
 13
0.0
 23
0.0
 14
2.5
 24
2.5
 15
10.0
 25
10.0
 16
0.0
 26
0.0
 36
1.0
 17
0.0
 27
0.0
 37
0.0
 40
2117.0459902023131
 41
1.9704049844236751
 42
50.0
 43
0.0
 44
0.0
 50
0.0
 51
0.0
 71
     0
 72
  1000
 73
     1
 74
     3
 75
     0
 76
     0
 77
     0
 78
     0
  0
ENDTAB
  0
TABLE
  2
LTYPE
 70
     2
  0
LTYPE
  2
CONTINUOUS
 70
     0
  3
Solid line
 72
    65
 73
     0
 40
0.0
  0
LTYPE
  2
DASHED2
 70
     0
  3
Dashed (.5x) _ _ _ _ _ _ _ _ _ _ _ _ _ _ _ _ _
 72
    65
 73
     2
 40
9.5249999999999986
 49
6.349999999999997
 49
-3.174999999999998
  0
ENDTAB
  0
TABLE
  2
LAYER
 70
     5
  0
LAYER
  2
0
 70
     0
 62
     7
  6
CONTINUOUS
  0
LAYER
  2
LAYER1
 70
     0
 62
     1
  6
CONTINUOUS
  0
LAYER
  2
DEFPOINTS
 70
     0
 62
     7
  6
CONTINUOUS
  0
LAYER
  2
DIMS_SPECS
 70
     0
 62
    41
  6
CONTINUOUS
  0
LAYER
  2
CUTOUT
 70
     0
 62
    60
  6
CONTINUOUS
  0
ENDTAB
  0
TABLE
  2
STYLE
 70
     4
  0
STYLE
  2
STANDARD
 70
     0
 40
0.0
 41
1.0
 50
0.0
 71
     0
 42
2.5
  3
ISOCP.SHX
  4

  0
STYLE
  2
ACISOTS
 70
     0
 40
1.0
 41
1.0
 50
0.0
 71
     0
 42
2.5
  3
isocp.shx
  4

  0
STYLE
  2
ABODE-ISO
 70
     0
 40
17.0
 41
0.9
 50
0.0
 71
     0
 42
0.2
  3
txt
  4

  0
ENDTAB
  0
TABLE
  2
VIEW
 70
     0
  0
ENDTAB
  0
TABLE
  2
UCS
 70
     0
  0
ENDTAB
  0
TABLE
  2
APPID
 70
    21
  0
APPID
  2
ACAD
 70
     0
  0
APPID
  2
ACADANNOTATIVE
 70
     0
  0
APPID
  2
ACAD_MLEADERVER
 70
     0
  0
APPID
  2
MCAD_NO_VIS
 70
     0
  0
APPID
  2
ACAD_TEMP_GRAPHIC
 70
     0
  0
APPID
  2
AD_DRAW
 70
     0
  0
APPID
  2
ACATTRIBSERVICES
 70
     0
  0
APPID
  2
DESIGNERASSEMBLIES
 70
     0
  0
APPID
  2
ACADM_DIM_EDIT
 70
     0
  0
APPID
  2
AMDT_DM_ADJ
 70
     0
  0
APPID
  2
ACAD_DSTYLE_DIMJOGGED_JOGA
 70
     0
  0
APPID
  2
ACAECLAYERSTANDARD
 70
     0
  0
APPID
  2
ACAD_PSEXT
 70
     0
  0
APPID
  2
ACAD_DSTYLE_DIMJAG
 70
     0
  0
APPID
  2
ACAD_DSTYLE_DIMTALN
 70
     0
  0
APPID
  2
GENIUS_GENODEF_13
 70
     0
  0
APPID
  2
ACAD_DSTYLE_DIMINSPECT
 70
     0
  0
APPID
  2
GENIUS_GENREC_14
 70
     0
  0
APPID
  2
GENIUS_GENOBJ-N-REC_13
 70
     0
  0
APPID
  2
ACAD_DSTYLE_DIMRADIAL_EXTENSION
 70
     0
  0
APPID
  2
ACAD_DSTYLE_DIMBREAK
 70
     0
  0
ENDTAB
  0
TABLE
  2
DIMSTYLE
 70
     3
  0
DIMSTYLE
  2
STANDARD
 70
     0
  3

  4

  5

  6

  7

 40
1.0
 41
0.18
 42
0.0625
 43
0.38
 44
0.18
 45
0.0
 46
0.0
 47
0.0
 48
0.0
140
0.18
141
0.09
142
0.0
143
25.399999999999999
144
1.0
145
0.0
146
1.0
147
0.09
 71
     0
 72
     0
 73
     1
 74
     1
 75
     0
 76
     0
 77
     0
 78
     0
170
     0
171
     2
172
     0
173
     0
174
     0
175
     0
176
     0
177
     0
178
     0
  0
DIMSTYLE
  2
AM_ISO
 70
     0
  3

  4
"
  5

  6

  7

 40
1.0
 41
3.5
 42
1.0
 43
10.0
 44
1.0
 45
0.0
 46
0.0
 47
0.1
 48
0.1
140
3.5
141
0.0
142
0.0
143
0.0393701
144
1.0
145
0.0
146
0.71
147
1.5
 71
     0
 72
     0
 73
     0
 74
     0
 75
     0
 76
     0
 77
     1
 78
     8
170
     0
171
     2
172
     1
173
     0
174
     0
175
     0
176
   256
177
   256
178
     2
  0
ENDTAB
  0
ENDSEC
  0
SECTION
  2
BLOCKS
  0
BLOCK
  8
0
  2
$MODEL_SPACE
 70
     0
 10
0.0
 20
0.0
 30
0.0
  3
$MODEL_SPACE
  1

  0
ENDBLK
  5
32BDD
  8
0
  0
BLOCK
 67
     1
  8
0
  2
$PAPER_SPACE
 70
     0
 10
0.0
 20
0.0
 30
0.0
  3
$PAPER_SPACE
  1

  0
ENDBLK
  5
32BD9
 67
     1
  8
0
  0
BLOCK
  8
0
  2
FILLED-1
 70
     0
 10
0.0
 20
0.0
 30
0.0
  3
FILLED-1
  1

  0
LINE
  5
13A
  8
0
 62
     0
 10
-1.0
 20
0.0
 30
0.0
 11
0.0
 21
0.0
 31
0.0
  0
POLYLINE
  5
13B
  8
0
 62
     0
 66
     1
 10
0.0
 20
0.0
 30
0.0
 70
   128
  0
VERTEX
  5
32C32
  8
0
 62
     0
 10
-1.0
 20
-0.3333333333333333
 30
0.0
  0
VERTEX
  5
32C33
  8
0
 62
     0
 10
0.0
 20
0.0
 30
0.0
  0
VERTEX
  5
32C34
  8
0
 62
     0
 10
-1.0
 20
0.3333333333333333
 30
0.0
  0
VERTEX
  5
32C35
  8
0
 62
     0
 10
-1.0
 20
-0.3333333333333333
 30
0.0
  0
SEQEND
  5
32C36
  8
0
 62
     0
  0
SOLID
  5
141
  8
0
 62
     0
 10
-1.0
 20
-0.3333333333333333
 30
0.0
 11
0.0
 21
0.0
 31
0.0
 12
-1.0
 22
0.3333333333333333
 32
0.0
 13
-1.0
 23
-0.3333333333333333
 33
0.0
  0
LINE
  5
142
  8
0
 62
     0
 10
-1.0
 20
-0.3333333333333333
 30
0.0
 11
0.0
 21
0.0
 31
0.0
  0
LINE
  5
143
  8
0
 62
     0
 10
0.0
 20
0.0
 30
0.0
 11
-1.0
 21
0.3333333333333333
 31
0.0
  0
LINE
  5
144
  8
0
 62
     0
 10
-1.0
 20
0.3333333333333333
 30
0.0
 11
-1.0
 21
-0.3333333333333333
 31
0.0
  0
ENDBLK
  5
145
  8
0
  0
BLOCK
  8
0
  2
*D3
 70
     1
 10
0.0
 20
0.0
 30
0.0
  3
*D3
  1

  0
LINE
  5
2F9B9
  8
DIMS_SPECS
 10
23922.2364236662
 20
19779.670252503311
 30
0.0
 11
23922.2364236662
 21
19690.274221438031
 31
0.0
  0
LINE
  5
2F9BA
  8
DIMS_SPECS
 10
24897.2364236662
 20
19779.670252503311
 30
0.0
 11
24897.2364236662
 21
19690.274221438031
 31
0.0
  0
LINE
  5
2F9BB
  8
DIMS_SPECS
 10
23934.7364236662
 20
19690.274221438031
 30
0.0
 11
24884.7364236662
 21
19690.274221438031
 31
0.0
  0
INSERT
  5
2F9BC
  8
DIMS_SPECS
  2
FILLED-1
 10
23922.2364236662
 20
19690.274221438031
 30
0.0
 41
12.5
 42
12.5
 43
12.5
 50
180.0
  0
INSERT
  5
2F9BD
  8
DIMS_SPECS
  2
FILLED-1
 10
24897.2364236662
 20
19690.274221438031
 30
0.0
 41
12.5
 42
12.5
 43
12.5
  0
INSERT
  5
2F9BE
  8
0
  2
*U4
 10
0.0
 20
0.0
 30
0.0
  0
POINT
  5
2F9BF
  8
DEFPOINTS
 62
     0
 10
23922.2364236662
 20
19794.670252503311
 30
0.0
  0
POINT
  5
2F9C0
  8
DEFPOINTS
 62
     0
 10
24897.2364236662
 20
19794.670252503311
 30
0.0
  0
POINT
  5
2F9C1
  8
DEFPOINTS
 62
     0
 10
24897.2364236662
 20
19690.274221438031
 30
0.0
  0
ENDBLK
  5
2F9B8
  8
0
  0
BLOCK
  8
0
  2
*U4
 70
     1
 10
0.0
 20
0.0
 30
0.0
  3
*U4
  1

  0
TEXT
  5
31E1A
  8
DIMS_SPECS
 10
24391.97656642623
 20
19698.415621845921
 30
0.0
 40
17.0
  1
975
 41
0.9
  7
ABODE-ISO
  0
ENDBLK
  5
31E1C
  8
0
  0
BLOCK
  8
0
  2
*D5
 70
     1
 10
0.0
 20
0.0
 30
0.0
  3
*D5
  1

  0
LINE
  5
2F9C5
  8
DIMS_SPECS
 10
24902.236423666211
 20
19784.6702525033
 30
0.0
 11
24941.560938007231
 21
19784.6702525033
 31
0.0
  0
LINE
  5
2F9C6
  8
DIMS_SPECS
 10
24902.236423666211
 20
20259.670252503322
 30
0.0
 11
24941.560938007231
 21
20259.670252503322
 31
0.0
  0
LINE
  5
2F9C7
  8
DIMS_SPECS
 10
24941.560938007231
 20
19797.170252503311
 30
0.0
 11
24941.560938007231
 21
20005.74265223138
 31
0.0
  0
LINE
  5
2F9C8
  8
DIMS_SPECS
 10
24941.560938007231
 20
20247.170252503311
 30
0.0
 11
24941.560938007231
 21
20038.59785277523
 31
0.0
  0
INSERT
  5
2F9C9
  8
DIMS_SPECS
  2
FILLED-1
 10
24941.560938007231
 20
19784.6702525033
 30
0.0
 41
12.5
 42
12.5
 43
12.5
 50
270.0
  0
INSERT
  5
2F9CA
  8
DIMS_SPECS
  2
FILLED-1
 10
24941.560938007231
 20
20259.670252503322
 30
0.0
 41
12.5
 42
12.5
 43
12.5
 50
90.0
  0
INSERT
  5
2F9CB
  8
0
  2
*U6
 10
0.0
 20
0.0
 30
0.0
  0
POINT
  5
2F9CC
  8
DEFPOINTS
 62
     0
 10
24887.236423666211
 20
19784.6702525033
 30
0.0
  0
POINT
  5
2F9CD
  8
DEFPOINTS
 62
     0
 10
24887.236423666211
 20
20259.670252503322
 30
0.0
  0
POINT
  5
2F9CE
  8
DEFPOINTS
 62
     0
 10
24941.560938007231
 20
20259.670252503322
 30
0.0
  0
ENDBLK
  5
2F9C4
  8
0
  0
BLOCK
  8
0
  2
*U6
 70
     1
 10
0.0
 20
0.0
 30
0.0
  3
*U6
  1

  0
TEXT
  5
31E1E
  8
DIMS_SPECS
 10
24924.050706871949
 20
20013.884052639281
 30
0.0
 40
17.0
  1
475
 41
0.9
  7
ABODE-ISO
  0
ENDBLK
  5
31E20
  8
0
  0
BLOCK
  8
0
  2
*D7
 70
     1
 10
0.0
 20
0.0
 30
0.0
  3
*D7
  1

  0
LINE
  5
2F9D2
  8
DIMS_SPECS
 10
23922.2364236662
 20
19779.670252503311
 30
0.0
 11
23922.2364236662
 21
19737.305742056709
 31
0.0
  0
LINE
  5
2F9D3
  8
DIMS_SPECS
 10
23959.7364236662
 20
19769.670252503311
 30
0.0
 11
23959.7364236662
 21
19737.305742056709
 31
0.0
  0
LINE
  5
2F9D4
  8
DIMS_SPECS
 10
23909.736423666211
 20
19737.305742056709
 30
0.0
 11
23897.2364236662
 21
19737.305742056709
 31
0.0
  0
LINE
  5
2F9D5
  8
DIMS_SPECS
 10
23972.236423666211
 20
19737.305742056709
 30
0.0
 11
23984.7364236662
 21
19737.305742056709
 31
0.0
  0
LINE
  5
2F9D6
  8
DIMS_SPECS
 10
23922.2364236662
 20
19737.305742056709
 30
0.0
 11
23959.7364236662
 21
19737.305742056709
 31
0.0
  0
INSERT
  5
2F9D7
  8
DIMS_SPECS
  2
FILLED-1
 10
23922.2364236662
 20
19737.305742056709
 30
0.0
 41
12.5
 42
12.5
 43
12.5
  0
INSERT
  5
2F9D8
  8
DIMS_SPECS
  2
FILLED-1
 10
23959.7364236662
 20
19737.305742056709
 30
0.0
 41
12.5
 42
12.5
 43
12.5
 50
180.0
  0
INSERT
  5
2F9D9
  8
0
  2
*U8
 10
0.0
 20
0.0
 30
0.0
  0
POINT
  5
2F9DA
  8
DEFPOINTS
 62
     0
 10
23922.2364236662
 20
19794.670252503311
 30
0.0
  0
POINT
  5
2F9DB
  8
DEFPOINTS
 62
     0
 10
23959.7364236662
 20
19784.6702525033
 30
0.0
  0
POINT
  5
2F9DC
  8
DEFPOINTS
 62
     0
 10
23959.7364236662
 20
19737.305742056709
 30
0.0
  0
ENDBLK
  5
2F9D1
  8
0
  0
BLOCK
  8
0
  2
*U8
 70
     1
 10
0.0
 20
0.0
 30
0.0
  3
*U8
  1

  0
TEXT
  5
31E22
  8
DIMS_SPECS
 10
23929.170788044179
 20
19745.447142464589
 30
0.0
 40
17.0
  1
38
 41
0.9
  7
ABODE-ISO
  0
ENDBLK
  5
31E24
  8
0
  0
BLOCK
  8
0
  2
*D9
 70
     1
 10
0.0
 20
0.0
 30
0.0
  3
*D9
  1

  0
LINE
  5
2F9E0
  8
DIMS_SPECS
 10
23959.7364236662
 20
19769.670252503311
 30
0.0
 11
23959.7364236662
 21
19737.305742056709
 31
0.0
  0
LINE
  5
2F9E1
  8
DIMS_SPECS
 10
24517.336423666209
 20
19769.670252503311
 30
0.0
 11
24517.336423666209
 21
19737.305742056709
 31
0.0
  0
LINE
  5
2F9E2
  8
DIMS_SPECS
 10
23972.236423666211
 20
19737.305742056709
 30
0.0
 11
24504.836423666198
 21
19737.305742056709
 31
0.0
  0
INSERT
  5
2F9E3
  8
DIMS_SPECS
  2
FILLED-1
 10
23959.7364236662
 20
19737.305742056709
 30
0.0
 41
12.5
 42
12.5
 43
12.5
 50
180.0
  0
INSERT
  5
2F9E4
  8
DIMS_SPECS
  2
FILLED-1
 10
24517.336423666209
 20
19737.305742056709
 30
0.0
 41
12.5
 42
12.5
 43
12.5
  0
INSERT
  5
2F9E5
  8
0
  2
*U10
 10
0.0
 20
0.0
 30
0.0
  0
POINT
  5
2F9E6
  8
DEFPOINTS
 62
     0
 10
23959.7364236662
 20
19784.6702525033
 30
0.0
  0
POINT
  5
2F9E7
  8
DEFPOINTS
 62
     0
 10
24517.336423666209
 20
19784.6702525033
 30
0.0
  0
POINT
  5
2F9E8
  8
DEFPOINTS
 62
     0
 10
24517.336423666209
 20
19737.305742056709
 30
0.0
  0
ENDBLK
  5
2F9DF
  8
0
  0
BLOCK
  8
0
  2
*U10
 70
     1
 10
0.0
 20
0.0
 30
0.0
  3
*U10
  1

  0
TEXT
  5
31E26
  8
DIMS_SPECS
 10
24220.682956636971
 20
19745.233342328629
 30
0.0
 40
17.0
  1
557
 41
0.9
  7
ABODE-ISO
  0
ENDBLK
  5
31E28
  8
0
  0
BLOCK
  8
0
  2
*D11
 70
     1
 10
0.0
 20
0.0
 30
0.0
  3
*D11
  1

  0
LINE
  5
2F9EC
  8
DIMS_SPECS
 10
24989.338099745539
 20
19737.265284858891
 30
0.0
 11
24947.93055385835
 21
19737.265284858891
 31
0.0
  0
LINE
  5
2F9ED
  8
DIMS_SPECS
 10
24947.93055385835
 20
19737.265284858891
 30
0.0
 11
24903.583092272562
 21
19779.209449630409
 31
0.0
  0
INSERT
  5
2F9EE
  8
0
  2
*U12
 10
0.0
 20
0.0
 30
0.0
  0
LINE
  5
2F9EF
  8
DIMS_SPECS
 10
24887.236423666211
 20
19794.670252503289
 30
0.0
 11
24894.501609713468
 21
19787.798784559789
 31
0.0
  0
INSERT
  5
2F9F0
  8
DIMS_SPECS
  2
FILLED-1
 10
24894.501609713468
 20
19787.798784559789
 30
0.0
 41
12.5
 42
12.5
 43
12.5
 50
136.59532487416371
  0
POINT
  5
2F9F1
  8
DEFPOINTS
 62
     0
 10
24894.501609713468
 20
19787.798784559789
 30
0.0
  0
POINT
  5
2F9F2
  8
DEFPOINTS
 62
     0
 10
24887.236423666211
 20
19794.670252503289
 30
0.0
  0
ENDBLK
  5
2F9EB
  8
0
  0
BLOCK
  8
0
  2
*U12
 70
     1
 10
0.0
 20
0.0
 30
0.0
  3
*U12
  1

  0
TEXT
  5
31E2A
  8
DIMS_SPECS
 10
24953.48555045934
 20
19745.406685266771
 30
0.0
 40
17.0
  1
R10
 41
0.9
  7
ABODE-ISO
  0
ENDBLK
  5
31E2C
  8
0
  0
BLOCK
  8
0
  2
*U13
 70
     1
 10
0.0
 20
0.0
 30
0.0
  3
*U13
  1

  0
TEXT
  5
31DEE
  8
CUTOUT
 10
24390.651723033348
 20
20278.337873184959
 30
0.0
 40
40.0
  1
INSET CUT OUT
  0
ENDBLK
  5
31DF0
  8
0
  0
BLOCK
  8
0
  2
*U14
 70
     1
 10
0.0
 20
0.0
 30
0.0
  3
*U14
  1

  0
TEXT
  5
31DF2
  8
CUTOUT
 10
24294.768066272602
 20
20072.16386827546
 30
0.0
 40
40.0
  1
BOWL(S),
  0
TEXT
  5
31DF3
  8
CUTOUT
 10
24234.768066272602
 20
20005.4972016088
 30
0.0
 40
40.0
  1
OVERFLOW,
  0
TEXT
  5
31DF4
  8
CUTOUT
 10
24260.768066272602
 20
19938.830534942132
 30
0.0
 40
40.0
  1
TAP AREA
  0
ENDBLK
  5
31DF6
  8
0
  0
BLOCK
  8
0
  2
*U15
 70
     1
 10
0.0
 20
0.0
 30
0.0
  3
*U15
  1

  0
TEXT
  5
31E01
  8
0
 62
     1
 10
23441.584563668159
 20
20126.748665247869
 30
0.0
 40
8.0
  1
All details are provided in good faith and
  7
ACISOTS
  0
TEXT
  5
31E02
  8
0
 62
     1
 10
23423.136563668151
 20
20113.415331914541
 30
0.0
 40
8.0
  1
within
  7
ACISOTS
  0
TEXT
  5
31E03
  8
0
 62
     1
 10
23459.107563668149
 20
20100.081998581209
 30
0.0
 40
8.0
  1
the tolerances of the manufacturing process.
  7
ACISOTS
  0
TEXT
  5
31E04
  8
0
 62
     1
 10
23424.44136366816
 20
20086.748665247869
 30
0.0
 40
8.0
  1
Note: the dimensions on ceramic fireclay
  7
ACISOTS
  0
TEXT
  5
31E05
  8
0
 62
     1
 10
23423.136563668151
 20
20073.415331914541
 30
0.0
 40
8.0
  1
products
  7
ACISOTS
  0
TEXT
  5
31E06
  8
0
 62
     1
 10
23425.965163668148
 20
20060.081998581209
 30
0.0
 40
8.0
  1
are subject to wider tolerances due to the
  7
ACISOTS
  0
TEXT
  5
31E07
  8
0
 62
     1
 10
23423.136563668151
 20
20046.74866524788
 30
0.0
 40
8.0
  1
nature
  7
ACISOTS
  0
TEXT
  5
31E08
  8
0
 62
     1
 10
23447.67956366816
 20
20033.415331914552
 30
0.0
 40
8.0
  1
of this natural material and the firing
  7
ACISOTS
  0
TEXT
  5
31E09
  8
0
 62
     1
 10
23423.136563668151
 20
20020.08199858122
 30
0.0
 40
8.0
  1
process.
  7
ACISOTS
  0
TEXT
  5
31E0A
  8
0
 62
     1
 10
23452.63156366815
 20
19993.415331914552
 30
0.0
 40
8.0
  1
We recommend that a test cutout is made in
  7
ACISOTS
  0
TEXT
  5
31E0B
  8
0
 62
     1
 10
23428.250863668149
 20
19980.08199858122
 30
0.0
 40
8.0
  1
scrap timber and checked against the actual
  7
ACISOTS
  0
TEXT
  5
31E0C
  8
0
 62
     1
 10
23423.136563668151
 20
19966.748665247891
 30
0.0
 40
8.0
  1
sink
  7
ACISOTS
  0
TEXT
  5
31E0D
  8
0
 62
     1
 10
23479.298563668159
 20
19953.415331914552
 30
0.0
 40
8.0
  1
supplied before committing to cutting
  7
ACISOTS
  0
TEXT
  5
31E0E
  8
0
 62
     1
 10
23423.136563668151
 20
19940.08199858122
 30
0.0
 40
8.0
  1
the
  7
ACISOTS
  0
TEXT
  5
31E0F
  8
0
 62
     1
 10
23669.776563668151
 20
19926.748665247891
 30
0.0
 40
8.0
  1
worksurface.
  7
ACISOTS
  0
TEXT
  5
31E10
  8
0
 62
     1
 10
23449.965563668149
 20
19900.08199858122
 30
0.0
 40
8.0
  1
Abode can not accept liability for problems
  7
ACISOTS
  0
TEXT
  5
31E11
  8
0
 62
     1
 10
23423.136563668151
 20
19886.748665247891
 30
0.0
 40
8.0
  1
or
  7
ACISOTS
  0
TEXT
  5
31E12
  8
0
 62
     1
 10
23454.155563668159
 20
19873.415331914559
 30
0.0
 40
8.0
  1
costs incurred by failure to follow this advise,
  7
ACISOTS
  0
TEXT
  5
31E13
  8
0
 62
     1
 10
23446.91756366815
 20
19860.08199858123
 30
0.0
 40
8.0
  1
dimensions weights & measures are subject
  7
ACISOTS
  0
TEXT
  5
31E14
  8
0
 62
     1
 10
23423.136563668151
 20
19846.748665247891
 30
0.0
 40
8.0
  1
to
  7
ACISOTS
  0
TEXT
  5
31E15
  8
0
 62
     1
 10
23430.155563668159
 20
19833.415331914559
 30
0.0
 40
8.0
  1
change without prior notice. Errors and omissions
  7
ACISOTS
  0
TEXT
  5
31E16
  8
0
 62
     1
 10
23690.726563668159
 20
19820.08199858123
 30
0.0
 40
8.0
  1
excepted
  7
ACISOTS
  0
ENDBLK
  5
31E18
  8
0
  0
ENDSEC
  0
SECTION
  2
ENTITIES
  0
INSERT
  5
2F99D
  8
0
  2
*U13
 10
0.0
 20
0.0
 30
0.0
  0
DIMENSION
  5
2F99E
  8
DIMS_SPECS
  2
*D3
 10
24897.2364236662
 20
19690.274221438031
 30
0.0
 11
24409.7364236662
 21
19690.274221438031
 31
0.0
 70
   128
 13
23922.2364236662
 23
19794.670252503311
 33
0.0
 14
24897.2364236662
 24
19794.670252503311
 34
0.0
1001
ACAD_DSTYLE_DIMINSPECT
1070
   396
1000
100%
1070
   395
1000

1070
   394
1070
    33
1070
   393
1070
     0
  0
DIMENSION
  5
2F99F
  8
DIMS_SPECS
  2
*D5
 10
24941.560938007231
 20
20259.670252503322
 30
0.0
 11
24941.560938007231
 21
20022.170252503311
 31
0.0
 13
24887.236423666211
 23
19784.6702525033
 33
0.0
 14
24887.236423666211
 24
20259.670252503322
 34
0.0
 50
90.0
1001
ACAD_DSTYLE_DIMINSPECT
1070
   396
1000
100%
1070
   395
1000

1070
   394
1070
    33
1070
   393
1070
     0
  0
LINE
  5
2F9A0
  8
CUTOUT
  6
DASHED2
 10
23959.7364236662
 20
20259.670252503322
 30
0.0
 11
23959.7364236662
 21
19784.6702525033
 31
0.0
  0
LINE
  5
2F9A1
  8
CUTOUT
  6
DASHED2
 10
24517.336423666209
 20
20259.670252503322
 30
0.0
 11
24517.336423666209
 21
19784.6702525033
 31
0.0
  0
DIMENSION
  5
2F9A2
  8
DIMS_SPECS
  2
*D7
 10
23959.7364236662
 20
19737.305742056709
 30
0.0
 11
23940.9864236662
 21
19737.305742056709
 31
0.0
 70
   128
 13
23922.2364236662
 23
19794.670252503311
 33
0.0
 14
23959.7364236662
 24
19784.6702525033
 34
0.0
1001
ACAD_DSTYLE_DIMINSPECT
1070
   396
1000
100%
1070
   395
1000

1070
   394
1070
    33
1070
   393
1070
     0
  0
DIMENSION
  5
2F9A5
  8
DIMS_SPECS
  2
*D9
 10
24517.336423666209
 20
19737.305742056709
 30
0.0
 11
24238.53642366621
 21
19753.519542192669
 31
0.0
  1
557
 13
23959.7364236662
 23
19784.6702525033
 33
0.0
 14
24517.336423666209
 24
19784.6702525033
 34
0.0
1001
ACAD_DSTYLE_DIMINSPECT
1070
   396
1000
100%
1070
   395
1000

1070
   394
1070
    33
1070
   393
1070
     0
  0
INSERT
  5
2F9A8
  8
0
  2
*U14
 10
0.0
 20
0.0
 30
0.0
  0
POLYLINE
  5
2F9A9
  8
CUTOUT
  6
DASHED2
 66
     1
 10
0.0
 20
0.0
 30
0.0
 70
     1
1001
GENIUS_GENREC_14
1002
{
1000
PYDIR
1011
24078.156286654761
1021
0.0
1031
0.0
1021
19918.191275136869
1031
0.0
1002
}
1002
{
1000
PXDIR
1011
24371.316560677638
1021
0.0
1031
0.0
1021
20126.149229869741
1031
0.0
1002
}
1002
{
1000
PORI
1011
24078.156286654761
1021
0.0
1031
0.0
1021
20126.149229869741
1031
0.0
1002
}
1002
{
1000
PINS
1011
24078.156286654761
1021
0.0
1031
0.0
1021
20126.149229869741
1031
0.0
1002
}
1002
{
1000
PINS2
1011
24371.316560677638
1021
0.0
1031
0.0
1021
19918.191275136869
1031
0.0
1002
}
1002
{
1000
C
1070
     1
1002
}
1001
GENIUS_GENOBJ-N-REC_13
1002
{
1000
OWNER
1000
GEN
1002
}
1001
GENIUS_GENODEF_13
1002
{
1000
HIER
1070
     0
1002
}
1002
{
1000
MANEDIT
1070
     0
1002
}
1002
{
1000
NOSEL
1070
     0
1002
}
1002
{
1000
BEHIND
1070
     0
1002
}
1002
{
1000
OTHER
1070
     0
1002
}
1002
{
1000
REACTOR
1002
}
  0
VERTEX
  5
32C37
  8
CUTOUT
  6
DASHED2
 10
24098.156286654768
 20
20126.149229869741
 30
0.0
  0
VERTEX
  5
32C38
  8
CUTOUT
  6
DASHED2
 10
24351.316560677638
 20
20126.149229869741
 30
0.0
 42
-0.4142135623730951
  0
VERTEX
  5
32C39
  8
CUTOUT
  6
DASHED2
 10
24371.316560677638
 20
20106.149229869749
 30
0.0
  0
VERTEX
  5
32C3A
  8
CUTOUT
  6
DASHED2
 10
24371.316560677638
 20
19938.191275136869
 30
0.0
 42
-0.4142135623730951
  0
VERTEX
  5
32C3B
  8
CUTOUT
  6
DASHED2
 10
24351.316560677638
 20
19918.191275136869
 30
0.0
  0
VERTEX
  5
32C3C
  8
CUTOUT
  6
DASHED2
 10
24098.156286654768
 20
19918.191275136869
 30
0.0
 42
-0.4142135623730951
  0
VERTEX
  5
32C3D
  8
CUTOUT
  6
DASHED2
 10
24078.156286654761
 20
19938.191275136869
 30
0.0
  0
VERTEX
  5
32C3E
  8
CUTOUT
  6
DASHED2
 10
24078.156286654761
 20
20106.149229869749
 30
0.0
 42
-0.4142135623730951
  0
SEQEND
  5
32C3F
  8
CUTOUT
  6
DASHED2
  0
LINE
  5
2F9AA
  8
CUTOUT
 10
24897.2364236662
 20
20249.670252503311
 30
0.0
 11
24897.2364236662
 21
19794.670252503311
 31
0.0
  0
ARC
  5
2F9AB
  8
CUTOUT
 10
24887.236423666211
 20
19794.670252503311
 30
0.0
 40
10.0
 50
270.0
 51
0.0
  0
ARC
  5
2F9AC
  8
CUTOUT
 10
24887.236423666211
 20
20249.670252503311
 30
0.0
 40
10.0
 50
0.0
 51
90.0
  0
LINE
  5
2F9AD
  8
CUTOUT
 10
23922.2364236662
 20
20249.670252503311
 30
0.0
 11
23922.2364236662
 21
19794.670252503311
 31
0.0
  0
ARC
  5
2F9AE
  8
CUTOUT
 10
23932.236423666211
 20
19794.670252503311
 30
0.0
 40
10.0
 50
180.0
 51
270.0
  0
LINE
  5
2F9AF
  8
CUTOUT
 10
24887.236423666211
 20
19784.6702525033
 30
0.0
 11
23932.236423666211
 21
19784.6702525033
 31
0.0
  0
LINE
  5
2F9B0
  8
CUTOUT
 10
24887.236423666211
 20
20259.670252503322
 30
0.0
 11
23932.236423666211
 21
20259.670252503322
 31
0.0
  0
ARC
  5
2F9B1
  8
CUTOUT
 10
23932.236423666211
 20
20249.670252503311
 30
0.0
 40
10.0
 50
90.0
 51
180.0
  0
DIMENSION
  5
2F9B2
  8
DIMS_SPECS
  2
*D11
 10
24887.236423666211
 20
19794.670252503289
 30
0.0
 11
24972.384326801959
 21
19737.265284858891
 31
0.0
 70
   132
 15
24894.501609713468
 25
19787.798784559789
 35
0.0
 40
0.0
1001
ACAD_DSTYLE_DIMINSPECT
1070
   396
1000
100%
1070
   395
1000

1070
   394
1070
    33
1070
   393
1070
     0
1001
ACAD_DSTYLE_DIMRADIAL_EXTENSION
1070
   387
1070
     1
1070
   388
1040
4.712388980384687
1070
   390
1040
0.0
  0
TEXT
  5
2F9B3
  8
LAYER1
 10
23974.690599254169
 20
20713.600601438411
 30
0.0
 40
150.0
  1
AW5047
  0
INSERT
  5
2F9B4
  8
0
  2
*U15
 10
0.0
 20
0.0
 30
0.0
  0
TEXT
  5
2F9B5
  8
LAYER1
 10
23515.137486691889
 20
19865.254308467622
 30
0.0
 40
30.0
  1
file version 1
  0
ENDSEC
  0
EOF
