  0
SECTION
  2
HEADER
  9
$ACADVER
  1
AC1009
  9
$INSBASE
 10
0.0
 20
0.0
 30
0.0
  9
$EXTMIN
 10
20891.99946803549
 20
17658.01544408781
 30
0.0
  9
$EXTMAX
 10
22290.36433634975
 20
18815.99524420044
 30
0.0
  9
$LIMMIN
 10
0.0
 20
0.0
  9
$LIMMAX
 10
420.0
 20
297.0
  9
$ORTHOMODE
 70
     0
  9
$REGENMODE
 70
     1
  9
$FILLMODE
 70
     1
  9
$QTEXTMODE
 70
     0
  9
$MIRRTEXT
 70
     0
  9
$DRAGMODE
 70
     2
  9
$LTSCALE
 40
1.0
  9
$OSMODE
 70
    39
  9
$ATTMODE
 70
     1
  9
$TEXTSIZE
 40
2.5
  9
$TRACEWID
 40
1.0
  9
$TEXTSTYLE
  7
STANDARD
  9
$CLAYER
  8
0
  9
$CELTYPE
  6
BYLAYER
  9
$CECOLOR
 62
   256
  9
$DIMSCALE
 40
1.0
  9
$DIMASZ
 40
3.5
  9
$DIMEXO
 40
1.0
  9
$DIMDLI
 40
10.0
  9
$DIMRND
 40
0.0
  9
$DIMDLE
 40
0.0
  9
$DIMEXE
 40
1.0
  9
$DIMTP
 40
0.1
  9
$DIMTM
 40
0.1
  9
$DIMTXT
 40
3.5
  9
$DIMCEN
 40
0.0
  9
$DIMTSZ
 40
0.0
  9
$DIMTOL
 70
     0
  9
$DIMLIM
 70
     0
  9
$DIMTIH
 70
     0
  9
$DIMTOH
 70
     0
  9
$DIMSE1
 70
     0
  9
$DIMSE2
 70
     0
  9
$DIMTAD
 70
     1
  9
$DIMZIN
 70
     8
  9
$DIMBLK
  1

  9
$DIMASO
 70
     1
  9
$DIMSHO
 70
     1
  9
$DIMPOST
  1

  9
$DIMAPOST
  1
"
  9
$DIMALT
 70
     0
  9
$DIMALTD
 70
     2
  9
$DIMALTF
 40
0.0393701
  9
$DIMLFAC
 40
1.0
  9
$DIMTOFL
 70
     1
  9
$DIMTVP
 40
0.0
  9
$DIMTIX
 70
     0
  9
$DIMSOXD
 70
     0
  9
$DIMSAH
 70
     0
  9
$DIMBLK1
  1

  9
$DIMBLK2
  1

  9
$DIMSTYLE
  2
AM_ISO
  9
$DIMCLRD
 70
   256
  9
$DIMCLRE
 70
   256
  9
$DIMCLRT
 70
     2
  9
$DIMTFAC
 40
0.71
  9
$DIMGAP
 40
1.5
  9
$LUNITS
 70
     2
  9
$LUPREC
 70
     2
  9
$SKETCHINC
 40
1.0
  9
$FILLETRAD
 40
2.5
  9
$AUNITS
 70
     0
  9
$AUPREC
 70
     0
  9
$MENU
  1
.
  9
$ELEVATION
 40
0.0
  9
$PELEVATION
 40
0.0
  9
$THICKNESS
 40
0.0
  9
$LIMCHECK
 70
     0
  9
$BLIPMODE
 70
     0
  9
$CHAMFERA
 40
2.5
  9
$CHAMFERB
 40
2.5
  9
$SKPOLY
 70
     0
  9
$TDCREATE
 40
2455251.6429182058
  9
$TDUPDATE
 40
2455251.7058038539
  9
$TDINDWG
 40
0.038774838
  9
$TDUSRTIMER
 40
0.0387747338
  9
$USRTIMER
 70
     1
  9
$ANGBASE
 50
0.0
  9
$ANGDIR
 70
     0
  9
$PDMODE
 70
     0
  9
$PDSIZE
 40
0.0
  9
$PLINEWID
 40
0.0
  9
$COORDS
 70
     1
  9
$SPLFRAME
 70
     0
  9
$SPLINETYPE
 70
     6
  9
$SPLINESEGS
 70
     8
  9
$ATTDIA
 70
     0
  9
$ATTREQ
 70
     1
  9
$HANDLING
 70
     1
  9
$HANDSEED
  5
294BB
  9
$SURFTAB1
 70
     6
  9
$SURFTAB2
 70
     6
  9
$SURFTYPE
 70
     6
  9
$SURFU
 70
     6
  9
$SURFV
 70
     6
  9
$UCSNAME
  2

  9
$UCSORG
 10
0.0
 20
0.0
 30
0.0
  9
$UCSXDIR
 10
1.0
 20
0.0
 30
0.0
  9
$UCSYDIR
 10
0.0
 20
1.0
 30
0.0
  9
$PUCSNAME
  2

  9
$PUCSORG
 10
0.0
 20
0.0
 30
0.0
  9
$PUCSXDIR
 10
1.0
 20
0.0
 30
0.0
  9
$PUCSYDIR
 10
0.0
 20
1.0
 30
0.0
  9
$USERI1
 70
     0
  9
$USERI2
 70
     0
  9
$USERI3
 70
     0
  9
$USERI4
 70
     0
  9
$USERI5
 70
     0
  9
$USERR1
 40
0.0
  9
$USERR2
 40
0.0
  9
$USERR3
 40
0.0
  9
$USERR4
 40
0.0
  9
$USERR5
 40
0.0
  9
$WORLDVIEW
 70
     1
  9
$SHADEDGE
 70
     3
  9
$SHADEDIF
 70
    70
  9
$TILEMODE
 70
     1
  9
$MAXACTVP
 70
    64
  9
$PLIMCHECK
 70
     0
  9
$PEXTMIN
 10
1.0000000000000000E+020
 20
1.0000000000000000E+020
 30
1.0000000000000000E+020
  9
$PEXTMAX
 10
-1.0000000000000000E+020
 20
-1.0000000000000000E+020
 30
-1.0000000000000000E+020
  9
$PLIMMIN
 10
0.0
 20
0.0
  9
$PLIMMAX
 10
420.0
 20
297.0
  9
$UNITMODE
 70
     0
  9
$VISRETAIN
 70
     1
  9
$PLINEGEN
 70
     0
  9
$PSLTSCALE
 70
     1
  0
ENDSEC
  0
SECTION
  2
TABLES
  0
TABLE
  2
VPORT
 70
     1
  0
VPORT
  2
*ACTIVE
 70
     0
 10
0.0
 20
0.0
 11
1.0
 21
1.0
 12
22691.687669441581
 22
18237.256548171212
 13
0.0
 23
0.0
 14
2.5
 24
2.5
 15
10.0
 25
10.0
 16
0.0
 26
0.0
 36
1.0
 17
0.0
 27
0.0
 37
0.0
 40
1530.463258131585
 41
2.3602620087336241
 42
50.0
 43
0.0
 44
0.0
 50
0.0
 51
0.0
 71
     0
 72
  1000
 73
     1
 74
     3
 75
     0
 76
     0
 77
     0
 78
     0
  0
ENDTAB
  0
TABLE
  2
LTYPE
 70
    16
  0
LTYPE
  2
CONTINUOUS
 70
     0
  3
Solid line
 72
    65
 73
     0
 40
0.0
  0
LTYPE
  2
DASHED2
 70
     0
  3
Dashed (.5x) _ _ _ _ _ _ _ _ _ _ _ _ _ _ _ _ _
 72
    65
 73
     2
 40
9.5249999999999986
 49
6.3499999999999979
 49
-3.174999999999998
  0
ENDTAB
  0
TABLE
  2
LAYER
 70
     6
  0
LAYER
  2
0
 70
     0
 62
     7
  6
CONTINUOUS
  0
LAYER
  2
LAYER1
 70
     0
 62
     1
  6
CONTINUOUS
  0
LAYER
  2
DEFPOINTS
 70
     0
 62
     7
  6
CONTINUOUS
  0
LAYER
  2
DIMS_SPECS
 70
     0
 62
    41
  6
CONTINUOUS
  0
LAYER
  2
CUTOUT
 70
     0
 62
    60
  6
CONTINUOUS
  0
ENDTAB
  0
TABLE
  2
STYLE
 70
     9
  0
STYLE
  2
STANDARD
 70
     0
 40
0.0
 41
1.0
 50
0.0
 71
     0
 42
2.5
  3
ISOCP.SHX
  4

  0
STYLE
  2
ACISOTS
 70
     0
 40
1.0
 41
1.0
 50
0.0
 71
     0
 42
2.5
  3
isocp.shx
  4

  0
STYLE
  2
ABODE-ISO
 70
     0
 40
17.0
 41
0.9
 50
0.0
 71
     0
 42
0.2
  3
txt
  4

  0
ENDTAB
  0
TABLE
  2
VIEW
 70
     0
  0
ENDTAB
  0
TABLE
  2
UCS
 70
     0
  0
ENDTAB
  0
TABLE
  2
APPID
 70
    21
  0
APPID
  2
ACAD
 70
     0
  0
APPID
  2
ACADANNOTATIVE
 70
     0
  0
APPID
  2
ACAD_MLEADERVER
 70
     0
  0
APPID
  2
MCAD_NO_VIS
 70
     0
  0
APPID
  2
ACAD_TEMP_GRAPHIC
 70
     0
  0
APPID
  2
AD_DRAW
 70
     0
  0
APPID
  2
ACATTRIBSERVICES
 70
     0
  0
APPID
  2
DESIGNERASSEMBLIES
 70
     0
  0
APPID
  2
ACADM_DIM_EDIT
 70
     0
  0
APPID
  2
AMDT_DM_ADJ
 70
     0
  0
APPID
  2
ACAD_DSTYLE_DIMJOGGED_JOGA
 70
     0
  0
APPID
  2
ACAECLAYERSTANDARD
 70
     0
  0
APPID
  2
ACAD_PSEXT
 70
     0
  0
APPID
  2
ACAD_DSTYLE_DIMJAG
 70
     0
  0
APPID
  2
ACAD_DSTYLE_DIMTALN
 70
     0
  0
APPID
  2
GENIUS_GENODEF_13
 70
     0
  0
APPID
  2
ACAD_DSTYLE_DIMINSPECT
 70
     0
  0
APPID
  2
GENIUS_GENREC_14
 70
     0
  0
APPID
  2
GENIUS_GENOBJ-N-REC_13
 70
     0
  0
APPID
  2
ACAD_DSTYLE_DIMRADIAL_EXTENSION
 70
     0
  0
APPID
  2
ACAD_DSTYLE_DIMBREAK
 70
     0
  0
ENDTAB
  0
TABLE
  2
DIMSTYLE
 70
    16
  0
DIMSTYLE
  2
STANDARD
 70
     0
  3

  4

  5

  6

  7

 40
1.0
 41
0.18
 42
0.0625
 43
0.38
 44
0.18
 45
0.0
 46
0.0
 47
0.0
 48
0.0
140
0.18
141
0.09
142
0.0
143
25.399999999999999
144
1.0
145
0.0
146
1.0
147
0.09
 71
     0
 72
     0
 73
     1
 74
     1
 75
     0
 76
     0
 77
     0
 78
     0
170
     0
171
     2
172
     0
173
     0
174
     0
175
     0
176
     0
177
     0
178
     0
  0
DIMSTYLE
  2
AM_ISO
 70
     0
  3

  4
"
  5

  6

  7

 40
1.0
 41
3.5
 42
1.0
 43
10.0
 44
1.0
 45
0.0
 46
0.0
 47
0.1
 48
0.1
140
3.5
141
0.0
142
0.0
143
0.0393701
144
1.0
145
0.0
146
0.71
147
1.5
 71
     0
 72
     0
 73
     0
 74
     0
 75
     0
 76
     0
 77
     1
 78
     8
170
     0
171
     2
172
     1
173
     0
174
     0
175
     0
176
   256
177
   256
178
     2
  0
ENDTAB
  0
ENDSEC
  0
SECTION
  2
BLOCKS
  0
BLOCK
  8
0
  2
$MODEL_SPACE
 70
     0
 10
0.0
 20
0.0
 30
0.0
  3
$MODEL_SPACE
  1

  0
ENDBLK
  5
28AAF
  8
0
  0
BLOCK
 67
     1
  8
0
  2
$PAPER_SPACE
 70
     0
 10
0.0
 20
0.0
 30
0.0
  3
$PAPER_SPACE
  1

  0
ENDBLK
  5
28AAB
 67
     1
  8
0
  0
BLOCK
  8
0
  2
FILLED-1
 70
     0
 10
0.0
 20
0.0
 30
0.0
  3
FILLED-1
  1

  0
LINE
  5
13A
  8
0
 62
     0
 10
-1.0
 20
0.0
 30
0.0
 11
0.0
 21
0.0
 31
0.0
  0
POLYLINE
  5
13B
  8
0
 62
     0
 66
     1
 10
0.0
 20
0.0
 30
0.0
 70
   128
  0
VERTEX
  5
29498
  8
0
 62
     0
 10
-1.0
 20
-0.3333333333333333
 30
0.0
  0
VERTEX
  5
29499
  8
0
 62
     0
 10
0.0
 20
0.0
 30
0.0
  0
VERTEX
  5
2949A
  8
0
 62
     0
 10
-1.0
 20
0.3333333333333333
 30
0.0
  0
VERTEX
  5
2949B
  8
0
 62
     0
 10
-1.0
 20
-0.3333333333333333
 30
0.0
  0
SEQEND
  5
2949C
  8
0
 62
     0
  0
SOLID
  5
141
  8
0
 62
     0
 10
-1.0
 20
-0.3333333333333333
 30
0.0
 11
0.0
 21
0.0
 31
0.0
 12
-1.0
 22
0.3333333333333333
 32
0.0
 13
-1.0
 23
-0.3333333333333333
 33
0.0
  0
LINE
  5
142
  8
0
 62
     0
 10
-1.0
 20
-0.3333333333333333
 30
0.0
 11
0.0
 21
0.0
 31
0.0
  0
LINE
  5
143
  8
0
 62
     0
 10
0.0
 20
0.0
 30
0.0
 11
-1.0
 21
0.3333333333333333
 31
0.0
  0
LINE
  5
144
  8
0
 62
     0
 10
-1.0
 20
0.3333333333333333
 30
0.0
 11
-1.0
 21
-0.3333333333333333
 31
0.0
  0
ENDBLK
  5
145
  8
0
  0
BLOCK
  8
0
  2
*D1013
 70
     1
 10
0.0
 20
0.0
 30
0.0
  3
*D1013
  1

  0
LINE
  5
27238
  8
DIMS_SPECS
 10
22229.926199028199
 20
17743.039638252831
 30
0.0
 11
22229.926199028199
 21
17725.969023232679
 31
0.0
  0
LINE
  5
27239
  8
DIMS_SPECS
 10
22210.926199028188
 20
17733.039586165989
 30
0.0
 11
22210.926199028188
 21
17725.969023232679
 31
0.0
  0
LINE
  5
2723A
  8
DIMS_SPECS
 10
22198.426199028188
 20
17725.969023232679
 30
0.0
 11
22185.926199028188
 21
17725.969023232679
 31
0.0
  0
LINE
  5
2723B
  8
DIMS_SPECS
 10
22242.426199028199
 20
17725.969023232679
 30
0.0
 11
22290.36433634975
 21
17725.969023232679
 31
0.0
  0
LINE
  5
2723C
  8
DIMS_SPECS
 10
22210.926199028188
 20
17725.969023232679
 30
0.0
 11
22229.926199028199
 21
17725.969023232679
 31
0.0
  0
INSERT
  5
2723D
  8
DIMS_SPECS
  2
FILLED-1
 10
22210.926199028188
 20
17725.969023232679
 30
0.0
 41
12.5
 42
12.5
 43
12.5
  0
INSERT
  5
2723E
  8
DIMS_SPECS
  2
FILLED-1
 10
22229.926199028199
 20
17725.969023232679
 30
0.0
 41
12.5
 42
12.5
 43
12.5
 50
180.0
  0
INSERT
  5
2723F
  8
0
  2
*U1014
 10
0.0
 20
0.0
 30
0.0
  0
POINT
  5
27240
  8
DEFPOINTS
 62
     0
 10
22229.926199028199
 20
17758.039638252831
 30
0.0
  0
POINT
  5
27241
  8
DEFPOINTS
 62
     0
 10
22210.926199028188
 20
17748.039586165989
 30
0.0
  0
POINT
  5
27242
  8
DEFPOINTS
 62
     0
 10
22210.926199028188
 20
17725.969023232679
 30
0.0
  0
ENDBLK
  5
27237
  8
0
  0
BLOCK
  8
0
  2
*U1014
 70
     1
 10
0.0
 20
0.0
 30
0.0
  3
*U1014
  1

  0
TEXT
  5
288A3
  8
DIMS_SPECS
 10
22260.595607593801
 20
17734.11042364057
 30
0.0
 40
17.0
  1
19
 41
0.9
  7
ABODE-ISO
  0
ENDBLK
  5
288A5
  8
0
  0
BLOCK
  8
0
  2
*D1015
 70
     1
 10
0.0
 20
0.0
 30
0.0
  3
*D1015
  1

  0
LINE
  5
27246
  8
DIMS_SPECS
 10
22210.926199028188
 20
17733.039586165989
 30
0.0
 11
22210.926199028188
 21
17707.537929184738
 31
0.0
  0
LINE
  5
27247
  8
DIMS_SPECS
 10
21812.634023735209
 20
17733.039586165989
 30
0.0
 11
21812.634023735209
 21
17707.537929184738
 31
0.0
  0
LINE
  5
27248
  8
DIMS_SPECS
 10
22198.426199028188
 20
17707.537929184738
 30
0.0
 11
21825.134023735201
 21
17707.537929184738
 31
0.0
  0
INSERT
  5
27249
  8
DIMS_SPECS
  2
FILLED-1
 10
22210.926199028188
 20
17707.537929184738
 30
0.0
 41
12.5
 42
12.5
 43
12.5
  0
INSERT
  5
2724A
  8
DIMS_SPECS
  2
FILLED-1
 10
21812.634023735209
 20
17707.537929184738
 30
0.0
 41
12.5
 42
12.5
 43
12.5
 50
180.0
  0
INSERT
  5
2724B
  8
0
  2
*U1016
 10
0.0
 20
0.0
 30
0.0
  0
POINT
  5
2724C
  8
DEFPOINTS
 62
     0
 10
22210.926199028188
 20
17748.039586165989
 30
0.0
  0
POINT
  5
2724D
  8
DEFPOINTS
 62
     0
 10
21812.634023735209
 20
17748.039586165989
 30
0.0
  0
POINT
  5
2724E
  8
DEFPOINTS
 62
     0
 10
21812.634023735209
 20
17707.537929184738
 30
0.0
  0
ENDBLK
  5
27245
  8
0
  0
BLOCK
  8
0
  2
*U1016
 70
     1
 10
0.0
 20
0.0
 30
0.0
  3
*U1016
  1

  0
TEXT
  5
288A7
  8
DIMS_SPECS
 10
22004.238358169579
 20
17715.679329592622
 30
0.0
 40
17.0
  1
397
 41
0.9
  7
ABODE-ISO
  0
ENDBLK
  5
288A9
  8
0
  0
BLOCK
  8
0
  2
*D1017
 70
     1
 10
0.0
 20
0.0
 30
0.0
  3
*D1017
  1

  0
LINE
  5
27252
  8
DIMS_SPECS
 10
22229.926199028199
 20
17743.039638252831
 30
0.0
 11
22229.926199028199
 21
17662.182110754478
 31
0.0
  0
LINE
  5
27253
  8
DIMS_SPECS
 10
21389.926199028188
 20
17743.039586165989
 30
0.0
 11
21389.926199028188
 21
17662.182110754478
 31
0.0
  0
LINE
  5
27254
  8
DIMS_SPECS
 10
22217.426199028199
 20
17662.182110754478
 30
0.0
 11
21402.426199028188
 21
17662.182110754478
 31
0.0
  0
INSERT
  5
27255
  8
DIMS_SPECS
  2
FILLED-1
 10
22229.926199028199
 20
17662.182110754478
 30
0.0
 41
12.5
 42
12.5
 43
12.5
  0
INSERT
  5
27256
  8
DIMS_SPECS
  2
FILLED-1
 10
21389.926199028188
 20
17662.182110754478
 30
0.0
 41
12.5
 42
12.5
 43
12.5
 50
180.0
  0
INSERT
  5
27257
  8
0
  2
*U1018
 10
0.0
 20
0.0
 30
0.0
  0
POINT
  5
27258
  8
DEFPOINTS
 62
     0
 10
22229.926199028199
 20
17758.039638252831
 30
0.0
  0
POINT
  5
27259
  8
DEFPOINTS
 62
     0
 10
21389.926199028188
 20
17758.039586165989
 30
0.0
  0
POINT
  5
2725A
  8
DEFPOINTS
 62
     0
 10
21389.926199028188
 20
17662.182110754478
 30
0.0
  0
ENDBLK
  5
27251
  8
0
  0
BLOCK
  8
0
  2
*U1018
 70
     1
 10
0.0
 20
0.0
 30
0.0
  3
*U1018
  1

  0
TEXT
  5
288AB
  8
DIMS_SPECS
 10
21768.49480077684
 20
17670.323511162369
 30
0.0
 40
17.0
  1
840
 41
0.9
  7
ABODE-ISO
  0
ENDBLK
  5
288AD
  8
0
  0
BLOCK
  8
0
  2
*D1019
 70
     1
 10
0.0
 20
0.0
 30
0.0
  3
*D1019
  1

  0
LINE
  5
2725E
  8
DIMS_SPECS
 10
21384.926199028188
 20
17748.039586165989
 30
0.0
 11
21344.469545919601
 21
17748.039586165989
 31
0.0
  0
LINE
  5
2725F
  8
DIMS_SPECS
 10
21384.926199028188
 20
18228.039586165989
 30
0.0
 11
21344.469545919601
 21
18228.039586165989
 31
0.0
  0
LINE
  5
27260
  8
DIMS_SPECS
 10
21344.469545919601
 20
17760.539586165989
 30
0.0
 11
21344.469545919601
 21
17971.61198589408
 31
0.0
  0
LINE
  5
27261
  8
DIMS_SPECS
 10
21344.469545919601
 20
18215.539586165989
 30
0.0
 11
21344.469545919601
 21
18004.46718643792
 31
0.0
  0
INSERT
  5
27262
  8
DIMS_SPECS
  2
FILLED-1
 10
21344.469545919601
 20
17748.039586165989
 30
0.0
 41
12.5
 42
12.5
 43
12.5
 50
270.0
  0
INSERT
  5
27263
  8
DIMS_SPECS
  2
FILLED-1
 10
21344.469545919601
 20
18228.039586165989
 30
0.0
 41
12.5
 42
12.5
 43
12.5
 50
90.0
  0
INSERT
  5
27264
  8
0
  2
*U1020
 10
0.0
 20
0.0
 30
0.0
  0
POINT
  5
27265
  8
DEFPOINTS
 62
     0
 10
21399.926199028188
 20
17748.039586165989
 30
0.0
  0
POINT
  5
27266
  8
DEFPOINTS
 62
     0
 10
21399.926199028188
 20
18228.039586165989
 30
0.0
  0
POINT
  5
27267
  8
DEFPOINTS
 62
     0
 10
21344.469545919601
 20
18228.039586165989
 30
0.0
  0
ENDBLK
  5
2725D
  8
0
  0
BLOCK
  8
0
  2
*U1020
 70
     1
 10
0.0
 20
0.0
 30
0.0
  3
*U1020
  1

  0
TEXT
  5
288AF
  8
DIMS_SPECS
 10
21326.83450173197
 20
17979.753386301971
 30
0.0
 40
17.0
  1
480
 41
0.9
  7
ABODE-ISO
  0
ENDBLK
  5
288B1
  8
0
  0
BLOCK
  8
0
  2
*D1021
 70
     1
 10
0.0
 20
0.0
 30
0.0
  3
*D1021
  1

  0
LINE
  5
2726B
  8
DIMS_SPECS
 10
21320.91290626302
 20
17710.4665256464
 30
0.0
 11
21362.32045215023
 21
17710.46652564641
 31
0.0
  0
LINE
  5
2726C
  8
DIMS_SPECS
 10
21362.32045215023
 20
17710.46652564641
 30
0.0
 11
21385.97321836097
 21
17740.388401205761
 31
0.0
  0
INSERT
  5
2726D
  8
0
  2
*U1022
 10
0.0
 20
0.0
 30
0.0
  0
LINE
  5
2726E
  8
DIMS_SPECS
 10
21399.926199028221
 20
17758.039586166
 30
0.0
 11
21393.724874287211
 21
17750.194615072549
 31
0.0
  0
INSERT
  5
2726F
  8
DIMS_SPECS
  2
FILLED-1
 10
21393.724874287211
 20
17750.194615072549
 30
0.0
 41
12.5
 42
12.5
 43
12.5
 50
51.674190920542173
  0
ARC
  5
27270
  8
DIMS_SPECS
 10
21399.926199028221
 20
17758.039586166
 30
0.0
 40
10.0000000000291
 50
231.67419092052589
 51
270.00000000000011
  0
POINT
  5
27271
  8
DEFPOINTS
 62
     0
 10
21393.724874287211
 20
17750.194615072549
 30
0.0
  0
POINT
  5
27272
  8
DEFPOINTS
 62
     0
 10
21399.926199028221
 20
17758.039586166
 30
0.0
  0
ENDBLK
  5
2726A
  8
0
  0
BLOCK
  8
0
  2
*U1022
 70
     1
 10
0.0
 20
0.0
 30
0.0
  3
*U1022
  1

  0
TEXT
  5
288B3
  8
DIMS_SPECS
 10
21318.967902863969
 20
17718.607926054301
 30
0.0
 40
17.0
  1
R10
 41
0.9
  7
ABODE-ISO
  0
ENDBLK
  5
288B5
  8
0
  0
BLOCK
  8
0
  2
*U1221
 70
     1
 10
0.0
 20
0.0
 30
0.0
  3
*U1221
  1

  0
TEXT
  5
28877
  8
CUTOUT
 10
21915.483227460321
 20
18040.533201938139
 30
0.0
 40
40.0
  1
BOWL(S),
  0
TEXT
  5
28878
  8
CUTOUT
 10
21885.483227460321
 20
17973.866535271482
 30
0.0
 40
40.0
  1
OVERFLOW,
  0
TEXT
  5
28879
  8
CUTOUT
 10
21898.483227460321
 20
17907.19986860481
 30
0.0
 40
40.0
  1
TAP AREA
  0
ENDBLK
  5
2887B
  8
0
  0
BLOCK
  8
0
  2
*U1222
 70
     1
 10
0.0
 20
0.0
 30
0.0
  3
*U1222
  1

  0
TEXT
  5
28886
  8
CUTOUT
 10
21632.67632514883
 20
18246.707206847648
 30
0.0
 40
40.0
  1
INSET CUT OUT
  0
ENDBLK
  5
28888
  8
0
  0
BLOCK
  8
0
  2
*U1223
 70
     1
 10
0.0
 20
0.0
 30
0.0
  3
*U1223
  1

  0
TEXT
  5
2888A
  8
0
 62
     1
 10
20909.27433903014
 20
18092.617998910559
 30
0.0
 40
8.0
  1
All details are provided in good faith and
  7
ACISOTS
  0
TEXT
  5
2888B
  8
0
 62
     1
 10
20890.826339030129
 20
18079.28466557723
 30
0.0
 40
8.0
  1
within
  7
ACISOTS
  0
TEXT
  5
2888C
  8
0
 62
     1
 10
20926.797339030141
 20
18065.951332243902
 30
0.0
 40
8.0
  1
the tolerances of the manufacturing process.
  7
ACISOTS
  0
TEXT
  5
2888D
  8
0
 62
     1
 10
20892.131139030149
 20
18052.617998910559
 30
0.0
 40
8.0
  1
Note: the dimensions on ceramic fireclay
  7
ACISOTS
  0
TEXT
  5
2888E
  8
0
 62
     1
 10
20890.826339030129
 20
18039.28466557723
 30
0.0
 40
8.0
  1
products
  7
ACISOTS
  0
TEXT
  5
2888F
  8
0
 62
     1
 10
20893.654939030141
 20
18025.951332243902
 30
0.0
 40
8.0
  1
are subject to wider tolerances due to the
  7
ACISOTS
  0
TEXT
  5
28890
  8
0
 62
     1
 10
20890.826339030129
 20
18012.617998910569
 30
0.0
 40
8.0
  1
nature
  7
ACISOTS
  0
TEXT
  5
28891
  8
0
 62
     1
 10
20915.369339030141
 20
17999.28466557723
 30
0.0
 40
8.0
  1
of this natural material and the firing
  7
ACISOTS
  0
TEXT
  5
28892
  8
0
 62
     1
 10
20890.826339030129
 20
17985.951332243902
 30
0.0
 40
8.0
  1
process.
  7
ACISOTS
  0
TEXT
  5
28893
  8
0
 62
     1
 10
20920.321339030139
 20
17959.284665577241
 30
0.0
 40
8.0
  1
We recommend that a test cutout is made in
  7
ACISOTS
  0
TEXT
  5
28894
  8
0
 62
     1
 10
20895.940639030141
 20
17945.951332243909
 30
0.0
 40
8.0
  1
scrap timber and checked against the actual
  7
ACISOTS
  0
TEXT
  5
28895
  8
0
 62
     1
 10
20890.826339030129
 20
17932.61799891058
 30
0.0
 40
8.0
  1
sink
  7
ACISOTS
  0
TEXT
  5
28896
  8
0
 62
     1
 10
20946.98833903014
 20
17919.284665577241
 30
0.0
 40
8.0
  1
supplied before committing to cutting
  7
ACISOTS
  0
TEXT
  5
28897
  8
0
 62
     1
 10
20890.826339030129
 20
17905.951332243909
 30
0.0
 40
8.0
  1
the
  7
ACISOTS
  0
TEXT
  5
28898
  8
0
 62
     1
 10
21137.466339030128
 20
17892.61799891058
 30
0.0
 40
8.0
  1
worksurface.
  7
ACISOTS
  0
TEXT
  5
28899
  8
0
 62
     1
 10
20917.655339030141
 20
17865.951332243909
 30
0.0
 40
8.0
  1
Abode can not accept liability for problems
  7
ACISOTS
  0
TEXT
  5
2889A
  8
0
 62
     1
 10
20890.826339030129
 20
17852.61799891058
 30
0.0
 40
8.0
  1
or
  7
ACISOTS
  0
TEXT
  5
2889B
  8
0
 62
     1
 10
20921.84533903014
 20
17839.284665577248
 30
0.0
 40
8.0
  1
costs incurred by failure to follow this advise,
  7
ACISOTS
  0
TEXT
  5
2889C
  8
0
 62
     1
 10
20914.607339030139
 20
17825.95133224392
 30
0.0
 40
8.0
  1
dimensions weights & measures are subject
  7
ACISOTS
  0
TEXT
  5
2889D
  8
0
 62
     1
 10
20890.826339030129
 20
17812.617998910591
 30
0.0
 40
8.0
  1
to
  7
ACISOTS
  0
TEXT
  5
2889E
  8
0
 62
     1
 10
20897.84533903014
 20
17799.284665577248
 30
0.0
 40
8.0
  1
change without prior notice. Errors and omissions
  7
ACISOTS
  0
TEXT
  5
2889F
  8
0
 62
     1
 10
21158.41633903014
 20
17785.95133224392
 30
0.0
 40
8.0
  1
excepted
  7
ACISOTS
  0
ENDBLK
  5
288A1
  8
0
  0
ENDSEC
  0
SECTION
  2
ENTITIES
  0
TEXT
  5
27220
  8
LAYER1
 10
21364.382864136151
 20
18673.436189082331
 30
0.0
 40
150.0
  1
AW5024
  0
LINE
  5
27221
  8
CUTOUT
 10
21389.926199028188
 20
18218.039586166
 30
0.0
 11
21389.926199028188
 21
17758.039586165989
 31
0.0
  0
ARC
  5
27222
  8
CUTOUT
 10
21399.926199028188
 20
17758.039586165989
 30
0.0
 40
10.0
 50
180.0
 51
270.0
  0
LINE
  5
27223
  8
CUTOUT
 10
22229.926199028188
 20
18218.039586166
 30
0.0
 11
22229.926199028199
 21
17758.039586165989
 31
0.0
  0
ARC
  5
27224
  8
CUTOUT
 10
22219.926199028188
 20
17758.039586165989
 30
0.0
 40
10.0
 50
270.0
 51
0.0
  0
LINE
  5
27225
  8
CUTOUT
  6
DASHED2
 10
22210.926199028188
 20
18228.039586165989
 30
0.0
 11
22210.926199028188
 21
17748.039586165989
 31
0.0
  0
LINE
  5
27226
  8
CUTOUT
  6
DASHED2
 10
21812.634023735201
 20
18228.039586165989
 30
0.0
 11
21812.634023735209
 21
17748.039586165989
 31
0.0
  0
LINE
  5
27227
  8
CUTOUT
 10
22219.926199028188
 20
18228.039586165989
 30
0.0
 11
21399.926199028188
 21
18228.039586165989
 31
0.0
  0
ARC
  5
27228
  8
CUTOUT
 10
22219.926199028188
 20
18218.039586166
 30
0.0
 40
10.0
 50
0.0
 51
90.0
  0
ARC
  5
27229
  8
CUTOUT
 10
21399.926199028188
 20
18218.039586166
 30
0.0
 40
10.0
 50
90.0
 51
180.0
  0
LINE
  5
2722A
  8
CUTOUT
 10
22219.926199028188
 20
17748.039586165989
 30
0.0
 11
21399.926199028188
 21
17748.039586165989
 31
0.0
  0
INSERT
  5
2722B
  8
0
  2
*U1221
 10
0.0
 20
0.0
 30
0.0
  0
POLYLINE
  5
2722C
  8
CUTOUT
  6
DASHED2
 66
     1
 10
0.0
 20
0.0
 30
0.0
 70
     1
1001
GENIUS_GENREC_14
1002
{
1000
PYDIR
1011
22167.355007078138
1021
0.0
1031
0.0
1021
17886.560608799558
1031
0.0
1002
}
1002
{
1000
PXDIR
1011
21874.194733055268
1021
0.0
1031
0.0
1021
18094.518563532431
1031
0.0
1002
}
1002
{
1000
PORI
1011
22167.355007078138
1021
0.0
1031
0.0
1021
18094.518563532431
1031
0.0
1002
}
1002
{
1000
PINS
1011
22167.355007078138
1021
0.0
1031
0.0
1021
18094.518563532431
1031
0.0
1002
}
1002
{
1000
PINS2
1011
21874.194733055268
1021
0.0
1031
0.0
1021
17886.560608799558
1031
0.0
1002
}
1002
{
1000
C
1070
     1
1002
}
1001
GENIUS_GENOBJ-N-REC_13
1002
{
1000
OWNER
1000
GEN
1002
}
1001
GENIUS_GENODEF_13
1002
{
1000
HIER
1070
     0
1002
}
1002
{
1000
MANEDIT
1070
     0
1002
}
1002
{
1000
NOSEL
1070
     0
1002
}
1002
{
1000
BEHIND
1070
     0
1002
}
1002
{
1000
OTHER
1070
     0
1002
}
1002
{
1000
REACTOR
1002
}
  0
VERTEX
  5
294A6
  8
CUTOUT
  6
DASHED2
 10
22147.355007078131
 20
18094.518563532431
 30
0.0
  0
VERTEX
  5
294A7
  8
CUTOUT
  6
DASHED2
 10
21894.194733055268
 20
18094.518563532431
 30
0.0
 42
0.4142135623730951
  0
VERTEX
  5
294A8
  8
CUTOUT
  6
DASHED2
 10
21874.194733055268
 20
18074.518563532431
 30
0.0
  0
VERTEX
  5
294A9
  8
CUTOUT
  6
DASHED2
 10
21874.194733055268
 20
17906.560608799558
 30
0.0
 42
0.4142135623730951
  0
VERTEX
  5
294AA
  8
CUTOUT
  6
DASHED2
 10
21894.194733055268
 20
17886.560608799558
 30
0.0
  0
VERTEX
  5
294AB
  8
CUTOUT
  6
DASHED2
 10
22147.355007078131
 20
17886.560608799558
 30
0.0
 42
0.4142135623730951
  0
VERTEX
  5
294AC
  8
CUTOUT
  6
DASHED2
 10
22167.355007078138
 20
17906.560608799558
 30
0.0
  0
VERTEX
  5
294AD
  8
CUTOUT
  6
DASHED2
 10
22167.355007078138
 20
18074.518563532431
 30
0.0
 42
0.4142135623730951
  0
SEQEND
  5
294AE
  8
CUTOUT
  6
DASHED2
  0
INSERT
  5
2722D
  8
0
  2
*U1222
 10
0.0
 20
0.0
 30
0.0
  0
DIMENSION
  5
2722E
  8
DIMS_SPECS
  2
*D1013
 10
22210.926199028188
 20
17725.969023232679
 30
0.0
 11
22273.24333023146
 21
17725.969023232679
 31
0.0
 70
   128
 13
22229.926199028199
 23
17758.039638252831
 33
0.0
 14
22210.926199028188
 24
17748.039586165989
 34
0.0
 50
180.0
1001
ACAD_DSTYLE_DIMINSPECT
1070
   396
1000
100%
1070
   395
1000

1070
   394
1070
    33
1070
   393
1070
     0
1001
ACAD
1000
DSTYLE
1002
{
1070
   174
1070
     1
1002
}
  0
DIMENSION
  5
2722F
  8
DIMS_SPECS
  2
*D1015
 10
21812.634023735209
 20
17707.537929184738
 30
0.0
 11
22022.034619216491
 21
17707.537929184738
 31
0.0
 70
   128
  1
397
 13
22210.926199028188
 23
17748.039586165989
 33
0.0
 14
21812.634023735209
 24
17748.039586165989
 34
0.0
 50
180.0
1001
ACAD_DSTYLE_DIMINSPECT
1070
   396
1000
100%
1070
   395
1000

1070
   394
1070
    33
1070
   393
1070
     0
1001
ACAD
1000
DSTYLE
1002
{
1070
   174
1070
     1
1002
}
  0
DIMENSION
  5
27230
  8
DIMS_SPECS
  2
*D1017
 10
21389.926199028188
 20
17662.182110754478
 30
0.0
 11
21786.218254209882
 21
17662.182110754478
 31
0.0
 70
   128
 13
22229.926199028199
 23
17758.039638252831
 33
0.0
 14
21389.926199028188
 24
17758.039586165989
 34
0.0
 50
180.0
1001
ACAD_DSTYLE_DIMINSPECT
1070
   396
1000
100%
1070
   395
1000

1070
   394
1070
    33
1070
   393
1070
     0
1001
ACAD
1000
DSTYLE
1002
{
1070
   174
1070
     1
1002
}
  0
DIMENSION
  5
27231
  8
DIMS_SPECS
  2
*D1019
 10
21344.469545919601
 20
18228.039586165989
 30
0.0
 11
21344.46954591959
 21
17988.039586166
 31
0.0
 70
   128
 13
21399.926199028188
 23
17748.039586165989
 33
0.0
 14
21399.926199028188
 24
18228.039586165989
 34
0.0
 50
90.0
1001
ACAD_DSTYLE_DIMINSPECT
1070
   396
1000
100%
1070
   395
1000

1070
   394
1070
    33
1070
   393
1070
     0
1001
ACAD
1000
DSTYLE
1002
{
1070
   174
1070
     1
1002
}
  0
DIMENSION
  5
27232
  8
DIMS_SPECS
  2
*D1021
 10
21399.926199028221
 20
17758.039586166
 30
0.0
 11
21337.866679206581
 21
17710.46652564641
 31
0.0
 70
   132
 15
21393.724874287211
 25
17750.194615072549
 35
0.0
 40
0.0
1001
ACAD_DSTYLE_DIMINSPECT
1070
   396
1000
100%
1070
   395
1000

1070
   394
1070
    33
1070
   393
1070
     0
1001
ACAD_DSTYLE_DIMRADIAL_EXTENSION
1070
   387
1070
     1
1070
   388
1040
4.7123889803846879
1070
   390
1040
0.0000000000000191
1001
ACAD
1000
DSTYLE
1002
{
1070
   174
1070
     1
1002
}
  0
INSERT
  5
27233
  8
0
  2
*U1223
 10
0.0
 20
0.0
 30
0.0
  0
TEXT
  5
27234
  8
LAYER1
 10
20982.82726205387
 20
17831.123642130311
 30
0.0
 40
30.0
  1
file version 1
  0
ENDSEC
  0
EOF
