  0
SECTION
  2
HEADER
  9
$ACADVER
  1
AC1018
  9
$ACADMAINTVER
 70
   104
  9
$DWGCODEPAGE
  3
ANSI_1252
  9
$LASTSAVEDBY
  1
Mark
  9
$INSBASE
 10
0.0
 20
0.0
 30
0.0
  9
$EXTMIN
 10
65.49213004807414
 20
2304.828253597241
 30
0.0
  9
$EXTMAX
 10
1926.198980108282
 20
3434.104924304966
 30
0.0
  9
$LIMMIN
 10
0.0
 20
0.0
  9
$LIMMAX
 10
420.0
 20
297.0
  9
$ORTHOMODE
 70
     0
  9
$REGENMODE
 70
     1
  9
$FILLMODE
 70
     1
  9
$QTEXTMODE
 70
     0
  9
$MIRRTEXT
 70
     0
  9
$LTSCALE
 40
1.0
  9
$ATTMODE
 70
     1
  9
$TEXTSIZE
 40
2.5
  9
$TRACEWID
 40
1.0
  9
$TEXTSTYLE
  7
STANDARD
  9
$CLAYER
  8
0
  9
$CELTYPE
  6
ByLayer
  9
$CECOLOR
 62
   256
  9
$CELTSCALE
 40
1.0
  9
$DISPSILH
 70
     0
  9
$DIMSCALE
 40
1.0
  9
$DIMASZ
 40
0.12
  9
$DIMEXO
 40
0.05
  9
$DIMDLI
 40
0.5
  9
$DIMRND
 40
0.0
  9
$DIMDLE
 40
0.0
  9
$DIMEXE
 40
0.1
  9
$DIMTP
 40
0.1
  9
$DIMTM
 40
0.1
  9
$DIMTXT
 40
0.12
  9
$DIMCEN
 40
0.0
  9
$DIMTSZ
 40
0.0
  9
$DIMTOL
 70
     0
  9
$DIMLIM
 70
     0
  9
$DIMTIH
 70
     1
  9
$DIMTOH
 70
     1
  9
$DIMSE1
 70
     0
  9
$DIMSE2
 70
     0
  9
$DIMTAD
 70
     0
  9
$DIMZIN
 70
     7
  9
$DIMBLK
  1

  9
$DIMASO
 70
     1
  9
$DIMSHO
 70
     1
  9
$DIMPOST
  1

  9
$DIMAPOST
  1
mm
  9
$DIMALT
 70
     0
  9
$DIMALTD
 70
     2
  9
$DIMALTF
 40
25.4
  9
$DIMLFAC
 40
1.0
  9
$DIMTOFL
 70
     0
  9
$DIMTVP
 40
0.0
  9
$DIMTIX
 70
     0
  9
$DIMSOXD
 70
     0
  9
$DIMSAH
 70
     0
  9
$DIMBLK1
  1

  9
$DIMBLK2
  1

  9
$DIMSTYLE
  2
AM_ANSI
  9
$DIMCLRD
 70
   256
  9
$DIMCLRE
 70
   256
  9
$DIMCLRT
 70
   140
  9
$DIMTFAC
 40
0.71
  9
$DIMGAP
 40
0.06
  9
$DIMJUST
 70
     0
  9
$DIMSD1
 70
     0
  9
$DIMSD2
 70
     0
  9
$DIMTOLJ
 70
     1
  9
$DIMTZIN
 70
     7
  9
$DIMALTZ
 70
     0
  9
$DIMALTTZ
 70
     0
  9
$DIMUPT
 70
     0
  9
$DIMDEC
 70
     4
  9
$DIMTDEC
 70
     4
  9
$DIMALTU
 70
     2
  9
$DIMALTTD
 70
     4
  9
$DIMTXSTY
  7
STANDARD
  9
$DIMAUNIT
 70
     0
  9
$DIMADEC
 70
     0
  9
$DIMALTRND
 40
0.0
  9
$DIMAZIN
 70
     2
  9
$DIMDSEP
 70
    46
  9
$DIMATFIT
 70
     3
  9
$DIMFRAC
 70
     0
  9
$DIMLDRBLK
  1

  9
$DIMLUNIT
 70
     2
  9
$DIMLWD
 70
    -1
  9
$DIMLWE
 70
    -1
  9
$DIMTMOVE
 70
     0
  9
$LUNITS
 70
     2
  9
$LUPREC
 70
     2
  9
$SKETCHINC
 40
1.0
  9
$FILLETRAD
 40
2.5
  9
$AUNITS
 70
     0
  9
$AUPREC
 70
     0
  9
$MENU
  1
.
  9
$ELEVATION
 40
0.0
  9
$PELEVATION
 40
0.0
  9
$THICKNESS
 40
0.0
  9
$LIMCHECK
 70
     0
  9
$CHAMFERA
 40
2.5
  9
$CHAMFERB
 40
2.5
  9
$CHAMFERC
 40
0.0
  9
$CHAMFERD
 40
0.0
  9
$SKPOLY
 70
     0
  9
$TDCREATE
 40
2455251.642918206
  9
$TDUCREATE
 40
2455251.642918206
  9
$TDUPDATE
 40
2455964.397800544
  9
$TDUUPDATE
 40
2455964.397800544
  9
$TDINDWG
 40
0.0206746296
  9
$TDUSRTIMER
 40
0.0206732176
  9
$USRTIMER
 70
     1
  9
$ANGBASE
 50
0.0
  9
$ANGDIR
 70
     0
  9
$PDMODE
 70
     0
  9
$PDSIZE
 40
0.0
  9
$PLINEWID
 40
0.0
  9
$SPLFRAME
 70
     0
  9
$SPLINETYPE
 70
     6
  9
$SPLINESEGS
 70
     8
  9
$HANDSEED
  5
4229
  9
$SURFTAB1
 70
     6
  9
$SURFTAB2
 70
     6
  9
$SURFTYPE
 70
     6
  9
$SURFU
 70
     6
  9
$SURFV
 70
     6
  9
$UCSBASE
  2

  9
$UCSNAME
  2

  9
$UCSORG
 10
0.0
 20
0.0
 30
0.0
  9
$UCSXDIR
 10
1.0
 20
0.0
 30
0.0
  9
$UCSYDIR
 10
0.0
 20
1.0
 30
0.0
  9
$UCSORTHOREF
  2

  9
$UCSORTHOVIEW
 70
     0
  9
$UCSORGTOP
 10
0.0
 20
0.0
 30
0.0
  9
$UCSORGBOTTOM
 10
0.0
 20
0.0
 30
0.0
  9
$UCSORGLEFT
 10
0.0
 20
0.0
 30
0.0
  9
$UCSORGRIGHT
 10
0.0
 20
0.0
 30
0.0
  9
$UCSORGFRONT
 10
0.0
 20
0.0
 30
0.0
  9
$UCSORGBACK
 10
0.0
 20
0.0
 30
0.0
  9
$PUCSBASE
  2

  9
$PUCSNAME
  2

  9
$PUCSORG
 10
0.0
 20
0.0
 30
0.0
  9
$PUCSXDIR
 10
1.0
 20
0.0
 30
0.0
  9
$PUCSYDIR
 10
0.0
 20
1.0
 30
0.0
  9
$PUCSORTHOREF
  2

  9
$PUCSORTHOVIEW
 70
     0
  9
$PUCSORGTOP
 10
0.0
 20
0.0
 30
0.0
  9
$PUCSORGBOTTOM
 10
0.0
 20
0.0
 30
0.0
  9
$PUCSORGLEFT
 10
0.0
 20
0.0
 30
0.0
  9
$PUCSORGRIGHT
 10
0.0
 20
0.0
 30
0.0
  9
$PUCSORGFRONT
 10
0.0
 20
0.0
 30
0.0
  9
$PUCSORGBACK
 10
0.0
 20
0.0
 30
0.0
  9
$USERI1
 70
     0
  9
$USERI2
 70
     0
  9
$USERI3
 70
     0
  9
$USERI4
 70
     0
  9
$USERI5
 70
     0
  9
$USERR1
 40
0.0
  9
$USERR2
 40
0.0
  9
$USERR3
 40
0.0
  9
$USERR4
 40
0.0
  9
$USERR5
 40
0.0
  9
$WORLDVIEW
 70
     1
  9
$SHADEDGE
 70
     3
  9
$SHADEDIF
 70
    70
  9
$TILEMODE
 70
     1
  9
$MAXACTVP
 70
    64
  9
$PINSBASE
 10
0.0
 20
0.0
 30
0.0
  9
$PLIMCHECK
 70
     0
  9
$PEXTMIN
 10
1.000000000000000E+20
 20
1.000000000000000E+20
 30
1.000000000000000E+20
  9
$PEXTMAX
 10
-1.000000000000000E+20
 20
-1.000000000000000E+20
 30
-1.000000000000000E+20
  9
$PLIMMIN
 10
0.0
 20
0.0
  9
$PLIMMAX
 10
420.0
 20
297.0
  9
$UNITMODE
 70
     0
  9
$VISRETAIN
 70
     1
  9
$PLINEGEN
 70
     0
  9
$PSLTSCALE
 70
     1
  9
$TREEDEPTH
 70
  3020
  9
$CMLSTYLE
  2
Standard
  9
$CMLJUST
 70
     0
  9
$CMLSCALE
 40
1.0
  9
$PROXYGRAPHICS
 70
     1
  9
$MEASUREMENT
 70
     0
  9
$CELWEIGHT
370
    -1
  9
$ENDCAPS
280
     0
  9
$JOINSTYLE
280
     0
  9
$LWDISPLAY
290
     0
  9
$INSUNITS
 70
     0
  9
$HYPERLINKBASE
  1

  9
$STYLESHEET
  1

  9
$XEDIT
290
     1
  9
$CEPSNTYPE
380
     0
  9
$PSTYLEMODE
290
     1
  9
$FINGERPRINTGUID
  2
{1EBF7251-FAA6-474C-8561-BB53432412D5}
  9
$VERSIONGUID
  2
{BD4C2DF6-032D-4819-8E73-D1A0E8C2890A}
  9
$EXTNAMES
290
     1
  9
$PSVPSCALE
 40
0.0
  9
$OLESTARTUP
290
     0
  9
$SORTENTS
280
   127
  9
$INDEXCTL
280
     0
  9
$HIDETEXT
280
     0
  9
$XCLIPFRAME
290
     0
  9
$HALOGAP
280
     0
  9
$OBSCOLOR
 70
   257
  9
$OBSLTYPE
280
     0
  9
$INTERSECTIONDISPLAY
280
     0
  9
$INTERSECTIONCOLOR
 70
   257
  9
$DIMASSOC
280
     1
  9
$PROJECTNAME
  1

  0
ENDSEC
  0
SECTION
  2
CLASSES
  0
CLASS
  1
ACDBDICTIONARYWDFLT
  2
AcDbDictionaryWithDefault
  3
ObjectDBX Classes
 90
        0
 91
        1
280
     0
281
     0
  0
CLASS
  1
MATERIAL
  2
AcDbMaterial
  3
ObjectDBX Classes
 90
     1153
 91
        3
280
     0
281
     0
  0
CLASS
  1
VISUALSTYLE
  2
AcDbVisualStyle
  3
ObjectDBX Classes
 90
     4095
 91
       16
280
     0
281
     0
  0
CLASS
  1
SCALE
  2
AcDbScale
  3
ObjectDBX Classes
 90
     1153
 91
       33
280
     0
281
     0
  0
CLASS
  1
TABLESTYLE
  2
AcDbTableStyle
  3
ObjectDBX Classes
 90
     4095
 91
        1
280
     0
281
     0
  0
CLASS
  1
MLEADERSTYLE
  2
AcDbMLeaderStyle
  3
ACDB_MLEADERSTYLE_CLASS
 90
     4095
 91
        1
280
     0
281
     0
  0
CLASS
  1
AMGSETTINGSOBJ
  2
AmgSettingsObj
  3
"AcadM|Product Description: AutoCAD Mechanical|Company: Autodesk, Inc."
 90
     1024
 91
        2
280
     0
281
     0
  0
CLASS
  1
ACME_DOCUMENT
  2
AcMeDbDoc
  3
AcMeServices
 90
     1024
 91
        1
280
     0
281
     0
  0
CLASS
  1
ACMESCOPE
  2
AcMeScope
  3
AcMeServices
 90
     1024
 91
        1
280
     0
281
     0
  0
CLASS
  1
ACMECOMMANDHISTORY
  2
AcMeCommandHistory
  3
AcMeServices
 90
     1024
 91
        1
280
     0
281
     0
  0
CLASS
  1
ACIMSYSVARMAN
  2
AcImSysVarManager
  3
AcMeServices
 90
     1024
 91
        6
280
     0
281
     0
  0
CLASS
  1
ACIMINTSYSVAR
  2
AcImIntSysVar
  3
AcMeServices
 90
     1024
 91
       27
280
     0
281
     0
  0
CLASS
  1
ACMEDRAWINGMAN
  2
AcMeDrawingMan
  3
AcMeServices
 90
     1024
 91
        1
280
     0
281
     0
  0
CLASS
  1
ACMEVIEW
  2
AcMeView
  3
AcMeServices
 90
     1024
 91
        1
280
     0
281
     0
  0
CLASS
  1
ACDBENTITYCACHE
  2
AcMeEntityCache
  3
AcMeServices
 90
     1024
 91
        1
280
     0
281
     0
  0
CLASS
  1
GSMANAGER
  2
AcMeGSManager
  3
AcMeServices
 90
     1024
 91
        1
280
     0
281
     0
  0
CLASS
  1
AMDTINTERNALREACTOR
  2
AmdtInternalReactor
  3
AcMeServices
 90
     1024
 91
        2
280
     0
281
     0
  0
CLASS
  1
ACMESTATEMGR
  2
AcMeStateMgr
  3
AcMeServices
 90
     1024
 91
        1
280
     0
281
     0
  0
CLASS
  1
ACGREFMASTER
  2
AcGrefMaster
  3
AcAttribServices
 90
     1024
 91
        1
280
     0
281
     0
  0
CLASS
  1
AM_DRAWING_MGR
  2
AcDmDwgMgr
  3
AcMechDwgViewMgmt
 90
     1024
 91
        1
280
     0
281
     0
  0
CLASS
  1
AM_DWG_DOCUMENT
  2
AcDmDwgDocument
  3
AcMechDwgViewMgmt
 90
     1024
 91
        1
280
     0
281
     0
  0
CLASS
  1
AM_DWG_SHEET
  2
AcDmSheet
  3
AcMechDwgViewMgmt
 90
     1024
 91
        1
280
     0
281
     0
  0
CLASS
  1
AM_VIEWDIMPARMAP
  2
AcDmViewDimParMap
  3
AcMechDwgViewMgmt
 90
     1024
 91
        1
280
     0
281
     0
  0
CLASS
  1
ACIMREALSYSVAR
  2
AcImRealSysVar
  3
AcMeServices
 90
     1024
 91
        1
280
     0
281
     0
  0
CLASS
  1
AM_DWGMGR_NAME
  2
AcDmDwgMgrName
  3
AcMechDwgViewMgmt
 90
     1024
 91
        1
280
     0
281
     0
  0
CLASS
  1
ACME_DATABASE
  2
AcMeDbDatabase
  3
AcMeServices
 90
     1024
 91
        2
280
     0
281
     0
  0
CLASS
  1
ACRFINSADJUSTERMGR
  2
AcRfInsAdjusterMgr
  3
AcMeServices
 90
     1024
 91
        1
280
     0
281
     0
  0
CLASS
  1
ACGREFACADMASTER
  2
AcGrefacadMaster
  3
AcGrefServices
 90
     1024
 91
        1
280
     0
281
     0
  0
CLASS
  1
AMDTMENUSTATEMGR
  2
AmdtMenuStateMgr
  3
McadcomServices
 90
     1024
 91
        1
280
     0
281
     0
  0
CLASS
  1
AMDTMCOMMENUSTATE
  2
AmdtMcomMenuState
  3
McadcomServices
 90
     1024
 91
        1
280
     0
281
     0
  0
CLASS
  1
AMIMASTER
  2
AmiMaster
  3
AmiServices
 90
     1024
 91
        1
280
     0
281
     0
  0
CLASS
  1
MAPIAMMOUDLE
  2
MApiAmModule
  3
MApiAmServices
 90
     1024
 91
        1
280
     0
281
     0
  0
CLASS
  1
ACIMSTRSYSVAR
  2
AcImStrSysVar
  3
AcMeServices
 90
     1024
 91
        6
280
     0
281
     0
  0
CLASS
  1
AMDTADMENUSTATE
  2
AmdtAdMenuState
  3
DesignerServices
 90
     1024
 91
        1
280
     0
281
     0
  0
CLASS
  1
ADAPPL
  2
AcAdAppl
  3
DesignerServices
 90
     1024
 91
        1
280
     0
281
     0
  0
CLASS
  1
DEPMGR
  2
AcAdDepMgr
  3
DesignerServices
 90
     1024
 91
        1
280
     0
281
     0
  0
CLASS
  1
PARAMMGR
  2
AcAdParamMgr
  3
DesignerServices
 90
     1024
 91
        1
280
     0
281
     0
  0
CLASS
  1
PARAMSCOPE
  2
AcAdParamScope
  3
DesignerServices
 90
     1024
 91
        1
280
     0
281
     0
  0
CLASS
  1
NAMEDAPPL
  2
AcAdNamedAppl
  3
DesignerServices
 90
     1024
 91
        1
280
     0
281
     0
  0
CLASS
  1
AMDTDMMENUSTATE
  2
AmdtDmMenuState
  3
AcMechDwgViewMgmt
 90
     1024
 91
        1
280
     0
281
     0
  0
CLASS
  1
AMDTAMMENUSTATE
  2
AmdtAmMenuState
  3
DesignerAssemblies
 90
     1024
 91
        1
280
     0
281
     0
  0
CLASS
  1
ACAMPROJECT
  2
AcAmProject
  3
DesignerAssemblies
 90
     1024
 91
        1
280
     0
281
     0
  0
CLASS
  1
ACAMGRCOMPDEF
  2
AcAmGrCompDef
  3
DesignerAssemblies
 90
     1024
 91
        1
280
     0
281
     0
  0
CLASS
  1
ACCMCONTEXT
  2
AcCmContext
  3
DesignerAssemblies
 90
     1024
 91
        1
280
     0
281
     0
  0
CLASS
  1
ACAMCOMPDEF
  2
AcAmCompDef
  3
DesignerAssemblies
 90
     1024
 91
        1
280
     0
281
     0
  0
CLASS
  1
ACAMCOMPDEFMGR
  2
AcAmCompDefMgr
  3
DesignerAssemblies
 90
     1024
 91
        1
280
     0
281
     0
  0
CLASS
  1
AMCONTEXTMGR
  2
AcAmContextMgr
  3
DesignerAssemblies
 90
     1024
 91
        1
280
     0
281
     0
  0
CLASS
  1
ACAMCONTEXTMODELER
  2
AcAmContextModeler
  3
DesignerAssemblies
 90
     1024
 91
        1
280
     0
281
     0
  0
CLASS
  1
ACMDATADICTIONARY
  2
AcmDataDictionary
  3
"AcmSymBB|Product Description: AutoCAD Mechanical|Company: Autodesk, Inc."
 90
     1024
 91
        1
280
     0
281
     0
  0
CLASS
  1
CATALOGSTATE
  2
AcAmCatalogState
  3
DesignerAssemblies
 90
     1024
 91
        1
280
     0
281
     0
  0
CLASS
  1
ACAMGRCOMPDEFSET
  2
AcAmGrCompDefSet
  3
DesignerAssemblies
 90
     1024
 91
        1
280
     0
281
     0
  0
CLASS
  1
AMDTBROWSERDBTAB
  2
AmdtBrowserDbTab
  3
McadcomServices
 90
     1024
 91
        1
280
     0
281
     0
  0
CLASS
  1
CBROWSERAPPOBJECT
  2
CBrowserAppObject
  3
McadcomServices
 90
     1024
 91
        3
280
     0
281
     0
  0
CLASS
  1
DM_PLACEHOLDER
  2
AcDmSelsetPlaceholder
  3
AcMechDwgViewMgmt
 90
     1024
 91
        1
280
     0
281
     0
  0
CLASS
  1
EXACXREFPANELOBJECT
  2
ExAcXREFPanelObject
  3
EXAC_ESW
 90
     1025
 91
        1
280
     0
281
     0
  0
CLASS
  1
NPOCOLLECTION
  2
AcDbImpNonPersistentObjectsCollection
  3
ObjectDBX Classes
 90
     1153
 91
        1
280
     0
281
     0
  0
CLASS
  1
ACMSTANDARDANSI
  2
AcmStandardANSI
  3
"Amdt_StdImp|Product Description: AutoCAD Mechanical|Company: Autodesk, Inc."
 90
     1024
 91
        1
280
     0
281
     0
  0
CLASS
  1
ACMSURFSTANDARDANSI
  2
AcmSurfTextStdANSI
  3
"Amdt_StdImp|Product Description: AutoCAD Mechanical|Company: Autodesk, Inc."
 90
     1024
 91
        1
280
     0
281
     0
  0
CLASS
  1
ACMFCFSTANDARDANSI
  2
AcmFCFStdANSI
  3
"Amdt_StdImp|Product Description: AutoCAD Mechanical|Company: Autodesk, Inc."
 90
     1024
 91
        1
280
     0
281
     0
  0
CLASS
  1
ACMWELDSTANDARDANSI
  2
AcmWeldingStdANSI
  3
"Amdt_StdImp|Product Description: AutoCAD Mechanical|Company: Autodesk, Inc."
 90
     1024
 91
        1
280
     0
281
     0
  0
CLASS
  1
ACMIDSTANDARDANSI
  2
AcmIdStdANSI
  3
"Amdt_StdImp|Product Description: AutoCAD Mechanical|Company: Autodesk, Inc."
 90
     1024
 91
        1
280
     0
281
     0
  0
CLASS
  1
ACMDATUMSTANDARDANSI
  2
AcmDatumStdANSI
  3
"Amdt_StdImp|Product Description: AutoCAD Mechanical|Company: Autodesk, Inc."
 90
     1024
 91
        1
280
     0
281
     0
  0
CLASS
  1
ACMBOMSTANDARDANSI
  2
AcmBOMStdANSI
  3
"Amdt_StdImp|Product Description: AutoCAD Mechanical|Company: Autodesk, Inc."
 90
     1024
 91
        1
280
     0
281
     0
  0
CLASS
  1
ACMDETAILSTANDARDANSI
  2
AmdtDetailSymStdANSI
  3
"Amdt_StdImp|Product Description: AutoCAD Mechanical|Company: Autodesk, Inc."
 90
     1024
 91
        1
280
     0
281
     0
  0
CLASS
  1
ACMSECTIONSTANDARDANSI
  2
AmdtSectionSymStdANSI
  3
"Amdt_StdImp|Product Description: AutoCAD Mechanical|Company: Autodesk, Inc."
 90
     1024
 91
        1
280
     0
281
     0
  0
CLASS
  1
ACMCENTERLINESTANDARDANSI
  2
AmdtCenterLineStdANSI
  3
"Amdt_StdImp|Product Description: AutoCAD Mechanical|Company: Autodesk, Inc."
 90
     1024
 91
        1
280
     0
281
     0
  0
CLASS
  1
ACMTHREADLINESTANDARDANSI
  2
AmdtThreadLineStdANSI
  3
"Amdt_StdImp|Product Description: AutoCAD Mechanical|Company: Autodesk, Inc."
 90
     1024
 91
        1
280
     0
281
     0
  0
CLASS
  1
ACMNOTESTANDARDANSI
  2
AmdtNoteStdANSI
  3
"Amdt_StdImp|Product Description: AutoCAD Mechanical|Company: Autodesk, Inc."
 90
     1024
 91
        1
280
     0
281
     0
  0
CLASS
  1
ACMTAPERSTANDARDANSI
  2
AcmTaperStdANSI
  3
"Amdt_StdImp|Product Description: AutoCAD Mechanical|Company: Autodesk, Inc."
 90
     1024
 91
        1
280
     0
281
     0
  0
CLASS
  1
ACMANOOTATIONVIEWSTANDARDANSI
  2
AmdtAnViewStdANSI
  3
"Amdt_StdImp|Product Description: AutoCAD Mechanical|Company: Autodesk, Inc."
 90
     1024
 91
        1
280
     0
281
     0
  0
CLASS
  1
ACAMGLAYSTD
  2
AcAmgLayStd
  3
"AmgLay|Product Description: AutoCAD Mechanical|Company: Autodesk, Inc."
 90
     1024
 91
        2
280
     0
281
     0
  0
CLASS
  1
ACAMGDIMSTD
  2
AcAmgDimStd
  3
"AmgDim|Product Description: AutoCAD Mechanical|Company: Autodesk, Inc."
 90
     1024
 91
        2
280
     0
281
     0
  0
CLASS
  1
AMGOBJPROPCFG
  2
AmgObjPropCfg
  3
"AmgLay|Product Description: AutoCAD Mechanical|Company: Autodesk, Inc."
 90
     1025
 91
        1
280
     0
281
     0
  0
CLASS
  1
ACAMGHOLECHARTSTDANSI
  2
AcAmgHoleChartStdANSI
  3
AmgDim|Product Description: AutoCAD Mechanical|Company: Autodesk, Inc.
 90
     1024
 91
        1
280
     0
281
     0
  0
CLASS
  1
ACAMGTITLESTD
  2
AcAmgTitleStd
  3
"AmgTitle|Product Description: AutoCAD Mechanical|Company: Autodesk, Inc."
 90
     4095
 91
        2
280
     0
281
     0
  0
CLASS
  1
AMDTNOTETEMPLATEDB
  2
AmdtNoteTemplateDB
  3
AcmSymBB|Product Description: AutoCAD Mechanical|Company: Autodesk, Inc.
 90
     1024
 91
       12
280
     0
281
     0
  0
CLASS
  1
ACAMGFILTERDAT
  2
AcAmgFilterDat
  3
"AcadM|Product Description: AutoCAD Mechanical|Company: Autodesk, Inc."
 90
     1024
 91
        6
280
     0
281
     0
  0
CLASS
  1
DIMASSOC
  2
AcDbDimAssoc
  3
"AcDbDimAssoc|Product Desc:     AcDim ARX App For Dimension|Company:          Autodesk, Inc.|WEB Address:      www.autodesk.com"
 90
        0
 91
        4
280
     0
281
     0
  0
CLASS
  1
SORTENTSTABLE
  2
AcDbSortentsTable
  3
ObjectDBX Classes
 90
        0
 91
        1
280
     0
281
     0
  0
CLASS
  1
ACMSTANDARDISO
  2
AcmStandardISO
  3
"Amdt_StdImp|Product Description: AutoCAD Mechanical|Company: Autodesk, Inc."
 90
     1024
 91
        1
280
     0
281
     0
  0
CLASS
  1
ACMSURFSTANDARDISO2002
  2
AcmSurfTextStdISO2002
  3
"Amdt_StdImp|Product Description: AutoCAD Mechanical|Company: Autodesk, Inc."
 90
     1024
 91
        1
280
     0
281
     0
  0
CLASS
  1
ACMFCFSTANDARDISO
  2
AcmFCFStdISO
  3
"Amdt_StdImp|Product Description: AutoCAD Mechanical|Company: Autodesk, Inc."
 90
     1024
 91
        1
280
     0
281
     0
  0
CLASS
  1
ACMWELDSTANDARDISO
  2
AcmWeldingStdISO
  3
"Amdt_StdImp|Product Description: AutoCAD Mechanical|Company: Autodesk, Inc."
 90
     1024
 91
        1
280
     0
281
     0
  0
CLASS
  1
ACMIDSTANDARDISO
  2
AcmIdStdISO
  3
"Amdt_StdImp|Product Description: AutoCAD Mechanical|Company: Autodesk, Inc."
 90
     1024
 91
        1
280
     0
281
     0
  0
CLASS
  1
ACMDATUMSTANDARDISO
  2
AcmDatumStdISO
  3
"Amdt_StdImp|Product Description: AutoCAD Mechanical|Company: Autodesk, Inc."
 90
     1024
 91
        1
280
     0
281
     0
  0
CLASS
  1
ACMBOMSTANDARDISO
  2
AcmBOMStdISO
  3
"Amdt_StdImp|Product Description: AutoCAD Mechanical|Company: Autodesk, Inc."
 90
     1024
 91
        1
280
     0
281
     0
  0
CLASS
  1
ACMDETAILSTANDARDISO
  2
AmdtDetailSymStdISO
  3
"Amdt_StdImp|Product Description: AutoCAD Mechanical|Company: Autodesk, Inc."
 90
     1024
 91
        1
280
     0
281
     0
  0
CLASS
  1
ACMSECTIONSTANDARDISO2001
  2
AmdtSectionSymStdISO2001
  3
"Amdt_StdImp|Product Description: AutoCAD Mechanical|Company: Autodesk, Inc."
 90
     1024
 91
        1
280
     0
281
     0
  0
CLASS
  1
ACMCENTERLINESTANDARDISO
  2
AmdtCenterLineStdISO
  3
"Amdt_StdImp|Product Description: AutoCAD Mechanical|Company: Autodesk, Inc."
 90
     1024
 91
        1
280
     0
281
     0
  0
CLASS
  1
ACMNOTESTANDARDISO
  2
AmdtNoteStdISO
  3
"Amdt_StdImp|Product Description: AutoCAD Mechanical|Company: Autodesk, Inc."
 90
     1024
 91
        1
280
     0
281
     0
  0
CLASS
  1
ACAMGHOLECHARTSTDISO
  2
AcAmgHoleChartStdISO
  3
AmgDim|Product Description: AutoCAD Mechanical|Company: Autodesk, Inc.
 90
     1024
 91
        1
280
     0
281
     0
  0
CLASS
  1
ACMTHREADLINESTANDARDISO
  2
AmdtThreadLineStdISO
  3
"Amdt_StdImp|Product Description: AutoCAD Mechanical|Company: Autodesk, Inc."
 90
     1024
 91
        1
280
     0
281
     0
  0
CLASS
  1
ACMTAPERSTANDARDISO
  2
AcmTaperStdISO
  3
"Amdt_StdImp|Product Description: AutoCAD Mechanical|Company: Autodesk, Inc."
 90
     1024
 91
        1
280
     0
281
     0
  0
CLASS
  1
ACMANOOTATIONVIEWSTANDARDISO
  2
AmdtAnViewStdISO
  3
"Amdt_StdImp|Product Description: AutoCAD Mechanical|Company: Autodesk, Inc."
 90
     1024
 91
        1
280
     0
281
     0
  0
CLASS
  1
AMDTEDGESTANDARDISO13715
  2
AmdtEdgeStdISO13715
  3
"Amdt_StdImp|Product Description: AutoCAD Mechanical|Company: Autodesk, Inc."
 90
     1024
 91
        1
280
     0
281
     0
  0
CLASS
  1
ACMDATAENTRYBLOCK
  2
AcmDataEntryBlock
  3
AcmSymBB|Product Description: AutoCAD Mechanical|Company: Autodesk, Inc.
 90
     1024
 91
        1
280
     0
281
     0
  0
CLASS
  1
DICTIONARYVAR
  2
AcDbDictionaryVar
  3
ObjectDBX Classes
 90
        0
 91
        3
280
     0
281
     0
  0
CLASS
  1
CELLSTYLEMAP
  2
AcDbCellStyleMap
  3
ObjectDBX Classes
 90
     1152
 91
        1
280
     0
281
     0
  0
ENDSEC
  0
SECTION
  2
TABLES
  0
TABLE
  2
VPORT
  5
3FF6
330
0
100
AcDbSymbolTable
 70
     1
  0
VPORT
  5
4066
330
3FF6
100
AcDbSymbolTableRecord
100
AcDbViewportTableRecord
  2
*ACTIVE
 70
     0
 10
0.0
 20
0.0
 11
1.0
 21
1.0
 12
864.1192675906522
 22
2484.181626663098
 13
0.0
 23
0.0
 14
2.5
 24
2.5
 15
10.0
 25
10.0
 16
0.0
 26
0.0
 36
1.0
 17
0.0
 27
0.0
 37
0.0
 40
1001.096985628807
 41
1.976109215017064
 42
50.0
 43
0.0
 44
0.0
 50
0.0
 51
0.0
 71
     0
 72
  1000
 73
     1
 74
     3
 75
     0
 76
     0
 77
     0
 78
     0
281
     0
 65
     0
110
0.0
120
0.0
130
0.0
111
1.0
121
0.0
131
0.0
112
0.0
122
1.0
132
0.0
 79
     0
146
0.0
  0
ENDTAB
  0
TABLE
  2
LTYPE
  5
3FF3
330
0
100
AcDbSymbolTable
 70
    20
  0
LTYPE
  5
4050
330
3FF3
100
AcDbSymbolTableRecord
100
AcDbLinetypeTableRecord
  2
ByBlock
 70
     0
  3

 72
    65
 73
     0
 40
0.0
  0
LTYPE
  5
4051
330
3FF3
100
AcDbSymbolTableRecord
100
AcDbLinetypeTableRecord
  2
ByLayer
 70
     0
  3

 72
    65
 73
     0
 40
0.0
  0
LTYPE
  5
4052
330
3FF3
100
AcDbSymbolTableRecord
100
AcDbLinetypeTableRecord
  2
CONTINUOUS
 70
     0
  3
Solid line
 72
    65
 73
     0
 40
0.0
  0
LTYPE
  5
40D5
330
3FF3
100
AcDbSymbolTableRecord
100
AcDbLinetypeTableRecord
  2
HIDDEN
 70
     0
  3
Hidden __ __ __ __ __ __ __ __ __ __ __ __ __ _
 72
    65
 73
     2
 40
0.375
 49
0.25
 74
     0
 49
-0.125
 74
     0
  0
LTYPE
  5
40D6
330
3FF3
100
AcDbSymbolTableRecord
100
AcDbLinetypeTableRecord
  2
PHANTOM2
 70
     0
  3
Phantom (.5x) ___ _ _ ___ _ _ ___ _ _ ___ _ _
 72
    65
 73
     6
 40
1.25
 49
0.625
 74
     0
 49
-0.125
 74
     0
 49
0.125
 74
     0
 49
-0.125
 74
     0
 49
0.125
 74
     0
 49
-0.125
 74
     0
  0
LTYPE
  5
40D7
330
3FF3
100
AcDbSymbolTableRecord
100
AcDbLinetypeTableRecord
  2
CENTER
 70
     0
  3
Center ____ _ ____ _ ____ _ ____ _ ____ _ ____
 72
    65
 73
     4
 40
2.0
 49
1.25
 74
     0
 49
-0.25
 74
     0
 49
0.25
 74
     0
 49
-0.25
 74
     0
  0
LTYPE
  5
4119
330
3FF3
100
AcDbSymbolTableRecord
100
AcDbLinetypeTableRecord
  2
AM_ISO02W050
 70
     0
  3
__ __ __ __ __ __ __ __ __ __ __ __ __ __ __
 72
    65
 73
     2
 40
7.5
 49
6.0
 74
     0
 49
-1.5
 74
     0
  0
LTYPE
  5
411A
330
3FF3
100
AcDbSymbolTableRecord
100
AcDbLinetypeTableRecord
  2
AM_ISO08W050
 70
     0
  3
____ . ____ . ____ . ____ . ____ . ____ . ____
 72
    65
 73
     4
 40
18.0
 49
12.0
 74
     0
 49
-1.5
 74
     0
 49
3.0
 74
     0
 49
-1.5
 74
     0
  0
LTYPE
  5
411B
330
3FF3
100
AcDbSymbolTableRecord
100
AcDbLinetypeTableRecord
  2
AM_ISO09W050
 70
     0
  3
_____ . . _____ . . _____ . . ____ .. ____
 72
    65
 73
     6
 40
22.5
 49
12.0
 74
     0
 49
-1.5
 74
     0
 49
3.0
 74
     0
 49
-1.5
 74
     0
 49
3.0
 74
     0
 49
-1.5
 74
     0
  0
LTYPE
  5
411C
330
3FF3
100
AcDbSymbolTableRecord
100
AcDbLinetypeTableRecord
  2
Amconstr
 70
     0
  3
_______________________
 72
    65
 73
     2
 40
9999.0
 49
9999.0
 74
     0
 49
0.0
 74
     0
  0
LTYPE
  5
411D
330
3FF3
100
AcDbSymbolTableRecord
100
AcDbLinetypeTableRecord
  2
AM_ISO08W050x2
 70
     0
  3
__ . __ . __ . __ . __ . __
 72
    65
 73
     4
 40
9.0
 49
6.0
 74
     0
 49
-0.75
 74
     0
 49
1.5
 74
     0
 49
-0.75
 74
     0
  0
LTYPE
  5
411E
330
3FF3
100
AcDbSymbolTableRecord
100
AcDbLinetypeTableRecord
  2
AM_ISO02W050x2
 70
     0
  3
 _ _ _ _ _ _ _ _ _ _ _ _
 72
    65
 73
     2
 40
3.75
 49
3.0
 74
     0
 49
-0.75
 74
     0
  0
LTYPE
  5
4121
330
3FF3
100
AcDbSymbolTableRecord
100
AcDbLinetypeTableRecord
  2
Amzigzag
 70
     0
  3
/\/-/\/-/\/-/\/-/\/-/\/
 72
    65
 73
     2
 40
11.0001
 49
0.0001
 74
     4
 75
   136
340
4120
 46
0.04
 50
0.0
 44
0.0
 45
0.0
 49
-11.0
 74
     0
  0
LTYPE
  5
4122
330
3FF3
100
AcDbSymbolTableRecord
100
AcDbLinetypeTableRecord
  2
CENTER2
 70
     0
  3
Center (.5x) ___ _ ___ _ ___ _ ___ _ ___ _ ___
 72
    65
 73
     4
 40
1.125
 49
0.75
 74
     0
 49
-0.125
 74
     0
 49
0.125
 74
     0
 49
-0.125
 74
     0
  0
LTYPE
  5
4123
330
3FF3
100
AcDbSymbolTableRecord
100
AcDbLinetypeTableRecord
  2
HIDDEN2
 70
     0
  3
Hidden (.5x) _ _ _ _ _ _ _ _ _ _ _ _ _ _ _ _ _
 72
    65
 73
     2
 40
0.1875
 49
0.125
 74
     0
 49
-0.0625
 74
     0
  0
LTYPE
  5
4124
330
3FF3
100
AcDbSymbolTableRecord
100
AcDbLinetypeTableRecord
  2
Amzigzag2
 70
     0
  3
/\/-/\/-/\/-/\/-/\/-/\/
 72
    65
 73
     2
 40
0.4401
 49
0.0001
 74
     4
 75
   136
340
4120
 46
0.0016
 50
0.0
 44
0.0
 45
0.0
 49
-0.4400000000000001
 74
     0
  0
LTYPE
  5
4132
330
3FF3
100
AcDbSymbolTableRecord
100
AcDbLinetypeTableRecord
  2
ACANSTGB
 70
     0
  3
__ . . __ . .
 72
    65
 73
     6
 40
0.35433070866
 49
0.15748031496
 74
     0
 49
-0.03937007874
 74
     0
 49
0.03937007874
 74
     0
 49
-0.03937007874
 74
     0
 49
0.03937007874
 74
     0
 49
-0.03937007874
 74
     0
  0
LTYPE
  5
4133
330
3FF3
100
AcDbSymbolTableRecord
100
AcDbLinetypeTableRecord
  2
ACANSTGL
 70
     0
  3
_ _ _ _ _
 72
    65
 73
     2
 40
0.11811023622
 49
0.07874015748
 74
     0
 49
-0.03937007874
 74
     0
  0
LTYPE
  5
4165
330
3FF3
100
AcDbSymbolTableRecord
100
AcDbLinetypeTableRecord
  2
ACISOWELD
 70
     0
  3
_ _ _ _ _
 72
    65
 73
     2
 40
2.0
 49
2.0
 74
     0
 49
-1.0
 74
     0
  0
LTYPE
  5
4166
330
3FF3
100
AcDbSymbolTableRecord
100
AcDbLinetypeTableRecord
  2
ACISOTGB
 70
     0
  3
__ . . __ . .
 72
    65
 73
     6
 40
9.0
 49
4.0
 74
     0
 49
-1.0
 74
     0
 49
1.0
 74
     0
 49
-1.0
 74
     0
 49
1.0
 74
     0
 49
-1.0
 74
     0
  0
LTYPE
  5
4167
330
3FF3
100
AcDbSymbolTableRecord
100
AcDbLinetypeTableRecord
  2
ACISOTGL
 70
     0
  3
_ _ _ _ _
 72
    65
 73
     2
 40
3.0
 49
2.0
 74
     0
 49
-1.0
 74
     0
  0
LTYPE
  5
4168
330
3FF3
100
AcDbSymbolTableRecord
100
AcDbLinetypeTableRecord
  2
DASHDOT
 70
     0
  3
Dash dot __ . __ . __ . __ . __ . __ . __ . __
 72
    65
 73
     4
 40
25.4
 49
12.7
 74
     0
 49
-6.349999999999999
 74
     0
 49
0.0
 74
     0
 49
-6.349999999999999
 74
     0
  0
ENDTAB
  0
TABLE
  2
LAYER
  5
3FF0
102
{ACAD_XDICTIONARY
360
4179
102
}
330
0
100
AcDbSymbolTable
 70
     8
  0
LAYER
  5
404A
102
{ACAD_XDICTIONARY
360
4200
102
}
330
3FF0
100
AcDbSymbolTableRecord
100
AcDbLayerTableRecord
  2
0
 70
     0
 62
     7
  6
CONTINUOUS
370
    -3
390
3FFD
  0
LAYER
  5
4067
102
{ACAD_XDICTIONARY
360
4202
102
}
330
3FF0
100
AcDbSymbolTableRecord
100
AcDbLayerTableRecord
  2
LAYER1
 70
     0
 62
     1
  6
CONTINUOUS
370
    -3
390
3FFD
  0
LAYER
  5
4068
330
3FF0
100
AcDbSymbolTableRecord
100
AcDbLayerTableRecord
  2
DEFPOINTS
 70
     0
 62
     7
  6
CONTINUOUS
290
     0
370
    -3
390
3FFD
  0
LAYER
  5
4069
102
{ACAD_XDICTIONARY
360
4204
102
}
330
3FF0
100
AcDbSymbolTableRecord
100
AcDbLayerTableRecord
  2
DIMS_SPECS
 70
     0
 62
    41
  6
CONTINUOUS
370
    -3
390
3FFD
  0
LAYER
  5
406A
102
{ACAD_XDICTIONARY
360
4206
102
}
330
3FF0
100
AcDbSymbolTableRecord
100
AcDbLayerTableRecord
  2
CUTOUT
 70
     0
 62
    60
  6
CONTINUOUS
370
    -3
390
3FFD
  0
LAYER
  5
4169
102
{ACAD_XDICTIONARY
360
4208
102
}
330
3FF0
100
AcDbSymbolTableRecord
100
AcDbLayerTableRecord
  2
DIMS SPECS
 70
     0
 62
    41
  6
CONTINUOUS
370
    13
390
3FFD
  0
LAYER
  5
416A
102
{ACAD_XDICTIONARY
360
420A
102
}
330
3FF0
100
AcDbSymbolTableRecord
100
AcDbLayerTableRecord
  2
DRAINER MAT 2
 70
     0
 62
     2
  6
CONTINUOUS
290
     0
370
    35
390
3FFD
1001
ACAECLAYERSTANDARD
1000

1000

  0
LAYER
  5
416B
102
{ACAD_XDICTIONARY
360
420C
102
}
330
3FF0
100
AcDbSymbolTableRecord
100
AcDbLayerTableRecord
  2
sink_specs
 70
     0
 62
   254
  6
CONTINUOUS
370
    20
390
3FFD
1001
ACAECLAYERSTANDARD
1000

1000

  0
ENDTAB
  0
TABLE
  2
STYLE
  5
3FF1
330
0
100
AcDbSymbolTable
 70
     9
  0
STYLE
  5
404B
330
3FF1
100
AcDbSymbolTableRecord
100
AcDbTextStyleTableRecord
  2
STANDARD
 70
     0
 40
0.0
 41
1.0
 50
0.0
 71
     0
 42
2.5
  3
ISOCP.SHX
  4

  0
STYLE
  5
404F
330
3FF1
100
AcDbSymbolTableRecord
100
AcDbTextStyleTableRecord
  2
Annotative
 70
     0
 40
0.0
 41
1.0
 50
0.0
 71
     0
 42
0.2
  3
txt
  4

1001
ACADANNOTATIVE
1000
AnnotativeData
1002
{
1070
     1
1070
     1
1002
}
  0
STYLE
  5
406B
330
3FF1
100
AcDbSymbolTableRecord
100
AcDbTextStyleTableRecord
  2
ACISOTS
 70
     0
 40
1.0
 41
1.0
 50
0.0
 71
     0
 42
2.5
  3
isocp.shx
  4

  0
STYLE
  5
406C
330
3FF1
100
AcDbSymbolTableRecord
100
AcDbTextStyleTableRecord
  2
ABODE-ISO
 70
     0
 40
17.0
 41
0.9
 50
0.0
 71
     0
 42
0.2
  3
txt
  4

  0
STYLE
  5
4120
330
3FF1
100
AcDbSymbolTableRecord
100
AcDbTextStyleTableRecord
  2

 70
     1
 40
0.0
 41
1.0
 50
0.0
 71
     0
 42
2.5
  3
genltshp.shx
  4

  0
STYLE
  5
4130
330
3FF1
100
AcDbSymbolTableRecord
100
AcDbTextStyleTableRecord
  2
ACANSTS
 70
     0
 40
1.0
 41
1.0
 50
0.0
 71
     0
 42
2.5
  3
romans.shx
  4

  0
STYLE
  5
4131
330
3FF1
100
AcDbSymbolTableRecord
100
AcDbTextStyleTableRecord
  2
ACANSGDT
 70
     0
 40
0.0
 41
1.0
 50
0.0
 71
     0
 42
2.5
  3
amgdt.shx
  4

  0
STYLE
  5
416C
330
3FF1
100
AcDbSymbolTableRecord
100
AcDbTextStyleTableRecord
  2
ACISOGDT
 70
     0
 40
0.0
 41
1.0
 50
0.0
 71
     0
 42
2.5
  3
amgdt.shx
  4

  0
STYLE
  5
416D
330
3FF1
100
AcDbSymbolTableRecord
100
AcDbTextStyleTableRecord
  2
SLDTEXTSTYLE0
 70
     0
 40
0.0
 41
0.75
 50
0.0
 71
     0
 42
0.2
  3
TXT
  4

  0
ENDTAB
  0
TABLE
  2
VIEW
  5
3FF4
330
0
100
AcDbSymbolTable
 70
     0
  0
ENDTAB
  0
TABLE
  2
UCS
  5
3FF5
330
0
100
AcDbSymbolTable
 70
     0
  0
ENDTAB
  0
TABLE
  2
APPID
  5
3FF7
330
0
100
AcDbSymbolTable
 70
    27
  0
APPID
  5
404C
330
3FF7
100
AcDbSymbolTableRecord
100
AcDbRegAppTableRecord
  2
ACAD
 70
     0
  0
APPID
  5
4053
330
3FF7
100
AcDbSymbolTableRecord
100
AcDbRegAppTableRecord
  2
ACADANNOTATIVE
 70
     0
  0
APPID
  5
405D
330
3FF7
100
AcDbSymbolTableRecord
100
AcDbRegAppTableRecord
  2
ACAD_MLEADERVER
 70
     0
  0
APPID
  5
406D
330
3FF7
100
AcDbSymbolTableRecord
100
AcDbRegAppTableRecord
  2
MCAD_NO_VIS
 70
     0
  0
APPID
  5
406E
330
3FF7
100
AcDbSymbolTableRecord
100
AcDbRegAppTableRecord
  2
ACAD_TEMP_GRAPHIC
 70
     0
  0
APPID
  5
406F
330
3FF7
100
AcDbSymbolTableRecord
100
AcDbRegAppTableRecord
  2
AD_DRAW
 70
     0
  0
APPID
  5
4070
330
3FF7
100
AcDbSymbolTableRecord
100
AcDbRegAppTableRecord
  2
ACATTRIBSERVICES
 70
     0
  0
APPID
  5
4071
330
3FF7
100
AcDbSymbolTableRecord
100
AcDbRegAppTableRecord
  2
DESIGNERASSEMBLIES
 70
     0
  0
APPID
  5
4072
330
3FF7
100
AcDbSymbolTableRecord
100
AcDbRegAppTableRecord
  2
ACADM_DIM_EDIT
 70
     0
  0
APPID
  5
4073
330
3FF7
100
AcDbSymbolTableRecord
100
AcDbRegAppTableRecord
  2
AMDT_DM_ADJ
 70
     0
  0
APPID
  5
4074
330
3FF7
100
AcDbSymbolTableRecord
100
AcDbRegAppTableRecord
  2
ACAD_DSTYLE_DIMJOGGED_JOGA
 70
     0
  0
APPID
  5
4075
330
3FF7
100
AcDbSymbolTableRecord
100
AcDbRegAppTableRecord
  2
ACAECLAYERSTANDARD
 70
     0
  0
APPID
  5
4076
330
3FF7
100
AcDbSymbolTableRecord
100
AcDbRegAppTableRecord
  2
ACAD_PSEXT
 70
     0
  0
APPID
  5
4077
330
3FF7
100
AcDbSymbolTableRecord
100
AcDbRegAppTableRecord
  2
ACAD_DSTYLE_DIMJAG
 70
     0
  0
APPID
  5
4078
330
3FF7
100
AcDbSymbolTableRecord
100
AcDbRegAppTableRecord
  2
ACAD_DSTYLE_DIMTALN
 70
     0
  0
APPID
  5
4079
330
3FF7
100
AcDbSymbolTableRecord
100
AcDbRegAppTableRecord
  2
GENIUS_GENODEF_13
 70
     0
  0
APPID
  5
407A
330
3FF7
100
AcDbSymbolTableRecord
100
AcDbRegAppTableRecord
  2
ACAD_DSTYLE_DIMINSPECT
 70
     0
  0
APPID
  5
407B
330
3FF7
100
AcDbSymbolTableRecord
100
AcDbRegAppTableRecord
  2
GENIUS_GENREC_14
 70
     0
  0
APPID
  5
407C
330
3FF7
100
AcDbSymbolTableRecord
100
AcDbRegAppTableRecord
  2
GENIUS_GENOBJ-N-REC_13
 70
     0
  0
APPID
  5
407D
330
3FF7
100
AcDbSymbolTableRecord
100
AcDbRegAppTableRecord
  2
ACAD_DSTYLE_DIMRADIAL_EXTENSION
 70
     0
  0
APPID
  5
407E
330
3FF7
100
AcDbSymbolTableRecord
100
AcDbRegAppTableRecord
  2
ACAD_DSTYLE_DIMBREAK
 70
     0
  0
APPID
  5
4178
330
3FF7
100
AcDbSymbolTableRecord
100
AcDbRegAppTableRecord
  2
ACAD_DSTYLE_DIMJOGGED_JOGANGLE_SYMBOL
 70
     0
  0
APPID
  5
4220
330
3FF7
100
AcDbSymbolTableRecord
100
AcDbRegAppTableRecord
  2
ACAD_DSTYLE_DIMARC_LENGTH_SYMBOL
 70
     0
  0
APPID
  5
4221
330
3FF7
100
AcDbSymbolTableRecord
100
AcDbRegAppTableRecord
  2
ACAD_DSTYLE_DIM_LINETYPE
 70
     0
  0
APPID
  5
4222
330
3FF7
100
AcDbSymbolTableRecord
100
AcDbRegAppTableRecord
  2
ACAD_DSTYLE_DIM_EXT1_LINETYPE
 70
     0
  0
APPID
  5
4223
330
3FF7
100
AcDbSymbolTableRecord
100
AcDbRegAppTableRecord
  2
ACAD_DSTYLE_DIM_EXT2_LINETYPE
 70
     0
  0
APPID
  5
4226
330
3FF7
100
AcDbSymbolTableRecord
100
AcDbRegAppTableRecord
  2
ACAD_DSTYLE_DIMTEXT_FILL
 70
     0
  0
ENDTAB
  0
TABLE
  2
DIMSTYLE
  5
3FF8
330
0
100
AcDbSymbolTable
 70
    19
100
AcDbDimStyleTable
 71
     1
340
4117
  0
DIMSTYLE
105
404D
330
3FF8
100
AcDbSymbolTableRecord
100
AcDbDimStyleTableRecord
  2
STANDARD
 70
     0
271
     2
272
     2
279
     2
284
     8
285
     8
286
     8
340
404B
  0
DIMSTYLE
105
404E
330
3FF8
100
AcDbSymbolTableRecord
100
AcDbDimStyleTableRecord
  2
Annotative
 70
     0
340
404B
1001
ACADANNOTATIVE
1000
AnnotativeData
1002
{
1070
     1
1070
     1
1002
}
  0
DIMSTYLE
105
407F
330
3FF8
100
AcDbSymbolTableRecord
100
AcDbDimStyleTableRecord
  2
AM_ISO
 70
     0
  4
"
 41
3.5
 42
1.0
 43
10.0
 44
1.0
 47
0.1
 48
0.1
 73
     0
 74
     0
 77
     1
 78
     8
140
3.5
141
0.0
143
0.0393701
146
0.71
147
1.5
172
     1
176
   256
177
   256
178
     2
271
     2
272
     2
279
     2
284
     8
285
     8
286
     8
340
404B
  0
DIMSTYLE
105
4117
102
{ACAD_REACTORS
330
4107
102
}
330
3FF8
100
AcDbSymbolTableRecord
100
AcDbDimStyleTableRecord
  2
AM_ANSI
 70
     0
  4
mm
 41
0.12
 42
0.05
 43
0.5
 44
0.1
 47
0.1
 48
0.1
 78
     7
 79
     2
140
0.12
141
0.0
146
0.71
147
0.06
176
   256
177
   256
178
   140
274
     4
284
     7
340
404B
371
    -1
372
    -1
1001
ACAD_DSTYLE_DIMARC_LENGTH_SYMBOL
1070
   379
1070
     1
1001
ACAD_DSTYLE_DIM_LINETYPE
1070
   380
1005
4050
1001
ACAD_DSTYLE_DIM_EXT1_LINETYPE
1070
   381
1005
4050
1001
ACAD_DSTYLE_DIM_EXT2_LINETYPE
1070
   382
1005
4050
  0
DIMSTYLE
105
4125
330
3FF8
100
AcDbSymbolTableRecord
100
AcDbDimStyleTableRecord
  2
AM_ANSI$3
 70
     0
  4
mm
 41
0.12
 42
0.05
 43
0.5
 44
0.1
 47
0.1
 48
0.1
 78
     7
 79
     2
140
0.12
141
0.0
146
0.71
147
0.06
176
   256
177
   256
178
   140
274
     4
284
     7
288
     1
289
     0
340
404B
371
    -1
372
    -1
1001
ACAD_DSTYLE_DIMARC_LENGTH_SYMBOL
1070
   379
1070
     1
1001
ACAD_DSTYLE_DIM_LINETYPE
1070
   380
1005
4050
1001
ACAD_DSTYLE_DIM_EXT1_LINETYPE
1070
   381
1005
4050
1001
ACAD_DSTYLE_DIM_EXT2_LINETYPE
1070
   382
1005
4050
  0
DIMSTYLE
105
4126
330
3FF8
100
AcDbSymbolTableRecord
100
AcDbDimStyleTableRecord
  2
AM_ANSI$4
 70
     0
  4
mm
 41
0.12
 42
0.05
 43
0.5
 44
0.1
 47
0.1
 48
0.1
 78
     7
 79
     2
140
0.12
141
0.0
146
0.71
147
0.06
176
   256
177
   256
178
   140
274
     4
284
     7
340
404B
371
    -1
372
    -1
1001
ACAD_DSTYLE_DIMARC_LENGTH_SYMBOL
1070
   379
1070
     1
1001
ACAD_DSTYLE_DIM_LINETYPE
1070
   380
1005
4050
1001
ACAD_DSTYLE_DIM_EXT1_LINETYPE
1070
   381
1005
4050
1001
ACAD_DSTYLE_DIM_EXT2_LINETYPE
1070
   382
1005
4050
  0
DIMSTYLE
105
4127
330
3FF8
100
AcDbSymbolTableRecord
100
AcDbDimStyleTableRecord
  2
AM_ANSI$7
 70
     0
  4
mm
 41
0.12
 42
0.05
 43
0.5
 44
0.1
 47
0.1
 48
0.1
 78
     7
 79
     2
140
0.12
141
0.0
146
0.71
147
0.06
176
   256
177
   256
178
   140
274
     4
284
     7
340
404B
371
    -1
372
    -1
1001
ACAD_DSTYLE_DIMARC_LENGTH_SYMBOL
1070
   379
1070
     1
1001
ACAD_DSTYLE_DIM_LINETYPE
1070
   380
1005
4050
1001
ACAD_DSTYLE_DIM_EXT1_LINETYPE
1070
   381
1005
4050
1001
ACAD_DSTYLE_DIM_EXT2_LINETYPE
1070
   382
1005
4050
  0
DIMSTYLE
105
4128
330
3FF8
100
AcDbSymbolTableRecord
100
AcDbDimStyleTableRecord
  2
AM_ANSI$SF
 70
     0
  4
mm
 41
0.12
 42
0.05
 43
0.5
 44
0.1
 47
0.1
 48
0.1
 75
     1
 76
     1
 78
     7
 79
     2
140
0.12
141
0.0
146
0.71
147
0.06
176
   256
177
   256
178
   140
274
     4
284
     7
340
404B
371
    -1
372
    -1
1001
ACAD_DSTYLE_DIMARC_LENGTH_SYMBOL
1070
   379
1070
     1
1001
ACAD_DSTYLE_DIM_LINETYPE
1070
   380
1005
4050
1001
ACAD_DSTYLE_DIM_EXT1_LINETYPE
1070
   381
1005
4050
1001
ACAD_DSTYLE_DIM_EXT2_LINETYPE
1070
   382
1005
4050
  0
DIMSTYLE
105
412D
330
3FF8
100
AcDbSymbolTableRecord
100
AcDbDimStyleTableRecord
  2
AM_ANSI$SH
 70
     0
  4
mm
 41
0.12
 42
0.05
 43
0.5
 44
0.1
 47
0.1
 48
0.1
 75
     1
 76
     1
 78
     7
 79
     2
140
0.12
141
0.0
146
0.71
147
0.06
173
     1
176
   256
177
   256
178
   140
274
     4
284
     7
340
404B
343
4129
371
    -1
372
    -1
1001
ACAD_DSTYLE_DIMARC_LENGTH_SYMBOL
1070
   379
1070
     1
1001
ACAD_DSTYLE_DIM_LINETYPE
1070
   380
1005
4050
1001
ACAD_DSTYLE_DIM_EXT1_LINETYPE
1070
   381
1005
4050
1001
ACAD_DSTYLE_DIM_EXT2_LINETYPE
1070
   382
1005
4050
  0
DIMSTYLE
105
416E
330
3FF8
100
AcDbSymbolTableRecord
100
AcDbDimStyleTableRecord
  2
ISO-25
 70
     0
 41
2.5
 42
0.625
 43
3.75
 44
1.25
 73
     0
 74
     0
 77
     1
 78
     8
140
2.5
141
2.5
143
0.03937007874016
147
0.625
171
     3
172
     1
271
     2
272
     2
274
     3
278
    44
283
     0
284
     8
340
404B
  0
DIMSTYLE
105
416F
330
3FF8
100
AcDbSymbolTableRecord
100
AcDbDimStyleTableRecord
  2
abode-iso
 70
     0
 40
10.0
 41
1.25
 42
1.5
 43
6.0
 44
0.0
 45
0.00000001
 46
10.0
 77
     1
 78
    12
 79
     3
140
17.0
143
0.03937
147
0.75
171
     3
172
     1
176
   256
177
   256
178
   256
271
     0
272
     0
274
     3
340
406C
342
4086
371
    25
372
    25
1001
ACAD_DSTYLE_DIMJAG
1070
   388
1040
1.5
1001
ACAD_DSTYLE_DIMTALN
1070
   392
1070
     0
  0
DIMSTYLE
105
4170
330
3FF8
100
AcDbSymbolTableRecord
100
AcDbDimStyleTableRecord
  2
abode-iso$7
 70
     0
 40
10.0
 41
2.5
 42
1.5
 43
6.0
 44
3.174999999999999
 45
0.00000001
 46
10.0
 77
     1
 78
    12
 79
     3
140
2.5
143
0.03937
146
1.399999999999999
147
0.762
171
     3
172
     1
176
     7
177
   256
178
   256
271
     0
272
     0
274
     3
340
406C
371
    25
372
    25
1001
ACAD_DSTYLE_DIMBREAK
1070
   391
1040
3.75
1001
ACAD_DSTYLE_DIMJAG
1070
   388
1040
1.5
1001
ACAD_DSTYLE_DIMTALN
1070
   392
1070
     0
  0
DIMSTYLE
105
4171
102
{ACAD_REACTORS
330
418E
330
41C2
102
}
330
3FF8
100
AcDbSymbolTableRecord
100
AcDbDimStyleTableRecord
  2
abode-iso$4
 70
     0
 40
10.0
 41
1.25
 42
1.5
 43
6.0
 44
0.0
 45
0.00000001
 46
10.0
 77
     1
 78
    12
 79
     3
140
17.0
143
0.03937
147
0.75
171
     3
172
     1
176
   256
177
   256
178
   256
271
     0
272
     0
274
     3
340
406C
342
4086
371
    25
372
    25
1001
ACAD_DSTYLE_DIMBREAK
1070
   391
1040
3.75
1001
ACAD_DSTYLE_DIMJAG
1070
   388
1040
1.5
1001
ACAD_DSTYLE_DIMTALN
1070
   392
1070
     0
  0
DIMSTYLE
105
4172
102
{ACAD_REACTORS
330
4184
330
418B
330
41B8
330
41BF
102
}
330
3FF8
100
AcDbSymbolTableRecord
100
AcDbDimStyleTableRecord
  2
abode-iso$0
 70
     0
 40
10.0
 41
1.25
 42
1.5
 43
6.0
 44
0.0
 45
0.00000001
 46
10.0
 77
     1
 78
    12
 79
     3
140
17.0
143
0.03937
147
0.75
171
     3
172
     1
176
   256
177
   256
178
   256
271
     0
272
     0
274
     3
340
406C
342
4086
371
    25
372
    25
1001
ACAD_DSTYLE_DIMJAG
1070
   388
1040
1.5
1001
ACAD_DSTYLE_DIMTALN
1070
   392
1070
     0
  0
DIMSTYLE
105
4173
330
3FF8
100
AcDbSymbolTableRecord
100
AcDbDimStyleTableRecord
  2
SLDDIMSTYLE0
 70
     0
 41
3.301999999999999
 44
0.0
 45
0.000000001
 73
     0
 77
     1
 78
    12
140
3.5
144
8.0
147
0.875
173
     1
271
     2
272
     2
284
    12
340
416D
  0
DIMSTYLE
105
4174
330
3FF8
100
AcDbSymbolTableRecord
100
AcDbDimStyleTableRecord
  2
SLDDIMSTYLE1
 70
     0
 41
3.301999999999999
 44
0.0
 45
0.000000001
 73
     0
 77
     1
 78
    12
140
3.5
144
8.0
147
0.875
173
     1
271
     2
272
     2
284
    12
340
416D
  0
DIMSTYLE
105
4175
330
3FF8
100
AcDbSymbolTableRecord
100
AcDbDimStyleTableRecord
  2
SLDDIMSTYLE3
 70
     0
 41
3.301999999999999
 44
0.0
 45
0.000000001
 73
     0
 77
     1
 78
    12
140
3.5
144
8.0
147
0.875
173
     1
271
     2
272
     2
284
    12
340
416D
  0
DIMSTYLE
105
4176
330
3FF8
100
AcDbSymbolTableRecord
100
AcDbDimStyleTableRecord
  2
abode-iso$2
 70
     0
 40
10.0
 41
1.25
 42
1.5
 43
6.0
 44
0.0
 45
0.00000001
 46
10.0
 77
     1
 78
    12
 79
     3
140
17.0
143
0.03937
147
0.75
171
     3
172
     1
176
   256
177
   256
178
   256
271
     0
272
     0
274
     3
340
406C
342
4086
371
    25
372
    25
1001
ACAD_DSTYLE_DIMJAG
1070
   388
1040
1.5
1001
ACAD_DSTYLE_DIMTALN
1070
   392
1070
     0
  0
DIMSTYLE
105
4177
330
3FF8
100
AcDbSymbolTableRecord
100
AcDbDimStyleTableRecord
  2
abode-iso$3
 70
     0
 40
10.0
 41
1.25
 42
1.5
 43
6.0
 44
0.0
 45
0.00000001
 46
10.0
 77
     1
 78
    12
 79
     3
140
17.0
143
0.03937
147
0.75
171
     3
172
     1
176
   256
177
   256
178
   256
271
     0
272
     0
274
     3
340
406C
342
4086
371
    25
372
    25
1001
ACAD_DSTYLE_DIMJAG
1070
   388
1040
1.5
1001
ACAD_DSTYLE_DIMTALN
1070
   392
1070
     0
  0
ENDTAB
  0
TABLE
  2
BLOCK_RECORD
  5
3FEF
330
0
100
AcDbSymbolTable
 70
    26
  0
BLOCK_RECORD
  5
4062
330
3FEF
100
AcDbSymbolTableRecord
100
AcDbBlockTableRecord
  2
*Model_Space
340
4065
  0
BLOCK_RECORD
  5
405E
330
3FEF
100
AcDbSymbolTableRecord
100
AcDbBlockTableRecord
  2
*Paper_Space
340
4061
  0
BLOCK_RECORD
  5
4082
330
3FEF
100
AcDbSymbolTableRecord
100
AcDbBlockTableRecord
  2
$MODEL_SPACE
340
0
  0
BLOCK_RECORD
  5
4084
330
3FEF
100
AcDbSymbolTableRecord
100
AcDbBlockTableRecord
  2
$PAPER_SPACE
340
0
  0
BLOCK_RECORD
  5
4086
330
3FEF
100
AcDbSymbolTableRecord
100
AcDbBlockTableRecord
  2
FILLED-1
340
0
102
{BLKREFS
331
323B
331
323C
331
3248
331
3249
331
3255
331
4148
331
4149
331
4154
331
4155
331
4161
331
41EA
331
41EB
331
41F3
331
41F4
331
41FD
102
}
  0
BLOCK_RECORD
  5
4088
330
3FEF
100
AcDbSymbolTableRecord
100
AcDbBlockTableRecord
  2
*D3
340
0
  0
BLOCK_RECORD
  5
408A
330
3FEF
100
AcDbSymbolTableRecord
100
AcDbBlockTableRecord
  2
*U4
340
0
102
{BLKREFS
331
323D
102
}
  0
BLOCK_RECORD
  5
408C
330
3FEF
100
AcDbSymbolTableRecord
100
AcDbBlockTableRecord
  2
*D5
340
0
  0
BLOCK_RECORD
  5
408E
330
3FEF
100
AcDbSymbolTableRecord
100
AcDbBlockTableRecord
  2
*U6
340
0
102
{BLKREFS
331
324A
102
}
  0
BLOCK_RECORD
  5
4090
330
3FEF
100
AcDbSymbolTableRecord
100
AcDbBlockTableRecord
  2
*D7
340
0
  0
BLOCK_RECORD
  5
4092
330
3FEF
100
AcDbSymbolTableRecord
100
AcDbBlockTableRecord
  2
*U8
340
0
102
{BLKREFS
331
3253
102
}
  0
BLOCK_RECORD
  5
4094
330
3FEF
100
AcDbSymbolTableRecord
100
AcDbBlockTableRecord
  2
*U9
340
0
  0
BLOCK_RECORD
  5
4096
330
3FEF
100
AcDbSymbolTableRecord
100
AcDbBlockTableRecord
  2
*U10
340
0
102
{BLKREFS
331
31D8
102
}
  0
BLOCK_RECORD
  5
4098
330
3FEF
100
AcDbSymbolTableRecord
100
AcDbBlockTableRecord
  2
*X11
340
0
102
{BLKREFS
331
31E3
102
}
  0
BLOCK_RECORD
  5
409A
330
3FEF
100
AcDbSymbolTableRecord
100
AcDbBlockTableRecord
  2
*X12
340
0
102
{BLKREFS
331
31E4
102
}
  0
BLOCK_RECORD
  5
409C
330
3FEF
100
AcDbSymbolTableRecord
100
AcDbBlockTableRecord
  2
*X13
340
0
102
{BLKREFS
331
31E9
102
}
  0
BLOCK_RECORD
  5
409E
330
3FEF
100
AcDbSymbolTableRecord
100
AcDbBlockTableRecord
  2
*U14
340
0
102
{BLKREFS
331
322E
102
}
  0
BLOCK_RECORD
  5
40A0
330
3FEF
100
AcDbSymbolTableRecord
100
AcDbBlockTableRecord
  2
*U15
340
0
102
{BLKREFS
331
3230
102
}
  0
BLOCK_RECORD
  5
40A2
330
3FEF
100
AcDbSymbolTableRecord
100
AcDbBlockTableRecord
  2
*U16
340
0
102
{BLKREFS
331
3233
102
}
  0
BLOCK_RECORD
  5
4129
330
3FEF
100
AcDbSymbolTableRecord
100
AcDbBlockTableRecord
  2
GENAXEH
340
0
  0
BLOCK_RECORD
  5
4142
330
3FEF
100
AcDbSymbolTableRecord
100
AcDbBlockTableRecord
  2
*D19
340
0
  0
BLOCK_RECORD
  5
414F
330
3FEF
100
AcDbSymbolTableRecord
100
AcDbBlockTableRecord
  2
*D20
340
0
  0
BLOCK_RECORD
  5
415B
330
3FEF
100
AcDbSymbolTableRecord
100
AcDbBlockTableRecord
  2
*D21
340
0
  0
BLOCK_RECORD
  5
41C3
330
3FEF
100
AcDbSymbolTableRecord
100
AcDbBlockTableRecord
  2
*D23
340
0
  0
BLOCK_RECORD
  5
41D0
330
3FEF
100
AcDbSymbolTableRecord
100
AcDbBlockTableRecord
  2
*D24
340
0
  0
BLOCK_RECORD
  5
41DC
330
3FEF
100
AcDbSymbolTableRecord
100
AcDbBlockTableRecord
  2
*D25
340
0
  0
ENDTAB
  0
ENDSEC
  0
SECTION
  2
BLOCKS
  0
BLOCK
  5
4063
330
4062
100
AcDbEntity
  8
0
100
AcDbBlockBegin
  2
*Model_Space
 70
     0
 10
0.0
 20
0.0
 30
0.0
  3
*Model_Space
  1

  0
ENDBLK
  5
4064
330
4062
100
AcDbEntity
  8
0
100
AcDbBlockEnd
  0
BLOCK
  5
405F
330
405E
100
AcDbEntity
 67
     1
  8
0
100
AcDbBlockBegin
  2
*Paper_Space
 70
     0
 10
0.0
 20
0.0
 30
0.0
  3
*Paper_Space
  1

  0
ENDBLK
  5
4060
330
405E
100
AcDbEntity
 67
     1
  8
0
100
AcDbBlockEnd
  0
BLOCK
  5
4083
330
4082
100
AcDbEntity
  8
0
100
AcDbBlockBegin
  2
$MODEL_SPACE
 70
     0
 10
0.0
 20
0.0
 30
0.0
  3
$MODEL_SPACE
  1

  0
ENDBLK
  5
3CCB
330
4082
100
AcDbEntity
  8
0
100
AcDbBlockEnd
  0
BLOCK
  5
4085
330
4084
100
AcDbEntity
  8
0
100
AcDbBlockBegin
  2
$PAPER_SPACE
 70
     0
 10
0.0
 20
0.0
 30
0.0
  3
$PAPER_SPACE
  1

  0
ENDBLK
  5
3CC7
330
4084
100
AcDbEntity
  8
0
100
AcDbBlockEnd
  0
BLOCK
  5
4087
330
4086
100
AcDbEntity
  8
0
100
AcDbBlockBegin
  2
FILLED-1
 70
     0
 10
0.0
 20
0.0
 30
0.0
  3
FILLED-1
  1

  0
LINE
  5
13A
330
4086
100
AcDbEntity
  8
0
 62
     0
100
AcDbLine
 10
-1.0
 20
0.0
 30
0.0
 11
0.0
 21
0.0
 31
0.0
  0
POLYLINE
  5
13B
330
4086
100
AcDbEntity
  8
0
 62
     0
100
AcDb2dPolyline
 66
     1
 10
0.0
 20
0.0
 30
0.0
 70
   128
  0
VERTEX
  5
3FDE
330
13B
100
AcDbEntity
  8
0
 62
     0
100
AcDbVertex
100
AcDb2dVertex
 10
-1.0
 20
-0.3333333333333333
 30
0.0
  0
VERTEX
  5
3FDF
330
13B
100
AcDbEntity
  8
0
 62
     0
100
AcDbVertex
100
AcDb2dVertex
 10
0.0
 20
0.0
 30
0.0
  0
VERTEX
  5
3FE0
330
13B
100
AcDbEntity
  8
0
 62
     0
100
AcDbVertex
100
AcDb2dVertex
 10
-1.0
 20
0.3333333333333333
 30
0.0
  0
VERTEX
  5
3FE1
330
13B
100
AcDbEntity
  8
0
 62
     0
100
AcDbVertex
100
AcDb2dVertex
 10
-1.0
 20
-0.3333333333333333
 30
0.0
  0
SEQEND
  5
3FE2
330
13B
100
AcDbEntity
  8
0
 62
     0
  0
SOLID
  5
141
330
4086
100
AcDbEntity
  8
0
 62
     0
100
AcDbTrace
 10
-1.0
 20
-0.3333333333333333
 30
0.0
 11
0.0
 21
0.0
 31
0.0
 12
-1.0
 22
0.3333333333333333
 32
0.0
 13
-1.0
 23
-0.3333333333333333
 33
0.0
  0
LINE
  5
142
330
4086
100
AcDbEntity
  8
0
 62
     0
100
AcDbLine
 10
-1.0
 20
-0.3333333333333333
 30
0.0
 11
0.0
 21
0.0
 31
0.0
  0
LINE
  5
143
330
4086
100
AcDbEntity
  8
0
 62
     0
100
AcDbLine
 10
0.0
 20
0.0
 30
0.0
 11
-1.0
 21
0.3333333333333333
 31
0.0
  0
LINE
  5
144
330
4086
100
AcDbEntity
  8
0
 62
     0
100
AcDbLine
 10
-1.0
 20
0.3333333333333333
 30
0.0
 11
-1.0
 21
-0.3333333333333333
 31
0.0
  0
ENDBLK
  5
145
330
4086
100
AcDbEntity
  8
0
100
AcDbBlockEnd
  0
BLOCK
  5
4089
330
4088
100
AcDbEntity
  8
0
100
AcDbBlockBegin
  2
*D3
 70
     1
 10
0.0
 20
0.0
 30
0.0
  3
*D3
  1

  0
LINE
  5
3238
330
4088
100
AcDbEntity
  8
DIMS_SPECS
100
AcDbLine
 10
548.9111395364634
 20
2393.272539059919
 30
0.0
 11
548.9111395364634
 21
2355.704914276353
 31
0.0
  0
LINE
  5
3239
330
4088
100
AcDbEntity
  8
DIMS_SPECS
100
AcDbLine
 10
1048.911139536463
 20
2393.272539059919
 30
0.0
 11
1048.911139536463
 21
2355.704914276353
 31
0.0
  0
LINE
  5
323A
330
4088
100
AcDbEntity
  8
DIMS_SPECS
100
AcDbLine
 10
561.4111395364634
 20
2355.704914276353
 30
0.0
 11
1036.411139536463
 21
2355.704914276353
 31
0.0
  0
INSERT
  5
323B
330
4088
100
AcDbEntity
  8
DIMS_SPECS
100
AcDbBlockReference
  2
FILLED-1
 10
548.9111395364634
 20
2355.704914276353
 30
0.0
 41
12.5
 42
12.5
 43
12.5
 50
180.0
  0
INSERT
  5
323C
330
4088
100
AcDbEntity
  8
DIMS_SPECS
100
AcDbBlockReference
  2
FILLED-1
 10
1048.911139536463
 20
2355.704914276353
 30
0.0
 41
12.5
 42
12.5
 43
12.5
  0
INSERT
  5
323D
330
4088
100
AcDbEntity
  8
0
100
AcDbBlockReference
  2
*U4
 10
0.0
 20
0.0
 30
0.0
  0
POINT
  5
323E
330
4088
100
AcDbEntity
  8
DEFPOINTS
 62
     0
100
AcDbPoint
 10
548.9111395364634
 20
2408.27253905992
 30
0.0
  0
POINT
  5
323F
330
4088
100
AcDbEntity
  8
DEFPOINTS
 62
     0
100
AcDbPoint
 10
1048.911139536463
 20
2408.27253905992
 30
0.0
  0
POINT
  5
3240
330
4088
100
AcDbEntity
  8
DEFPOINTS
 62
     0
100
AcDbPoint
 10
1048.911139536463
 20
2355.704914276353
 30
0.0
  0
ENDBLK
  5
3237
330
4088
100
AcDbEntity
  8
0
100
AcDbBlockEnd
  0
BLOCK
  5
408B
330
408A
100
AcDbEntity
  8
0
100
AcDbBlockBegin
  2
*U4
 70
     1
 10
0.0
 20
0.0
 30
0.0
  3
*U4
  1

  0
TEXT
  5
3943
330
408A
100
AcDbEntity
  8
DIMS_SPECS
100
AcDbText
 10
781.1148784895564
 20
2363.846314684239
 30
0.0
 40
17.0
  1
500
 41
0.9
  7
ABODE-ISO
100
AcDbText
  0
ENDBLK
  5
3945
330
408A
100
AcDbEntity
  8
0
100
AcDbBlockEnd
  0
BLOCK
  5
408D
330
408C
100
AcDbEntity
  8
0
100
AcDbBlockBegin
  2
*D5
 70
     1
 10
0.0
 20
0.0
 30
0.0
  3
*D5
  1

  0
LINE
  5
3244
330
408C
100
AcDbEntity
  8
DIMS_SPECS
100
AcDbLine
 10
1060.411139536463
 20
2804.77253905992
 30
0.0
 11
1085.599427388737
 21
2804.77253905992
 31
0.0
  0
LINE
  5
3245
330
408C
100
AcDbEntity
  8
DIMS_SPECS
100
AcDbLine
 10
1058.911139536463
 20
2401.77253905992
 30
0.0
 11
1085.599427388737
 21
2401.77253905992
 31
0.0
  0
LINE
  5
3246
330
408C
100
AcDbEntity
  8
DIMS_SPECS
100
AcDbLine
 10
1085.599427388737
 20
2792.272539059919
 30
0.0
 11
1085.599427388737
 21
2619.700139331844
 31
0.0
  0
LINE
  5
3247
330
408C
100
AcDbEntity
  8
DIMS_SPECS
100
AcDbLine
 10
1085.599427388737
 20
2414.27253905992
 30
0.0
 11
1085.599427388737
 21
2586.844938787996
 31
0.0
  0
INSERT
  5
3248
330
408C
100
AcDbEntity
  8
DIMS_SPECS
100
AcDbBlockReference
  2
FILLED-1
 10
1085.599427388737
 20
2804.77253905992
 30
0.0
 41
12.5
 42
12.5
 43
12.5
 50
90.0
  0
INSERT
  5
3249
330
408C
100
AcDbEntity
  8
DIMS_SPECS
100
AcDbBlockReference
  2
FILLED-1
 10
1085.599427388737
 20
2401.77253905992
 30
0.0
 41
12.5
 42
12.5
 43
12.5
 50
270.0
  0
INSERT
  5
324A
330
408C
100
AcDbEntity
  8
0
100
AcDbBlockReference
  2
*U6
 10
0.0
 20
0.0
 30
0.0
  0
POINT
  5
324B
330
408C
100
AcDbEntity
  8
DEFPOINTS
 62
     0
100
AcDbPoint
 10
1045.411139536463
 20
2804.77253905992
 30
0.0
  0
POINT
  5
324C
330
408C
100
AcDbEntity
  8
DEFPOINTS
 62
     0
100
AcDbPoint
 10
1043.911139536463
 20
2401.77253905992
 30
0.0
  0
POINT
  5
324D
330
408C
100
AcDbEntity
  8
DEFPOINTS
 62
     0
100
AcDbPoint
 10
1085.599427388737
 20
2401.77253905992
 30
0.0
  0
ENDBLK
  5
3243
330
408C
100
AcDbEntity
  8
0
100
AcDbBlockEnd
  0
BLOCK
  5
408F
330
408E
100
AcDbEntity
  8
0
100
AcDbBlockBegin
  2
*U6
 70
     1
 10
0.0
 20
0.0
 30
0.0
  3
*U6
  1

  0
TEXT
  5
3947
330
408E
100
AcDbEntity
  8
DIMS_SPECS
100
AcDbText
 10
1068.03199027113
 20
2594.986339195882
 30
0.0
 40
17.0
  1
403
 41
0.9
  7
ABODE-ISO
100
AcDbText
  0
ENDBLK
  5
3949
330
408E
100
AcDbEntity
  8
0
100
AcDbBlockEnd
  0
BLOCK
  5
4091
330
4090
100
AcDbEntity
  8
0
100
AcDbBlockBegin
  2
*D7
 70
     1
 10
0.0
 20
0.0
 30
0.0
  3
*D7
  1

  0
LINE
  5
3251
330
4090
100
AcDbEntity
  8
DIMS_SPECS
100
AcDbLine
 10
1121.207544989931
 20
2374.701939382579
 30
0.0
 11
1091.854859741788
 21
2374.701939382579
 31
0.0
  0
LINE
  5
3252
330
4090
100
AcDbEntity
  8
DIMS_SPECS
100
AcDbLine
 10
1091.854859741788
 20
2374.701939382579
 30
0.0
 11
1059.811499433918
 21
2396.828715106127
 31
0.0
  0
INSERT
  5
3253
330
4090
100
AcDbEntity
  8
0
100
AcDbBlockReference
  2
*U8
 10
0.0
 20
0.0
 30
0.0
  0
LINE
  5
3254
330
4090
100
AcDbEntity
  8
DIMS_SPECS
100
AcDbLine
 10
1045.411139536463
 20
2406.772539059918
 30
0.0
 11
1049.525528078597
 21
2403.93144650169
 31
0.0
  0
INSERT
  5
3255
330
4090
100
AcDbEntity
  8
DIMS_SPECS
100
AcDbBlockReference
  2
FILLED-1
 10
1049.525528078597
 20
2403.93144650169
 30
0.0
 41
12.5
 42
12.5
 43
12.5
 50
145.3739096476169
  0
POINT
  5
3256
330
4090
100
AcDbEntity
  8
DEFPOINTS
 62
     0
100
AcDbPoint
 10
1049.525528078597
 20
2403.93144650169
 30
0.0
  0
POINT
  5
3257
330
4090
100
AcDbEntity
  8
DEFPOINTS
 62
     0
100
AcDbPoint
 10
1045.411139536463
 20
2406.772539059918
 30
0.0
  0
ENDBLK
  5
3250
330
4090
100
AcDbEntity
  8
0
100
AcDbBlockEnd
  0
BLOCK
  5
4093
330
4092
100
AcDbEntity
  8
0
100
AcDbBlockBegin
  2
*U8
 70
     1
 10
0.0
 20
0.0
 30
0.0
  3
*U8
  1

  0
TEXT
  5
394B
330
4092
100
AcDbEntity
  8
DIMS_SPECS
100
AcDbText
 10
1097.409856342753
 20
2382.629539654502
 30
0.0
 40
17.0
  1
R5
 41
0.9
  7
ABODE-ISO
100
AcDbText
  0
ENDBLK
  5
394D
330
4092
100
AcDbEntity
  8
0
100
AcDbBlockEnd
  0
BLOCK
  5
4095
330
4094
100
AcDbEntity
  8
0
100
AcDbBlockBegin
  2
*U9
 70
     1
 10
0.0
 20
0.0
 30
0.0
  3
*U9
  1

  0
TEXT
  5
3882
330
4094
100
AcDbEntity
  8
CUTOUT
100
AcDbText
 10
551.1339265055928
 20
2821.661985148518
 30
0.0
 40
40.0
  1
UNDERMOUNT CUT OUT
100
AcDbText
  0
ENDBLK
  5
3884
330
4094
100
AcDbEntity
  8
0
100
AcDbBlockEnd
  0
BLOCK
  5
4097
330
4096
100
AcDbEntity
  8
0
100
AcDbBlockBegin
  2
*U10
 70
     1
 10
0.0
 20
0.0
 30
0.0
  3
*U10
  1

  0
SOLID
  5
3886
330
4096
100
AcDbEntity
  8
0
  6
Continuous
100
AcDbTrace
 10
275.6530769451529
 20
2716.852879289605
 30
0.0
 11
275.0729326360121
 21
2716.612574068517
 31
0.0
 12
286.1716910307159
 22
2716.612574068517
 32
0.0
 13
286.1716910307159
 23
2716.612574068517
 33
0.0
  0
SOLID
  5
3887
330
4096
100
AcDbEntity
  8
0
  6
Continuous
100
AcDbTrace
 10
-275.6530769451529
 20
2716.852879289605
 30
0.0
 11
-284.2394936068777
 21
2716.852879289605
 31
0.0
 12
-286.1716910307159
 22
2716.612574068517
 32
0.0
 13
-286.1716910307159
 23
2716.612574068517
 33
0.0
210
0.0
220
0.0
230
-1.0
  0
SOLID
  5
3888
330
4096
100
AcDbEntity
  8
0
  6
Continuous
100
AcDbTrace
 10
275.0729326360121
 20
2716.612574068517
 30
0.0
 11
275.0462847056113
 21
2716.54823900444
 31
0.0
 12
286.6889833496655
 22
2716.54823900444
 32
0.0
 13
286.6889833496655
 23
2716.54823900444
 33
0.0
  0
SOLID
  5
3889
330
4096
100
AcDbEntity
  8
0
  6
Continuous
100
AcDbTrace
 10
-275.0729326360121
 20
2716.612574068517
 30
0.0
 11
-286.1716910307159
 21
2716.612574068517
 31
0.0
 12
-286.6889833496655
 22
2716.54823900444
 32
0.0
 13
-286.6889833496655
 23
2716.54823900444
 33
0.0
210
0.0
220
0.0
230
-1.0
  0
SOLID
  5
388A
330
4096
100
AcDbEntity
  8
0
  6
Continuous
100
AcDbTrace
 10
274.832632809721
 20
2716.03243515418
 30
0.0
 11
274.832632809721
 21
2716.03243133948
 31
0.0
 12
274.8326328097303
 22
2716.03243133948
 32
0.0
 13
274.8326328097303
 23
2716.03243133948
 33
0.0
  0
SOLID
  5
388B
330
4096
100
AcDbEntity
  8
0
  6
Continuous
100
AcDbTrace
 10
274.832632809721
 20
2716.03243133948
 30
0.0
 11
274.832632809721
 21
2716.032427524778
 31
0.0
 12
274.8326328097573
 22
2716.032427524778
 32
0.0
 13
274.8326328097573
 23
2716.032427524778
 33
0.0
  0
SOLID
  5
388C
330
4096
100
AcDbEntity
  8
0
  6
Continuous
100
AcDbTrace
 10
275.0462847056113
 20
2716.54823900444
 30
0.0
 11
274.832634389827
 21
2716.03243133948
 31
0.0
 12
288.0141324062019
 22
2716.03243133948
 32
0.0
 13
288.0141324062019
 23
2716.03243133948
 33
0.0
  0
SOLID
  5
388D
330
4096
100
AcDbEntity
  8
0
  6
Continuous
100
AcDbTrace
 10
-275.0462847056113
 20
2716.54823900444
 30
0.0
 11
-286.6889833496655
 21
2716.54823900444
 31
0.0
 12
-288.0141324062019
 22
2716.03243133948
 32
0.0
 13
-288.0141324062019
 23
2716.03243133948
 33
0.0
210
0.0
220
0.0
230
-1.0
  0
SOLID
  5
388E
330
4096
100
AcDbEntity
  8
0
  6
Continuous
100
AcDbTrace
 10
274.832634389827
 20
2716.03243133948
 30
0.0
 11
274.8326328097573
 21
2716.032427524778
 31
0.0
 12
288.0141422064581
 22
2716.032427524778
 32
0.0
 13
288.0141422064581
 23
2716.032427524778
 33
0.0
  0
SOLID
  5
388F
330
4096
100
AcDbEntity
  8
0
  6
Continuous
100
AcDbTrace
 10
-274.832634389827
 20
2716.03243133948
 30
0.0
 11
-288.0141324062019
 21
2716.03243133948
 31
0.0
 12
-288.0141422064581
 22
2716.032427524778
 32
0.0
 13
-288.0141422064581
 23
2716.032427524778
 33
0.0
210
0.0
220
0.0
230
-1.0
  0
SOLID
  5
3890
330
4096
100
AcDbEntity
  8
0
  6
Continuous
100
AcDbTrace
 10
274.832632809721
 20
2716.032427524778
 30
0.0
 11
274.832632809721
 21
2715.652879289606
 31
0.0
 12
288.9892304416979
 22
2715.652879289606
 32
0.0
 13
288.9892304416979
 23
2715.652879289606
 33
0.0
  0
SOLID
  5
3891
330
4096
100
AcDbEntity
  8
0
  6
Continuous
100
AcDbTrace
 10
-274.832632809721
 20
2716.032427524778
 30
0.0
 11
-288.0141422064581
 21
2716.032427524778
 31
0.0
 12
-288.9892304416979
 22
2715.652879289606
 32
0.0
 13
-288.9892304416979
 23
2715.652879289606
 33
0.0
210
0.0
220
0.0
230
-1.0
  0
SOLID
  5
3892
330
4096
100
AcDbEntity
  8
0
  6
Continuous
100
AcDbTrace
 10
274.832632809721
 20
2715.652879289606
 30
0.0
 11
274.832632809721
 21
2714.503654681701
 31
0.0
 12
290.6788752464212
 22
2714.503654681701
 32
0.0
 13
290.6788752464212
 23
2714.503654681701
 33
0.0
  0
SOLID
  5
3893
330
4096
100
AcDbEntity
  8
0
  6
Continuous
100
AcDbTrace
 10
-274.832632809721
 20
2715.652879289606
 30
0.0
 11
-288.9892304416979
 21
2715.652879289606
 31
0.0
 12
-290.6788752464212
 22
2714.503654681701
 32
0.0
 13
-290.6788752464212
 23
2714.503654681701
 33
0.0
210
0.0
220
0.0
230
-1.0
  0
SOLID
  5
3894
330
4096
100
AcDbEntity
  8
0
  6
Continuous
100
AcDbTrace
 10
274.832632809721
 20
2714.503654681701
 30
0.0
 11
274.832632809721
 21
2713.034963013829
 31
0.0
 12
292.0996361518117
 22
2713.034963013829
 32
0.0
 13
292.0996361518117
 23
2713.034963013829
 33
0.0
  0
SOLID
  5
3895
330
4096
100
AcDbEntity
  8
0
  6
Continuous
100
AcDbTrace
 10
-274.832632809721
 20
2714.503654681701
 30
0.0
 11
-290.6788752464212
 21
2714.503654681701
 31
0.0
 12
-292.0996361518117
 22
2713.034963013829
 32
0.0
 13
-292.0996361518117
 23
2713.034963013829
 33
0.0
210
0.0
220
0.0
230
-1.0
  0
SOLID
  5
3896
330
4096
100
AcDbEntity
  8
0
  6
Continuous
100
AcDbTrace
 10
274.832632809721
 20
2713.034963013829
 30
0.0
 11
274.832632809721
 21
2711.308131221505
 31
0.0
 12
293.1921876272984
 22
2711.308131221505
 32
0.0
 13
293.1921876272984
 23
2711.308131221505
 33
0.0
  0
SOLID
  5
3897
330
4096
100
AcDbEntity
  8
0
  6
Continuous
100
AcDbTrace
 10
-274.832632809721
 20
2713.034963013829
 30
0.0
 11
-292.0996361518117
 21
2713.034963013829
 31
0.0
 12
-293.1921876272984
 22
2711.308131221505
 32
0.0
 13
-293.1921876272984
 23
2711.308131221505
 33
0.0
210
0.0
220
0.0
230
-1.0
  0
SOLID
  5
3898
330
4096
100
AcDbEntity
  8
0
  6
Continuous
100
AcDbTrace
 10
274.832632809721
 20
2711.308131221505
 30
0.0
 11
274.832632809721
 21
2710.652879289601
 31
0.0
 12
293.4383854788992
 22
2710.652879289601
 32
0.0
 13
293.4383854788992
 23
2710.652879289601
 33
0.0
  0
SOLID
  5
3899
330
4096
100
AcDbEntity
  8
0
  6
Continuous
100
AcDbTrace
 10
-274.832632809721
 20
2711.308131221505
 30
0.0
 11
-293.1921876272984
 21
2711.308131221505
 31
0.0
 12
-293.4383854788992
 22
2710.652879289601
 32
0.0
 13
-293.4383854788992
 23
2710.652879289601
 33
0.0
210
0.0
220
0.0
230
-1.0
  0
SOLID
  5
389A
330
4096
100
AcDbEntity
  8
0
  6
Continuous
100
AcDbTrace
 10
284.2394936068813
 20
2710.652879289601
 30
0.0
 11
285.6476118694164
 21
2710.382355590515
 31
0.0
 12
293.5400293662034
 22
2710.382355590515
 32
0.0
 13
293.5400293662034
 23
2710.382355590515
 33
0.0
  0
SOLID
  5
389B
330
4096
100
AcDbEntity
  8
0
  6
Continuous
100
AcDbTrace
 10
-284.2394936068813
 20
2710.652879289601
 30
0.0
 11
-293.4383854788992
 21
2710.652879289601
 31
0.0
 12
-293.5400293662034
 22
2710.382355590515
 32
0.0
 13
-293.5400293662034
 23
2710.382355590515
 33
0.0
210
0.0
220
0.0
230
-1.0
  0
SOLID
  5
389C
330
4096
100
AcDbEntity
  8
0
  6
Continuous
100
AcDbTrace
 10
285.6476118694164
 20
2710.382355590515
 30
0.0
 11
286.8552409945134
 21
2709.609301899448
 31
0.0
 12
293.8304888805449
 22
2709.609301899448
 32
0.0
 13
293.8304888805449
 23
2709.609301899448
 33
0.0
  0
SOLID
  5
389D
330
4096
100
AcDbEntity
  8
0
  6
Continuous
100
AcDbTrace
 10
-285.6476118694164
 20
2710.382355590515
 30
0.0
 11
-293.5400293662034
 21
2710.382355590515
 31
0.0
 12
-293.8304888805449
 22
2709.609301899448
 32
0.0
 13
-293.8304888805449
 23
2709.609301899448
 33
0.0
210
0.0
220
0.0
230
-1.0
  0
SOLID
  5
389E
330
4096
100
AcDbEntity
  8
0
  6
Continuous
100
AcDbTrace
 10
286.8552409945134
 20
2709.609301899448
 30
0.0
 11
287.0086175368031
 21
2709.395265182567
 31
0.0
 12
293.9109089102985
 22
2709.395265182567
 32
0.0
 13
293.9109089102985
 23
2709.395265182567
 33
0.0
  0
SOLID
  5
389F
330
4096
100
AcDbEntity
  8
0
  6
Continuous
100
AcDbTrace
 10
-286.8552409945134
 20
2709.609301899448
 30
0.0
 11
-293.8304888805449
 21
2709.609301899448
 31
0.0
 12
-293.9109089102985
 22
2709.395265182567
 32
0.0
 13
-293.9109089102985
 23
2709.395265182567
 33
0.0
210
0.0
220
0.0
230
-1.0
  0
SOLID
  5
38A0
330
4096
100
AcDbEntity
  8
0
  6
Continuous
100
AcDbTrace
 10
287.0086175368031
 20
2709.395265182567
 30
0.0
 11
287.6904376674117
 21
2708.443786292246
 31
0.0
 12
294.0592981167371
 22
2708.443786292246
 32
0.0
 13
294.0592981167371
 23
2708.443786292246
 33
0.0
  0
SOLID
  5
38A1
330
4096
100
AcDbEntity
  8
0
  6
Continuous
100
AcDbTrace
 10
-287.0086175368031
 20
2709.395265182567
 30
0.0
 11
-293.9109089102985
 21
2709.395265182567
 31
0.0
 12
-294.0592981167371
 22
2708.443786292246
 32
0.0
 13
-294.0592981167371
 23
2708.443786292246
 33
0.0
210
0.0
220
0.0
230
-1.0
  0
SOLID
  5
38A2
330
4096
100
AcDbEntity
  8
0
  6
Continuous
100
AcDbTrace
 10
287.6904376674117
 20
2708.443786292246
 30
0.0
 11
287.9541346696793
 21
2707.376238852035
 31
0.0
 12
294.2257889544213
 22
2707.376238852035
 32
0.0
 13
294.2257889544213
 23
2707.376238852035
 33
0.0
  0
SOLID
  5
38A3
330
4096
100
AcDbEntity
  8
0
  6
Continuous
100
AcDbTrace
 10
-287.6904376674117
 20
2708.443786292246
 30
0.0
 11
-294.0592981167371
 21
2708.443786292246
 31
0.0
 12
-294.2257889544213
 22
2707.376238852035
 32
0.0
 13
-294.2257889544213
 23
2707.376238852035
 33
0.0
210
0.0
220
0.0
230
-1.0
  0
SOLID
  5
38A4
330
4096
100
AcDbEntity
  8
0
  6
Continuous
100
AcDbTrace
 10
287.9541346696793
 20
2707.376238852035
 30
0.0
 11
288.0342858389522
 21
2707.051755923329
 31
0.0
 12
294.2427943841305
 22
2707.051755923329
 32
0.0
 13
294.2427943841305
 23
2707.051755923329
 33
0.0
  0
SOLID
  5
38A5
330
4096
100
AcDbEntity
  8
0
  6
Continuous
100
AcDbTrace
 10
-287.9541346696793
 20
2707.376238852035
 30
0.0
 11
-294.2257889544213
 21
2707.376238852035
 31
0.0
 12
-294.2427943841305
 22
2707.051755923329
 32
0.0
 13
-294.2427943841305
 23
2707.051755923329
 33
0.0
210
0.0
220
0.0
230
-1.0
  0
SOLID
  5
38A6
330
4096
100
AcDbEntity
  8
0
  6
Continuous
100
AcDbTrace
 10
288.0342858389522
 20
2707.051755923329
 30
0.0
 11
288.57898040107
 21
2696.658364530403
 31
0.0
 12
294.7874889462661
 22
2696.658364530403
 32
0.0
 13
294.7874889462661
 23
2696.658364530403
 33
0.0
  0
SOLID
  5
38A7
330
4096
100
AcDbEntity
  8
0
  6
Continuous
100
AcDbTrace
 10
-288.0342858389522
 20
2707.051755923329
 30
0.0
 11
-294.2427943841305
 21
2707.051755923329
 31
0.0
 12
-294.7874889462661
 22
2696.658364530403
 32
0.0
 13
-294.7874889462661
 23
2696.658364530403
 33
0.0
210
0.0
220
0.0
230
-1.0
  0
SOLID
  5
38A8
330
4096
100
AcDbEntity
  8
0
  6
Continuous
100
AcDbTrace
 10
-288.5842794853796
 20
2696.55725197837
 30
0.0
 11
-289.8705178542056
 21
2696.55725197837
 31
0.0
 12
-288.6014378343863
 22
2696.229851175636
 32
0.0
 13
-288.6014378343863
 23
2696.229851175636
 33
0.0
210
0.0
220
0.0
230
-1.0
  0
SOLID
  5
38A9
330
4096
100
AcDbEntity
  8
0
  6
Continuous
100
AcDbTrace
 10
290.2624531166269
 20
2696.658364530403
 30
0.0
 11
291.8620160097642
 21
2696.55725197837
 31
0.0
 12
294.7927880305759
 22
2696.55725197837
 32
0.0
 13
294.7927880305759
 23
2696.55725197837
 33
0.0
  0
SOLID
  5
38AA
330
4096
100
AcDbEntity
  8
0
  6
Continuous
100
AcDbTrace
 10
-290.2624531166269
 20
2696.658364530403
 30
0.0
 11
-294.7874889462661
 21
2696.658364530403
 31
0.0
 12
-294.7927880305759
 22
2696.55725197837
 32
0.0
 13
-294.7927880305759
 23
2696.55725197837
 33
0.0
210
0.0
220
0.0
230
-1.0
  0
SOLID
  5
38AB
330
4096
100
AcDbEntity
  8
0
  6
Continuous
100
AcDbTrace
 10
288.57898040107
 20
2696.658364530403
 30
0.0
 11
288.5842794853796
 21
2696.55725197837
 31
0.0
 12
289.8705178542056
 22
2696.55725197837
 32
0.0
 13
289.8705178542056
 23
2696.55725197837
 33
0.0
  0
SOLID
  5
38AC
330
4096
100
AcDbEntity
  8
0
  6
Continuous
100
AcDbTrace
 10
-288.57898040107
 20
2696.658364530403
 30
0.0
 11
-290.2624531166269
 21
2696.658364530403
 31
0.0
 12
-289.8705178542056
 22
2696.55725197837
 32
0.0
 13
-289.8705178542056
 23
2696.55725197837
 33
0.0
210
0.0
220
0.0
230
-1.0
  0
SOLID
  5
38AD
330
4096
100
AcDbEntity
  8
0
  6
Continuous
100
AcDbTrace
 10
291.8620160097642
 20
2696.55725197837
 30
0.0
 11
293.3768804310198
 21
2695.785405407475
 31
0.0
 12
294.8332387953047
 22
2695.785405407475
 32
0.0
 13
294.8332387953047
 23
2695.785405407475
 33
0.0
  0
SOLID
  5
38AE
330
4096
100
AcDbEntity
  8
0
  6
Continuous
100
AcDbTrace
 10
-291.8620160097642
 20
2696.55725197837
 30
0.0
 11
-294.7927880305759
 21
2696.55725197837
 31
0.0
 12
-294.8332387953047
 22
2695.785405407475
 32
0.0
 13
-294.8332387953047
 23
2695.785405407475
 33
0.0
210
0.0
220
0.0
230
-1.0
  0
SOLID
  5
38AF
330
4096
100
AcDbEntity
  8
0
  6
Continuous
100
AcDbTrace
 10
-294.1147680686162
 20
2695.439715248663
 30
0.0
 11
-294.8513556488484
 21
2695.439715248663
 31
0.0
 12
-294.8535639369548
 22
2695.397578601462
 32
0.0
 13
-294.8535639369548
 23
2695.397578601462
 33
0.0
210
0.0
220
0.0
230
-1.0
  0
SOLID
  5
38B0
330
4096
100
AcDbEntity
  8
0
  6
Continuous
100
AcDbTrace
 10
293.3768804310198
 20
2695.785405407475
 30
0.0
 11
294.1147680686162
 21
2695.439715248663
 31
0.0
 12
294.8513556488484
 22
2695.439715248663
 32
0.0
 13
294.8513556488484
 23
2695.439715248663
 33
0.0
  0
SOLID
  5
38B1
330
4096
100
AcDbEntity
  8
0
  6
Continuous
100
AcDbTrace
 10
-293.3768804310198
 20
2695.785405407475
 30
0.0
 11
-294.8332387953047
 21
2695.785405407475
 31
0.0
 12
-294.8513556488484
 22
2695.439715248663
 32
0.0
 13
-294.8513556488484
 23
2695.439715248663
 33
0.0
210
0.0
220
0.0
230
-1.0
  0
LINE
  5
38B2
330
4096
100
AcDbEntity
  8
0
  6
Continuous
100
AcDbLine
 10
275.6530769451529
 20
2716.852879289605
 30
0.0
 11
275.0729326360121
 21
2716.612574068517
 31
0.0
  0
LINE
  5
38B3
330
4096
100
AcDbEntity
  8
0
  6
Continuous
100
AcDbLine
 10
284.2394936068777
 20
2716.852879289605
 30
0.0
 11
286.1716910307159
 21
2716.612574068517
 31
0.0
  0
LINE
  5
38B4
330
4096
100
AcDbEntity
  8
0
  6
Continuous
100
AcDbLine
 10
275.0729326360121
 20
2716.612574068517
 30
0.0
 11
275.0462847056113
 21
2716.54823900444
 31
0.0
  0
LINE
  5
38B5
330
4096
100
AcDbEntity
  8
0
  6
Continuous
100
AcDbLine
 10
286.1716910307159
 20
2716.612574068517
 30
0.0
 11
286.6889833496655
 21
2716.54823900444
 31
0.0
  0
LINE
  5
38B6
330
4096
100
AcDbEntity
  8
0
  6
Continuous
100
AcDbLine
 10
274.832632809721
 20
2716.03243515418
 30
0.0
 11
274.832632809721
 21
2716.03243133948
 31
0.0
  0
LINE
  5
38B7
330
4096
100
AcDbEntity
  8
0
  6
Continuous
100
AcDbLine
 10
274.8326328097303
 20
2716.03243133948
 30
0.0
 11
274.832632809721
 21
2716.03243515418
 31
0.0
  0
LINE
  5
38B8
330
4096
100
AcDbEntity
  8
0
  6
Continuous
100
AcDbLine
 10
274.832632809721
 20
2716.03243133948
 30
0.0
 11
274.832632809721
 21
2716.032427524778
 31
0.0
  0
LINE
  5
38B9
330
4096
100
AcDbEntity
  8
0
  6
Continuous
100
AcDbLine
 10
275.0462847056113
 20
2716.54823900444
 30
0.0
 11
274.832634389827
 21
2716.03243133948
 31
0.0
  0
LINE
  5
38BA
330
4096
100
AcDbEntity
  8
0
  6
Continuous
100
AcDbLine
 10
286.6889833496655
 20
2716.54823900444
 30
0.0
 11
288.0141324062019
 21
2716.03243133948
 31
0.0
  0
LINE
  5
38BB
330
4096
100
AcDbEntity
  8
0
  6
Continuous
100
AcDbLine
 10
288.0141324062019
 20
2716.03243133948
 30
0.0
 11
288.0141422064581
 21
2716.032427524778
 31
0.0
  0
LINE
  5
38BC
330
4096
100
AcDbEntity
  8
0
  6
Continuous
100
AcDbLine
 10
274.832632809721
 20
2716.032427524778
 30
0.0
 11
274.832632809721
 21
2715.652879289606
 31
0.0
  0
LINE
  5
38BD
330
4096
100
AcDbEntity
  8
0
  6
Continuous
100
AcDbLine
 10
288.0141422064581
 20
2716.032427524778
 30
0.0
 11
288.9892304416979
 21
2715.652879289606
 31
0.0
  0
LINE
  5
38BE
330
4096
100
AcDbEntity
  8
0
  6
Continuous
100
AcDbLine
 10
274.832632809721
 20
2715.652879289606
 30
0.0
 11
274.832632809721
 21
2714.503654681701
 31
0.0
  0
LINE
  5
38BF
330
4096
100
AcDbEntity
  8
0
  6
Continuous
100
AcDbLine
 10
288.9892304416979
 20
2715.652879289606
 30
0.0
 11
290.6788752464212
 21
2714.503654681701
 31
0.0
  0
LINE
  5
38C0
330
4096
100
AcDbEntity
  8
0
  6
Continuous
100
AcDbLine
 10
274.832632809721
 20
2714.503654681701
 30
0.0
 11
274.832632809721
 21
2713.034963013829
 31
0.0
  0
LINE
  5
38C1
330
4096
100
AcDbEntity
  8
0
  6
Continuous
100
AcDbLine
 10
290.6788752464212
 20
2714.503654681701
 30
0.0
 11
292.0996361518117
 21
2713.034963013829
 31
0.0
  0
LINE
  5
38C2
330
4096
100
AcDbEntity
  8
0
  6
Continuous
100
AcDbLine
 10
274.832632809721
 20
2713.034963013829
 30
0.0
 11
274.832632809721
 21
2711.308131221505
 31
0.0
  0
LINE
  5
38C3
330
4096
100
AcDbEntity
  8
0
  6
Continuous
100
AcDbLine
 10
292.0996361518117
 20
2713.034963013829
 30
0.0
 11
293.1921876272984
 21
2711.308131221505
 31
0.0
  0
LINE
  5
38C4
330
4096
100
AcDbEntity
  8
0
  6
Continuous
100
AcDbLine
 10
274.832632809721
 20
2711.308131221505
 30
0.0
 11
274.832632809721
 21
2710.652879289601
 31
0.0
  0
LINE
  5
38C5
330
4096
100
AcDbEntity
  8
0
  6
Continuous
100
AcDbLine
 10
293.1921876272984
 20
2711.308131221505
 30
0.0
 11
293.4383854788992
 21
2710.652879289601
 31
0.0
  0
LINE
  5
38C6
330
4096
100
AcDbEntity
  8
0
  6
Continuous
100
AcDbLine
 10
284.2394936068813
 20
2710.652879289601
 30
0.0
 11
285.6476118694164
 21
2710.382355590515
 31
0.0
  0
LINE
  5
38C7
330
4096
100
AcDbEntity
  8
0
  6
Continuous
100
AcDbLine
 10
293.4383854788992
 20
2710.652879289601
 30
0.0
 11
293.5400293662034
 21
2710.382355590515
 31
0.0
  0
LINE
  5
38C8
330
4096
100
AcDbEntity
  8
0
  6
Continuous
100
AcDbLine
 10
285.6476118694164
 20
2710.382355590515
 30
0.0
 11
286.8552409945134
 21
2709.609301899448
 31
0.0
  0
LINE
  5
38C9
330
4096
100
AcDbEntity
  8
0
  6
Continuous
100
AcDbLine
 10
293.5400293662034
 20
2710.382355590515
 30
0.0
 11
293.8304888805449
 21
2709.609301899448
 31
0.0
  0
LINE
  5
38CA
330
4096
100
AcDbEntity
  8
0
  6
Continuous
100
AcDbLine
 10
286.8552409945134
 20
2709.609301899448
 30
0.0
 11
287.0086175368031
 21
2709.395265182567
 31
0.0
  0
LINE
  5
38CB
330
4096
100
AcDbEntity
  8
0
  6
Continuous
100
AcDbLine
 10
293.8304888805449
 20
2709.609301899448
 30
0.0
 11
293.9109089102985
 21
2709.395265182567
 31
0.0
  0
LINE
  5
38CC
330
4096
100
AcDbEntity
  8
0
  6
Continuous
100
AcDbLine
 10
287.0086175368031
 20
2709.395265182567
 30
0.0
 11
287.6904376674117
 21
2708.443786292246
 31
0.0
  0
LINE
  5
38CD
330
4096
100
AcDbEntity
  8
0
  6
Continuous
100
AcDbLine
 10
293.9109089102985
 20
2709.395265182567
 30
0.0
 11
294.0592981167371
 21
2708.443786292246
 31
0.0
  0
LINE
  5
38CE
330
4096
100
AcDbEntity
  8
0
  6
Continuous
100
AcDbLine
 10
287.6904376674117
 20
2708.443786292246
 30
0.0
 11
287.9541346696793
 21
2707.376238852035
 31
0.0
  0
LINE
  5
38CF
330
4096
100
AcDbEntity
  8
0
  6
Continuous
100
AcDbLine
 10
294.0592981167371
 20
2708.443786292246
 30
0.0
 11
294.2257889544213
 21
2707.376238852035
 31
0.0
  0
LINE
  5
38D0
330
4096
100
AcDbEntity
  8
0
  6
Continuous
100
AcDbLine
 10
287.9541346696793
 20
2707.376238852035
 30
0.0
 11
288.0342858389522
 21
2707.051755923329
 31
0.0
  0
LINE
  5
38D1
330
4096
100
AcDbEntity
  8
0
  6
Continuous
100
AcDbLine
 10
294.2257889544213
 20
2707.376238852035
 30
0.0
 11
294.2427943841305
 21
2707.051755923329
 31
0.0
  0
LINE
  5
38D2
330
4096
100
AcDbEntity
  8
0
  6
Continuous
100
AcDbLine
 10
288.0342858389522
 20
2707.051755923329
 30
0.0
 11
288.57898040107
 21
2696.658364530403
 31
0.0
  0
LINE
  5
38D3
330
4096
100
AcDbEntity
  8
0
  6
Continuous
100
AcDbLine
 10
294.2427943841305
 20
2707.051755923329
 30
0.0
 11
294.7874889462661
 21
2696.658364530403
 31
0.0
  0
LINE
  5
38D4
330
4096
100
AcDbEntity
  8
0
  6
Continuous
100
AcDbLine
 10
289.8705178542056
 20
2696.55725197837
 30
0.0
 11
288.6014378343863
 21
2696.229851175636
 31
0.0
  0
LINE
  5
38D5
330
4096
100
AcDbEntity
  8
0
  6
Continuous
100
AcDbLine
 10
288.6014378343863
 20
2696.229851175636
 30
0.0
 11
288.5842794853796
 21
2696.55725197837
 31
0.0
  0
LINE
  5
38D6
330
4096
100
AcDbEntity
  8
0
  6
Continuous
100
AcDbLine
 10
290.2624531166269
 20
2696.658364530403
 30
0.0
 11
291.8620160097642
 21
2696.55725197837
 31
0.0
  0
LINE
  5
38D7
330
4096
100
AcDbEntity
  8
0
  6
Continuous
100
AcDbLine
 10
294.7874889462661
 20
2696.658364530403
 30
0.0
 11
294.7927880305759
 21
2696.55725197837
 31
0.0
  0
LINE
  5
38D8
330
4096
100
AcDbEntity
  8
0
  6
Continuous
100
AcDbLine
 10
288.57898040107
 20
2696.658364530403
 30
0.0
 11
288.5842794853796
 21
2696.55725197837
 31
0.0
  0
LINE
  5
38D9
330
4096
100
AcDbEntity
  8
0
  6
Continuous
100
AcDbLine
 10
290.2624531166269
 20
2696.658364530403
 30
0.0
 11
289.8705178542056
 21
2696.55725197837
 31
0.0
  0
LINE
  5
38DA
330
4096
100
AcDbEntity
  8
0
  6
Continuous
100
AcDbLine
 10
291.8620160097642
 20
2696.55725197837
 30
0.0
 11
293.3768804310198
 21
2695.785405407475
 31
0.0
  0
LINE
  5
38DB
330
4096
100
AcDbEntity
  8
0
  6
Continuous
100
AcDbLine
 10
294.7927880305759
 20
2696.55725197837
 30
0.0
 11
294.8332387953047
 21
2695.785405407475
 31
0.0
  0
LINE
  5
38DC
330
4096
100
AcDbEntity
  8
0
  6
Continuous
100
AcDbLine
 10
294.8513556488484
 20
2695.439715248663
 30
0.0
 11
294.8535639369548
 21
2695.397578601462
 31
0.0
  0
LINE
  5
38DD
330
4096
100
AcDbEntity
  8
0
  6
Continuous
100
AcDbLine
 10
294.8535639369548
 20
2695.397578601462
 30
0.0
 11
294.1147680686162
 21
2695.439715248663
 31
0.0
  0
LINE
  5
38DE
330
4096
100
AcDbEntity
  8
0
  6
Continuous
100
AcDbLine
 10
293.3768804310198
 20
2695.785405407475
 30
0.0
 11
294.1147680686162
 21
2695.439715248663
 31
0.0
  0
LINE
  5
38DF
330
4096
100
AcDbEntity
  8
0
  6
Continuous
100
AcDbLine
 10
294.8332387953047
 20
2695.785405407475
 30
0.0
 11
294.8513556488484
 21
2695.439715248663
 31
0.0
  0
ENDBLK
  5
38E1
330
4096
100
AcDbEntity
  8
0
100
AcDbBlockEnd
  0
BLOCK
  5
4099
330
4098
100
AcDbEntity
  8
0
100
AcDbBlockBegin
  2
*X11
 70
     1
 10
0.0
 20
0.0
 30
0.0
  3
*X11
  1

  0
LINE
  5
38E3
330
4098
100
AcDbEntity
  8
0
 62
     0
100
AcDbLine
 10
258.7187242232503
 20
2699.282089891906
 30
0.0
 11
255.7187242232649
 21
2699.544555882483
 31
0.0
  0
LINE
  5
38E4
330
4098
100
AcDbEntity
  8
0
 62
     0
100
AcDbLine
 10
261.7187242232649
 20
2699.019623901327
 30
0.0
 11
258.7187242232649
 21
2699.282089891905
 31
0.0
  0
ENDBLK
  5
38E6
330
4098
100
AcDbEntity
  8
0
100
AcDbBlockEnd
  0
BLOCK
  5
409B
330
409A
100
AcDbEntity
  8
0
100
AcDbBlockBegin
  2
*X12
 70
     1
 10
0.0
 20
0.0
 30
0.0
  3
*X12
  1

  0
LINE
  5
38E8
330
409A
100
AcDbEntity
  8
0
 62
     0
100
AcDbLine
 10
261.7187242232613
 20
2717.137572679053
 30
0.0
 11
255.7187242232467
 21
2717.662504660209
 31
0.0
  0
LINE
  5
38E9
330
409A
100
AcDbEntity
  8
0
 62
     0
100
AcDbLine
 10
261.7187242232649
 20
2716.181434283793
 30
0.0
 11
255.7187242232503
 21
2716.70636626495
 31
0.0
  0
LINE
  5
38EA
330
409A
100
AcDbEntity
  8
0
 62
     0
100
AcDbLine
 10
261.7187242232613
 20
2715.225295888533
 30
0.0
 11
255.7187242232503
 21
2715.750227869689
 31
0.0
  0
LINE
  5
38EB
330
409A
100
AcDbEntity
  8
0
 62
     0
100
AcDbLine
 10
261.7187242232613
 20
2714.269157493273
 30
0.0
 11
255.7187242232503
 21
2714.794089474429
 31
0.0
  0
LINE
  5
38EC
330
409A
100
AcDbEntity
  8
0
 62
     0
100
AcDbLine
 10
261.7187242232576
 20
2713.313019098013
 30
0.0
 11
255.718724223254
 21
2713.837951079169
 31
0.0
  0
LINE
  5
38ED
330
409A
100
AcDbEntity
  8
0
 62
     0
100
AcDbLine
 10
261.718724223254
 20
2712.356880702753
 30
0.0
 11
255.718724223254
 21
2712.881812683908
 31
0.0
  0
LINE
  5
38EE
330
409A
100
AcDbEntity
  8
0
 62
     0
100
AcDbLine
 10
261.718724223254
 20
2711.400742307493
 30
0.0
 11
255.7187242232576
 21
2711.925674288648
 31
0.0
  0
LINE
  5
38EF
330
409A
100
AcDbEntity
  8
0
 62
     0
100
AcDbLine
 10
261.7187242232576
 20
2710.444603912232
 30
0.0
 11
255.718724223254
 21
2710.969535893389
 31
0.0
  0
LINE
  5
38F0
330
409A
100
AcDbEntity
  8
0
 62
     0
100
AcDbLine
 10
261.718724223254
 20
2709.488465516972
 30
0.0
 11
255.718724223254
 21
2710.013397498129
 31
0.0
  0
LINE
  5
38F1
330
409A
100
AcDbEntity
  8
0
 62
     0
100
AcDbLine
 10
261.718724223254
 20
2708.532327121712
 30
0.0
 11
255.7187242232612
 21
2709.057259102867
 31
0.0
  0
LINE
  5
38F2
330
409A
100
AcDbEntity
  8
0
 62
     0
100
AcDbLine
 10
261.7187242232503
 20
2707.576188726453
 30
0.0
 11
255.7187242232612
 21
2708.101120707608
 31
0.0
  0
LINE
  5
38F3
330
409A
100
AcDbEntity
  8
0
 62
     0
100
AcDbLine
 10
261.7187242232503
 20
2706.620050331193
 30
0.0
 11
255.7187242232576
 21
2707.144982312347
 31
0.0
  0
LINE
  5
38F4
330
409A
100
AcDbEntity
  8
0
 62
     0
100
AcDbLine
 10
261.7187242232503
 20
2705.663911935932
 30
0.0
 11
255.7187242232576
 21
2706.188843917087
 31
0.0
  0
LINE
  5
38F5
330
409A
100
AcDbEntity
  8
0
 62
     0
100
AcDbLine
 10
261.7187242232467
 20
2704.707773540672
 30
0.0
 11
255.7187242232612
 21
2705.232705521826
 31
0.0
  0
LINE
  5
38F6
330
409A
100
AcDbEntity
  8
0
 62
     0
100
AcDbLine
 10
261.7187242232467
 20
2703.751635145412
 30
0.0
 11
256.6701284648334
 21
2704.193330040999
 31
0.0
  0
ENDBLK
  5
38F8
330
409A
100
AcDbEntity
  8
0
100
AcDbBlockEnd
  0
BLOCK
  5
409D
330
409C
100
AcDbEntity
  8
0
100
AcDbBlockBegin
  2
*X13
 70
     1
 10
0.0
 20
0.0
 30
0.0
  3
*X13
  1

  0
LINE
  5
38FA
330
409C
100
AcDbEntity
  8
0
 62
     0
100
AcDbLine
 10
281.1529351876889
 20
2716.852879289607
 30
0.0
 11
286.2394936068777
 21
2721.939437708796
 31
0.0
  0
LINE
  5
38FB
330
409C
100
AcDbEntity
  8
0
 62
     0
100
AcDbLine
 10
275.6375022944376
 20
2716.852879289611
 30
0.0
 11
286.2394936068777
 21
2727.454870602051
 31
0.0
  0
LINE
  5
38FC
330
409C
100
AcDbEntity
  8
0
 62
     0
100
AcDbLine
 10
270.1220694011827
 20
2716.852879289611
 30
0.0
 11
286.239493606874
 21
2732.970303495302
 31
0.0
  0
LINE
  5
38FD
330
409C
100
AcDbEntity
  8
0
 62
     0
100
AcDbLine
 10
264.6066365079241
 20
2716.852879289607
 30
0.0
 11
285.8536680868929
 21
2738.099910868576
 31
0.0
  0
LINE
  5
38FE
330
409C
100
AcDbEntity
  8
0
 62
     0
100
AcDbLine
 10
263.4687242232721
 20
2721.230399898211
 30
0.0
 11
281.1573707864736
 21
2738.919046461412
 31
0.0
  0
LINE
  5
38FF
330
409C
100
AcDbEntity
  8
0
 62
     0
100
AcDbLine
 10
263.4687242232685
 20
2726.745832791461
 30
0.0
 11
275.6419378932187
 21
2738.919046461412
 31
0.0
  0
LINE
  5
3900
330
409C
100
AcDbEntity
  8
0
 62
     0
100
AcDbLine
 10
253.5757707214179
 20
2716.852879289611
 30
0.0
 11
253.9687242232649
 21
2717.245832791457
 31
0.0
  0
LINE
  5
3901
330
409C
100
AcDbEntity
  8
0
 62
     0
100
AcDbLine
 10
261.5009875220348
 20
2730.293528983481
 30
0.0
 11
270.1265049999638
 21
2738.919046461412
 31
0.0
  0
LINE
  5
3902
330
409C
100
AcDbEntity
  8
0
 62
     0
100
AcDbLine
 10
248.060337828163
 20
2716.852879289611
 30
0.0
 11
253.9687242232612
 21
2722.761265684709
 31
0.0
  0
LINE
  5
3903
330
409C
100
AcDbEntity
  8
0
 62
     0
100
AcDbLine
 10
255.9855546287799
 20
2730.293528983481
 30
0.0
 11
264.6110721067125
 21
2738.919046461415
 31
0.0
  0
LINE
  5
3904
330
409C
100
AcDbEntity
  8
0
 62
     0
100
AcDbLine
 10
242.5449049349045
 20
2716.852879289611
 30
0.0
 11
253.9687242232685
 21
2728.276698577971
 31
0.0
  0
LINE
  5
3905
330
409C
100
AcDbEntity
  8
0
 62
     0
100
AcDbLine
 10
237.0294720416496
 20
2716.852879289607
 30
0.0
 11
259.095639213454
 21
2738.919046461415
 31
0.0
  0
LINE
  5
3906
330
409C
100
AcDbEntity
  8
0
 62
     0
100
AcDbLine
 10
238.5169049877695
 20
2723.855745128985
 30
0.0
 11
253.5802063201991
 21
2738.919046461412
 31
0.0
  0
LINE
  5
3907
330
409C
100
AcDbEntity
  8
0
 62
     0
100
AcDbLine
 10
237.708134768076
 20
2728.562407802547
 30
0.0
 11
248.0647734269478
 21
2738.919046461415
 31
0.0
  0
LINE
  5
3908
330
409C
100
AcDbEntity
  8
0
 62
     0
100
AcDbLine
 10
236.3329969523765
 20
2732.702702880099
 30
0.0
 11
242.5493405336856
 21
2738.919046461412
 31
0.0
  0
LINE
  5
3909
330
409C
100
AcDbEntity
  8
0
 62
     0
100
AcDbLine
 10
235.7313506940409
 20
2737.61648951502
 30
0.0
 11
237.033907640438
 21
2738.919046461415
 31
0.0
  0
LINE
  5
390A
330
409C
100
AcDbEntity
  8
0
 62
     0
100
AcDbLine
 10
280.9529351876918
 20
2716.852879289607
 30
0.0
 11
286.2394936068777
 21
2722.139437708793
 31
0.0
  0
LINE
  5
390B
330
409C
100
AcDbEntity
  8
0
 62
     0
100
AcDbLine
 10
275.4375022944405
 20
2716.852879289611
 30
0.0
 11
286.2394936068777
 21
2727.654870602048
 31
0.0
  0
LINE
  5
390C
330
409C
100
AcDbEntity
  8
0
 62
     0
100
AcDbLine
 10
269.9220694011856
 20
2716.852879289611
 30
0.0
 11
286.2394936068777
 21
2733.170303495303
 31
0.0
  0
LINE
  5
390D
330
409C
100
AcDbEntity
  8
0
 62
     0
100
AcDbLine
 10
264.406636507927
 20
2716.852879289607
 30
0.0
 11
285.7655426983802
 21
2738.21178548006
 31
0.0
  0
LINE
  5
390E
330
409C
100
AcDbEntity
  8
0
 62
     0
100
AcDbLine
 10
263.4687242232757
 20
2721.430399898214
 30
0.0
 11
280.9573707864765
 21
2738.919046461412
 31
0.0
  0
LINE
  5
390F
330
409C
100
AcDbEntity
  8
0
 62
     0
100
AcDbLine
 10
263.4687242232721
 20
2726.945832791463
 30
0.0
 11
275.4419378932216
 21
2738.919046461412
 31
0.0
  0
LINE
  5
3910
330
409C
100
AcDbEntity
  8
0
 62
     0
100
AcDbLine
 10
253.3757707214209
 20
2716.852879289611
 30
0.0
 11
253.9687242232649
 21
2717.445832791455
 31
0.0
  0
LINE
  5
3911
330
409C
100
AcDbEntity
  8
0
 62
     0
100
AcDbLine
 10
261.3009875220377
 20
2730.293528983481
 30
0.0
 11
269.9265049999667
 21
2738.919046461412
 31
0.0
  0
LINE
  5
3912
330
409C
100
AcDbEntity
  8
0
 62
     0
100
AcDbLine
 10
247.8603378281659
 20
2716.852879289611
 30
0.0
 11
253.9687242232649
 21
2722.961265684713
 31
0.0
  0
LINE
  5
3913
330
409C
100
AcDbEntity
  8
0
 62
     0
100
AcDbLine
 10
255.7855546287829
 20
2730.293528983481
 30
0.0
 11
264.4110721067154
 21
2738.919046461415
 31
0.0
  0
LINE
  5
3914
330
409C
100
AcDbEntity
  8
0
 62
     0
100
AcDbLine
 10
242.3449049349074
 20
2716.852879289611
 30
0.0
 11
253.9687242232612
 21
2728.476698577961
 31
0.0
  0
LINE
  5
3915
330
409C
100
AcDbEntity
  8
0
 62
     0
100
AcDbLine
 10
236.8294720416525
 20
2716.852879289607
 30
0.0
 11
258.8956392134569
 21
2738.919046461415
 31
0.0
  0
LINE
  5
3916
330
409C
100
AcDbEntity
  8
0
 62
     0
100
AcDbLine
 10
238.5231582407214
 20
2724.061998381934
 30
0.0
 11
253.380206320202
 21
2738.919046461412
 31
0.0
  0
LINE
  5
3917
330
409C
100
AcDbEntity
  8
0
 62
     0
100
AcDbLine
 10
237.659954871684
 20
2728.714227906148
 30
0.0
 11
247.8647734269507
 21
2738.919046461415
 31
0.0
  0
LINE
  5
3918
330
409C
100
AcDbEntity
  8
0
 62
     0
100
AcDbLine
 10
236.2871919372155
 20
2732.856897864935
 30
0.0
 11
242.3493405336885
 21
2738.919046461412
 31
0.0
  0
LINE
  5
3919
330
409C
100
AcDbEntity
  8
0
 62
     0
100
AcDbLine
 10
235.770594860096
 20
2737.85573368107
 30
0.0
 11
236.8339076404409
 21
2738.919046461415
 31
0.0
  0
ENDBLK
  5
391B
330
409C
100
AcDbEntity
  8
0
100
AcDbBlockEnd
  0
BLOCK
  5
409F
330
409E
100
AcDbEntity
  8
0
100
AcDbBlockBegin
  2
*U14
 70
     1
 10
0.0
 20
0.0
 30
0.0
  3
*U14
  1

  0
TEXT
  5
391D
330
409E
100
AcDbEntity
  8
0
 62
     1
100
AcDbText
 10
167.7656421683794
 20
2779.923853605249
 30
0.0
 40
7.0
  1
%%UImportant, to the fabricator / installer:
100
AcDbText
  0
TEXT
  5
391E
330
409E
100
AcDbEntity
  8
0
 62
     1
100
AcDbText
 10
79.43664216837942
 20
2768.257186938583
 30
0.0
 40
7.0
  1
The cut out size indicated is aligned with outside edge
100
AcDbText
  0
TEXT
  5
391F
330
409E
100
AcDbEntity
  8
0
 62
     1
100
AcDbText
 10
189.7656421683794
 20
2755.257186938583
 30
0.0
 40
7.0
  1
of the bowl top radius (see below).
100
AcDbText
  0
TEXT
  5
3920
330
409E
100
AcDbEntity
  8
0
 62
     1
100
AcDbText
 10
84.10364216837942
 20
2661.92385360525
 30
0.0
 40
7.0
  1
You should confirm with your client if the worksurface
100
AcDbText
  0
TEXT
  5
3921
330
409E
100
AcDbEntity
  8
0
 62
     1
100
AcDbText
 10
119.1036421683794
 20
2650.257186938584
 30
0.0
 40
7.0
  1
cutout is to be cut flush, inside or outside this
100
AcDbText
  0
TEXT
  5
3922
330
409E
100
AcDbEntity
  8
0
 62
     1
100
AcDbText
 10
194.1056421683794
 20
2638.590520271917
 30
0.0
 40
7.0
  1
suggested perimeter shape &
100
AcDbText
  0
TEXT
  5
3923
330
409E
100
AcDbEntity
  8
0
 62
     1
100
AcDbText
 10
64.4656421683794
 20
2626.923853605251
 30
0.0
 40
7.0
  1
size.
100
AcDbText
  0
TEXT
  5
3924
330
409E
100
AcDbEntity
  8
0
 62
     1
100
AcDbText
 10
99.77064216837943
 20
2615.257186938584
 30
0.0
 40
7.0
  1
If you create the cutout smaller or larger than
100
AcDbText
  0
TEXT
  5
3925
330
409E
100
AcDbEntity
  8
0
 62
     1
100
AcDbText
 10
64.4656421683794
 20
2603.590520271919
 30
0.0
 40
7.0
  1
the
100
AcDbText
  0
TEXT
  5
3926
330
409E
100
AcDbEntity
  8
0
 62
     1
100
AcDbText
 10
87.10364216837943
 20
2591.923853605252
 30
0.0
 40
7.0
  1
indicated size then the fit of the accessories may be
100
AcDbText
  0
TEXT
  5
3927
330
409E
100
AcDbEntity
  8
0
 62
     1
100
AcDbText
 10
150.7706421683794
 20
2580.257186938585
 30
0.0
 40
7.0
  1
affected and should be physically
100
AcDbText
  0
TEXT
  5
3928
330
409E
100
AcDbEntity
  8
0
 62
     1
100
AcDbText
 10
64.4656421683794
 20
2568.590520271919
 30
0.0
 40
7.0
  1
checked.
100
AcDbText
  0
TEXT
  5
3929
330
409E
100
AcDbEntity
  8
0
 62
     1
100
AcDbText
 10
82.43664216837942
 20
2556.923853605252
 30
0.0
 40
7.0
  1
Note: the dimensions on ceramic fireclay products are
100
AcDbText
  0
TEXT
  5
392A
330
409E
100
AcDbEntity
  8
0
 62
     1
100
AcDbText
 10
87.43664216837942
 20
2545.257186938585
 30
0.0
 40
7.0
  1
subject to wider tolerances due to the nature of this
100
AcDbText
  0
TEXT
  5
392B
330
409E
100
AcDbEntity
  8
0
 62
     1
100
AcDbText
 10
168.1056421683794
 20
2533.590520271919
 30
0.0
 40
7.0
  1
natural material and the firing
100
AcDbText
  0
TEXT
  5
392C
330
409E
100
AcDbEntity
  8
0
 62
     1
100
AcDbText
 10
64.4656421683794
 20
2521.923853605252
 30
0.0
 40
7.0
  1
process.
100
AcDbText
  0
TEXT
  5
392D
330
409E
100
AcDbEntity
  8
0
 62
     1
100
AcDbText
 10
96.43664216837942
 20
2463.59052027192
 30
0.0
 40
7.0
  1
All details are provided in good faith and within the
100
AcDbText
  0
TEXT
  5
392E
330
409E
100
AcDbEntity
  8
0
 62
     1
100
AcDbText
 10
159.1036421683794
 20
2451.923853605253
 30
0.0
 40
7.0
  1
tolerances of the manufacturing process.
100
AcDbText
  0
TEXT
  5
392F
330
409E
100
AcDbEntity
  8
0
 62
     1
100
AcDbText
 10
94.77064216837943
 20
2440.257186938587
 30
0.0
 40
7.0
  1
We recommend that a test cutout is made in
100
AcDbText
  0
TEXT
  5
3930
330
409E
100
AcDbEntity
  8
0
 62
     1
100
AcDbText
 10
64.4656421683794
 20
2428.59052027192
 30
0.0
 40
7.0
  1
scrap
100
AcDbText
  0
TEXT
  5
3931
330
409E
100
AcDbEntity
  8
0
 62
     1
100
AcDbText
 10
95.43664216837942
 20
2416.923853605254
 30
0.0
 40
7.0
  1
timber and checked against the actual sink supplied
100
AcDbText
  0
TEXT
  5
3932
330
409E
100
AcDbEntity
  8
0
 62
     1
100
AcDbText
 10
130.7706421683794
 20
2405.257186938587
 30
0.0
 40
7.0
  1
before committing to cutting the
100
AcDbText
  0
TEXT
  5
3933
330
409E
100
AcDbEntity
  8
0
 62
     1
100
AcDbText
 10
64.4656421683794
 20
2393.590520271921
 30
0.0
 40
7.0
  1
worksurface.
100
AcDbText
  0
TEXT
  5
3934
330
409E
100
AcDbEntity
  8
0
 62
     1
100
AcDbText
 10
93.43664216837941
 20
2381.923853605254
 30
0.0
 40
7.0
  1
Abode can not accept liability for problems or costs
100
AcDbText
  0
TEXT
  5
3935
330
409E
100
AcDbEntity
  8
0
 62
     1
100
AcDbText
 10
166.1056421683794
 20
2370.257186938587
 30
0.0
 40
7.0
  1
incurred by failure to follow this
100
AcDbText
  0
TEXT
  5
3936
330
409E
100
AcDbEntity
  8
0
 62
     1
100
AcDbText
 10
64.4656421683794
 20
2358.590520271921
 30
0.0
 40
7.0
  1
advise.
100
AcDbText
  0
ENDBLK
  5
3938
330
409E
100
AcDbEntity
  8
0
100
AcDbBlockEnd
  0
BLOCK
  5
40A1
330
40A0
100
AcDbEntity
  8
0
100
AcDbBlockBegin
  2
*U15
 70
     1
 10
0.0
 20
0.0
 30
0.0
  3
*U15
  1

  0
TEXT
  5
393A
330
40A0
100
AcDbEntity
  8
0
 62
     1
100
AcDbText
 10
313.1333305964727
 20
2725.986543809594
 30
0.0
 40
6.0
  1
sink bowl
  7
ACISOTS
100
AcDbText
  0
TEXT
  5
393B
330
40A0
100
AcDbEntity
  8
0
 62
     1
100
AcDbText
 10
312.9409290216696
 20
2715.986543809593
 30
0.0
 40
6.0
  1
top radius
  7
ACISOTS
100
AcDbText
  0
ENDBLK
  5
393D
330
40A0
100
AcDbEntity
  8
0
100
AcDbBlockEnd
  0
BLOCK
  5
40A3
330
40A2
100
AcDbEntity
  8
0
100
AcDbBlockBegin
  2
*U16
 70
     1
 10
0.0
 20
0.0
 30
0.0
  3
*U16
  1

  0
TEXT
  5
393F
330
40A2
100
AcDbEntity
  8
0
 62
     1
100
AcDbText
 10
189.4517356786535
 20
2725.986543809594
 30
0.0
 40
6.0
  1
worktop
  7
ACISOTS
100
AcDbText
  0
ENDBLK
  5
3941
330
40A2
100
AcDbEntity
  8
0
100
AcDbBlockEnd
  0
BLOCK
  5
412B
330
4129
100
AcDbEntity
  8
0
100
AcDbBlockBegin
  2
GENAXEH
 70
     0
 10
0.0
 20
0.0
 30
0.0
  3
GENAXEH
  1

  0
LINE
  5
412A
330
4129
100
AcDbEntity
  8
0
100
AcDbLine
 10
-1.0
 20
0.0
 30
0.0
 11
1.0
 21
0.0
 31
0.0
  0
ENDBLK
  5
412C
330
4129
100
AcDbEntity
  8
0
100
AcDbBlockEnd
  0
BLOCK
  5
4143
330
4142
100
AcDbEntity
  8
0
100
AcDbBlockBegin
  2
*D19
 70
     1
 10
0.0
 20
0.0
 30
0.0
  3
*D19
  1

  0
LINE
  5
4144
330
4142
100
AcDbEntity
  8
DIMS SPECS
370
    25
100
AcDbLine
 10
-71939.780415171
 20
1344.751561790546
 30
0.0
 11
-71914.59212731873
 21
1344.751561790546
 31
0.0
  0
LINE
  5
4145
330
4142
100
AcDbEntity
  8
DIMS SPECS
370
    25
100
AcDbLine
 10
-71941.280415171
 20
941.7515617905459
 30
0.0
 11
-71914.59212731873
 21
941.7515617905459
 31
0.0
  0
LINE
  5
4146
330
4142
100
AcDbEntity
  8
DIMS SPECS
370
    25
100
AcDbLine
 10
-71914.59212731873
 20
1332.251561790546
 30
0.0
 11
-71914.59212731873
 21
1159.67916206247
 31
0.0
  0
LINE
  5
4147
330
4142
100
AcDbEntity
  8
DIMS SPECS
370
    25
100
AcDbLine
 10
-71914.59212731873
 20
954.2515617905459
 30
0.0
 11
-71914.59212731873
 21
1126.823961518622
 31
0.0
  0
INSERT
  5
4148
330
4142
100
AcDbEntity
  8
DIMS SPECS
370
    25
100
AcDbBlockReference
  2
FILLED-1
 10
-71914.59212731873
 20
1344.751561790546
 30
0.0
 41
12.5
 42
12.5
 43
12.5
 50
90.0
  0
INSERT
  5
4149
330
4142
100
AcDbEntity
  8
DIMS SPECS
370
    25
100
AcDbBlockReference
  2
FILLED-1
 10
-71914.59212731873
 20
941.7515617905459
 30
0.0
 41
12.5
 42
12.5
 43
12.5
 50
270.0
  0
MTEXT
  5
414A
330
4142
100
AcDbEntity
  8
DIMS SPECS
100
AcDbMText
 10
-71914.59212731873
 20
1143.251561790534
 30
0.0
 40
17.0
 41
0.0
 71
     5
 72
     1
  1
\A1;403
  7
ABODE-ISO
 73
     1
 44
1.0
  0
POINT
  5
414B
330
4142
100
AcDbEntity
  8
DEFPOINTS
 62
     0
100
AcDbPoint
 10
-71954.780415171
 20
1344.751561790546
 30
0.0
  0
POINT
  5
414C
330
4142
100
AcDbEntity
  8
DEFPOINTS
 62
     0
100
AcDbPoint
 10
-71956.280415171
 20
941.7515617905459
 30
0.0
  0
POINT
  5
414D
330
4142
100
AcDbEntity
  8
DEFPOINTS
 62
     0
100
AcDbPoint
 10
-71914.59212731873
 20
941.7515617905459
 30
0.0
  0
ENDBLK
  5
414E
330
4142
100
AcDbEntity
  8
0
100
AcDbBlockEnd
  0
BLOCK
  5
4150
330
414F
100
AcDbEntity
  8
0
100
AcDbBlockBegin
  2
*D20
 70
     1
 10
0.0
 20
0.0
 30
0.0
  3
*D20
  1

  0
LINE
  5
4151
330
414F
100
AcDbEntity
  8
DIMS SPECS
370
    25
100
AcDbLine
 10
-72452.780415171
 20
931.751561790546
 30
0.0
 11
-72452.780415171
 21
889.7244804651709
 31
0.0
  0
LINE
  5
4152
330
414F
100
AcDbEntity
  8
DIMS SPECS
370
    25
100
AcDbLine
 10
-71949.780415171
 20
931.7515617905462
 30
0.0
 11
-71949.780415171
 21
889.7244804651709
 31
0.0
  0
LINE
  5
4153
330
414F
100
AcDbEntity
  8
DIMS SPECS
370
    25
100
AcDbLine
 10
-72440.280415171
 20
889.7244804651709
 30
0.0
 11
-71962.280415171
 21
889.7244804651709
 31
0.0
  0
INSERT
  5
4154
330
414F
100
AcDbEntity
  8
DIMS SPECS
370
    25
100
AcDbBlockReference
  2
FILLED-1
 10
-72452.780415171
 20
889.7244804651709
 30
0.0
 41
12.5
 42
12.5
 43
12.5
 50
180.0
  0
INSERT
  5
4155
330
414F
100
AcDbEntity
  8
DIMS SPECS
370
    25
100
AcDbBlockReference
  2
FILLED-1
 10
-71949.780415171
 20
889.7244804651709
 30
0.0
 41
12.5
 42
12.5
 43
12.5
  0
MTEXT
  5
4156
330
414F
100
AcDbEntity
  8
DIMS SPECS
100
AcDbMText
 10
-72201.280415171
 20
906.1520807370948
 30
0.0
 40
17.0
 41
0.0
 71
     5
 72
     1
  1
\A1;503
  7
ABODE-ISO
 73
     1
 44
1.0
  0
POINT
  5
4157
330
414F
100
AcDbEntity
  8
DEFPOINTS
 62
     0
100
AcDbPoint
 10
-72452.780415171
 20
946.751561790546
 30
0.0
  0
POINT
  5
4158
330
414F
100
AcDbEntity
  8
DEFPOINTS
 62
     0
100
AcDbPoint
 10
-71949.780415171
 20
946.7515617905462
 30
0.0
  0
POINT
  5
4159
330
414F
100
AcDbEntity
  8
DEFPOINTS
 62
     0
100
AcDbPoint
 10
-71949.780415171
 20
889.7244804651709
 30
0.0
  0
ENDBLK
  5
415A
330
414F
100
AcDbEntity
  8
0
100
AcDbBlockEnd
  0
BLOCK
  5
415C
330
415B
100
AcDbEntity
  8
0
100
AcDbBlockBegin
  2
*D21
 70
     1
 10
0.0
 20
0.0
 30
0.0
  3
*D21
  1

  0
LINE
  5
415D
330
415B
100
AcDbEntity
  8
DIMS SPECS
370
    25
100
AcDbLine
 10
-71877.29884506262
 20
906.2546540641779
 30
0.0
 11
-71906.65153031075
 21
906.2546540641852
 31
0.0
  0
LINE
  5
415E
330
415B
100
AcDbEntity
  8
DIMS SPECS
370
    25
100
AcDbLine
 10
-71906.65153031075
 20
906.2546540641852
 30
0.0
 11
-71941.38999052214
 21
935.4845068193753
 31
0.0
  0
MTEXT
  5
415F
330
415B
100
AcDbEntity
  8
DIMS SPECS
100
AcDbMText
 10
-71888.22518768668
 20
922.4684542001398
 30
0.0
 40
17.0
 41
0.0
 71
     5
 72
     1
  1
\A1;R5
  7
ABODE-ISO
 73
     1
 44
1.0
  0
LINE
  5
4160
330
415B
100
AcDbEntity
  8
DIMS SPECS
370
    25
100
AcDbLine
 10
-71954.780415171
 20
946.7515617905373
 30
0.0
 11
-71950.95457955704
 21
943.5324032273493
 31
0.0
  0
INSERT
  5
4161
330
415B
100
AcDbEntity
  8
DIMS SPECS
370
    25
100
AcDbBlockReference
  2
FILLED-1
 10
-71950.95457955704
 20
943.5324032273493
 30
0.0
 41
12.5
 42
12.5
 43
12.5
 50
139.921862289231
  0
POINT
  5
4162
330
415B
100
AcDbEntity
  8
DEFPOINTS
 62
     0
100
AcDbPoint
 10
-71950.95457955704
 20
943.5324032273493
 30
0.0
  0
POINT
  5
4163
330
415B
100
AcDbEntity
  8
DEFPOINTS
 62
     0
100
AcDbPoint
 10
-71954.780415171
 20
946.7515617905373
 30
0.0
  0
ENDBLK
  5
4164
330
415B
100
AcDbEntity
  8
0
100
AcDbBlockEnd
  0
BLOCK
  5
41C4
330
41C3
100
AcDbEntity
  8
0
100
AcDbBlockBegin
  2
*D23
 70
     1
 10
0.0
 20
0.0
 30
0.0
  3
*D23
  1

  0
LINE
  5
41E6
330
41C3
100
AcDbEntity
  8
DIMS SPECS
370
    25
100
AcDbLine
 10
1075.906668314945
 20
2764.022001589282
 30
0.0
 11
1101.094956167219
 21
2764.022001589282
 31
0.0
  0
LINE
  5
41E7
330
41C3
100
AcDbEntity
  8
DIMS SPECS
370
    25
100
AcDbLine
 10
1074.406668314945
 20
2361.022001589283
 30
0.0
 11
1101.094956167218
 21
2361.022001589283
 31
0.0
  0
LINE
  5
41E8
330
41C3
100
AcDbEntity
  8
DIMS SPECS
370
    25
100
AcDbLine
 10
1101.094956167219
 20
2751.522001589282
 30
0.0
 11
1101.094956167219
 21
2578.522001589283
 31
0.0
  0
LINE
  5
41E9
330
41C3
100
AcDbEntity
  8
DIMS SPECS
370
    25
100
AcDbLine
 10
1101.094956167218
 20
2373.522001589282
 30
0.0
 11
1101.094956167218
 21
2546.522001589283
 31
0.0
  0
INSERT
  5
41EA
330
41C3
100
AcDbEntity
  8
DIMS SPECS
370
    25
100
AcDbBlockReference
  2
FILLED-1
 10
1101.094956167219
 20
2764.022001589282
 30
0.0
 41
12.5
 42
12.5
 43
12.5
 50
90.0
  0
INSERT
  5
41EB
330
41C3
100
AcDbEntity
  8
DIMS SPECS
370
    25
100
AcDbBlockReference
  2
FILLED-1
 10
1101.094956167218
 20
2361.022001589283
 30
0.0
 41
12.5
 42
12.5
 43
12.5
 50
270.0
  0
MTEXT
  5
41EC
330
41C3
100
AcDbEntity
  8
DIMS SPECS
100
AcDbMText
 10
1101.094956167218
 20
2562.522001589283
 30
0.0
 40
17.0
 41
0.0
 71
     5
 72
     1
  1
\A1;403
  7
ABODE-ISO
 73
     1
 44
1.0
  0
POINT
  5
41ED
330
41C3
100
AcDbEntity
  8
DEFPOINTS
 62
     0
100
AcDbPoint
 10
1060.906668314945
 20
2764.022001589282
 30
0.0
  0
POINT
  5
41EE
330
41C3
100
AcDbEntity
  8
DEFPOINTS
 62
     0
100
AcDbPoint
 10
1059.406668314945
 20
2361.022001589283
 30
0.0
  0
POINT
  5
41EF
330
41C3
100
AcDbEntity
  8
DEFPOINTS
 62
     0
100
AcDbPoint
 10
1101.094956167218
 20
2361.022001589283
 30
0.0
  0
ENDBLK
  5
41C5
330
41C3
100
AcDbEntity
  8
0
100
AcDbBlockEnd
  0
BLOCK
  5
41D1
330
41D0
100
AcDbEntity
  8
0
100
AcDbBlockBegin
  2
*D24
 70
     1
 10
0.0
 20
0.0
 30
0.0
  3
*D24
  1

  0
LINE
  5
41F0
330
41D0
100
AcDbEntity
  8
DIMS SPECS
370
    25
100
AcDbLine
 10
562.9066683149448
 20
2351.022001589282
 30
0.0
 11
562.9066683149448
 21
2308.994920263907
 31
0.0
  0
LINE
  5
41F1
330
41D0
100
AcDbEntity
  8
DIMS SPECS
370
    25
100
AcDbLine
 10
1065.906668314945
 20
2351.022001589282
 30
0.0
 11
1065.906668314945
 21
2308.994920263907
 31
0.0
  0
LINE
  5
41F2
330
41D0
100
AcDbEntity
  8
DIMS SPECS
370
    25
100
AcDbLine
 10
575.4066683149448
 20
2308.994920263907
 30
0.0
 11
1053.406668314945
 21
2308.994920263907
 31
0.0
  0
INSERT
  5
41F3
330
41D0
100
AcDbEntity
  8
DIMS SPECS
370
    25
100
AcDbBlockReference
  2
FILLED-1
 10
562.9066683149448
 20
2308.994920263907
 30
0.0
 41
12.5
 42
12.5
 43
12.5
 50
180.0
  0
INSERT
  5
41F4
330
41D0
100
AcDbEntity
  8
DIMS SPECS
370
    25
100
AcDbBlockReference
  2
FILLED-1
 10
1065.906668314945
 20
2308.994920263907
 30
0.0
 41
12.5
 42
12.5
 43
12.5
  0
MTEXT
  5
41F5
330
41D0
100
AcDbEntity
  8
DIMS SPECS
100
AcDbMText
 10
814.4066683149448
 20
2324.994920263907
 30
0.0
 40
17.0
 41
0.0
 71
     5
 72
     1
  1
\A1;503
  7
ABODE-ISO
 73
     1
 44
1.0
  0
POINT
  5
41F6
330
41D0
100
AcDbEntity
  8
DEFPOINTS
 62
     0
100
AcDbPoint
 10
562.9066683149448
 20
2366.022001589282
 30
0.0
  0
POINT
  5
41F7
330
41D0
100
AcDbEntity
  8
DEFPOINTS
 62
     0
100
AcDbPoint
 10
1065.906668314945
 20
2366.022001589282
 30
0.0
  0
POINT
  5
41F8
330
41D0
100
AcDbEntity
  8
DEFPOINTS
 62
     0
100
AcDbPoint
 10
1065.906668314945
 20
2308.994920263907
 30
0.0
  0
ENDBLK
  5
41D2
330
41D0
100
AcDbEntity
  8
0
100
AcDbBlockEnd
  0
BLOCK
  5
41DD
330
41DC
100
AcDbEntity
  8
0
100
AcDbBlockBegin
  2
*D25
 70
     1
 10
0.0
 20
0.0
 30
0.0
  3
*D25
  1

  0
LINE
  5
41F9
330
41DC
100
AcDbEntity
  8
DIMS SPECS
370
    25
100
AcDbLine
 10
1142.035553175201
 20
2325.525093862914
 30
0.0
 11
1109.035553175192
 21
2325.525093862914
 31
0.0
  0
LINE
  5
41FA
330
41DC
100
AcDbEntity
  8
DIMS SPECS
370
    25
100
AcDbLine
 10
1109.035553175192
 20
2325.525093862914
 30
0.0
 11
1074.297092963797
 21
2354.754946618107
 31
0.0
  0
MTEXT
  5
41FB
330
41DC
100
AcDbEntity
  8
DIMS SPECS
100
AcDbMText
 10
1129.285553175201
 20
2341.525093862914
 30
0.0
 40
17.0
 41
0.0
 71
     5
 72
     1
  1
\A1;R5
  7
ABODE-ISO
 73
     1
 44
1.0
  0
LINE
  5
41FC
330
41DC
100
AcDbEntity
  8
DIMS SPECS
370
    25
100
AcDbLine
 10
1060.906668314945
 20
2366.022001589274
 30
0.0
 11
1064.7325039289
 21
2362.802843026085
 31
0.0
  0
INSERT
  5
41FD
330
41DC
100
AcDbEntity
  8
DIMS SPECS
370
    25
100
AcDbBlockReference
  2
FILLED-1
 10
1064.7325039289
 20
2362.802843026085
 30
0.0
 41
12.5
 42
12.5
 43
12.5
 50
139.9218622892253
  0
POINT
  5
41FE
330
41DC
100
AcDbEntity
  8
DEFPOINTS
 62
     0
100
AcDbPoint
 10
1064.7325039289
 20
2362.802843026085
 30
0.0
  0
POINT
  5
41FF
330
41DC
100
AcDbEntity
  8
DEFPOINTS
 62
     0
100
AcDbPoint
 10
1060.906668314945
 20
2366.022001589274
 30
0.0
  0
ENDBLK
  5
41DE
330
41DC
100
AcDbEntity
  8
0
100
AcDbBlockEnd
  0
ENDSEC
  0
SECTION
  2
ENTITIES
  0
TEXT
  5
31C9
330
4062
100
AcDbEntity
  8
LAYER1
100
AcDbText
 10
381.1041360566197
 20
3291.532420452011
 30
0.0
 40
150.0
  1
AW5009
100
AcDbText
  0
INSERT
  5
31D8
330
4062
100
AcDbEntity
  8
0
  6
Continuous
100
AcDbBlockReference
  2
*U10
 10
0.0
 20
0.0
 30
0.0
1001
ACAD
1002
{
1000
R14_HATCH_DATA
1000
31D8
1011
1.0
1021
0.0
1031
0.0
1011
0.0
1021
1.0
1031
0.0
1011
0.0
1021
0.0
1031
1.0
1040
0.0
1010
0.0
1020
0.0
1030
1.0
1000
SOLID
1070
     1
1070
     0
1071
        1
1071
        5
1071
       11
1070
     2
1040
284.2394936068777
1040
2706.85287928961
1040
9.99999999999992
1040
1.075862200453413
1040
1.570796326794531
1070
     1
1070
     1
1040
284.2394936068777
1040
2716.852879289605
1040
275.6530769451529
1040
2716.852879289605
1070
     2
1040
275.6530769451529
1040
2716.032435154173
1040
0.8204441354319742
1040
1.570796326794894
1040
3.141601952692803
1070
     1
1070
     2
1040
275.6530769451529
1040
2716.03243525166
1040
0.8204441354319744
1040
3.141583235664652
1040
3.141592534776533
1070
     0
1070
     1
1040
274.832632809721
1040
2716.03243515418
1040
274.832632809721
1040
2710.652879289604
1070
     1
1040
274.832632809721
1040
2710.652879289604
1040
284.2394936068922
1040
2710.652879289604
1070
     2
1040
284.2394936068777
1040
2706.852879289602
1040
3.799999999999528
1040
4.712388980385647
1040
6.2308254296187
1070
     0
1070
     1
1040
288.0342858389522
1040
2707.051755923329
1040
288.6014378344007
1040
2696.229851175636
1070
     4
1070
     3
1070
     0
1070
     0
1071
       10
1071
        6
1040
1.73054504334305
1040
1.73054504334305
1040
1.73054504334305
1040
1.73054504334305
1040
5.553327532146838
1040
7.789685213482304
1040
8.383761666481566
1040
8.383761666481566
1040
8.383761666481566
1040
8.383761666481566
1040
288.6014378343863
1040
2696.229851175636
1040
289.8897935469031
1040
2696.694725155206
1040
291.8881229087165
1040
2697.054715280725
1040
293.8381800455573
1040
2695.345360071368
1040
294.6771405563085
1040
2695.366390039902
1040
294.8535639369402
1040
2695.397578601458
1070
     1
1040
294.8535639369548
1040
2695.397578601462
1040
294.2257889544308
1040
2707.376238852035
1070
     2
1040
284.2394936068777
1040
2706.85287928961
1040
9.999999999997751
1040
0.0523598775595827
1040
1.075862200454053
1070
     1
1071
        0
1070
     0
1070
     1
1040
0.0673826948681925
1071
        1
1040
285.1676816702857
1040
2715.133926652927
1040
0.0
1002
}
  0
ARC
  5
31D9
330
4062
100
AcDbEntity
  8
0
100
AcDbCircle
 10
284.2394936068777
 20
2706.852879289605
 30
0.0
 40
10.0
100
AcDbArc
 50
3.000000000031742
 51
61.64236342386374
  0
ARC
  5
31DA
330
4062
100
AcDbEntity
  8
0
100
AcDbCircle
 10
284.2394936068777
 20
2706.852879289605
 30
0.0
 40
10.0
100
AcDbArc
 50
3.000000000031742
 51
90.0
  0
ARC
  5
31DB
330
4062
100
AcDbEntity
  8
0
100
AcDbCircle
 10
284.2394936068777
 20
2706.852879289605
 30
0.0
 40
3.799999999999272
100
AcDbArc
 50
3.000000000031742
 51
90.0
  0
LINE
  5
31DC
330
4062
100
AcDbEntity
  8
0
100
AcDbLine
 10
274.8326328097064
 20
2710.652879289608
 30
0.0
 11
284.2394936068777
 21
2710.652879289604
 31
0.0
  0
LINE
  5
31DD
330
4062
100
AcDbEntity
  8
0
100
AcDbLine
 10
294.2257889544308
 20
2707.376238852035
 30
0.0
 11
294.8622316802537
 21
2695.232188206648
 31
0.0
  0
LINE
  5
31DE
330
4062
100
AcDbEntity
  8
0
100
AcDbLine
 10
288.0342858389522
 20
2707.051755923329
 30
0.0
 11
288.6014378343863
 21
2696.229851175636
 31
0.0
  0
LINE
  5
31DF
330
4062
100
AcDbEntity
  8
0
100
AcDbLine
 10
274.832632809721
 20
2716.03243515418
 30
0.0
 11
274.832632809721
 21
2710.652879289608
 31
0.0
  0
POLYLINE
  5
3AD2
330
4062
100
AcDbEntity
  8
0
100
AcDb3dPolyline
 66
     1
 10
0.0
 20
0.0
 30
0.0
 70
     8
  0
VERTEX
  5
3AD3
330
3AD2
100
AcDbEntity
  8
0
100
AcDbVertex
100
AcDb3dPolylineVertex
 10
286.84
 20
2695.5
 30
0.0
 70
    32
  0
VERTEX
  5
3AD4
330
3AD2
100
AcDbEntity
  8
0
100
AcDbVertex
100
AcDb3dPolylineVertex
 10
286.899
 20
2695.53
 30
0.0
 70
    32
  0
VERTEX
  5
3AD5
330
3AD2
100
AcDbEntity
  8
0
100
AcDbVertex
100
AcDb3dPolylineVertex
 10
286.9580000000001
 20
2695.55
 30
0.0
 70
    32
  0
VERTEX
  5
3AD6
330
3AD2
100
AcDbEntity
  8
0
100
AcDbVertex
100
AcDb3dPolylineVertex
 10
287.016
 20
2695.58
 30
0.0
 70
    32
  0
VERTEX
  5
3AD7
330
3AD2
100
AcDbEntity
  8
0
100
AcDbVertex
100
AcDb3dPolylineVertex
 10
287.075
 20
2695.6
 30
0.0
 70
    32
  0
VERTEX
  5
3AD8
330
3AD2
100
AcDbEntity
  8
0
100
AcDbVertex
100
AcDb3dPolylineVertex
 10
287.133
 20
2695.63
 30
0.0
 70
    32
  0
VERTEX
  5
3AD9
330
3AD2
100
AcDbEntity
  8
0
100
AcDbVertex
100
AcDb3dPolylineVertex
 10
287.192
 20
2695.66
 30
0.0
 70
    32
  0
VERTEX
  5
3ADA
330
3AD2
100
AcDbEntity
  8
0
100
AcDbVertex
100
AcDb3dPolylineVertex
 10
287.25
 20
2695.68
 30
0.0
 70
    32
  0
VERTEX
  5
3ADB
330
3AD2
100
AcDbEntity
  8
0
100
AcDbVertex
100
AcDb3dPolylineVertex
 10
287.3090000000001
 20
2695.71
 30
0.0
 70
    32
  0
VERTEX
  5
3ADC
330
3AD2
100
AcDbEntity
  8
0
100
AcDbVertex
100
AcDb3dPolylineVertex
 10
287.367
 20
2695.73
 30
0.0
 70
    32
  0
VERTEX
  5
3ADD
330
3AD2
100
AcDbEntity
  8
0
100
AcDbVertex
100
AcDb3dPolylineVertex
 10
287.426
 20
2695.76
 30
0.0
 70
    32
  0
VERTEX
  5
3ADE
330
3AD2
100
AcDbEntity
  8
0
100
AcDbVertex
100
AcDb3dPolylineVertex
 10
287.484
 20
2695.78
 30
0.0
 70
    32
  0
VERTEX
  5
3ADF
330
3AD2
100
AcDbEntity
  8
0
100
AcDbVertex
100
AcDb3dPolylineVertex
 10
287.543
 20
2695.81
 30
0.0
 70
    32
  0
VERTEX
  5
3AE0
330
3AD2
100
AcDbEntity
  8
0
100
AcDbVertex
100
AcDb3dPolylineVertex
 10
287.601
 20
2695.83
 30
0.0
 70
    32
  0
VERTEX
  5
3AE1
330
3AD2
100
AcDbEntity
  8
0
100
AcDbVertex
100
AcDb3dPolylineVertex
 10
287.6600000000001
 20
2695.86
 30
0.0
 70
    32
  0
VERTEX
  5
3AE2
330
3AD2
100
AcDbEntity
  8
0
100
AcDbVertex
100
AcDb3dPolylineVertex
 10
287.718
 20
2695.88
 30
0.0
 70
    32
  0
VERTEX
  5
3AE3
330
3AD2
100
AcDbEntity
  8
0
100
AcDbVertex
100
AcDb3dPolylineVertex
 10
287.776
 20
2695.91
 30
0.0
 70
    32
  0
VERTEX
  5
3AE4
330
3AD2
100
AcDbEntity
  8
0
100
AcDbVertex
100
AcDb3dPolylineVertex
 10
287.835
 20
2695.93
 30
0.0
 70
    32
  0
VERTEX
  5
3AE5
330
3AD2
100
AcDbEntity
  8
0
100
AcDbVertex
100
AcDb3dPolylineVertex
 10
287.893
 20
2695.95
 30
0.0
 70
    32
  0
VERTEX
  5
3AE6
330
3AD2
100
AcDbEntity
  8
0
100
AcDbVertex
100
AcDb3dPolylineVertex
 10
287.951
 20
2695.98
 30
0.0
 70
    32
  0
VERTEX
  5
3AE7
330
3AD2
100
AcDbEntity
  8
0
100
AcDbVertex
100
AcDb3dPolylineVertex
 10
288.01
 20
2696.0
 30
0.0
 70
    32
  0
VERTEX
  5
3AE8
330
3AD2
100
AcDbEntity
  8
0
100
AcDbVertex
100
AcDb3dPolylineVertex
 10
288.068
 20
2696.03
 30
0.0
 70
    32
  0
VERTEX
  5
3AE9
330
3AD2
100
AcDbEntity
  8
0
100
AcDbVertex
100
AcDb3dPolylineVertex
 10
288.126
 20
2696.05
 30
0.0
 70
    32
  0
VERTEX
  5
3AEA
330
3AD2
100
AcDbEntity
  8
0
100
AcDbVertex
100
AcDb3dPolylineVertex
 10
288.185
 20
2696.070000000001
 30
0.0
 70
    32
  0
VERTEX
  5
3AEB
330
3AD2
100
AcDbEntity
  8
0
100
AcDbVertex
100
AcDb3dPolylineVertex
 10
288.243
 20
2696.09
 30
0.0
 70
    32
  0
VERTEX
  5
3AEC
330
3AD2
100
AcDbEntity
  8
0
100
AcDbVertex
100
AcDb3dPolylineVertex
 10
288.301
 20
2696.12
 30
0.0
 70
    32
  0
VERTEX
  5
3AED
330
3AD2
100
AcDbEntity
  8
0
100
AcDbVertex
100
AcDb3dPolylineVertex
 10
288.359
 20
2696.14
 30
0.0
 70
    32
  0
VERTEX
  5
3AEE
330
3AD2
100
AcDbEntity
  8
0
100
AcDbVertex
100
AcDb3dPolylineVertex
 10
288.4170000000001
 20
2696.16
 30
0.0
 70
    32
  0
VERTEX
  5
3AEF
330
3AD2
100
AcDbEntity
  8
0
100
AcDbVertex
100
AcDb3dPolylineVertex
 10
288.475
 20
2696.18
 30
0.0
 70
    32
  0
VERTEX
  5
3AF0
330
3AD2
100
AcDbEntity
  8
0
100
AcDbVertex
100
AcDb3dPolylineVertex
 10
288.533
 20
2696.21
 30
0.0
 70
    32
  0
VERTEX
  5
3AF1
330
3AD2
100
AcDbEntity
  8
0
100
AcDbVertex
100
AcDb3dPolylineVertex
 10
288.591
 20
2696.23
 30
0.0
 70
    32
  0
VERTEX
  5
3AF2
330
3AD2
100
AcDbEntity
  8
0
100
AcDbVertex
100
AcDb3dPolylineVertex
 10
288.649
 20
2696.25
 30
0.0
 70
    32
  0
VERTEX
  5
3AF3
330
3AD2
100
AcDbEntity
  8
0
100
AcDbVertex
100
AcDb3dPolylineVertex
 10
288.707
 20
2696.27
 30
0.0
 70
    32
  0
VERTEX
  5
3AF4
330
3AD2
100
AcDbEntity
  8
0
100
AcDbVertex
100
AcDb3dPolylineVertex
 10
288.765
 20
2696.29
 30
0.0
 70
    32
  0
VERTEX
  5
3AF5
330
3AD2
100
AcDbEntity
  8
0
100
AcDbVertex
100
AcDb3dPolylineVertex
 10
288.823
 20
2696.31
 30
0.0
 70
    32
  0
VERTEX
  5
3AF6
330
3AD2
100
AcDbEntity
  8
0
100
AcDbVertex
100
AcDb3dPolylineVertex
 10
288.881
 20
2696.33
 30
0.0
 70
    32
  0
VERTEX
  5
3AF7
330
3AD2
100
AcDbEntity
  8
0
100
AcDbVertex
100
AcDb3dPolylineVertex
 10
288.939
 20
2696.35
 30
0.0
 70
    32
  0
VERTEX
  5
3AF8
330
3AD2
100
AcDbEntity
  8
0
100
AcDbVertex
100
AcDb3dPolylineVertex
 10
288.996
 20
2696.36
 30
0.0
 70
    32
  0
VERTEX
  5
3AF9
330
3AD2
100
AcDbEntity
  8
0
100
AcDbVertex
100
AcDb3dPolylineVertex
 10
289.0540000000001
 20
2696.38
 30
0.0
 70
    32
  0
VERTEX
  5
3AFA
330
3AD2
100
AcDbEntity
  8
0
100
AcDbVertex
100
AcDb3dPolylineVertex
 10
289.112
 20
2696.400000000001
 30
0.0
 70
    32
  0
VERTEX
  5
3AFB
330
3AD2
100
AcDbEntity
  8
0
100
AcDbVertex
100
AcDb3dPolylineVertex
 10
289.169
 20
2696.42
 30
0.0
 70
    32
  0
VERTEX
  5
3AFC
330
3AD2
100
AcDbEntity
  8
0
100
AcDbVertex
100
AcDb3dPolylineVertex
 10
289.227
 20
2696.44
 30
0.0
 70
    32
  0
VERTEX
  5
3AFD
330
3AD2
100
AcDbEntity
  8
0
100
AcDbVertex
100
AcDb3dPolylineVertex
 10
289.284
 20
2696.45
 30
0.0
 70
    32
  0
VERTEX
  5
3AFE
330
3AD2
100
AcDbEntity
  8
0
100
AcDbVertex
100
AcDb3dPolylineVertex
 10
289.342
 20
2696.47
 30
0.0
 70
    32
  0
VERTEX
  5
3AFF
330
3AD2
100
AcDbEntity
  8
0
100
AcDbVertex
100
AcDb3dPolylineVertex
 10
289.399
 20
2696.48
 30
0.0
 70
    32
  0
VERTEX
  5
3B00
330
3AD2
100
AcDbEntity
  8
0
100
AcDbVertex
100
AcDb3dPolylineVertex
 10
289.456
 20
2696.5
 30
0.0
 70
    32
  0
VERTEX
  5
3B01
330
3AD2
100
AcDbEntity
  8
0
100
AcDbVertex
100
AcDb3dPolylineVertex
 10
289.514
 20
2696.51
 30
0.0
 70
    32
  0
VERTEX
  5
3B02
330
3AD2
100
AcDbEntity
  8
0
100
AcDbVertex
100
AcDb3dPolylineVertex
 10
289.5710000000001
 20
2696.53
 30
0.0
 70
    32
  0
VERTEX
  5
3B03
330
3AD2
100
AcDbEntity
  8
0
100
AcDbVertex
100
AcDb3dPolylineVertex
 10
289.628
 20
2696.54
 30
0.0
 70
    32
  0
VERTEX
  5
3B04
330
3AD2
100
AcDbEntity
  8
0
100
AcDbVertex
100
AcDb3dPolylineVertex
 10
289.685
 20
2696.56
 30
0.0
 70
    32
  0
VERTEX
  5
3B05
330
3AD2
100
AcDbEntity
  8
0
100
AcDbVertex
100
AcDb3dPolylineVertex
 10
289.742
 20
2696.57
 30
0.0
 70
    32
  0
VERTEX
  5
3B06
330
3AD2
100
AcDbEntity
  8
0
100
AcDbVertex
100
AcDb3dPolylineVertex
 10
289.799
 20
2696.58
 30
0.0
 70
    32
  0
VERTEX
  5
3B07
330
3AD2
100
AcDbEntity
  8
0
100
AcDbVertex
100
AcDb3dPolylineVertex
 10
289.856
 20
2696.59
 30
0.0
 70
    32
  0
VERTEX
  5
3B08
330
3AD2
100
AcDbEntity
  8
0
100
AcDbVertex
100
AcDb3dPolylineVertex
 10
289.913
 20
2696.6
 30
0.0
 70
    32
  0
VERTEX
  5
3B09
330
3AD2
100
AcDbEntity
  8
0
100
AcDbVertex
100
AcDb3dPolylineVertex
 10
289.9700000000001
 20
2696.61
 30
0.0
 70
    32
  0
VERTEX
  5
3B0A
330
3AD2
100
AcDbEntity
  8
0
100
AcDbVertex
100
AcDb3dPolylineVertex
 10
290.026
 20
2696.62
 30
0.0
 70
    32
  0
VERTEX
  5
3B0B
330
3AD2
100
AcDbEntity
  8
0
100
AcDbVertex
100
AcDb3dPolylineVertex
 10
290.0830000000001
 20
2696.63
 30
0.0
 70
    32
  0
VERTEX
  5
3B0C
330
3AD2
100
AcDbEntity
  8
0
100
AcDbVertex
100
AcDb3dPolylineVertex
 10
290.14
 20
2696.64
 30
0.0
 70
    32
  0
VERTEX
  5
3B0D
330
3AD2
100
AcDbEntity
  8
0
100
AcDbVertex
100
AcDb3dPolylineVertex
 10
290.1960000000001
 20
2696.65
 30
0.0
 70
    32
  0
VERTEX
  5
3B0E
330
3AD2
100
AcDbEntity
  8
0
100
AcDbVertex
100
AcDb3dPolylineVertex
 10
290.253
 20
2696.66
 30
0.0
 70
    32
  0
VERTEX
  5
3B0F
330
3AD2
100
AcDbEntity
  8
0
100
AcDbVertex
100
AcDb3dPolylineVertex
 10
290.3090000000001
 20
2696.66
 30
0.0
 70
    32
  0
VERTEX
  5
3B10
330
3AD2
100
AcDbEntity
  8
0
100
AcDbVertex
100
AcDb3dPolylineVertex
 10
290.365
 20
2696.670000000001
 30
0.0
 70
    32
  0
VERTEX
  5
3B11
330
3AD2
100
AcDbEntity
  8
0
100
AcDbVertex
100
AcDb3dPolylineVertex
 10
290.421
 20
2696.68
 30
0.0
 70
    32
  0
VERTEX
  5
3B12
330
3AD2
100
AcDbEntity
  8
0
100
AcDbVertex
100
AcDb3dPolylineVertex
 10
290.478
 20
2696.68
 30
0.0
 70
    32
  0
VERTEX
  5
3B13
330
3AD2
100
AcDbEntity
  8
0
100
AcDbVertex
100
AcDb3dPolylineVertex
 10
290.534
 20
2696.69
 30
0.0
 70
    32
  0
VERTEX
  5
3B14
330
3AD2
100
AcDbEntity
  8
0
100
AcDbVertex
100
AcDb3dPolylineVertex
 10
290.59
 20
2696.69
 30
0.0
 70
    32
  0
VERTEX
  5
3B15
330
3AD2
100
AcDbEntity
  8
0
100
AcDbVertex
100
AcDb3dPolylineVertex
 10
290.646
 20
2696.69
 30
0.0
 70
    32
  0
VERTEX
  5
3B16
330
3AD2
100
AcDbEntity
  8
0
100
AcDbVertex
100
AcDb3dPolylineVertex
 10
290.701
 20
2696.69
 30
0.0
 70
    32
  0
VERTEX
  5
3B17
330
3AD2
100
AcDbEntity
  8
0
100
AcDbVertex
100
AcDb3dPolylineVertex
 10
290.757
 20
2696.7
 30
0.0
 70
    32
  0
VERTEX
  5
3B18
330
3AD2
100
AcDbEntity
  8
0
100
AcDbVertex
100
AcDb3dPolylineVertex
 10
290.813
 20
2696.7
 30
0.0
 70
    32
  0
VERTEX
  5
3B19
330
3AD2
100
AcDbEntity
  8
0
100
AcDbVertex
100
AcDb3dPolylineVertex
 10
290.868
 20
2696.7
 30
0.0
 70
    32
  0
VERTEX
  5
3B1A
330
3AD2
100
AcDbEntity
  8
0
100
AcDbVertex
100
AcDb3dPolylineVertex
 10
290.924
 20
2696.7
 30
0.0
 70
    32
  0
VERTEX
  5
3B1B
330
3AD2
100
AcDbEntity
  8
0
100
AcDbVertex
100
AcDb3dPolylineVertex
 10
290.979
 20
2696.69
 30
0.0
 70
    32
  0
VERTEX
  5
3B1C
330
3AD2
100
AcDbEntity
  8
0
100
AcDbVertex
100
AcDb3dPolylineVertex
 10
291.0350000000001
 20
2696.69
 30
0.0
 70
    32
  0
VERTEX
  5
3B1D
330
3AD2
100
AcDbEntity
  8
0
100
AcDbVertex
100
AcDb3dPolylineVertex
 10
291.09
 20
2696.69
 30
0.0
 70
    32
  0
VERTEX
  5
3B1E
330
3AD2
100
AcDbEntity
  8
0
100
AcDbVertex
100
AcDb3dPolylineVertex
 10
291.145
 20
2696.69
 30
0.0
 70
    32
  0
VERTEX
  5
3B1F
330
3AD2
100
AcDbEntity
  8
0
100
AcDbVertex
100
AcDb3dPolylineVertex
 10
291.2
 20
2696.68
 30
0.0
 70
    32
  0
VERTEX
  5
3B20
330
3AD2
100
AcDbEntity
  8
0
100
AcDbVertex
100
AcDb3dPolylineVertex
 10
291.255
 20
2696.68
 30
0.0
 70
    32
  0
VERTEX
  5
3B21
330
3AD2
100
AcDbEntity
  8
0
100
AcDbVertex
100
AcDb3dPolylineVertex
 10
291.31
 20
2696.670000000001
 30
0.0
 70
    32
  0
VERTEX
  5
3B22
330
3AD2
100
AcDbEntity
  8
0
100
AcDbVertex
100
AcDb3dPolylineVertex
 10
291.364
 20
2696.66
 30
0.0
 70
    32
  0
VERTEX
  5
3B23
330
3AD2
100
AcDbEntity
  8
0
100
AcDbVertex
100
AcDb3dPolylineVertex
 10
291.4190000000001
 20
2696.65
 30
0.0
 70
    32
  0
VERTEX
  5
3B24
330
3AD2
100
AcDbEntity
  8
0
100
AcDbVertex
100
AcDb3dPolylineVertex
 10
291.474
 20
2696.65
 30
0.0
 70
    32
  0
VERTEX
  5
3B25
330
3AD2
100
AcDbEntity
  8
0
100
AcDbVertex
100
AcDb3dPolylineVertex
 10
291.528
 20
2696.64
 30
0.0
 70
    32
  0
VERTEX
  5
3B26
330
3AD2
100
AcDbEntity
  8
0
100
AcDbVertex
100
AcDb3dPolylineVertex
 10
291.582
 20
2696.63
 30
0.0
 70
    32
  0
VERTEX
  5
3B27
330
3AD2
100
AcDbEntity
  8
0
100
AcDbVertex
100
AcDb3dPolylineVertex
 10
291.637
 20
2696.61
 30
0.0
 70
    32
  0
VERTEX
  5
3B28
330
3AD2
100
AcDbEntity
  8
0
100
AcDbVertex
100
AcDb3dPolylineVertex
 10
291.691
 20
2696.6
 30
0.0
 70
    32
  0
VERTEX
  5
3B29
330
3AD2
100
AcDbEntity
  8
0
100
AcDbVertex
100
AcDb3dPolylineVertex
 10
291.745
 20
2696.59
 30
0.0
 70
    32
  0
VERTEX
  5
3B2A
330
3AD2
100
AcDbEntity
  8
0
100
AcDbVertex
100
AcDb3dPolylineVertex
 10
291.7990000000001
 20
2696.57
 30
0.0
 70
    32
  0
VERTEX
  5
3B2B
330
3AD2
100
AcDbEntity
  8
0
100
AcDbVertex
100
AcDb3dPolylineVertex
 10
291.853
 20
2696.56
 30
0.0
 70
    32
  0
VERTEX
  5
3B2C
330
3AD2
100
AcDbEntity
  8
0
100
AcDbVertex
100
AcDb3dPolylineVertex
 10
291.906
 20
2696.54
 30
0.0
 70
    32
  0
VERTEX
  5
3B2D
330
3AD2
100
AcDbEntity
  8
0
100
AcDbVertex
100
AcDb3dPolylineVertex
 10
291.96
 20
2696.53
 30
0.0
 70
    32
  0
VERTEX
  5
3B2E
330
3AD2
100
AcDbEntity
  8
0
100
AcDbVertex
100
AcDb3dPolylineVertex
 10
292.013
 20
2696.51
 30
0.0
 70
    32
  0
VERTEX
  5
3B2F
330
3AD2
100
AcDbEntity
  8
0
100
AcDbVertex
100
AcDb3dPolylineVertex
 10
292.067
 20
2696.49
 30
0.0
 70
    32
  0
VERTEX
  5
3B30
330
3AD2
100
AcDbEntity
  8
0
100
AcDbVertex
100
AcDb3dPolylineVertex
 10
292.12
 20
2696.47
 30
0.0
 70
    32
  0
VERTEX
  5
3B31
330
3AD2
100
AcDbEntity
  8
0
100
AcDbVertex
100
AcDb3dPolylineVertex
 10
292.173
 20
2696.45
 30
0.0
 70
    32
  0
VERTEX
  5
3B32
330
3AD2
100
AcDbEntity
  8
0
100
AcDbVertex
100
AcDb3dPolylineVertex
 10
292.226
 20
2696.43
 30
0.0
 70
    32
  0
VERTEX
  5
3B33
330
3AD2
100
AcDbEntity
  8
0
100
AcDbVertex
100
AcDb3dPolylineVertex
 10
292.279
 20
2696.41
 30
0.0
 70
    32
  0
VERTEX
  5
3B34
330
3AD2
100
AcDbEntity
  8
0
100
AcDbVertex
100
AcDb3dPolylineVertex
 10
292.332
 20
2696.38
 30
0.0
 70
    32
  0
VERTEX
  5
3B35
330
3AD2
100
AcDbEntity
  8
0
100
AcDbVertex
100
AcDb3dPolylineVertex
 10
292.385
 20
2696.36
 30
0.0
 70
    32
  0
VERTEX
  5
3B36
330
3AD2
100
AcDbEntity
  8
0
100
AcDbVertex
100
AcDb3dPolylineVertex
 10
292.437
 20
2696.33
 30
0.0
 70
    32
  0
VERTEX
  5
3B37
330
3AD2
100
AcDbEntity
  8
0
100
AcDbVertex
100
AcDb3dPolylineVertex
 10
292.49
 20
2696.3
 30
0.0
 70
    32
  0
VERTEX
  5
3B38
330
3AD2
100
AcDbEntity
  8
0
100
AcDbVertex
100
AcDb3dPolylineVertex
 10
292.542
 20
2696.28
 30
0.0
 70
    32
  0
VERTEX
  5
3B39
330
3AD2
100
AcDbEntity
  8
0
100
AcDbVertex
100
AcDb3dPolylineVertex
 10
292.594
 20
2696.25
 30
0.0
 70
    32
  0
VERTEX
  5
3B3A
330
3AD2
100
AcDbEntity
  8
0
100
AcDbVertex
100
AcDb3dPolylineVertex
 10
292.646
 20
2696.22
 30
0.0
 70
    32
  0
VERTEX
  5
3B3B
330
3AD2
100
AcDbEntity
  8
0
100
AcDbVertex
100
AcDb3dPolylineVertex
 10
292.698
 20
2696.19
 30
0.0
 70
    32
  0
VERTEX
  5
3B3C
330
3AD2
100
AcDbEntity
  8
0
100
AcDbVertex
100
AcDb3dPolylineVertex
 10
292.75
 20
2696.16
 30
0.0
 70
    32
  0
VERTEX
  5
3B3D
330
3AD2
100
AcDbEntity
  8
0
100
AcDbVertex
100
AcDb3dPolylineVertex
 10
292.802
 20
2696.13
 30
0.0
 70
    32
  0
VERTEX
  5
3B3E
330
3AD2
100
AcDbEntity
  8
0
100
AcDbVertex
100
AcDb3dPolylineVertex
 10
292.854
 20
2696.1
 30
0.0
 70
    32
  0
VERTEX
  5
3B3F
330
3AD2
100
AcDbEntity
  8
0
100
AcDbVertex
100
AcDb3dPolylineVertex
 10
292.906
 20
2696.070000000001
 30
0.0
 70
    32
  0
VERTEX
  5
3B40
330
3AD2
100
AcDbEntity
  8
0
100
AcDbVertex
100
AcDb3dPolylineVertex
 10
292.957
 20
2696.04
 30
0.0
 70
    32
  0
VERTEX
  5
3B41
330
3AD2
100
AcDbEntity
  8
0
100
AcDbVertex
100
AcDb3dPolylineVertex
 10
293.009
 20
2696.010000000001
 30
0.0
 70
    32
  0
VERTEX
  5
3B42
330
3AD2
100
AcDbEntity
  8
0
100
AcDbVertex
100
AcDb3dPolylineVertex
 10
293.06
 20
2695.98
 30
0.0
 70
    32
  0
VERTEX
  5
3B43
330
3AD2
100
AcDbEntity
  8
0
100
AcDbVertex
100
AcDb3dPolylineVertex
 10
293.112
 20
2695.94
 30
0.0
 70
    32
  0
VERTEX
  5
3B44
330
3AD2
100
AcDbEntity
  8
0
100
AcDbVertex
100
AcDb3dPolylineVertex
 10
293.163
 20
2695.91
 30
0.0
 70
    32
  0
VERTEX
  5
3B45
330
3AD2
100
AcDbEntity
  8
0
100
AcDbVertex
100
AcDb3dPolylineVertex
 10
293.214
 20
2695.88
 30
0.0
 70
    32
  0
VERTEX
  5
3B46
330
3AD2
100
AcDbEntity
  8
0
100
AcDbVertex
100
AcDb3dPolylineVertex
 10
293.266
 20
2695.85
 30
0.0
 70
    32
  0
VERTEX
  5
3B47
330
3AD2
100
AcDbEntity
  8
0
100
AcDbVertex
100
AcDb3dPolylineVertex
 10
293.317
 20
2695.82
 30
0.0
 70
    32
  0
VERTEX
  5
3B48
330
3AD2
100
AcDbEntity
  8
0
100
AcDbVertex
100
AcDb3dPolylineVertex
 10
293.368
 20
2695.79
 30
0.0
 70
    32
  0
VERTEX
  5
3B49
330
3AD2
100
AcDbEntity
  8
0
100
AcDbVertex
100
AcDb3dPolylineVertex
 10
293.419
 20
2695.76
 30
0.0
 70
    32
  0
VERTEX
  5
3B4A
330
3AD2
100
AcDbEntity
  8
0
100
AcDbVertex
100
AcDb3dPolylineVertex
 10
293.4700000000001
 20
2695.73
 30
0.0
 70
    32
  0
VERTEX
  5
3B4B
330
3AD2
100
AcDbEntity
  8
0
100
AcDbVertex
100
AcDb3dPolylineVertex
 10
293.521
 20
2695.7
 30
0.0
 70
    32
  0
VERTEX
  5
3B4C
330
3AD2
100
AcDbEntity
  8
0
100
AcDbVertex
100
AcDb3dPolylineVertex
 10
293.572
 20
2695.68
 30
0.0
 70
    32
  0
VERTEX
  5
3B4D
330
3AD2
100
AcDbEntity
  8
0
100
AcDbVertex
100
AcDb3dPolylineVertex
 10
293.623
 20
2695.65
 30
0.0
 70
    32
  0
VERTEX
  5
3B4E
330
3AD2
100
AcDbEntity
  8
0
100
AcDbVertex
100
AcDb3dPolylineVertex
 10
293.674
 20
2695.62
 30
0.0
 70
    32
  0
VERTEX
  5
3B4F
330
3AD2
100
AcDbEntity
  8
0
100
AcDbVertex
100
AcDb3dPolylineVertex
 10
293.725
 20
2695.6
 30
0.0
 70
    32
  0
VERTEX
  5
3B50
330
3AD2
100
AcDbEntity
  8
0
100
AcDbVertex
100
AcDb3dPolylineVertex
 10
293.775
 20
2695.57
 30
0.0
 70
    32
  0
VERTEX
  5
3B51
330
3AD2
100
AcDbEntity
  8
0
100
AcDbVertex
100
AcDb3dPolylineVertex
 10
293.826
 20
2695.55
 30
0.0
 70
    32
  0
VERTEX
  5
3B52
330
3AD2
100
AcDbEntity
  8
0
100
AcDbVertex
100
AcDb3dPolylineVertex
 10
293.877
 20
2695.53
 30
0.0
 70
    32
  0
VERTEX
  5
3B53
330
3AD2
100
AcDbEntity
  8
0
100
AcDbVertex
100
AcDb3dPolylineVertex
 10
293.928
 20
2695.51
 30
0.0
 70
    32
  0
VERTEX
  5
3B54
330
3AD2
100
AcDbEntity
  8
0
100
AcDbVertex
100
AcDb3dPolylineVertex
 10
293.979
 20
2695.49
 30
0.0
 70
    32
  0
VERTEX
  5
3B55
330
3AD2
100
AcDbEntity
  8
0
100
AcDbVertex
100
AcDb3dPolylineVertex
 10
294.03
 20
2695.47
 30
0.0
 70
    32
  0
VERTEX
  5
3B56
330
3AD2
100
AcDbEntity
  8
0
100
AcDbVertex
100
AcDb3dPolylineVertex
 10
294.08
 20
2695.45
 30
0.0
 70
    32
  0
VERTEX
  5
3B57
330
3AD2
100
AcDbEntity
  8
0
100
AcDbVertex
100
AcDb3dPolylineVertex
 10
294.131
 20
2695.43
 30
0.0
 70
    32
  0
VERTEX
  5
3B58
330
3AD2
100
AcDbEntity
  8
0
100
AcDbVertex
100
AcDb3dPolylineVertex
 10
294.182
 20
2695.42
 30
0.0
 70
    32
  0
VERTEX
  5
3B59
330
3AD2
100
AcDbEntity
  8
0
100
AcDbVertex
100
AcDb3dPolylineVertex
 10
294.233
 20
2695.41
 30
0.0
 70
    32
  0
VERTEX
  5
3B5A
330
3AD2
100
AcDbEntity
  8
0
100
AcDbVertex
100
AcDb3dPolylineVertex
 10
294.284
 20
2695.4
 30
0.0
 70
    32
  0
VERTEX
  5
3B5B
330
3AD2
100
AcDbEntity
  8
0
100
AcDbVertex
100
AcDb3dPolylineVertex
 10
294.335
 20
2695.39
 30
0.0
 70
    32
  0
VERTEX
  5
3B5C
330
3AD2
100
AcDbEntity
  8
0
100
AcDbVertex
100
AcDb3dPolylineVertex
 10
294.385
 20
2695.38
 30
0.0
 70
    32
  0
VERTEX
  5
3B5D
330
3AD2
100
AcDbEntity
  8
0
100
AcDbVertex
100
AcDb3dPolylineVertex
 10
294.4359999999999
 20
2695.38
 30
0.0
 70
    32
  0
VERTEX
  5
3B5E
330
3AD2
100
AcDbEntity
  8
0
100
AcDbVertex
100
AcDb3dPolylineVertex
 10
294.487
 20
2695.37
 30
0.0
 70
    32
  0
VERTEX
  5
3B5F
330
3AD2
100
AcDbEntity
  8
0
100
AcDbVertex
100
AcDb3dPolylineVertex
 10
294.538
 20
2695.37
 30
0.0
 70
    32
  0
VERTEX
  5
3B60
330
3AD2
100
AcDbEntity
  8
0
100
AcDbVertex
100
AcDb3dPolylineVertex
 10
294.589
 20
2695.37
 30
0.0
 70
    32
  0
VERTEX
  5
3B61
330
3AD2
100
AcDbEntity
  8
0
100
AcDbVertex
100
AcDb3dPolylineVertex
 10
294.64
 20
2695.37
 30
0.0
 70
    32
  0
VERTEX
  5
3B62
330
3AD2
100
AcDbEntity
  8
0
100
AcDbVertex
100
AcDb3dPolylineVertex
 10
294.691
 20
2695.38
 30
0.0
 70
    32
  0
VERTEX
  5
3B63
330
3AD2
100
AcDbEntity
  8
0
100
AcDbVertex
100
AcDb3dPolylineVertex
 10
294.742
 20
2695.38
 30
0.0
 70
    32
  0
VERTEX
  5
3B64
330
3AD2
100
AcDbEntity
  8
0
100
AcDbVertex
100
AcDb3dPolylineVertex
 10
294.793
 20
2695.39
 30
0.0
 70
    32
  0
VERTEX
  5
3B65
330
3AD2
100
AcDbEntity
  8
0
100
AcDbVertex
100
AcDb3dPolylineVertex
 10
294.8450000000001
 20
2695.4
 30
0.0
 70
    32
  0
VERTEX
  5
3B66
330
3AD2
100
AcDbEntity
  8
0
100
AcDbVertex
100
AcDb3dPolylineVertex
 10
294.8959999999999
 20
2695.41
 30
0.0
 70
    32
  0
VERTEX
  5
3B67
330
3AD2
100
AcDbEntity
  8
0
100
AcDbVertex
100
AcDb3dPolylineVertex
 10
294.947
 20
2695.42
 30
0.0
 70
    32
  0
VERTEX
  5
3B68
330
3AD2
100
AcDbEntity
  8
0
100
AcDbVertex
100
AcDb3dPolylineVertex
 10
294.998
 20
2695.43
 30
0.0
 70
    32
  0
VERTEX
  5
3B69
330
3AD2
100
AcDbEntity
  8
0
100
AcDbVertex
100
AcDb3dPolylineVertex
 10
295.049
 20
2695.44
 30
0.0
 70
    32
  0
VERTEX
  5
3B6A
330
3AD2
100
AcDbEntity
  8
0
100
AcDbVertex
100
AcDb3dPolylineVertex
 10
295.1
 20
2695.46
 30
0.0
 70
    32
  0
VERTEX
  5
3B6B
330
3AD2
100
AcDbEntity
  8
0
100
AcDbVertex
100
AcDb3dPolylineVertex
 10
295.151
 20
2695.47
 30
0.0
 70
    32
  0
VERTEX
  5
3B6C
330
3AD2
100
AcDbEntity
  8
0
100
AcDbVertex
100
AcDb3dPolylineVertex
 10
295.203
 20
2695.49
 30
0.0
 70
    32
  0
VERTEX
  5
3B6D
330
3AD2
100
AcDbEntity
  8
0
100
AcDbVertex
100
AcDb3dPolylineVertex
 10
295.254
 20
2695.51
 30
0.0
 70
    32
  0
VERTEX
  5
3B6E
330
3AD2
100
AcDbEntity
  8
0
100
AcDbVertex
100
AcDb3dPolylineVertex
 10
295.305
 20
2695.53
 30
0.0
 70
    32
  0
VERTEX
  5
3B6F
330
3AD2
100
AcDbEntity
  8
0
100
AcDbVertex
100
AcDb3dPolylineVertex
 10
295.356
 20
2695.55
 30
0.0
 70
    32
  0
VERTEX
  5
3B70
330
3AD2
100
AcDbEntity
  8
0
100
AcDbVertex
100
AcDb3dPolylineVertex
 10
295.408
 20
2695.58
 30
0.0
 70
    32
  0
VERTEX
  5
3B71
330
3AD2
100
AcDbEntity
  8
0
100
AcDbVertex
100
AcDb3dPolylineVertex
 10
295.459
 20
2695.6
 30
0.0
 70
    32
  0
VERTEX
  5
3B72
330
3AD2
100
AcDbEntity
  8
0
100
AcDbVertex
100
AcDb3dPolylineVertex
 10
295.51
 20
2695.62
 30
0.0
 70
    32
  0
VERTEX
  5
3B73
330
3AD2
100
AcDbEntity
  8
0
100
AcDbVertex
100
AcDb3dPolylineVertex
 10
295.561
 20
2695.65
 30
0.0
 70
    32
  0
VERTEX
  5
3B74
330
3AD2
100
AcDbEntity
  8
0
100
AcDbVertex
100
AcDb3dPolylineVertex
 10
295.613
 20
2695.68
 30
0.0
 70
    32
  0
VERTEX
  5
3B75
330
3AD2
100
AcDbEntity
  8
0
100
AcDbVertex
100
AcDb3dPolylineVertex
 10
295.664
 20
2695.71
 30
0.0
 70
    32
  0
VERTEX
  5
3B76
330
3AD2
100
AcDbEntity
  8
0
100
AcDbVertex
100
AcDb3dPolylineVertex
 10
295.715
 20
2695.73
 30
0.0
 70
    32
  0
VERTEX
  5
3B77
330
3AD2
100
AcDbEntity
  8
0
100
AcDbVertex
100
AcDb3dPolylineVertex
 10
295.767
 20
2695.76
 30
0.0
 70
    32
  0
VERTEX
  5
3B78
330
3AD2
100
AcDbEntity
  8
0
100
AcDbVertex
100
AcDb3dPolylineVertex
 10
295.818
 20
2695.8
 30
0.0
 70
    32
  0
VERTEX
  5
3B79
330
3AD2
100
AcDbEntity
  8
0
100
AcDbVertex
100
AcDb3dPolylineVertex
 10
295.87
 20
2695.83
 30
0.0
 70
    32
  0
VERTEX
  5
3B7A
330
3AD2
100
AcDbEntity
  8
0
100
AcDbVertex
100
AcDb3dPolylineVertex
 10
295.921
 20
2695.86
 30
0.0
 70
    32
  0
VERTEX
  5
3B7B
330
3AD2
100
AcDbEntity
  8
0
100
AcDbVertex
100
AcDb3dPolylineVertex
 10
295.972
 20
2695.89
 30
0.0
 70
    32
  0
VERTEX
  5
3B7C
330
3AD2
100
AcDbEntity
  8
0
100
AcDbVertex
100
AcDb3dPolylineVertex
 10
296.024
 20
2695.93
 30
0.0
 70
    32
  0
VERTEX
  5
3B7D
330
3AD2
100
AcDbEntity
  8
0
100
AcDbVertex
100
AcDb3dPolylineVertex
 10
296.075
 20
2695.96
 30
0.0
 70
    32
  0
VERTEX
  5
3B7E
330
3AD2
100
AcDbEntity
  8
0
100
AcDbVertex
100
AcDb3dPolylineVertex
 10
296.127
 20
2696.0
 30
0.0
 70
    32
  0
VERTEX
  5
3B7F
330
3AD2
100
AcDbEntity
  8
0
100
AcDbVertex
100
AcDb3dPolylineVertex
 10
296.178
 20
2696.03
 30
0.0
 70
    32
  0
VERTEX
  5
3B80
330
3AD2
100
AcDbEntity
  8
0
100
AcDbVertex
100
AcDb3dPolylineVertex
 10
296.23
 20
2696.070000000001
 30
0.0
 70
    32
  0
VERTEX
  5
3B81
330
3AD2
100
AcDbEntity
  8
0
100
AcDbVertex
100
AcDb3dPolylineVertex
 10
296.281
 20
2696.11
 30
0.0
 70
    32
  0
VERTEX
  5
3B82
330
3AD2
100
AcDbEntity
  8
0
100
AcDbVertex
100
AcDb3dPolylineVertex
 10
296.332
 20
2696.15
 30
0.0
 70
    32
  0
VERTEX
  5
3B83
330
3AD2
100
AcDbEntity
  8
0
100
AcDbVertex
100
AcDb3dPolylineVertex
 10
296.384
 20
2696.19
 30
0.0
 70
    32
  0
VERTEX
  5
3B84
330
3AD2
100
AcDbEntity
  8
0
100
AcDbVertex
100
AcDb3dPolylineVertex
 10
296.435
 20
2696.22
 30
0.0
 70
    32
  0
VERTEX
  5
3B85
330
3AD2
100
AcDbEntity
  8
0
100
AcDbVertex
100
AcDb3dPolylineVertex
 10
296.487
 20
2696.26
 30
0.0
 70
    32
  0
VERTEX
  5
3B86
330
3AD2
100
AcDbEntity
  8
0
100
AcDbVertex
100
AcDb3dPolylineVertex
 10
296.538
 20
2696.3
 30
0.0
 70
    32
  0
VERTEX
  5
3B87
330
3AD2
100
AcDbEntity
  8
0
100
AcDbVertex
100
AcDb3dPolylineVertex
 10
296.59
 20
2696.340000000001
 30
0.0
 70
    32
  0
VERTEX
  5
3B88
330
3AD2
100
AcDbEntity
  8
0
100
AcDbVertex
100
AcDb3dPolylineVertex
 10
296.641
 20
2696.38
 30
0.0
 70
    32
  0
VERTEX
  5
3B89
330
3AD2
100
AcDbEntity
  8
0
100
AcDbVertex
100
AcDb3dPolylineVertex
 10
296.693
 20
2696.43
 30
0.0
 70
    32
  0
VERTEX
  5
3B8A
330
3AD2
100
AcDbEntity
  8
0
100
AcDbVertex
100
AcDb3dPolylineVertex
 10
296.7440000000001
 20
2696.47
 30
0.0
 70
    32
  0
VERTEX
  5
3B8B
330
3AD2
100
AcDbEntity
  8
0
100
AcDbVertex
100
AcDb3dPolylineVertex
 10
296.796
 20
2696.51
 30
0.0
 70
    32
  0
VERTEX
  5
3B8C
330
3AD2
100
AcDbEntity
  8
0
100
AcDbVertex
100
AcDb3dPolylineVertex
 10
296.847
 20
2696.55
 30
0.0
 70
    32
  0
VERTEX
  5
3B8D
330
3AD2
100
AcDbEntity
  8
0
100
AcDbVertex
100
AcDb3dPolylineVertex
 10
296.899
 20
2696.59
 30
0.0
 70
    32
  0
VERTEX
  5
3B8E
330
3AD2
100
AcDbEntity
  8
0
100
AcDbVertex
100
AcDb3dPolylineVertex
 10
296.95
 20
2696.64
 30
0.0
 70
    32
  0
VERTEX
  5
3B8F
330
3AD2
100
AcDbEntity
  8
0
100
AcDbVertex
100
AcDb3dPolylineVertex
 10
297.002
 20
2696.68
 30
0.0
 70
    32
  0
VERTEX
  5
3B90
330
3AD2
100
AcDbEntity
  8
0
100
AcDbVertex
100
AcDb3dPolylineVertex
 10
297.053
 20
2696.72
 30
0.0
 70
    32
  0
VERTEX
  5
3B91
330
3AD2
100
AcDbEntity
  8
0
100
AcDbVertex
100
AcDb3dPolylineVertex
 10
297.105
 20
2696.760000000001
 30
0.0
 70
    32
  0
VERTEX
  5
3B92
330
3AD2
100
AcDbEntity
  8
0
100
AcDbVertex
100
AcDb3dPolylineVertex
 10
297.156
 20
2696.81
 30
0.0
 70
    32
  0
SEQEND
  5
3B93
330
3AD2
100
AcDbEntity
  8
0
  0
LINE
  5
31E1
330
4062
100
AcDbEntity
  8
0
100
AcDbLine
 10
284.2394936068777
 20
2716.852879289605
 30
0.0
 11
275.6530769451529
 21
2716.852879289612
 31
0.0
  0
ARC
  5
31E2
330
4062
100
AcDbEntity
  8
0
100
AcDbCircle
 10
275.6530769451529
 20
2716.03243515418
 30
0.0
 40
0.8204441354318985
100
AcDbArc
 50
90.0
 51
180.0
  0
INSERT
  5
31E3
330
4062
100
AcDbEntity
  8
0
  6
Continuous
100
AcDbBlockReference
  2
*X11
 10
0.0
 20
0.0
 30
0.0
1001
ACAD
1000
HATCH
1002
{
1070
    19
1000
ANSI31
1040
0.3
1040
2.268928027592628
1000
R14_HATCH_DATA
1000
31E3
1011
1.0
1021
0.0
1031
0.0
1011
0.0
1021
1.0
1031
0.0
1011
0.0
1021
0.0
1031
1.0
1040
0.0
1010
0.0
1020
0.0
1030
1.0
1000
ANSI31
1070
     0
1070
     0
1071
        2
1071
        1
1071
        4
1070
     2
1040
268.5517072246039
1040
2752.355952401476
1040
53.56249999996926
1040
4.470446535261039
1040
4.527762257994423
1070
     1
1070
     1
1040
258.7187242232649
1040
2699.703755376641
1040
258.7187242232649
1040
2698.849064894645
1070
     1
1040
258.7187242232649
1040
2698.849064894645
1040
255.7187242232649
1040
2698.849064894645
1070
     1
1040
255.7187242232649
1040
2698.849064894645
1040
255.7187242232649
1040
2700.35349136804
1071
        0
1071
        1
1071
        4
1070
     2
1040
268.5517072246184
1040
2752.355952401466
1040
53.56249999996926
1040
4.527762257993861
1040
4.584470126957761
1070
     1
1070
     1
1040
261.7187242232649
1040
2699.231082994101
1040
261.7187242232649
1040
2698.849064894645
1070
     1
1040
261.7187242232649
1040
2698.849064894645
1040
258.7187242232649
1040
2698.849064894645
1070
     1
1040
258.7187242232503
1040
2698.849064894645
1040
258.7187242232503
1040
2699.703755376637
1071
        0
1070
     0
1070
     1
1040
2.268928027592628
1040
0.3
1070
     0
1070
     1
1040
3.054326190990075
1040
24474.51037577649
1040
22626.35782158599
1040
-0.0830158449671445
1040
-0.9488754499323871
1070
     0
1071
        2
1040
259.300073257491
1040
2710.879390659405
1040
0.0
1040
256.0717886923703
1040
2709.669519866335
1040
0.0
1002
}
  0
INSERT
  5
31E4
330
4062
100
AcDbEntity
  8
0
  6
Continuous
100
AcDbBlockReference
  2
*X12
 10
0.0
 20
0.0
 30
0.0
1001
ACAD
1000
HATCH
1002
{
1070
    19
1000
ANSI31
1040
0.3
1040
2.268928027592628
1000
R14_HATCH_DATA
1000
31E4
1011
1.0
1021
0.0
1031
0.0
1011
0.0
1021
1.0
1031
0.0
1011
0.0
1021
0.0
1031
1.0
1040
0.0
1010
0.0
1020
0.0
1030
1.0
1000
ANSI31
1070
     0
1070
     0
1071
        1
1071
        7
1070
     0
1070
     1
1071
        4
1040
261.7187242232649
1040
2718.005364473027
1040
255.7187242232503
1040
2718.005364473027
1040
255.7187242232649
1040
2704.385912629545
1040
261.7187242232503
1040
2703.171396779433
1071
        0
1070
     0
1070
     1
1040
2.268928027592628
1040
0.3
1070
     0
1070
     1
1040
3.054326190990075
1040
30165.05616310579
1040
29859.78595925992
1040
-0.0830158449671445
1040
-0.9488754499323871
1070
     0
1040
0.0673240222917329
1071
        1
1040
261.1903968703737
1040
2711.442569858033
1040
0.0
1002
}
  0
LINE
  5
31E5
330
4062
100
AcDbEntity
  8
0
100
AcDbLine
 10
261.7187242232649
 20
2718.005364473027
 30
0.0
 11
261.7187242232503
 21
2703.171396779437
 31
0.0
  0
LINE
  5
31E6
330
4062
100
AcDbEntity
  8
0
100
AcDbLine
 10
261.7187242232503
 20
2699.231082994103
 30
0.0
 11
261.7187242232649
 21
2698.849064894645
 31
0.0
  0
LINE
  5
31E7
330
4062
100
AcDbEntity
  8
0
100
AcDbLine
 10
255.7187242232649
 20
2718.005364473027
 30
0.0
 11
255.7187242232649
 21
2704.385912629545
 31
0.0
  0
LINE
  5
31E8
330
4062
100
AcDbEntity
  8
0
100
AcDbLine
 10
255.7187242232649
 20
2700.353491368043
 30
0.0
 11
255.7187242232649
 21
2698.849064894645
 31
0.0
  0
INSERT
  5
31E9
330
4062
100
AcDbEntity
  8
0
  6
Continuous
100
AcDbBlockReference
  2
*X13
 10
0.0
 20
0.0
 30
0.0
1001
ACAD
1000
HATCH
1002
{
1070
    19
1000
JIS_LC_8
1040
0.5
1040
0.0
1000
R14_HATCH_DATA
1000
31E9
1011
1.0
1021
0.0
1031
0.0
1011
0.0
1021
1.0
1031
0.0
1011
0.0
1021
0.0
1031
1.0
1040
0.0
1010
0.0
1020
0.0
1030
1.0
1000
JIS_LC_8
1070
     0
1070
     0
1071
        1
1071
        5
1071
       10
1070
     1
1040
253.9687242232649
1040
2730.293528983484
1040
263.4687242232649
1040
2730.293528983481
1070
     1
1040
263.4687242232649
1040
2730.293528983481
1040
263.4687242232794
1040
2716.852879289605
1070
     1
1040
263.4687242232649
1040
2716.852879289605
1040
284.2394936068777
1040
2716.852879289605
1070
     2
1040
284.2394936068777
1040
2718.852879289605
1040
2.0
1040
4.712388980384687
1040
6.283185307181405
1070
     1
1070
     1
1040
286.2394936068777
1040
2718.852879289609
1040
286.2394936068777
1040
2736.919046461413
1070
     2
1040
284.2394936068777
1040
2736.919046461413
1040
2.0
1040
0.0
1040
1.570796326794894
1070
     1
1070
     1
1040
284.2394936068777
1040
2738.919046461413
1040
236.0592326034129
1040
2738.919046461413
1070
     4
1070
     3
1070
     0
1070
     0
1071
       10
1071
        6
1040
3.056387280399472
1040
3.056387280399472
1040
3.056387280399472
1040
3.056387280399472
1040
3.632405550761466
1040
17.93536273537131
1040
25.90998518899845
1040
25.90998518899845
1040
25.90998518899845
1040
25.90998518899845
1040
236.0592326034129
1040
2738.91904646141
1040
235.996067834556
1040
2738.743216741785
1040
234.5398733268412
1040
2734.180030501523
1040
240.5736498950609
1040
2726.16323460897
1040
237.4298112272263
1040
2719.287388568317
1040
236.0466812751438
1040
2716.852879289605
1070
     1
1040
236.0466812751438
1040
2716.852879289609
1040
253.9687242232503
1040
2716.852879289609
1070
     1
1040
253.9687242232649
1040
2716.852879289609
1040
253.9687242232649
1040
2730.293528983484
1071
        0
1070
     0
1070
     1
1040
0.0
1040
0.5
1070
     0
1070
     2
1040
0.7853981633974483
1040
30165.05616310579
1040
29859.78595925992
1040
-2.757716446627533
1040
2.757716446627533
1070
     0
1040
0.7853981633974483
1040
30165.25616310578
1040
29859.78595925992
1040
-2.757716446627533
1040
2.757716446627533
1070
     0
1040
0.1872145882122643
1071
        1
1040
244.8915781787255
1040
2727.509081020436
1040
0.0
1002
}
  0
LINE
  5
31EA
330
4062
100
AcDbEntity
  8
0
100
AcDbLine
 10
263.4687242232649
 20
2730.293528983481
 30
0.0
 11
263.4687242232649
 21
2716.852879289609
 31
0.0
  0
LINE
  5
31EB
330
4062
100
AcDbEntity
  8
0
100
AcDbLine
 10
253.9687242232649
 20
2730.293528983484
 30
0.0
 11
253.9687242232649
 21
2716.852879289609
 31
0.0
  0
LINE
  5
31EC
330
4062
100
AcDbEntity
  8
0
100
AcDbLine
 10
262.4687242232649
 20
2729.411459124235
 30
0.0
 11
262.4687242232649
 21
2728.835007715874
 31
0.0
  0
LINE
  5
31ED
330
4062
100
AcDbEntity
  8
0
100
AcDbLine
 10
262.4687242232649
 20
2727.742812055081
 30
0.0
 11
262.4687242232649
 21
2725.824375394839
 31
0.0
  0
LINE
  5
31EE
330
4062
100
AcDbEntity
  8
0
100
AcDbLine
 10
262.4687242232649
 20
2724.732179734039
 30
0.0
 11
262.4687242232503
 21
2722.813743073791
 31
0.0
  0
LINE
  5
31EF
330
4062
100
AcDbEntity
  8
0
100
AcDbLine
 10
262.4687242232649
 20
2721.721547412997
 30
0.0
 11
262.4687242232649
 21
2718.005364473031
 31
0.0
  0
LINE
  5
31F0
330
4062
100
AcDbEntity
  8
0
100
AcDbLine
 10
254.9687242232649
 20
2729.411459124235
 30
0.0
 11
254.9687242232649
 21
2726.902597734077
 31
0.0
  0
LINE
  5
31F1
330
4062
100
AcDbEntity
  8
0
100
AcDbLine
 10
254.9687242232649
 20
2725.810402073292
 30
0.0
 11
254.9687242232649
 21
2723.891965413039
 31
0.0
  0
LINE
  5
31F2
330
4062
100
AcDbEntity
  8
0
100
AcDbLine
 10
254.9687242232649
 20
2722.799769752246
 30
0.0
 11
254.9687242232649
 21
2720.881333091993
 31
0.0
  0
LINE
  5
31F3
330
4062
100
AcDbEntity
  8
0
100
AcDbLine
 10
254.9687242232649
 20
2719.789137431204
 30
0.0
 11
254.9687242232649
 21
2718.005364473027
 31
0.0
  0
LINE
  5
31F4
330
4062
100
AcDbEntity
  8
0
100
AcDbLine
 10
254.9687242232649
 20
2718.005364473031
 30
0.0
 11
262.4687242232649
 21
2718.005364473031
 31
0.0
  0
LINE
  5
31F5
330
4062
100
AcDbEntity
  8
0
100
AcDbLine
 10
255.6425162828564
 20
2730.005364473031
 30
0.0
 11
261.7949321636733
 21
2730.005364473027
 31
0.0
  0
LINE
  5
31F6
330
4062
100
AcDbEntity
  8
0
100
AcDbLine
 10
253.9687242232649
 20
2720.077580597363
 30
0.0
 11
263.4687242232649
 21
2722.525299907635
 31
0.0
  0
LINE
  5
31F7
330
4062
100
AcDbEntity
  8
0
100
AcDbLine
 10
254.9687242232649
 20
2720.881333091993
 30
0.0
 11
262.4687242232649
 21
2722.813743073793
 31
0.0
  0
LINE
  5
31F8
330
4062
100
AcDbEntity
  8
0
100
AcDbLine
 10
254.9687242232649
 20
2719.789137431204
 30
0.0
 11
262.4687242232649
 21
2721.721547412997
 31
0.0
  0
LINE
  5
31F9
330
4062
100
AcDbEntity
  8
0
100
AcDbLine
 10
253.9687242232649
 20
2720.077580597359
 30
0.0
 11
254.9687242232649
 21
2720.881333091997
 31
0.0
  0
LINE
  5
31FA
330
4062
100
AcDbEntity
  8
0
100
AcDbLine
 10
253.9687242232649
 20
2720.077580597363
 30
0.0
 11
254.9687242232649
 21
2719.789137431201
 31
0.0
  0
LINE
  5
31FB
330
4062
100
AcDbEntity
  8
0
100
AcDbLine
 10
263.4687242232649
 20
2722.525299907635
 30
0.0
 11
262.4687242232649
 21
2722.813743073793
 31
0.0
  0
LINE
  5
31FC
330
4062
100
AcDbEntity
  8
0
100
AcDbLine
 10
263.4687242232649
 20
2722.525299907635
 30
0.0
 11
262.4687242232649
 21
2721.721547412997
 31
0.0
  0
LINE
  5
31FD
330
4062
100
AcDbEntity
  8
0
100
AcDbLine
 10
253.9687242232649
 20
2723.088212918405
 30
0.0
 11
263.4687242232649
 21
2725.535932228677
 31
0.0
  0
LINE
  5
31FE
330
4062
100
AcDbEntity
  8
0
100
AcDbLine
 10
254.9687242232649
 20
2723.891965413035
 30
0.0
 11
262.4687242232649
 21
2725.824375394836
 31
0.0
  0
LINE
  5
31FF
330
4062
100
AcDbEntity
  8
0
100
AcDbLine
 10
254.9687242232649
 20
2722.799769752246
 30
0.0
 11
262.4687242232649
 21
2724.732179734039
 31
0.0
  0
LINE
  5
3200
330
4062
100
AcDbEntity
  8
0
100
AcDbLine
 10
253.9687242232649
 20
2723.088212918401
 30
0.0
 11
254.9687242232649
 21
2723.891965413039
 31
0.0
  0
LINE
  5
3201
330
4062
100
AcDbEntity
  8
0
100
AcDbLine
 10
253.9687242232649
 20
2723.088212918405
 30
0.0
 11
254.9687242232649
 21
2722.799769752243
 31
0.0
  0
LINE
  5
3202
330
4062
100
AcDbEntity
  8
0
100
AcDbLine
 10
263.4687242232649
 20
2725.535932228677
 30
0.0
 11
262.4687242232649
 21
2725.824375394836
 31
0.0
  0
LINE
  5
3203
330
4062
100
AcDbEntity
  8
0
100
AcDbLine
 10
263.4687242232649
 20
2725.535932228677
 30
0.0
 11
262.4687242232649
 21
2724.732179734039
 31
0.0
  0
LINE
  5
3204
330
4062
100
AcDbEntity
  8
0
100
AcDbLine
 10
253.9687242232794
 20
2726.098845239447
 30
0.0
 11
263.4687242232649
 21
2728.546564549719
 31
0.0
  0
LINE
  5
3205
330
4062
100
AcDbEntity
  8
0
100
AcDbLine
 10
254.9687242232649
 20
2726.902597734077
 30
0.0
 11
262.4687242232649
 21
2728.835007715878
 31
0.0
  0
LINE
  5
3206
330
4062
100
AcDbEntity
  8
0
100
AcDbLine
 10
254.9687242232649
 20
2725.810402073288
 30
0.0
 11
262.4687242232649
 21
2727.742812055081
 31
0.0
  0
LINE
  5
3207
330
4062
100
AcDbEntity
  8
0
100
AcDbLine
 10
253.9687242232649
 20
2726.098845239443
 30
0.0
 11
254.9687242232649
 21
2726.902597734082
 31
0.0
  0
LINE
  5
3208
330
4062
100
AcDbEntity
  8
0
100
AcDbLine
 10
253.9687242232649
 20
2726.098845239447
 30
0.0
 11
254.9687242232649
 21
2725.810402073284
 31
0.0
  0
LINE
  5
3209
330
4062
100
AcDbEntity
  8
0
100
AcDbLine
 10
263.4687242232649
 20
2728.546564549719
 30
0.0
 11
262.4687242232649
 21
2728.835007715878
 31
0.0
  0
LINE
  5
320A
330
4062
100
AcDbEntity
  8
0
100
AcDbLine
 10
263.4687242232649
 20
2728.546564549719
 30
0.0
 11
262.4687242232649
 21
2727.742812055081
 31
0.0
  0
LINE
  5
320B
330
4062
100
AcDbEntity
  8
0
100
AcDbLine
 10
236.0466812751438
 20
2716.852879289609
 30
0.0
 11
255.7187242232649
 21
2716.852879289609
 31
0.0
  0
LINE
  5
320C
330
4062
100
AcDbEntity
  8
0
100
AcDbLine
 10
261.7187242232649
 20
2716.852879289612
 30
0.0
 11
284.2394936068777
 21
2716.852879289609
 31
0.0
  0
LINE
  5
320D
330
4062
100
AcDbEntity
  8
0
100
AcDbLine
 10
236.0592326034129
 20
2738.919046461413
 30
0.0
 11
284.2394936068777
 21
2738.919046461413
 31
0.0
  0
LINE
  5
320E
330
4062
100
AcDbEntity
  8
0
100
AcDbLine
 10
286.2394936068777
 20
2736.919046461413
 30
0.0
 11
286.2394936068777
 21
2718.852879289609
 31
0.0
  0
ARC
  5
320F
330
4062
100
AcDbEntity
  8
0
100
AcDbCircle
 10
284.2394936068777
 20
2736.919046461413
 30
0.0
 40
2.0
100
AcDbArc
 50
0.0
 51
90.0
  0
ARC
  5
3210
330
4062
100
AcDbEntity
  8
0
100
AcDbCircle
 10
284.2394936068777
 20
2718.852879289609
 30
0.0
 40
2.0
100
AcDbArc
 50
270.0
 51
0.0
  0
LINE
  5
3211
330
4062
100
AcDbEntity
  8
0
100
AcDbLine
 10
253.9687242232649
 20
2730.293528983484
 30
0.0
 11
263.4687242232649
 21
2730.293528983481
 31
0.0
  0
LINE
  5
3212
330
4062
100
AcDbEntity
  8
0
100
AcDbLine
 10
253.5375742266805
 20
2698.849064894645
 30
0.0
 11
263.8998742198346
 21
2698.849064894645
 31
0.0
  0
LINE
  5
3213
330
4062
100
AcDbEntity
  8
0
100
AcDbLine
 10
253.5375742266805
 20
2694.349064894641
 30
0.0
 11
263.8998742198346
 21
2694.349064894641
 31
0.0
  0
LINE
  5
3214
330
4062
100
AcDbEntity
  8
0
100
AcDbLine
 10
254.9687242232649
 20
2729.411459124237
 30
0.0
 11
255.6425162828564
 21
2730.005364473035
 31
0.0
  0
LINE
  5
3215
330
4062
100
AcDbEntity
  8
0
100
AcDbLine
 10
254.9687242232649
 20
2729.411459124235
 30
0.0
 11
262.4687242232649
 21
2729.411459124235
 31
0.0
  0
LINE
  5
3216
330
4062
100
AcDbEntity
  8
0
100
AcDbLine
 10
262.4687242232649
 20
2729.411459124241
 30
0.0
 11
261.7949321636733
 21
2730.005364473031
 31
0.0
  0
ARC
  5
3217
330
4062
100
AcDbEntity
  8
0
100
AcDbCircle
 10
256.7910909319071
 20
2696.599064894645
 30
0.0
 40
4.072366708649933
100
AcDbArc
 50
148.5083061822251
 51
211.4916938177748
  0
ARC
  5
3218
330
4062
100
AcDbEntity
  8
0
100
AcDbCircle
 10
253.5375742266805
 20
2694.605956020047
 30
0.0
 40
0.2568911254056729
100
AcDbArc
 50
211.4916938179268
 51
270.0
  0
ARC
  5
3219
330
4062
100
AcDbEntity
  8
0
100
AcDbCircle
 10
253.5375742266805
 20
2698.592173769239
 30
0.0
 40
0.2568911254056729
100
AcDbArc
 50
90.0
 51
148.5083061820732
  0
ARC
  5
321A
330
4062
100
AcDbEntity
  8
0
100
AcDbCircle
 10
260.6463575146081
 20
2696.599064894645
 30
0.0
 40
4.072366708649933
100
AcDbArc
 50
328.5083061822253
 51
31.49169381777483
  0
ARC
  5
321B
330
4062
100
AcDbEntity
  8
0
100
AcDbCircle
 10
263.8998742198346
 20
2694.605956020047
 30
0.0
 40
0.2568911254056729
100
AcDbArc
 50
270.0
 51
328.5083061822253
  0
ARC
  5
321C
330
4062
100
AcDbEntity
  8
0
100
AcDbCircle
 10
263.8998742198346
 20
2698.592173769239
 30
0.0
 40
0.2568911254056729
100
AcDbArc
 50
31.49169381792674
 51
90.0
  0
LINE
  5
321D
330
4062
100
AcDbEntity
  8
0
100
AcDbLine
 10
253.0610486675759
 20
2694.964759134995
 30
0.0
 11
264.3763997789392
 21
2694.964759134991
 31
0.0
  0
LINE
  5
321E
330
4062
100
AcDbEntity
  8
0
100
AcDbLine
 10
241.4959499516736
 20
2716.852879289609
 30
0.0
 11
243.4954668916071
 21
2716.80892468884
 31
0.0
  0
LINE
  5
321F
330
4062
100
AcDbEntity
  8
0
100
AcDbLine
 10
261.7187242232649
 20
2716.852879289605
 30
0.0
 11
284.2394936068777
 21
2716.852879289605
 31
0.0
  0
POLYLINE
  5
3B94
330
4062
100
AcDbEntity
  8
0
100
AcDb3dPolyline
 66
     1
 10
0.0
 20
0.0
 30
0.0
 70
     8
  0
VERTEX
  5
3B95
330
3B94
100
AcDbEntity
  8
0
100
AcDbVertex
100
AcDb3dPolylineVertex
 10
237.447
 20
2741.67
 30
0.0
 70
    32
  0
VERTEX
  5
3B96
330
3B94
100
AcDbEntity
  8
0
100
AcDbVertex
100
AcDb3dPolylineVertex
 10
237.371
 20
2741.54
 30
0.0
 70
    32
  0
VERTEX
  5
3B97
330
3B94
100
AcDbEntity
  8
0
100
AcDbVertex
100
AcDb3dPolylineVertex
 10
237.295
 20
2741.41
 30
0.0
 70
    32
  0
VERTEX
  5
3B98
330
3B94
100
AcDbEntity
  8
0
100
AcDbVertex
100
AcDb3dPolylineVertex
 10
237.219
 20
2741.280000000001
 30
0.0
 70
    32
  0
VERTEX
  5
3B99
330
3B94
100
AcDbEntity
  8
0
100
AcDbVertex
100
AcDb3dPolylineVertex
 10
237.143
 20
2741.14
 30
0.0
 70
    32
  0
VERTEX
  5
3B9A
330
3B94
100
AcDbEntity
  8
0
100
AcDbVertex
100
AcDb3dPolylineVertex
 10
237.068
 20
2741.010000000001
 30
0.0
 70
    32
  0
VERTEX
  5
3B9B
330
3B94
100
AcDbEntity
  8
0
100
AcDbVertex
100
AcDb3dPolylineVertex
 10
236.994
 20
2740.880000000001
 30
0.0
 70
    32
  0
VERTEX
  5
3B9C
330
3B94
100
AcDbEntity
  8
0
100
AcDbVertex
100
AcDb3dPolylineVertex
 10
236.921
 20
2740.75
 30
0.0
 70
    32
  0
VERTEX
  5
3B9D
330
3B94
100
AcDbEntity
  8
0
100
AcDbVertex
100
AcDb3dPolylineVertex
 10
236.848
 20
2740.62
 30
0.0
 70
    32
  0
VERTEX
  5
3B9E
330
3B94
100
AcDbEntity
  8
0
100
AcDbVertex
100
AcDb3dPolylineVertex
 10
236.776
 20
2740.48
 30
0.0
 70
    32
  0
VERTEX
  5
3B9F
330
3B94
100
AcDbEntity
  8
0
100
AcDbVertex
100
AcDb3dPolylineVertex
 10
236.706
 20
2740.35
 30
0.0
 70
    32
  0
VERTEX
  5
3BA0
330
3B94
100
AcDbEntity
  8
0
100
AcDbVertex
100
AcDb3dPolylineVertex
 10
236.637
 20
2740.22
 30
0.0
 70
    32
  0
VERTEX
  5
3BA1
330
3B94
100
AcDbEntity
  8
0
100
AcDbVertex
100
AcDb3dPolylineVertex
 10
236.569
 20
2740.09
 30
0.0
 70
    32
  0
VERTEX
  5
3BA2
330
3B94
100
AcDbEntity
  8
0
100
AcDbVertex
100
AcDb3dPolylineVertex
 10
236.503
 20
2739.95
 30
0.0
 70
    32
  0
VERTEX
  5
3BA3
330
3B94
100
AcDbEntity
  8
0
100
AcDbVertex
100
AcDb3dPolylineVertex
 10
236.438
 20
2739.82
 30
0.0
 70
    32
  0
VERTEX
  5
3BA4
330
3B94
100
AcDbEntity
  8
0
100
AcDbVertex
100
AcDb3dPolylineVertex
 10
236.376
 20
2739.69
 30
0.0
 70
    32
  0
VERTEX
  5
3BA5
330
3B94
100
AcDbEntity
  8
0
100
AcDbVertex
100
AcDb3dPolylineVertex
 10
236.315
 20
2739.55
 30
0.0
 70
    32
  0
VERTEX
  5
3BA6
330
3B94
100
AcDbEntity
  8
0
100
AcDbVertex
100
AcDb3dPolylineVertex
 10
236.256
 20
2739.42
 30
0.0
 70
    32
  0
VERTEX
  5
3BA7
330
3B94
100
AcDbEntity
  8
0
100
AcDbVertex
100
AcDb3dPolylineVertex
 10
236.2
 20
2739.28
 30
0.0
 70
    32
  0
VERTEX
  5
3BA8
330
3B94
100
AcDbEntity
  8
0
100
AcDbVertex
100
AcDb3dPolylineVertex
 10
236.146
 20
2739.15
 30
0.0
 70
    32
  0
VERTEX
  5
3BA9
330
3B94
100
AcDbEntity
  8
0
100
AcDbVertex
100
AcDb3dPolylineVertex
 10
236.094
 20
2739.01
 30
0.0
 70
    32
  0
VERTEX
  5
3BAA
330
3B94
100
AcDbEntity
  8
0
100
AcDbVertex
100
AcDb3dPolylineVertex
 10
236.045
 20
2738.88
 30
0.0
 70
    32
  0
VERTEX
  5
3BAB
330
3B94
100
AcDbEntity
  8
0
100
AcDbVertex
100
AcDb3dPolylineVertex
 10
235.999
 20
2738.74
 30
0.0
 70
    32
  0
VERTEX
  5
3BAC
330
3B94
100
AcDbEntity
  8
0
100
AcDbVertex
100
AcDb3dPolylineVertex
 10
235.955
 20
2738.61
 30
0.0
 70
    32
  0
VERTEX
  5
3BAD
330
3B94
100
AcDbEntity
  8
0
100
AcDbVertex
100
AcDb3dPolylineVertex
 10
235.914
 20
2738.47
 30
0.0
 70
    32
  0
VERTEX
  5
3BAE
330
3B94
100
AcDbEntity
  8
0
100
AcDbVertex
100
AcDb3dPolylineVertex
 10
235.877
 20
2738.33
 30
0.0
 70
    32
  0
VERTEX
  5
3BAF
330
3B94
100
AcDbEntity
  8
0
100
AcDbVertex
100
AcDb3dPolylineVertex
 10
235.843
 20
2738.2
 30
0.0
 70
    32
  0
VERTEX
  5
3BB0
330
3B94
100
AcDbEntity
  8
0
100
AcDbVertex
100
AcDb3dPolylineVertex
 10
235.811
 20
2738.06
 30
0.0
 70
    32
  0
VERTEX
  5
3BB1
330
3B94
100
AcDbEntity
  8
0
100
AcDbVertex
100
AcDb3dPolylineVertex
 10
235.783
 20
2737.92
 30
0.0
 70
    32
  0
VERTEX
  5
3BB2
330
3B94
100
AcDbEntity
  8
0
100
AcDbVertex
100
AcDb3dPolylineVertex
 10
235.758
 20
2737.79
 30
0.0
 70
    32
  0
VERTEX
  5
3BB3
330
3B94
100
AcDbEntity
  8
0
100
AcDbVertex
100
AcDb3dPolylineVertex
 10
235.736
 20
2737.65
 30
0.0
 70
    32
  0
VERTEX
  5
3BB4
330
3B94
100
AcDbEntity
  8
0
100
AcDbVertex
100
AcDb3dPolylineVertex
 10
235.716
 20
2737.51
 30
0.0
 70
    32
  0
VERTEX
  5
3BB5
330
3B94
100
AcDbEntity
  8
0
100
AcDbVertex
100
AcDb3dPolylineVertex
 10
235.7
 20
2737.37
 30
0.0
 70
    32
  0
VERTEX
  5
3BB6
330
3B94
100
AcDbEntity
  8
0
100
AcDbVertex
100
AcDb3dPolylineVertex
 10
235.686
 20
2737.23
 30
0.0
 70
    32
  0
VERTEX
  5
3BB7
330
3B94
100
AcDbEntity
  8
0
100
AcDbVertex
100
AcDb3dPolylineVertex
 10
235.675
 20
2737.09
 30
0.0
 70
    32
  0
VERTEX
  5
3BB8
330
3B94
100
AcDbEntity
  8
0
100
AcDbVertex
100
AcDb3dPolylineVertex
 10
235.666
 20
2736.95
 30
0.0
 70
    32
  0
VERTEX
  5
3BB9
330
3B94
100
AcDbEntity
  8
0
100
AcDbVertex
100
AcDb3dPolylineVertex
 10
235.661
 20
2736.81
 30
0.0
 70
    32
  0
VERTEX
  5
3BBA
330
3B94
100
AcDbEntity
  8
0
100
AcDbVertex
100
AcDb3dPolylineVertex
 10
235.657
 20
2736.67
 30
0.0
 70
    32
  0
VERTEX
  5
3BBB
330
3B94
100
AcDbEntity
  8
0
100
AcDbVertex
100
AcDb3dPolylineVertex
 10
235.656
 20
2736.53
 30
0.0
 70
    32
  0
VERTEX
  5
3BBC
330
3B94
100
AcDbEntity
  8
0
100
AcDbVertex
100
AcDb3dPolylineVertex
 10
235.658
 20
2736.39
 30
0.0
 70
    32
  0
VERTEX
  5
3BBD
330
3B94
100
AcDbEntity
  8
0
100
AcDbVertex
100
AcDb3dPolylineVertex
 10
235.662
 20
2736.24
 30
0.0
 70
    32
  0
VERTEX
  5
3BBE
330
3B94
100
AcDbEntity
  8
0
100
AcDbVertex
100
AcDb3dPolylineVertex
 10
235.668
 20
2736.1
 30
0.0
 70
    32
  0
VERTEX
  5
3BBF
330
3B94
100
AcDbEntity
  8
0
100
AcDbVertex
100
AcDb3dPolylineVertex
 10
235.676
 20
2735.96
 30
0.0
 70
    32
  0
VERTEX
  5
3BC0
330
3B94
100
AcDbEntity
  8
0
100
AcDbVertex
100
AcDb3dPolylineVertex
 10
235.687
 20
2735.82
 30
0.0
 70
    32
  0
VERTEX
  5
3BC1
330
3B94
100
AcDbEntity
  8
0
100
AcDbVertex
100
AcDb3dPolylineVertex
 10
235.699
 20
2735.68
 30
0.0
 70
    32
  0
VERTEX
  5
3BC2
330
3B94
100
AcDbEntity
  8
0
100
AcDbVertex
100
AcDb3dPolylineVertex
 10
235.714
 20
2735.530000000001
 30
0.0
 70
    32
  0
VERTEX
  5
3BC3
330
3B94
100
AcDbEntity
  8
0
100
AcDbVertex
100
AcDb3dPolylineVertex
 10
235.731
 20
2735.39
 30
0.0
 70
    32
  0
VERTEX
  5
3BC4
330
3B94
100
AcDbEntity
  8
0
100
AcDbVertex
100
AcDb3dPolylineVertex
 10
235.75
 20
2735.25
 30
0.0
 70
    32
  0
VERTEX
  5
3BC5
330
3B94
100
AcDbEntity
  8
0
100
AcDbVertex
100
AcDb3dPolylineVertex
 10
235.77
 20
2735.1
 30
0.0
 70
    32
  0
VERTEX
  5
3BC6
330
3B94
100
AcDbEntity
  8
0
100
AcDbVertex
100
AcDb3dPolylineVertex
 10
235.793
 20
2734.96
 30
0.0
 70
    32
  0
VERTEX
  5
3BC7
330
3B94
100
AcDbEntity
  8
0
100
AcDbVertex
100
AcDb3dPolylineVertex
 10
235.817
 20
2734.81
 30
0.0
 70
    32
  0
VERTEX
  5
3BC8
330
3B94
100
AcDbEntity
  8
0
100
AcDbVertex
100
AcDb3dPolylineVertex
 10
235.843
 20
2734.67
 30
0.0
 70
    32
  0
VERTEX
  5
3BC9
330
3B94
100
AcDbEntity
  8
0
100
AcDbVertex
100
AcDb3dPolylineVertex
 10
235.871
 20
2734.52
 30
0.0
 70
    32
  0
VERTEX
  5
3BCA
330
3B94
100
AcDbEntity
  8
0
100
AcDbVertex
100
AcDb3dPolylineVertex
 10
235.9
 20
2734.38
 30
0.0
 70
    32
  0
VERTEX
  5
3BCB
330
3B94
100
AcDbEntity
  8
0
100
AcDbVertex
100
AcDb3dPolylineVertex
 10
235.931
 20
2734.23
 30
0.0
 70
    32
  0
VERTEX
  5
3BCC
330
3B94
100
AcDbEntity
  8
0
100
AcDbVertex
100
AcDb3dPolylineVertex
 10
235.963
 20
2734.09
 30
0.0
 70
    32
  0
VERTEX
  5
3BCD
330
3B94
100
AcDbEntity
  8
0
100
AcDbVertex
100
AcDb3dPolylineVertex
 10
235.997
 20
2733.94
 30
0.0
 70
    32
  0
VERTEX
  5
3BCE
330
3B94
100
AcDbEntity
  8
0
100
AcDbVertex
100
AcDb3dPolylineVertex
 10
236.032
 20
2733.8
 30
0.0
 70
    32
  0
VERTEX
  5
3BCF
330
3B94
100
AcDbEntity
  8
0
100
AcDbVertex
100
AcDb3dPolylineVertex
 10
236.068
 20
2733.65
 30
0.0
 70
    32
  0
VERTEX
  5
3BD0
330
3B94
100
AcDbEntity
  8
0
100
AcDbVertex
100
AcDb3dPolylineVertex
 10
236.106
 20
2733.510000000001
 30
0.0
 70
    32
  0
VERTEX
  5
3BD1
330
3B94
100
AcDbEntity
  8
0
100
AcDbVertex
100
AcDb3dPolylineVertex
 10
236.145
 20
2733.36
 30
0.0
 70
    32
  0
VERTEX
  5
3BD2
330
3B94
100
AcDbEntity
  8
0
100
AcDbVertex
100
AcDb3dPolylineVertex
 10
236.185
 20
2733.21
 30
0.0
 70
    32
  0
VERTEX
  5
3BD3
330
3B94
100
AcDbEntity
  8
0
100
AcDbVertex
100
AcDb3dPolylineVertex
 10
236.226
 20
2733.07
 30
0.0
 70
    32
  0
VERTEX
  5
3BD4
330
3B94
100
AcDbEntity
  8
0
100
AcDbVertex
100
AcDb3dPolylineVertex
 10
236.268
 20
2732.92
 30
0.0
 70
    32
  0
VERTEX
  5
3BD5
330
3B94
100
AcDbEntity
  8
0
100
AcDbVertex
100
AcDb3dPolylineVertex
 10
236.312
 20
2732.77
 30
0.0
 70
    32
  0
VERTEX
  5
3BD6
330
3B94
100
AcDbEntity
  8
0
100
AcDbVertex
100
AcDb3dPolylineVertex
 10
236.356
 20
2732.63
 30
0.0
 70
    32
  0
VERTEX
  5
3BD7
330
3B94
100
AcDbEntity
  8
0
100
AcDbVertex
100
AcDb3dPolylineVertex
 10
236.401
 20
2732.48
 30
0.0
 70
    32
  0
VERTEX
  5
3BD8
330
3B94
100
AcDbEntity
  8
0
100
AcDbVertex
100
AcDb3dPolylineVertex
 10
236.446
 20
2732.33
 30
0.0
 70
    32
  0
VERTEX
  5
3BD9
330
3B94
100
AcDbEntity
  8
0
100
AcDbVertex
100
AcDb3dPolylineVertex
 10
236.493
 20
2732.19
 30
0.0
 70
    32
  0
VERTEX
  5
3BDA
330
3B94
100
AcDbEntity
  8
0
100
AcDbVertex
100
AcDb3dPolylineVertex
 10
236.54
 20
2732.04
 30
0.0
 70
    32
  0
VERTEX
  5
3BDB
330
3B94
100
AcDbEntity
  8
0
100
AcDbVertex
100
AcDb3dPolylineVertex
 10
236.588
 20
2731.89
 30
0.0
 70
    32
  0
VERTEX
  5
3BDC
330
3B94
100
AcDbEntity
  8
0
100
AcDbVertex
100
AcDb3dPolylineVertex
 10
236.636
 20
2731.74
 30
0.0
 70
    32
  0
VERTEX
  5
3BDD
330
3B94
100
AcDbEntity
  8
0
100
AcDbVertex
100
AcDb3dPolylineVertex
 10
236.685
 20
2731.6
 30
0.0
 70
    32
  0
VERTEX
  5
3BDE
330
3B94
100
AcDbEntity
  8
0
100
AcDbVertex
100
AcDb3dPolylineVertex
 10
236.735
 20
2731.45
 30
0.0
 70
    32
  0
VERTEX
  5
3BDF
330
3B94
100
AcDbEntity
  8
0
100
AcDbVertex
100
AcDb3dPolylineVertex
 10
236.784
 20
2731.3
 30
0.0
 70
    32
  0
VERTEX
  5
3BE0
330
3B94
100
AcDbEntity
  8
0
100
AcDbVertex
100
AcDb3dPolylineVertex
 10
236.835
 20
2731.15
 30
0.0
 70
    32
  0
VERTEX
  5
3BE1
330
3B94
100
AcDbEntity
  8
0
100
AcDbVertex
100
AcDb3dPolylineVertex
 10
236.885
 20
2731.01
 30
0.0
 70
    32
  0
VERTEX
  5
3BE2
330
3B94
100
AcDbEntity
  8
0
100
AcDbVertex
100
AcDb3dPolylineVertex
 10
236.936
 20
2730.86
 30
0.0
 70
    32
  0
VERTEX
  5
3BE3
330
3B94
100
AcDbEntity
  8
0
100
AcDbVertex
100
AcDb3dPolylineVertex
 10
236.986
 20
2730.71
 30
0.0
 70
    32
  0
VERTEX
  5
3BE4
330
3B94
100
AcDbEntity
  8
0
100
AcDbVertex
100
AcDb3dPolylineVertex
 10
237.037
 20
2730.56
 30
0.0
 70
    32
  0
VERTEX
  5
3BE5
330
3B94
100
AcDbEntity
  8
0
100
AcDbVertex
100
AcDb3dPolylineVertex
 10
237.088
 20
2730.41
 30
0.0
 70
    32
  0
VERTEX
  5
3BE6
330
3B94
100
AcDbEntity
  8
0
100
AcDbVertex
100
AcDb3dPolylineVertex
 10
237.139
 20
2730.27
 30
0.0
 70
    32
  0
VERTEX
  5
3BE7
330
3B94
100
AcDbEntity
  8
0
100
AcDbVertex
100
AcDb3dPolylineVertex
 10
237.19
 20
2730.12
 30
0.0
 70
    32
  0
VERTEX
  5
3BE8
330
3B94
100
AcDbEntity
  8
0
100
AcDbVertex
100
AcDb3dPolylineVertex
 10
237.241
 20
2729.97
 30
0.0
 70
    32
  0
VERTEX
  5
3BE9
330
3B94
100
AcDbEntity
  8
0
100
AcDbVertex
100
AcDb3dPolylineVertex
 10
237.292
 20
2729.82
 30
0.0
 70
    32
  0
VERTEX
  5
3BEA
330
3B94
100
AcDbEntity
  8
0
100
AcDbVertex
100
AcDb3dPolylineVertex
 10
237.342
 20
2729.67
 30
0.0
 70
    32
  0
VERTEX
  5
3BEB
330
3B94
100
AcDbEntity
  8
0
100
AcDbVertex
100
AcDb3dPolylineVertex
 10
237.392
 20
2729.53
 30
0.0
 70
    32
  0
VERTEX
  5
3BEC
330
3B94
100
AcDbEntity
  8
0
100
AcDbVertex
100
AcDb3dPolylineVertex
 10
237.442
 20
2729.38
 30
0.0
 70
    32
  0
VERTEX
  5
3BED
330
3B94
100
AcDbEntity
  8
0
100
AcDbVertex
100
AcDb3dPolylineVertex
 10
237.492
 20
2729.23
 30
0.0
 70
    32
  0
VERTEX
  5
3BEE
330
3B94
100
AcDbEntity
  8
0
100
AcDbVertex
100
AcDb3dPolylineVertex
 10
237.541
 20
2729.08
 30
0.0
 70
    32
  0
VERTEX
  5
3BEF
330
3B94
100
AcDbEntity
  8
0
100
AcDbVertex
100
AcDb3dPolylineVertex
 10
237.589
 20
2728.93
 30
0.0
 70
    32
  0
VERTEX
  5
3BF0
330
3B94
100
AcDbEntity
  8
0
100
AcDbVertex
100
AcDb3dPolylineVertex
 10
237.637
 20
2728.79
 30
0.0
 70
    32
  0
VERTEX
  5
3BF1
330
3B94
100
AcDbEntity
  8
0
100
AcDbVertex
100
AcDb3dPolylineVertex
 10
237.684
 20
2728.64
 30
0.0
 70
    32
  0
VERTEX
  5
3BF2
330
3B94
100
AcDbEntity
  8
0
100
AcDbVertex
100
AcDb3dPolylineVertex
 10
237.731
 20
2728.49
 30
0.0
 70
    32
  0
VERTEX
  5
3BF3
330
3B94
100
AcDbEntity
  8
0
100
AcDbVertex
100
AcDb3dPolylineVertex
 10
237.777
 20
2728.34
 30
0.0
 70
    32
  0
VERTEX
  5
3BF4
330
3B94
100
AcDbEntity
  8
0
100
AcDbVertex
100
AcDb3dPolylineVertex
 10
237.822
 20
2728.19
 30
0.0
 70
    32
  0
VERTEX
  5
3BF5
330
3B94
100
AcDbEntity
  8
0
100
AcDbVertex
100
AcDb3dPolylineVertex
 10
237.866
 20
2728.05
 30
0.0
 70
    32
  0
VERTEX
  5
3BF6
330
3B94
100
AcDbEntity
  8
0
100
AcDbVertex
100
AcDb3dPolylineVertex
 10
237.909
 20
2727.9
 30
0.0
 70
    32
  0
VERTEX
  5
3BF7
330
3B94
100
AcDbEntity
  8
0
100
AcDbVertex
100
AcDb3dPolylineVertex
 10
237.951
 20
2727.75
 30
0.0
 70
    32
  0
VERTEX
  5
3BF8
330
3B94
100
AcDbEntity
  8
0
100
AcDbVertex
100
AcDb3dPolylineVertex
 10
237.992
 20
2727.61
 30
0.0
 70
    32
  0
VERTEX
  5
3BF9
330
3B94
100
AcDbEntity
  8
0
100
AcDbVertex
100
AcDb3dPolylineVertex
 10
238.033
 20
2727.46
 30
0.0
 70
    32
  0
VERTEX
  5
3BFA
330
3B94
100
AcDbEntity
  8
0
100
AcDbVertex
100
AcDb3dPolylineVertex
 10
238.072
 20
2727.31
 30
0.0
 70
    32
  0
VERTEX
  5
3BFB
330
3B94
100
AcDbEntity
  8
0
100
AcDbVertex
100
AcDb3dPolylineVertex
 10
238.109
 20
2727.16
 30
0.0
 70
    32
  0
VERTEX
  5
3BFC
330
3B94
100
AcDbEntity
  8
0
100
AcDbVertex
100
AcDb3dPolylineVertex
 10
238.146
 20
2727.02
 30
0.0
 70
    32
  0
VERTEX
  5
3BFD
330
3B94
100
AcDbEntity
  8
0
100
AcDbVertex
100
AcDb3dPolylineVertex
 10
238.181
 20
2726.87
 30
0.0
 70
    32
  0
VERTEX
  5
3BFE
330
3B94
100
AcDbEntity
  8
0
100
AcDbVertex
100
AcDb3dPolylineVertex
 10
238.215
 20
2726.72
 30
0.0
 70
    32
  0
VERTEX
  5
3BFF
330
3B94
100
AcDbEntity
  8
0
100
AcDbVertex
100
AcDb3dPolylineVertex
 10
238.247
 20
2726.58
 30
0.0
 70
    32
  0
VERTEX
  5
3C00
330
3B94
100
AcDbEntity
  8
0
100
AcDbVertex
100
AcDb3dPolylineVertex
 10
238.278
 20
2726.43
 30
0.0
 70
    32
  0
VERTEX
  5
3C01
330
3B94
100
AcDbEntity
  8
0
100
AcDbVertex
100
AcDb3dPolylineVertex
 10
238.308
 20
2726.28
 30
0.0
 70
    32
  0
VERTEX
  5
3C02
330
3B94
100
AcDbEntity
  8
0
100
AcDbVertex
100
AcDb3dPolylineVertex
 10
238.336
 20
2726.14
 30
0.0
 70
    32
  0
VERTEX
  5
3C03
330
3B94
100
AcDbEntity
  8
0
100
AcDbVertex
100
AcDb3dPolylineVertex
 10
238.362
 20
2725.99
 30
0.0
 70
    32
  0
VERTEX
  5
3C04
330
3B94
100
AcDbEntity
  8
0
100
AcDbVertex
100
AcDb3dPolylineVertex
 10
238.386
 20
2725.85
 30
0.0
 70
    32
  0
VERTEX
  5
3C05
330
3B94
100
AcDbEntity
  8
0
100
AcDbVertex
100
AcDb3dPolylineVertex
 10
238.409
 20
2725.7
 30
0.0
 70
    32
  0
VERTEX
  5
3C06
330
3B94
100
AcDbEntity
  8
0
100
AcDbVertex
100
AcDb3dPolylineVertex
 10
238.43
 20
2725.56
 30
0.0
 70
    32
  0
VERTEX
  5
3C07
330
3B94
100
AcDbEntity
  8
0
100
AcDbVertex
100
AcDb3dPolylineVertex
 10
238.448
 20
2725.41
 30
0.0
 70
    32
  0
VERTEX
  5
3C08
330
3B94
100
AcDbEntity
  8
0
100
AcDbVertex
100
AcDb3dPolylineVertex
 10
238.465
 20
2725.27
 30
0.0
 70
    32
  0
VERTEX
  5
3C09
330
3B94
100
AcDbEntity
  8
0
100
AcDbVertex
100
AcDb3dPolylineVertex
 10
238.48
 20
2725.12
 30
0.0
 70
    32
  0
VERTEX
  5
3C0A
330
3B94
100
AcDbEntity
  8
0
100
AcDbVertex
100
AcDb3dPolylineVertex
 10
238.493
 20
2724.98
 30
0.0
 70
    32
  0
VERTEX
  5
3C0B
330
3B94
100
AcDbEntity
  8
0
100
AcDbVertex
100
AcDb3dPolylineVertex
 10
238.504
 20
2724.83
 30
0.0
 70
    32
  0
VERTEX
  5
3C0C
330
3B94
100
AcDbEntity
  8
0
100
AcDbVertex
100
AcDb3dPolylineVertex
 10
238.513
 20
2724.69
 30
0.0
 70
    32
  0
VERTEX
  5
3C0D
330
3B94
100
AcDbEntity
  8
0
100
AcDbVertex
100
AcDb3dPolylineVertex
 10
238.519
 20
2724.54
 30
0.0
 70
    32
  0
VERTEX
  5
3C0E
330
3B94
100
AcDbEntity
  8
0
100
AcDbVertex
100
AcDb3dPolylineVertex
 10
238.523
 20
2724.4
 30
0.0
 70
    32
  0
VERTEX
  5
3C0F
330
3B94
100
AcDbEntity
  8
0
100
AcDbVertex
100
AcDb3dPolylineVertex
 10
238.525
 20
2724.260000000001
 30
0.0
 70
    32
  0
VERTEX
  5
3C10
330
3B94
100
AcDbEntity
  8
0
100
AcDbVertex
100
AcDb3dPolylineVertex
 10
238.524
 20
2724.11
 30
0.0
 70
    32
  0
VERTEX
  5
3C11
330
3B94
100
AcDbEntity
  8
0
100
AcDbVertex
100
AcDb3dPolylineVertex
 10
238.521
 20
2723.97
 30
0.0
 70
    32
  0
VERTEX
  5
3C12
330
3B94
100
AcDbEntity
  8
0
100
AcDbVertex
100
AcDb3dPolylineVertex
 10
238.516
 20
2723.83
 30
0.0
 70
    32
  0
VERTEX
  5
3C13
330
3B94
100
AcDbEntity
  8
0
100
AcDbVertex
100
AcDb3dPolylineVertex
 10
238.508
 20
2723.69
 30
0.0
 70
    32
  0
VERTEX
  5
3C14
330
3B94
100
AcDbEntity
  8
0
100
AcDbVertex
100
AcDb3dPolylineVertex
 10
238.498
 20
2723.54
 30
0.0
 70
    32
  0
VERTEX
  5
3C15
330
3B94
100
AcDbEntity
  8
0
100
AcDbVertex
100
AcDb3dPolylineVertex
 10
238.487
 20
2723.4
 30
0.0
 70
    32
  0
VERTEX
  5
3C16
330
3B94
100
AcDbEntity
  8
0
100
AcDbVertex
100
AcDb3dPolylineVertex
 10
238.472
 20
2723.26
 30
0.0
 70
    32
  0
VERTEX
  5
3C17
330
3B94
100
AcDbEntity
  8
0
100
AcDbVertex
100
AcDb3dPolylineVertex
 10
238.456
 20
2723.12
 30
0.0
 70
    32
  0
VERTEX
  5
3C18
330
3B94
100
AcDbEntity
  8
0
100
AcDbVertex
100
AcDb3dPolylineVertex
 10
238.438
 20
2722.98
 30
0.0
 70
    32
  0
VERTEX
  5
3C19
330
3B94
100
AcDbEntity
  8
0
100
AcDbVertex
100
AcDb3dPolylineVertex
 10
238.418
 20
2722.84
 30
0.0
 70
    32
  0
VERTEX
  5
3C1A
330
3B94
100
AcDbEntity
  8
0
100
AcDbVertex
100
AcDb3dPolylineVertex
 10
238.395
 20
2722.7
 30
0.0
 70
    32
  0
VERTEX
  5
3C1B
330
3B94
100
AcDbEntity
  8
0
100
AcDbVertex
100
AcDb3dPolylineVertex
 10
238.371
 20
2722.56
 30
0.0
 70
    32
  0
VERTEX
  5
3C1C
330
3B94
100
AcDbEntity
  8
0
100
AcDbVertex
100
AcDb3dPolylineVertex
 10
238.344
 20
2722.41
 30
0.0
 70
    32
  0
VERTEX
  5
3C1D
330
3B94
100
AcDbEntity
  8
0
100
AcDbVertex
100
AcDb3dPolylineVertex
 10
238.316
 20
2722.27
 30
0.0
 70
    32
  0
VERTEX
  5
3C1E
330
3B94
100
AcDbEntity
  8
0
100
AcDbVertex
100
AcDb3dPolylineVertex
 10
238.286
 20
2722.13
 30
0.0
 70
    32
  0
VERTEX
  5
3C1F
330
3B94
100
AcDbEntity
  8
0
100
AcDbVertex
100
AcDb3dPolylineVertex
 10
238.254
 20
2721.99
 30
0.0
 70
    32
  0
VERTEX
  5
3C20
330
3B94
100
AcDbEntity
  8
0
100
AcDbVertex
100
AcDb3dPolylineVertex
 10
238.22
 20
2721.85
 30
0.0
 70
    32
  0
VERTEX
  5
3C21
330
3B94
100
AcDbEntity
  8
0
100
AcDbVertex
100
AcDb3dPolylineVertex
 10
238.185
 20
2721.72
 30
0.0
 70
    32
  0
VERTEX
  5
3C22
330
3B94
100
AcDbEntity
  8
0
100
AcDbVertex
100
AcDb3dPolylineVertex
 10
238.148
 20
2721.58
 30
0.0
 70
    32
  0
VERTEX
  5
3C23
330
3B94
100
AcDbEntity
  8
0
100
AcDbVertex
100
AcDb3dPolylineVertex
 10
238.109
 20
2721.44
 30
0.0
 70
    32
  0
VERTEX
  5
3C24
330
3B94
100
AcDbEntity
  8
0
100
AcDbVertex
100
AcDb3dPolylineVertex
 10
238.068
 20
2721.3
 30
0.0
 70
    32
  0
VERTEX
  5
3C25
330
3B94
100
AcDbEntity
  8
0
100
AcDbVertex
100
AcDb3dPolylineVertex
 10
238.026
 20
2721.16
 30
0.0
 70
    32
  0
VERTEX
  5
3C26
330
3B94
100
AcDbEntity
  8
0
100
AcDbVertex
100
AcDb3dPolylineVertex
 10
237.982
 20
2721.02
 30
0.0
 70
    32
  0
VERTEX
  5
3C27
330
3B94
100
AcDbEntity
  8
0
100
AcDbVertex
100
AcDb3dPolylineVertex
 10
237.936
 20
2720.88
 30
0.0
 70
    32
  0
VERTEX
  5
3C28
330
3B94
100
AcDbEntity
  8
0
100
AcDbVertex
100
AcDb3dPolylineVertex
 10
237.889
 20
2720.74
 30
0.0
 70
    32
  0
VERTEX
  5
3C29
330
3B94
100
AcDbEntity
  8
0
100
AcDbVertex
100
AcDb3dPolylineVertex
 10
237.841
 20
2720.610000000001
 30
0.0
 70
    32
  0
VERTEX
  5
3C2A
330
3B94
100
AcDbEntity
  8
0
100
AcDbVertex
100
AcDb3dPolylineVertex
 10
237.791
 20
2720.47
 30
0.0
 70
    32
  0
VERTEX
  5
3C2B
330
3B94
100
AcDbEntity
  8
0
100
AcDbVertex
100
AcDb3dPolylineVertex
 10
237.739
 20
2720.33
 30
0.0
 70
    32
  0
VERTEX
  5
3C2C
330
3B94
100
AcDbEntity
  8
0
100
AcDbVertex
100
AcDb3dPolylineVertex
 10
237.686
 20
2720.19
 30
0.0
 70
    32
  0
VERTEX
  5
3C2D
330
3B94
100
AcDbEntity
  8
0
100
AcDbVertex
100
AcDb3dPolylineVertex
 10
237.632
 20
2720.05
 30
0.0
 70
    32
  0
VERTEX
  5
3C2E
330
3B94
100
AcDbEntity
  8
0
100
AcDbVertex
100
AcDb3dPolylineVertex
 10
237.576
 20
2719.92
 30
0.0
 70
    32
  0
VERTEX
  5
3C2F
330
3B94
100
AcDbEntity
  8
0
100
AcDbVertex
100
AcDb3dPolylineVertex
 10
237.52
 20
2719.78
 30
0.0
 70
    32
  0
VERTEX
  5
3C30
330
3B94
100
AcDbEntity
  8
0
100
AcDbVertex
100
AcDb3dPolylineVertex
 10
237.461
 20
2719.64
 30
0.0
 70
    32
  0
VERTEX
  5
3C31
330
3B94
100
AcDbEntity
  8
0
100
AcDbVertex
100
AcDb3dPolylineVertex
 10
237.402
 20
2719.51
 30
0.0
 70
    32
  0
VERTEX
  5
3C32
330
3B94
100
AcDbEntity
  8
0
100
AcDbVertex
100
AcDb3dPolylineVertex
 10
237.342
 20
2719.37
 30
0.0
 70
    32
  0
VERTEX
  5
3C33
330
3B94
100
AcDbEntity
  8
0
100
AcDbVertex
100
AcDb3dPolylineVertex
 10
237.28
 20
2719.23
 30
0.0
 70
    32
  0
VERTEX
  5
3C34
330
3B94
100
AcDbEntity
  8
0
100
AcDbVertex
100
AcDb3dPolylineVertex
 10
237.217
 20
2719.1
 30
0.0
 70
    32
  0
VERTEX
  5
3C35
330
3B94
100
AcDbEntity
  8
0
100
AcDbVertex
100
AcDb3dPolylineVertex
 10
237.153
 20
2718.96
 30
0.0
 70
    32
  0
VERTEX
  5
3C36
330
3B94
100
AcDbEntity
  8
0
100
AcDbVertex
100
AcDb3dPolylineVertex
 10
237.088
 20
2718.82
 30
0.0
 70
    32
  0
VERTEX
  5
3C37
330
3B94
100
AcDbEntity
  8
0
100
AcDbVertex
100
AcDb3dPolylineVertex
 10
237.022
 20
2718.69
 30
0.0
 70
    32
  0
VERTEX
  5
3C38
330
3B94
100
AcDbEntity
  8
0
100
AcDbVertex
100
AcDb3dPolylineVertex
 10
236.955
 20
2718.55
 30
0.0
 70
    32
  0
VERTEX
  5
3C39
330
3B94
100
AcDbEntity
  8
0
100
AcDbVertex
100
AcDb3dPolylineVertex
 10
236.887
 20
2718.41
 30
0.0
 70
    32
  0
VERTEX
  5
3C3A
330
3B94
100
AcDbEntity
  8
0
100
AcDbVertex
100
AcDb3dPolylineVertex
 10
236.818
 20
2718.28
 30
0.0
 70
    32
  0
VERTEX
  5
3C3B
330
3B94
100
AcDbEntity
  8
0
100
AcDbVertex
100
AcDb3dPolylineVertex
 10
236.748
 20
2718.14
 30
0.0
 70
    32
  0
VERTEX
  5
3C3C
330
3B94
100
AcDbEntity
  8
0
100
AcDbVertex
100
AcDb3dPolylineVertex
 10
236.678
 20
2718.01
 30
0.0
 70
    32
  0
VERTEX
  5
3C3D
330
3B94
100
AcDbEntity
  8
0
100
AcDbVertex
100
AcDb3dPolylineVertex
 10
236.606
 20
2717.87
 30
0.0
 70
    32
  0
VERTEX
  5
3C3E
330
3B94
100
AcDbEntity
  8
0
100
AcDbVertex
100
AcDb3dPolylineVertex
 10
236.534
 20
2717.73
 30
0.0
 70
    32
  0
VERTEX
  5
3C3F
330
3B94
100
AcDbEntity
  8
0
100
AcDbVertex
100
AcDb3dPolylineVertex
 10
236.461
 20
2717.6
 30
0.0
 70
    32
  0
VERTEX
  5
3C40
330
3B94
100
AcDbEntity
  8
0
100
AcDbVertex
100
AcDb3dPolylineVertex
 10
236.387
 20
2717.46
 30
0.0
 70
    32
  0
VERTEX
  5
3C41
330
3B94
100
AcDbEntity
  8
0
100
AcDbVertex
100
AcDb3dPolylineVertex
 10
236.313
 20
2717.33
 30
0.0
 70
    32
  0
VERTEX
  5
3C42
330
3B94
100
AcDbEntity
  8
0
100
AcDbVertex
100
AcDb3dPolylineVertex
 10
236.238
 20
2717.19
 30
0.0
 70
    32
  0
VERTEX
  5
3C43
330
3B94
100
AcDbEntity
  8
0
100
AcDbVertex
100
AcDb3dPolylineVertex
 10
236.162
 20
2717.06
 30
0.0
 70
    32
  0
VERTEX
  5
3C44
330
3B94
100
AcDbEntity
  8
0
100
AcDbVertex
100
AcDb3dPolylineVertex
 10
236.086
 20
2716.92
 30
0.0
 70
    32
  0
VERTEX
  5
3C45
330
3B94
100
AcDbEntity
  8
0
100
AcDbVertex
100
AcDb3dPolylineVertex
 10
236.009
 20
2716.79
 30
0.0
 70
    32
  0
VERTEX
  5
3C46
330
3B94
100
AcDbEntity
  8
0
100
AcDbVertex
100
AcDb3dPolylineVertex
 10
235.932
 20
2716.65
 30
0.0
 70
    32
  0
VERTEX
  5
3C47
330
3B94
100
AcDbEntity
  8
0
100
AcDbVertex
100
AcDb3dPolylineVertex
 10
235.854
 20
2716.52
 30
0.0
 70
    32
  0
VERTEX
  5
3C48
330
3B94
100
AcDbEntity
  8
0
100
AcDbVertex
100
AcDb3dPolylineVertex
 10
235.776
 20
2716.38
 30
0.0
 70
    32
  0
VERTEX
  5
3C49
330
3B94
100
AcDbEntity
  8
0
100
AcDbVertex
100
AcDb3dPolylineVertex
 10
235.697
 20
2716.25
 30
0.0
 70
    32
  0
VERTEX
  5
3C4A
330
3B94
100
AcDbEntity
  8
0
100
AcDbVertex
100
AcDb3dPolylineVertex
 10
235.618
 20
2716.11
 30
0.0
 70
    32
  0
VERTEX
  5
3C4B
330
3B94
100
AcDbEntity
  8
0
100
AcDbVertex
100
AcDb3dPolylineVertex
 10
235.539
 20
2715.98
 30
0.0
 70
    32
  0
VERTEX
  5
3C4C
330
3B94
100
AcDbEntity
  8
0
100
AcDbVertex
100
AcDb3dPolylineVertex
 10
235.459
 20
2715.84
 30
0.0
 70
    32
  0
VERTEX
  5
3C4D
330
3B94
100
AcDbEntity
  8
0
100
AcDbVertex
100
AcDb3dPolylineVertex
 10
235.379
 20
2715.71
 30
0.0
 70
    32
  0
VERTEX
  5
3C4E
330
3B94
100
AcDbEntity
  8
0
100
AcDbVertex
100
AcDb3dPolylineVertex
 10
235.299
 20
2715.57
 30
0.0
 70
    32
  0
VERTEX
  5
3C4F
330
3B94
100
AcDbEntity
  8
0
100
AcDbVertex
100
AcDb3dPolylineVertex
 10
235.218
 20
2715.44
 30
0.0
 70
    32
  0
VERTEX
  5
3C50
330
3B94
100
AcDbEntity
  8
0
100
AcDbVertex
100
AcDb3dPolylineVertex
 10
235.138
 20
2715.3
 30
0.0
 70
    32
  0
VERTEX
  5
3C51
330
3B94
100
AcDbEntity
  8
0
100
AcDbVertex
100
AcDb3dPolylineVertex
 10
235.057
 20
2715.17
 30
0.0
 70
    32
  0
VERTEX
  5
3C52
330
3B94
100
AcDbEntity
  8
0
100
AcDbVertex
100
AcDb3dPolylineVertex
 10
234.976
 20
2715.03
 30
0.0
 70
    32
  0
VERTEX
  5
3C53
330
3B94
100
AcDbEntity
  8
0
100
AcDbVertex
100
AcDb3dPolylineVertex
 10
234.895
 20
2714.9
 30
0.0
 70
    32
  0
VERTEX
  5
3C54
330
3B94
100
AcDbEntity
  8
0
100
AcDbVertex
100
AcDb3dPolylineVertex
 10
234.814
 20
2714.76
 30
0.0
 70
    32
  0
SEQEND
  5
3C55
330
3B94
100
AcDbEntity
  8
0
  0
LINE
  5
3221
330
4062
100
AcDbEntity
  8
0
100
AcDbLine
 10
277.7855795819814
 20
2709.765907901007
 30
0.0
 11
276.0692552234868
 21
2701.286853346048
 31
0.0
  0
LINE
  5
3222
330
4062
100
AcDbEntity
  8
0
100
AcDbLine
 10
275.8253355387169
 20
2710.162699144441
 30
0.0
 11
274.1090111802368
 21
2701.683644589486
 31
0.0
  0
ARC
  5
3223
330
4062
100
AcDbEntity
  8
0
100
AcDbCircle
 10
273.1288891586045
 20
2701.882040211202
 30
0.0
 40
2.999999999999999
100
AcDbArc
 50
258.5568449811529
 51
348.5568449812062
  0
ARC
  5
3224
330
4062
100
AcDbEntity
  8
0
100
AcDbCircle
 10
273.1288891586045
 20
2701.882040211202
 30
0.0
 40
0.9999999999999998
100
AcDbArc
 50
258.5568449811529
 51
348.5568449812062
  0
LINE
  5
3225
330
4062
100
AcDbEntity
  8
0
100
AcDbLine
 10
243.4813088249393
 20
2716.709754661142
 30
0.0
 11
241.7649844664593
 21
2708.230700106188
 31
0.0
  0
LINE
  5
3226
330
4062
100
AcDbEntity
  8
0
100
AcDbLine
 10
245.4415528682184
 20
2716.312963417704
 30
0.0
 11
243.7252285097237
 21
2707.833908862746
 31
0.0
  0
ARC
  5
3227
330
4062
100
AcDbEntity
  8
0
100
AcDbCircle
 10
244.7053505313561
 20
2707.63551324103
 30
0.0
 40
2.999999999999999
100
AcDbArc
 50
168.5568449812061
 51
258.5568449811529
  0
ARC
  5
3228
330
4062
100
AcDbEntity
  8
0
100
AcDbCircle
 10
244.7053505313561
 20
2707.63551324103
 30
0.0
 40
0.9999999999999998
100
AcDbArc
 50
168.5568449812061
 51
258.5568449811529
  0
LINE
  5
3229
330
4062
100
AcDbEntity
  8
0
100
AcDbLine
 10
244.1101636661951
 20
2704.695147176144
 30
0.0
 11
272.5337022934436
 21
2698.941674146316
 31
0.0
  0
LINE
  5
322A
330
4062
100
AcDbEntity
  8
0
100
AcDbLine
 10
244.5069549096406
 20
2706.655391219401
 30
0.0
 11
272.9304935368891
 21
2700.901918189577
 31
0.0
  0
ARC
  5
322B
330
4062
100
AcDbEntity
  8
0
100
AcDbCircle
 10
268.5517072246621
 20
2752.355952401466
 30
0.0
 40
53.56249999997098
100
AcDbArc
 50
242.8502183769219
 51
274.2634715845635
  0
LINE
  5
322C
330
4062
100
AcDbEntity
  8
0
100
AcDbLine
 10
243.4813088249539
 20
2716.709754661142
 30
0.0
 11
245.4415528682184
 21
2716.312963417704
 31
0.0
  0
LINE
  5
322D
330
4062
100
AcDbEntity
  8
0
100
AcDbLine
 10
275.8253355387314
 20
2710.162699144445
 30
0.0
 11
277.7855795819814
 21
2709.765907901007
 31
0.0
  0
INSERT
  5
322E
330
4062
100
AcDbEntity
  8
0
100
AcDbBlockReference
  2
*U14
 10
0.0
 20
0.0
 30
0.0
  0
LINE
  5
322F
330
4062
100
AcDbEntity
  8
0
 62
     1
100
AcDbLine
 10
294.544010317335
 20
2727.948208591819
 30
0.0
 11
311.5366243944918
 21
2727.948208591819
 31
0.0
  0
INSERT
  5
3230
330
4062
100
AcDbEntity
  8
0
100
AcDbBlockReference
  2
*U15
 10
0.0
 20
0.0
 30
0.0
  0
LINE
  5
3231
330
4062
100
AcDbEntity
  8
0
 62
     1
100
AcDbLine
 10
284.2394936068777
 20
2716.852879289605
 30
0.0
 11
294.5440103173496
 21
2727.948208591819
 31
0.0
  0
LINE
  5
3232
330
4062
100
AcDbEntity
  8
0
 62
     1
100
AcDbLine
 10
237.4661165032339
 20
2727.948208591819
 30
0.0
 11
220.4735024260772
 21
2727.948208591819
 31
0.0
  0
INSERT
  5
3233
330
4062
100
AcDbEntity
  8
0
100
AcDbBlockReference
  2
*U16
 10
0.0
 20
0.0
 30
0.0
  0
TEXT
  5
3234
330
4062
100
AcDbEntity
  8
LAYER1
100
AcDbText
 10
156.4665651921132
 20
2388.673653897063
 30
0.0
 40
30.0
  1
file version 1
100
AcDbText
  0
MTEXT
  5
41B0
102
{ACAD_XDICTIONARY
360
4214
102
}
330
4062
100
AcDbEntity
  8
CUTOUT
100
AcDbMText
 10
556.8914552840742
 20
2821.189622270932
 30
0.0
 40
40.0
 41
559.4757407245924
 71
     1
 72
     5
  1
\pi15.738;UNDERMOUNT CUT OUT
 73
     1
 44
1.0
  0
LINE
  5
41B1
330
4062
100
AcDbEntity
  8
CUTOUT
100
AcDbLine
 10
1065.906668314945
 20
2759.022001589283
 30
0.0
 11
1065.906668314945
 21
2366.022001589282
 31
0.0
  0
LINE
  5
41B2
330
4062
100
AcDbEntity
  8
CUTOUT
100
AcDbLine
 10
562.9066683149448
 20
2759.022001589283
 30
0.0
 11
562.9066683149448
 21
2366.022001589282
 31
0.0
  0
LINE
  5
41B3
102
{ACAD_REACTORS
330
41BA
102
}
330
4062
100
AcDbEntity
  8
CUTOUT
100
AcDbLine
 10
567.9066683149449
 20
2764.022001589282
 30
0.0
 11
1060.906668314945
 21
2764.022001589282
 31
0.0
  0
ARC
  5
41B4
330
4062
100
AcDbEntity
  8
CUTOUT
100
AcDbCircle
 10
567.9066683149449
 20
2759.022001589283
 30
0.0
 40
5.0
100
AcDbArc
 50
90.0
 51
180.0
  0
LINE
  5
41B5
330
4062
100
AcDbEntity
  8
CUTOUT
100
AcDbLine
 10
567.9066683149449
 20
2361.022001589283
 30
0.0
 11
1060.906668314945
 21
2361.022001589283
 31
0.0
  0
ARC
  5
41B6
330
4062
100
AcDbEntity
  8
CUTOUT
100
AcDbCircle
 10
1060.906668314945
 20
2366.022001589282
 30
0.0
 40
5.0
100
AcDbArc
 50
270.0
 51
0.0
  0
MTEXT
  5
41B7
330
4062
100
AcDbEntity
  8
sink_specs
100
AcDbMText
 10
578.9546784641879
 20
2657.690390758702
 30
0.0
 40
6.0
 41
141.5747992924298
 71
     1
 72
     5
  3
{\LImportant, to the fabricator / installer:\P}The cut out size indicated is flush with the bowl edge with a minimum radius where appropriate.\PYou should confirm with your client if the worksurface cutout is to be cut flush, inside or outside this s
  3
uggested perimeter size. \PIf you create the cutout smaller or larger than the indicated size then some accessories may not fit correctly.\PAll details are provided in good faith and within the tolerances of the manufacturing process.\PWe recommend t
  3
hat a test cutout is made in scrap timber and checked against the actual sink supplied before committing to cutting the worksurface.\PAbode can not accept liability for problems or costs incurred by failure to follow this advise.\PAW5009 v1 (c) abode
  1
 2009
  7
ACISOTS
 73
     1
 44
1.0
  0
DIMENSION
  5
41B8
102
{ACAD_XDICTIONARY
360
41B9
102
}
102
{ACAD_REACTORS
330
41BA
102
}
330
4062
100
AcDbEntity
  8
DIMS SPECS
100
AcDbDimension
  2
*D23
 10
1101.094956167218
 20
2361.022001589283
 30
0.0
 11
1101.094956167218
 21
2562.522001589283
 31
0.0
 70
    32
 71
     5
 42
403.0
  3
abode-iso$0
100
AcDbAlignedDimension
 13
1060.906668314945
 23
2764.022001589282
 33
0.0
 14
1059.406668314945
 24
2361.022001589283
 34
0.0
 50
90.0
100
AcDbRotatedDimension
1001
ACAD_DSTYLE_DIMINSPECT
1070
   396
1000
100%
1070
   395
1000

1070
   394
1070
    33
1070
   393
1070
     0
  0
LINE
  5
41BB
102
{ACAD_REACTORS
330
41C1
102
}
330
4062
100
AcDbEntity
  8
CUTOUT
100
AcDbLine
 10
1065.906668314945
 20
2759.022001589283
 30
0.0
 11
1065.906668314945
 21
2366.022001589282
 31
0.0
  0
ARC
  5
41BC
330
4062
100
AcDbEntity
  8
CUTOUT
100
AcDbCircle
 10
1060.906668314945
 20
2759.022001589283
 30
0.0
 40
5.0
100
AcDbArc
 50
0.0
 51
90.0
  0
LINE
  5
41BD
330
4062
100
AcDbEntity
  8
CUTOUT
100
AcDbLine
 10
562.9066683149448
 20
2759.022001589283
 30
0.0
 11
562.9066683149448
 21
2366.022001589282
 31
0.0
  0
ARC
  5
41BE
102
{ACAD_REACTORS
330
41C1
102
}
330
4062
100
AcDbEntity
  8
CUTOUT
100
AcDbCircle
 10
567.9066683149449
 20
2366.022001589282
 30
0.0
 40
5.0
100
AcDbArc
 50
180.0
 51
270.0
  0
DIMENSION
  5
41BF
102
{ACAD_XDICTIONARY
360
41C0
102
}
102
{ACAD_REACTORS
330
41C1
102
}
330
4062
100
AcDbEntity
  8
DIMS SPECS
100
AcDbDimension
  2
*D24
 10
1065.906668314945
 20
2308.994920263907
 30
0.0
 11
814.4066683149448
 21
2324.994920263907
 31
0.0
 70
    32
 71
     5
 42
503.0
  3
abode-iso$0
100
AcDbAlignedDimension
 13
562.9066683149448
 23
2366.022001589282
 33
0.0
 14
1065.906668314945
 24
2366.022001589282
 34
0.0
100
AcDbRotatedDimension
1001
ACAD_DSTYLE_DIMINSPECT
1070
   396
1000
100%
1070
   395
1000

1070
   394
1070
    33
1070
   393
1070
     0
  0
DIMENSION
  5
41C2
330
4062
100
AcDbEntity
  8
DIMS SPECS
100
AcDbDimension
  2
*D25
 10
1060.906668314945
 20
2366.022001589274
 30
0.0
 11
1129.285553175201
 21
2325.525093862914
 31
0.0
 70
   164
 71
     5
 42
4.999999999996248
  3
abode-iso$4
100
AcDbRadialDimension
 15
1064.7325039289
 25
2362.802843026085
 35
0.0
 40
0.0
1001
ACAD_DSTYLE_DIMINSPECT
1070
   396
1000
100%
1070
   395
1000

1070
   394
1070
    33
1070
   393
1070
     0
1001
ACAD_DSTYLE_DIMRADIAL_EXTENSION
1070
   387
1070
     1
1070
   388
1040
4.712388980384689
1070
   390
1040
0.0
  0
ENDSEC
  0
SECTION
  2
OBJECTS
  0
DICTIONARY
  5
3FFA
330
0
100
AcDbDictionary
281
     1
  3
ACAD_2007HEADERVARS_RT
350
4217
  3
ACAD_COLOR
350
4058
  3
ACAD_GROUP
350
3FFB
  3
ACAD_LAYOUT
350
4057
  3
ACAD_MATERIAL
350
3FFE
  3
ACAD_MLEADERSTYLE
350
405B
  3
ACAD_MLINESTYLE
350
4054
  3
ACAD_PLOTSETTINGS
350
4056
  3
ACAD_PLOTSTYLENAME
350
3FFC
  3
ACAD_SCALELIST
350
4028
  3
ACAD_TABLESTYLE
350
4059
  3
ACAD_VISUALSTYLE
350
4017
  3
ACDB_RECOMPOSE_DATA
350
4216
  3
AcDbVariableDictionary
350
420E
  3
AcmDictionary
350
40FB
  3
AcmSystemVariableManager
350
4224
  3
AMG
350
40A5
  3
AMGSNAPSETTINGS
350
413A
  0
DICTIONARY
  5
4179
330
3FF0
100
AcDbDictionary
280
     1
281
     1
  3
ACAD_LAYERSTATES
360
417A
  0
DICTIONARY
  5
4200
330
404A
100
AcDbDictionary
280
     1
281
     1
  3
ADSK_XREC_LAYER_RECONCILED
360
4201
  0
DICTIONARY
  5
4202
330
4067
100
AcDbDictionary
280
     1
281
     1
  3
ADSK_XREC_LAYER_RECONCILED
360
4203
  0
DICTIONARY
  5
4204
330
4069
100
AcDbDictionary
280
     1
281
     1
  3
ADSK_XREC_LAYER_RECONCILED
360
4205
  0
DICTIONARY
  5
4206
330
406A
100
AcDbDictionary
280
     1
281
     1
  3
ADSK_XREC_LAYER_RECONCILED
360
4207
  0
DICTIONARY
  5
4208
330
4169
100
AcDbDictionary
280
     1
281
     1
  3
ADSK_XREC_LAYER_RECONCILED
360
4209
  0
DICTIONARY
  5
420A
330
416A
100
AcDbDictionary
280
     1
281
     1
  3
ADSK_XREC_LAYER_RECONCILED
360
420B
  0
DICTIONARY
  5
420C
330
416B
100
AcDbDictionary
280
     1
281
     1
  3
ADSK_XREC_LAYER_RECONCILED
360
420D
  0
DICTIONARY
  5
4214
330
41B0
100
AcDbDictionary
280
     1
281
     1
  3
ACAD_MTEXT_2008_RT
360
4215
  0
DICTIONARY
  5
41B9
330
41B8
100
AcDbDictionary
280
     1
281
     1
  3
ACAD_DIMASSOC
360
41BA
  0
DICTIONARY
  5
41C0
330
41BF
100
AcDbDictionary
280
     1
281
     1
  3
ACAD_DIMASSOC
360
41C1
  0
DICTIONARY
  5
4217
102
{ACAD_REACTORS
330
3FFA
102
}
330
3FFA
100
AcDbDictionary
281
     1
  3
DIMARCSYM
350
4218
  3
DIMLTEX1
350
421A
  3
DIMLTEX2
350
421B
  3
DIMLTYPE
350
4219
  0
DICTIONARY
  5
4058
102
{ACAD_REACTORS
330
3FFA
102
}
330
3FFA
100
AcDbDictionary
281
     1
  0
DICTIONARY
  5
3FFB
102
{ACAD_REACTORS
330
3FFA
102
}
330
3FFA
100
AcDbDictionary
281
     1
  0
DICTIONARY
  5
4057
102
{ACAD_REACTORS
330
3FFA
102
}
330
3FFA
100
AcDbDictionary
281
     1
  3
Layout1
350
4061
  3
Model
350
4065
  0
DICTIONARY
  5
3FFE
102
{ACAD_REACTORS
330
3FFA
102
}
330
3FFA
100
AcDbDictionary
281
     1
  3
ByBlock
350
4007
  3
ByLayer
350
3FFF
  3
Global
350
400F
  0
DICTIONARY
  5
405B
102
{ACAD_REACTORS
330
3FFA
102
}
330
3FFA
100
AcDbDictionary
281
     1
  3
Standard
350
405C
  0
DICTIONARY
  5
4054
102
{ACAD_REACTORS
330
3FFA
102
}
330
3FFA
100
AcDbDictionary
281
     1
  3
Standard
350
4055
  0
DICTIONARY
  5
4056
102
{ACAD_REACTORS
330
3FFA
102
}
330
3FFA
100
AcDbDictionary
281
     1
  0
ACDBDICTIONARYWDFLT
  5
3FFC
102
{ACAD_REACTORS
330
3FFA
102
}
330
3FFA
100
AcDbDictionary
281
     1
  3
Normal
350
3FFD
100
AcDbDictionaryWithDefault
340
3FFD
  0
DICTIONARY
  5
4028
102
{ACAD_REACTORS
330
3FFA
102
}
330
3FFA
100
AcDbDictionary
281
     1
  3
A0
350
4029
  3
A1
350
402A
  3
A2
350
402B
  3
A3
350
402C
  3
A4
350
402D
  3
A5
350
402E
  3
A6
350
402F
  3
A7
350
4030
  3
A8
350
4031
  3
A9
350
4032
  3
B0
350
4033
  3
B1
350
4034
  3
B2
350
4035
  3
B3
350
4036
  3
B4
350
4037
  3
B5
350
4038
  3
B6
350
4039
  3
B7
350
403A
  3
B8
350
403B
  3
B9
350
403C
  3
C0
350
403D
  3
C1
350
403E
  3
C2
350
403F
  3
C3
350
4040
  3
C4
350
4041
  3
C5
350
4042
  3
C6
350
4043
  3
C7
350
4044
  3
C8
350
4045
  3
C9
350
4046
  3
D0
350
4047
  3
D1
350
4048
  3
D2
350
4049
  0
DICTIONARY
  5
4059
102
{ACAD_REACTORS
330
3FFA
102
}
330
3FFA
100
AcDbDictionary
281
     1
  3
Standard
350
405A
  0
DICTIONARY
  5
4017
102
{ACAD_REACTORS
330
3FFA
102
}
330
3FFA
100
AcDbDictionary
281
     1
  3
2dWireframe
350
401D
  3
3D Hidden
350
401F
  3
3dWireframe
350
401E
  3
Basic
350
401C
  3
Brighten
350
4023
  3
ColorChange
350
4027
  3
Conceptual
350
4020
  3
Dim
350
4022
  3
Facepattern
350
4026
  3
Flat
350
4018
  3
FlatWithEdges
350
4019
  3
Gouraud
350
401A
  3
GouraudWithEdges
350
401B
  3
Linepattern
350
4025
  3
Realistic
350
4021
  3
Thicken
350
4024
  0
XRECORD
  5
4216
102
{ACAD_REACTORS
330
3FFA
102
}
330
3FFA
100
AcDbXrecord
280
     1
 90
        1
330
405A
330
41B0
  0
DICTIONARY
  5
420E
102
{ACAD_REACTORS
330
3FFA
102
}
330
3FFA
100
AcDbDictionary
281
     1
  3
CANNOSCALE
350
4211
  3
CMLEADERSTYLE
350
4210
  3
CTABLESTYLE
350
420F
  0
DICTIONARY
  5
40FB
102
{ACAD_REACTORS
330
3FFA
102
}
330
3FFA
100
AcDbDictionary
281
     1
  3
AcmStdDictionary
350
4106
  0
DICTIONARY
  5
40A5
102
{ACAD_REACTORS
330
3FFA
102
}
330
3FFA
100
AcDbDictionary
281
     1
  0
DICTIONARY
  5
413A
102
{ACAD_REACTORS
330
3FFA
102
}
330
3FFA
100
AcDbDictionary
281
     1
  0
DICTIONARY
  5
417A
102
{ACAD_REACTORS
330
4179
102
}
330
4179
100
AcDbDictionary
281
     1
  0
XRECORD
  5
4201
102
{ACAD_REACTORS
330
4200
102
}
330
4200
100
AcDbXrecord
280
     1
290
     1
  0
XRECORD
  5
4203
102
{ACAD_REACTORS
330
4202
102
}
330
4202
100
AcDbXrecord
280
     1
290
     1
  0
XRECORD
  5
4205
102
{ACAD_REACTORS
330
4204
102
}
330
4204
100
AcDbXrecord
280
     1
290
     1
  0
XRECORD
  5
4207
102
{ACAD_REACTORS
330
4206
102
}
330
4206
100
AcDbXrecord
280
     1
290
     1
  0
XRECORD
  5
4209
102
{ACAD_REACTORS
330
4208
102
}
330
4208
100
AcDbXrecord
280
     1
290
     1
  0
XRECORD
  5
420B
102
{ACAD_REACTORS
330
420A
102
}
330
420A
100
AcDbXrecord
280
     1
290
     1
  0
XRECORD
  5
420D
102
{ACAD_REACTORS
330
420C
102
}
330
420C
100
AcDbXrecord
280
     1
290
     1
  0
XRECORD
  5
4215
102
{ACAD_REACTORS
330
4214
102
}
330
4214
100
AcDbXrecord
280
     1
 40
29091.0
  1
\pxqc;UNDERMOUNT CUT OUT
  0
DIMASSOC
  5
41BA
102
{ACAD_REACTORS
330
41B9
102
}
330
41B9
100
AcDbDimAssoc
330
41B8
 90
        1
 70
     0
 71
     0
  1
AcDbOsnapPointRef
 72
     1
331
41B3
 73
     0
 91
        0
 40
0.0
 10
0.0
 20
0.0
 30
2.000000000000000E+50
 75
     0
  0
DIMASSOC
  5
41C1
102
{ACAD_REACTORS
330
41C0
102
}
330
41C0
100
AcDbDimAssoc
330
41BF
 90
        3
 70
     0
 71
     0
  1
AcDbOsnapPointRef
 72
    13
331
41BE
 73
     0
 91
        0
 40
0.0
 10
0.0
 20
0.0
 30
2.000000000000000E+50
 75
     0
  1
AcDbOsnapPointRef
 72
     1
331
41BB
 73
     0
 91
        0
 40
0.0
 10
0.0
 20
0.0
 30
2.000000000000000E+50
 75
     0
  0
XRECORD
  5
4218
102
{ACAD_REACTORS
330
4217
102
}
330
4217
100
AcDbXrecord
280
     1
 70
     1
  0
XRECORD
  5
421A
102
{ACAD_REACTORS
330
4217
102
}
330
4217
100
AcDbXrecord
280
     1
340
4050
  0
XRECORD
  5
421B
102
{ACAD_REACTORS
330
4217
102
}
330
4217
100
AcDbXrecord
280
     1
340
4050
  0
XRECORD
  5
4219
102
{ACAD_REACTORS
330
4217
102
}
330
4217
100
AcDbXrecord
280
     1
340
4050
  0
LAYOUT
  5
4061
102
{ACAD_REACTORS
330
4057
102
}
330
4057
100
AcDbPlotSettings
  1

  2
\\ABODESERVER\upstairs
  4

  6

 40
0.0
 41
0.0
 42
0.0
 43
0.0
 44
0.0
 45
0.0
 46
0.0
 47
0.0
 48
0.0
 49
0.0
140
0.0
141
0.0
142
1.0
143
1.0
 70
   688
 72
     0
 73
     0
 74
     5
  7

 75
    16
147
1.0
 76
     0
 77
     2
 78
   300
148
0.0
149
0.0
100
AcDbLayout
  1
Layout1
 70
     1
 71
     1
 10
0.0
 20
0.0
 11
420.0
 21
297.0
 12
0.0
 22
0.0
 32
0.0
 14
1.000000000000000E+20
 24
1.000000000000000E+20
 34
1.000000000000000E+20
 15
-1.000000000000000E+20
 25
-1.000000000000000E+20
 35
-1.000000000000000E+20
146
0.0
 13
0.0
 23
0.0
 33
0.0
 16
1.0
 26
0.0
 36
0.0
 17
0.0
 27
1.0
 37
0.0
 76
     0
330
405E
  0
LAYOUT
  5
4065
102
{ACAD_REACTORS
330
4057
102
}
330
4057
100
AcDbPlotSettings
  1

  2
\\ABODESERVER\upstairs
  4

  6

 40
0.0
 41
0.0
 42
0.0
 43
0.0
 44
0.0
 45
0.0
 46
0.0
 47
0.0
 48
0.0
 49
0.0
140
0.0
141
0.0
142
1.0
143
1.0
 70
  1712
 72
     0
 73
     0
 74
     0
  7

 75
     0
147
1.0
 76
     0
 77
     2
 78
   300
148
0.0
149
0.0
100
AcDbLayout
  1
Model
 70
     1
 71
     0
 10
0.0
 20
0.0
 11
12.0
 21
9.0
 12
0.0
 22
0.0
 32
0.0
 14
0.0
 24
0.0
 34
0.0
 15
0.0
 25
0.0
 35
0.0
146
0.0
 13
0.0
 23
0.0
 33
0.0
 16
1.0
 26
0.0
 36
0.0
 17
0.0
 27
1.0
 37
0.0
 76
     0
330
4062
331
4066
  0
MATERIAL
  5
4007
102
{ACAD_XDICTIONARY
360
4008
102
}
102
{ACAD_REACTORS
330
3FFE
102
}
330
3FFE
100
AcDbMaterial
  1
ByBlock
 72
     0
 43
0.0208333333333333
 43
0.0
 43
0.0
 43
0.0
 43
0.0
 43
0.0208333333333333
 43
0.0
 43
0.0
 43
0.0
 43
0.0
 43
1.0
 43
0.0
 43
0.0
 43
0.0
 43
0.0
 43
1.0
 77
     0
 47
0.0208333333333333
 47
0.0
 47
0.0
 47
0.0
 47
0.0
 47
0.0208333333333333
 47
0.0
 47
0.0
 47
0.0
 47
0.0
 47
1.0
 47
0.0
 47
0.0
 47
0.0
 47
0.0
 47
1.0
171
     0
 49
0.0208333333333333
 49
0.0
 49
0.0
 49
0.0
 49
0.0
 49
0.0208333333333333
 49
0.0
 49
0.0
 49
0.0
 49
0.0
 49
1.0
 49
0.0
 49
0.0
 49
0.0
 49
0.0
 49
1.0
175
     0
142
0.0208333333333333
142
0.0
142
0.0
142
0.0
142
0.0
142
0.0208333333333333
142
0.0
142
0.0
142
0.0
142
0.0
142
1.0
142
0.0
142
0.0
142
0.0
142
0.0
142
1.0
179
     0
144
0.0208333333333333
144
0.0
144
0.0
144
0.0
144
0.0
144
0.0208333333333333
144
0.0
144
0.0
144
0.0
144
0.0
144
1.0
144
0.0
144
0.0
144
0.0
144
0.0
144
1.0
147
0.0208333333333333
147
0.0
147
0.0
147
0.0
147
0.0
147
0.0208333333333333
147
0.0
147
0.0
147
0.0
147
0.0
147
1.0
147
0.0
147
0.0
147
0.0
147
0.0
147
1.0
  0
MATERIAL
  5
3FFF
102
{ACAD_XDICTIONARY
360
4000
102
}
102
{ACAD_REACTORS
330
3FFE
102
}
330
3FFE
100
AcDbMaterial
  1
ByLayer
 72
     0
 43
0.0208333333333333
 43
0.0
 43
0.0
 43
0.0
 43
0.0
 43
0.0208333333333333
 43
0.0
 43
0.0
 43
0.0
 43
0.0
 43
1.0
 43
0.0
 43
0.0
 43
0.0
 43
0.0
 43
1.0
 77
     0
 47
0.0208333333333333
 47
0.0
 47
0.0
 47
0.0
 47
0.0
 47
0.0208333333333333
 47
0.0
 47
0.0
 47
0.0
 47
0.0
 47
1.0
 47
0.0
 47
0.0
 47
0.0
 47
0.0
 47
1.0
171
     0
 49
0.0208333333333333
 49
0.0
 49
0.0
 49
0.0
 49
0.0
 49
0.0208333333333333
 49
0.0
 49
0.0
 49
0.0
 49
0.0
 49
1.0
 49
0.0
 49
0.0
 49
0.0
 49
0.0
 49
1.0
175
     0
142
0.0208333333333333
142
0.0
142
0.0
142
0.0
142
0.0
142
0.0208333333333333
142
0.0
142
0.0
142
0.0
142
0.0
142
1.0
142
0.0
142
0.0
142
0.0
142
0.0
142
1.0
179
     0
144
0.0208333333333333
144
0.0
144
0.0
144
0.0
144
0.0
144
0.0208333333333333
144
0.0
144
0.0
144
0.0
144
0.0
144
1.0
144
0.0
144
0.0
144
0.0
144
0.0
144
1.0
147
0.0208333333333333
147
0.0
147
0.0
147
0.0
147
0.0
147
0.0208333333333333
147
0.0
147
0.0
147
0.0
147
0.0
147
1.0
147
0.0
147
0.0
147
0.0
147
0.0
147
1.0
  0
MATERIAL
  5
400F
102
{ACAD_XDICTIONARY
360
4010
102
}
102
{ACAD_REACTORS
330
3FFE
102
}
330
3FFE
100
AcDbMaterial
  1
Global
 72
     0
 43
0.0208333333333333
 43
0.0
 43
0.0
 43
0.0
 43
0.0
 43
0.0208333333333333
 43
0.0
 43
0.0
 43
0.0
 43
0.0
 43
1.0
 43
0.0
 43
0.0
 43
0.0
 43
0.0
 43
1.0
 77
     0
 47
0.0208333333333333
 47
0.0
 47
0.0
 47
0.0
 47
0.0
 47
0.0208333333333333
 47
0.0
 47
0.0
 47
0.0
 47
0.0
 47
1.0
 47
0.0
 47
0.0
 47
0.0
 47
0.0
 47
1.0
171
     0
 49
0.0208333333333333
 49
0.0
 49
0.0
 49
0.0
 49
0.0
 49
0.0208333333333333
 49
0.0
 49
0.0
 49
0.0
 49
0.0
 49
1.0
 49
0.0
 49
0.0
 49
0.0
 49
0.0
 49
1.0
175
     0
142
0.0208333333333333
142
0.0
142
0.0
142
0.0
142
0.0
142
0.0208333333333333
142
0.0
142
0.0
142
0.0
142
0.0
142
1.0
142
0.0
142
0.0
142
0.0
142
0.0
142
1.0
179
     0
144
0.0208333333333333
144
0.0
144
0.0
144
0.0
144
0.0
144
0.0208333333333333
144
0.0
144
0.0
144
0.0
144
0.0
144
1.0
144
0.0
144
0.0
144
0.0
144
0.0
144
1.0
147
0.0208333333333333
147
0.0
147
0.0
147
0.0
147
0.0
147
0.0208333333333333
147
0.0
147
0.0
147
0.0
147
0.0
147
1.0
147
0.0
147
0.0
147
0.0
147
0.0
147
1.0
  0
MLEADERSTYLE
  5
405C
102
{ACAD_REACTORS
330
405B
102
}
330
405B
100
AcDbMLeaderStyle
170
     2
171
     1
172
     0
 90
        2
 40
0.0
 41
0.0
173
     1
 91
-1056964608
340
4050
 92
       -2
290
     1
 42
0.09
291
     1
 43
0.36
  3
Standard
 44
0.18
300

342
404B
174
     1
178
     6
175
     1
176
     0
 93
-1056964608
 45
0.18
292
     0
297
     0
 46
0.18
 94
-1056964608
 47
1.0
 49
1.0
140
1.0
293
     1
141
0.0
294
     1
177
     0
142
1.0
295
     0
296
     0
143
0.125
1001
ACAD_MLEADERVER
1070
     2
  0
MLINESTYLE
  5
4055
102
{ACAD_REACTORS
330
4054
102
}
330
4054
100
AcDbMlineStyle
  2
STANDARD
 70
     0
  3

 62
   256
 51
90.0
 52
90.0
 71
     2
 49
0.5
 62
   256
  6
BYLAYER
 49
-0.5
 62
   256
  6
BYLAYER
  0
ACDBPLACEHOLDER
  5
3FFD
102
{ACAD_REACTORS
330
3FFC
102
}
330
3FFC
  0
SCALE
  5
4029
102
{ACAD_REACTORS
330
4028
102
}
330
4028
100
AcDbScale
 70
     0
300
1:1
140
1.0
141
1.0
290
     1
  0
SCALE
  5
402A
102
{ACAD_REACTORS
330
4028
102
}
330
4028
100
AcDbScale
 70
     0
300
1:2
140
1.0
141
2.0
290
     0
  0
SCALE
  5
402B
102
{ACAD_REACTORS
330
4028
102
}
330
4028
100
AcDbScale
 70
     0
300
1:4
140
1.0
141
4.0
290
     0
  0
SCALE
  5
402C
102
{ACAD_REACTORS
330
4028
102
}
330
4028
100
AcDbScale
 70
     0
300
1:5
140
1.0
141
5.0
290
     0
  0
SCALE
  5
402D
102
{ACAD_REACTORS
330
4028
102
}
330
4028
100
AcDbScale
 70
     0
300
1:8
140
1.0
141
8.0
290
     0
  0
SCALE
  5
402E
102
{ACAD_REACTORS
330
4028
102
}
330
4028
100
AcDbScale
 70
     0
300
1:10
140
1.0
141
10.0
290
     0
  0
SCALE
  5
402F
102
{ACAD_REACTORS
330
4028
102
}
330
4028
100
AcDbScale
 70
     0
300
1:16
140
1.0
141
16.0
290
     0
  0
SCALE
  5
4030
102
{ACAD_REACTORS
330
4028
102
}
330
4028
100
AcDbScale
 70
     0
300
1:20
140
1.0
141
20.0
290
     0
  0
SCALE
  5
4031
102
{ACAD_REACTORS
330
4028
102
}
330
4028
100
AcDbScale
 70
     0
300
1:30
140
1.0
141
30.0
290
     0
  0
SCALE
  5
4032
102
{ACAD_REACTORS
330
4028
102
}
330
4028
100
AcDbScale
 70
     0
300
1:40
140
1.0
141
40.0
290
     0
  0
SCALE
  5
4033
102
{ACAD_REACTORS
330
4028
102
}
330
4028
100
AcDbScale
 70
     0
300
1:50
140
1.0
141
50.0
290
     0
  0
SCALE
  5
4034
102
{ACAD_REACTORS
330
4028
102
}
330
4028
100
AcDbScale
 70
     0
300
1:100
140
1.0
141
100.0
290
     0
  0
SCALE
  5
4035
102
{ACAD_REACTORS
330
4028
102
}
330
4028
100
AcDbScale
 70
     0
300
2:1
140
2.0
141
1.0
290
     0
  0
SCALE
  5
4036
102
{ACAD_REACTORS
330
4028
102
}
330
4028
100
AcDbScale
 70
     0
300
4:1
140
4.0
141
1.0
290
     0
  0
SCALE
  5
4037
102
{ACAD_REACTORS
330
4028
102
}
330
4028
100
AcDbScale
 70
     0
300
8:1
140
8.0
141
1.0
290
     0
  0
SCALE
  5
4038
102
{ACAD_REACTORS
330
4028
102
}
330
4028
100
AcDbScale
 70
     0
300
10:1
140
10.0
141
1.0
290
     0
  0
SCALE
  5
4039
102
{ACAD_REACTORS
330
4028
102
}
330
4028
100
AcDbScale
 70
     0
300
100:1
140
100.0
141
1.0
290
     0
  0
SCALE
  5
403A
102
{ACAD_REACTORS
330
4028
102
}
330
4028
100
AcDbScale
 70
     0
300
1/128" = 1'-0"
140
0.0078125
141
12.0
290
     0
  0
SCALE
  5
403B
102
{ACAD_REACTORS
330
4028
102
}
330
4028
100
AcDbScale
 70
     0
300
1/64" = 1'-0"
140
0.015625
141
12.0
290
     0
  0
SCALE
  5
403C
102
{ACAD_REACTORS
330
4028
102
}
330
4028
100
AcDbScale
 70
     0
300
1/32" = 1'-0"
140
0.03125
141
12.0
290
     0
  0
SCALE
  5
403D
102
{ACAD_REACTORS
330
4028
102
}
330
4028
100
AcDbScale
 70
     0
300
1/16" = 1'-0"
140
0.0625
141
12.0
290
     0
  0
SCALE
  5
403E
102
{ACAD_REACTORS
330
4028
102
}
330
4028
100
AcDbScale
 70
     0
300
3/32" = 1'-0"
140
0.09375
141
12.0
290
     0
  0
SCALE
  5
403F
102
{ACAD_REACTORS
330
4028
102
}
330
4028
100
AcDbScale
 70
     0
300
1/8" = 1'-0"
140
0.125
141
12.0
290
     0
  0
SCALE
  5
4040
102
{ACAD_REACTORS
330
4028
102
}
330
4028
100
AcDbScale
 70
     0
300
3/16" = 1'-0"
140
0.1875
141
12.0
290
     0
  0
SCALE
  5
4041
102
{ACAD_REACTORS
330
4028
102
}
330
4028
100
AcDbScale
 70
     0
300
1/4" = 1'-0"
140
0.25
141
12.0
290
     0
  0
SCALE
  5
4042
102
{ACAD_REACTORS
330
4028
102
}
330
4028
100
AcDbScale
 70
     0
300
3/8" = 1'-0"
140
0.375
141
12.0
290
     0
  0
SCALE
  5
4043
102
{ACAD_REACTORS
330
4028
102
}
330
4028
100
AcDbScale
 70
     0
300
1/2" = 1'-0"
140
0.5
141
12.0
290
     0
  0
SCALE
  5
4044
102
{ACAD_REACTORS
330
4028
102
}
330
4028
100
AcDbScale
 70
     0
300
3/4" = 1'-0"
140
0.75
141
12.0
290
     0
  0
SCALE
  5
4045
102
{ACAD_REACTORS
330
4028
102
}
330
4028
100
AcDbScale
 70
     0
300
1" = 1'-0"
140
1.0
141
12.0
290
     0
  0
SCALE
  5
4046
102
{ACAD_REACTORS
330
4028
102
}
330
4028
100
AcDbScale
 70
     0
300
1-1/2" = 1'-0"
140
1.5
141
12.0
290
     0
  0
SCALE
  5
4047
102
{ACAD_REACTORS
330
4028
102
}
330
4028
100
AcDbScale
 70
     0
300
3" = 1'-0"
140
3.0
141
12.0
290
     0
  0
SCALE
  5
4048
102
{ACAD_REACTORS
330
4028
102
}
330
4028
100
AcDbScale
 70
     0
300
6" = 1'-0"
140
6.0
141
12.0
290
     0
  0
SCALE
  5
4049
102
{ACAD_REACTORS
330
4028
102
}
330
4028
100
AcDbScale
 70
     0
300
1'-0" = 1'-0"
140
12.0
141
12.0
290
     0
  0
TABLESTYLE
  5
405A
102
{ACAD_XDICTIONARY
360
4212
102
}
102
{ACAD_REACTORS
330
4059
102
}
330
4059
100
AcDbTableStyle
  3
Standard
 70
     0
 71
     0
 40
0.06
 41
0.06
280
     0
281
     0
  7
STANDARD
140
0.18
170
     2
 62
     0
 63
     7
283
     0
274
    -2
284
     1
 64
     0
275
    -2
285
     1
 65
     0
276
    -2
286
     1
 66
     0
277
    -2
287
     1
 67
     0
278
    -2
288
     1
 68
     0
279
    -2
289
     1
 69
     0
  7
STANDARD
140
0.25
170
     5
 62
     0
 63
     7
283
     0
274
    -2
284
     1
 64
     0
275
    -2
285
     1
 65
     0
276
    -2
286
     1
 66
     0
277
    -2
287
     1
 67
     0
278
    -2
288
     1
 68
     0
279
    -2
289
     1
 69
     0
  7
STANDARD
140
0.18
170
     5
 62
     0
 63
     7
283
     0
274
    -2
284
     1
 64
     0
275
    -2
285
     1
 65
     0
276
    -2
286
     1
 66
     0
277
    -2
287
     1
 67
     0
278
    -2
288
     1
 68
     0
279
    -2
289
     1
 69
     0
  0
VISUALSTYLE
  5
401D
102
{ACAD_REACTORS
330
4017
102
}
330
4017
100
AcDbVisualStyle
  2
2dWireframe
 70
     4
 71
     0
 72
     2
 73
     0
 90
        0
 40
-0.6
 41
-30.0
 62
     5
 63
     7
421
 16777215
 74
     1
 91
        4
 64
     7
 65
   257
 75
     1
175
     1
 42
1.0
 92
        0
 66
   257
 43
1.0
 76
     1
 77
     6
 78
     2
 67
     7
 79
     5
170
     0
171
     0
290
     0
174
     0
 93
        1
 44
0.0
173
     0
291
     0
 45
0.0
1001
ACAD
1000
AcDbSavedByObjectVersion
1070
     0
  0
VISUALSTYLE
  5
401F
102
{ACAD_REACTORS
330
4017
102
}
330
4017
100
AcDbVisualStyle
  2
3D Hidden
 70
     6
 71
     1
 72
     2
 73
     2
 90
        0
 40
-0.6
 41
-30.0
 62
     5
 63
     7
421
 16777215
 74
     2
 91
        2
 64
     7
 65
   257
 75
     2
175
     1
 42
40.0
 92
        0
 66
   257
 43
1.0
 76
     1
 77
     6
 78
     2
 67
     7
 79
     3
170
     0
171
     0
290
     0
174
     0
 93
        1
 44
0.0
173
     0
291
     0
 45
0.0
1001
ACAD
1000
AcDbSavedByObjectVersion
1070
     0
  0
VISUALSTYLE
  5
401E
102
{ACAD_REACTORS
330
4017
102
}
330
4017
100
AcDbVisualStyle
  2
3dWireframe
 70
     5
 71
     0
 72
     2
 73
     0
 90
        0
 40
-0.6
 41
-30.0
 62
     5
 63
     7
421
 16777215
 74
     1
 91
        4
 64
     7
 65
   257
 75
     1
175
     1
 42
1.0
 92
        0
 66
   257
 43
1.0
 76
     1
 77
     6
 78
     2
 67
     7
 79
     5
170
     0
171
     0
290
     0
174
     0
 93
        1
 44
0.0
173
     0
291
     0
 45
0.0
1001
ACAD
1000
AcDbSavedByObjectVersion
1070
     0
  0
VISUALSTYLE
  5
401C
102
{ACAD_REACTORS
330
4017
102
}
330
4017
100
AcDbVisualStyle
  2
Basic
 70
     7
 71
     1
 72
     0
 73
     1
 90
        0
 40
-0.6
 41
-30.0
 62
     5
 63
     7
421
 16777215
 74
     0
 91
        4
 64
     7
 65
   257
 75
     1
175
     1
 42
1.0
 92
        8
 66
     7
 43
1.0
 76
     1
 77
     6
 78
     2
 67
     7
 79
     5
170
     0
171
     0
290
     0
174
     0
 93
        1
 44
0.0
173
     0
291
     1
 45
0.0
1001
ACAD
1000
AcDbSavedByObjectVersion
1070
     0
  0
VISUALSTYLE
  5
4023
102
{ACAD_REACTORS
330
4017
102
}
330
4017
100
AcDbVisualStyle
  2
Brighten
 70
    12
 71
     2
 72
     2
 73
     0
 90
        0
 40
-0.6
 41
-30.0
 62
     5
 63
     7
421
 16777215
 74
     1
 91
        4
 64
     7
 65
   257
 75
     1
175
     1
 42
1.0
 92
        8
 66
     7
 43
1.0
 76
     1
 77
     6
 78
     2
 67
     7
 79
     5
170
     0
171
     0
290
     0
174
     0
 93
        1
 44
50.0
173
     0
291
     1
 45
0.0
1001
ACAD
1000
AcDbSavedByObjectVersion
1070
     0
  0
VISUALSTYLE
  5
4027
102
{ACAD_REACTORS
330
4017
102
}
330
4017
100
AcDbVisualStyle
  2
ColorChange
 70
    16
 71
     2
 72
     2
 73
     3
 90
        0
 40
-0.6
 41
-30.0
 62
     5
 63
     8
421
  8421504
 74
     1
 91
        4
 64
     7
 65
   257
 75
     1
175
     1
 42
1.0
 92
        8
 66
     8
424
  8421504
 43
1.0
 76
     1
 77
     6
 78
     2
 67
     7
 79
     5
170
     0
171
     0
290
     0
174
     0
 93
        1
 44
0.0
173
     0
291
     1
 45
0.0
1001
ACAD
1000
AcDbSavedByObjectVersion
1070
     0
  0
VISUALSTYLE
  5
4020
102
{ACAD_REACTORS
330
4017
102
}
330
4017
100
AcDbVisualStyle
  2
Conceptual
 70
     9
 71
     3
 72
     2
 73
     0
 90
        0
 40
-0.6
 41
-30.0
 62
     5
 63
     7
421
 16777215
 74
     2
 91
        2
 64
     7
 65
   257
 75
     1
175
     1
 42
40.0
 92
        8
 66
     7
 43
1.0
 76
     1
 77
     6
 78
     2
 67
     7
 79
     3
170
     0
171
     0
290
     0
174
     0
 93
        1
 44
0.0
173
     0
291
     0
 45
0.0
1001
ACAD
1000
AcDbSavedByObjectVersion
1070
     0
  0
VISUALSTYLE
  5
4022
102
{ACAD_REACTORS
330
4017
102
}
330
4017
100
AcDbVisualStyle
  2
Dim
 70
    11
 71
     2
 72
     2
 73
     0
 90
        0
 40
-0.6
 41
-30.0
 62
     5
 63
     7
421
 16777215
 74
     1
 91
        4
 64
     7
 65
   257
 75
     1
175
     1
 42
1.0
 92
        8
 66
     7
 43
1.0
 76
     1
 77
     6
 78
     2
 67
     7
 79
     5
170
     0
171
     0
290
     0
174
     0
 93
        1
 44
-50.0
173
     0
291
     1
 45
0.0
1001
ACAD
1000
AcDbSavedByObjectVersion
1070
     0
  0
VISUALSTYLE
  5
4026
102
{ACAD_REACTORS
330
4017
102
}
330
4017
100
AcDbVisualStyle
  2
Facepattern
 70
    15
 71
     2
 72
     2
 73
     0
 90
        0
 40
-0.6
 41
-30.0
 62
     5
 63
     7
421
 16777215
 74
     1
 91
        4
 64
     7
 65
   257
 75
     1
175
     1
 42
1.0
 92
        8
 66
     7
 43
1.0
 76
     1
 77
     6
 78
     2
 67
     7
 79
     5
170
     0
171
     0
290
     0
174
     0
 93
        1
 44
0.0
173
     0
291
     1
 45
0.0
1001
ACAD
1000
AcDbSavedByObjectVersion
1070
     0
  0
VISUALSTYLE
  5
4018
102
{ACAD_REACTORS
330
4017
102
}
330
4017
100
AcDbVisualStyle
  2
Flat
 70
     0
 71
     2
 72
     1
 73
     1
 90
        2
 40
-0.6
 41
30.0
 62
     5
 63
     7
421
 16777215
 74
     0
 91
        4
 64
     7
 65
   257
 75
     1
175
     1
 42
1.0
 92
        8
 66
     7
 43
1.0
 76
     1
 77
     6
 78
     2
 67
     7
 79
     5
170
     0
171
     0
290
     0
174
     0
 93
       13
 44
0.0
173
     0
291
     1
 45
0.0
1001
ACAD
1000
AcDbSavedByObjectVersion
1070
     0
  0
VISUALSTYLE
  5
4019
102
{ACAD_REACTORS
330
4017
102
}
330
4017
100
AcDbVisualStyle
  2
FlatWithEdges
 70
     1
 71
     2
 72
     1
 73
     1
 90
        2
 40
-0.6
 41
30.0
 62
     5
 63
     7
421
 16777215
 74
     1
 91
        4
 64
     7
 65
   257
 75
     1
175
     1
 42
1.0
 92
        0
 66
   257
 43
1.0
 76
     1
 77
     6
 78
     2
 67
     7
 79
     5
170
     0
171
     0
290
     0
174
     0
 93
       13
 44
0.0
173
     0
291
     1
 45
0.0
1001
ACAD
1000
AcDbSavedByObjectVersion
1070
     0
  0
VISUALSTYLE
  5
401A
102
{ACAD_REACTORS
330
4017
102
}
330
4017
100
AcDbVisualStyle
  2
Gouraud
 70
     2
 71
     2
 72
     2
 73
     1
 90
        2
 40
-0.6
 41
30.0
 62
     5
 63
     7
421
 16777215
 74
     0
 91
        4
 64
     7
 65
   257
 75
     1
175
     1
 42
1.0
 92
        0
 66
     7
 43
1.0
 76
     1
 77
     6
 78
     2
 67
     7
 79
     5
170
     0
171
     0
290
     0
174
     0
 93
       13
 44
0.0
173
     0
291
     1
 45
0.0
1001
ACAD
1000
AcDbSavedByObjectVersion
1070
     0
  0
VISUALSTYLE
  5
401B
102
{ACAD_REACTORS
330
4017
102
}
330
4017
100
AcDbVisualStyle
  2
GouraudWithEdges
 70
     3
 71
     2
 72
     2
 73
     1
 90
        2
 40
-0.6
 41
30.0
 62
     5
 63
     7
421
 16777215
 74
     1
 91
        4
 64
     7
 65
   257
 75
     1
175
     1
 42
1.0
 92
        0
 66
   257
 43
1.0
 76
     1
 77
     6
 78
     2
 67
     7
 79
     5
170
     0
171
     0
290
     0
174
     0
 93
       13
 44
0.0
173
     0
291
     1
 45
0.0
1001
ACAD
1000
AcDbSavedByObjectVersion
1070
     0
  0
VISUALSTYLE
  5
4025
102
{ACAD_REACTORS
330
4017
102
}
330
4017
100
AcDbVisualStyle
  2
Linepattern
 70
    14
 71
     2
 72
     2
 73
     0
 90
        0
 40
-0.6
 41
-30.0
 62
     5
 63
     7
421
 16777215
 74
     1
 91
        4
 64
     7
 65
   257
 75
     7
175
     7
 42
1.0
 92
        8
 66
     7
 43
1.0
 76
     1
 77
     6
 78
     2
 67
     7
 79
     5
170
     0
171
     0
290
     0
174
     0
 93
        1
 44
0.0
173
     0
291
     1
 45
0.0
1001
ACAD
1000
AcDbSavedByObjectVersion
1070
     0
  0
VISUALSTYLE
  5
4021
102
{ACAD_REACTORS
330
4017
102
}
330
4017
100
AcDbVisualStyle
  2
Realistic
 70
     8
 71
     2
 72
     2
 73
     0
 90
        0
 40
-0.6
 41
-30.0
 62
     5
 63
     7
421
 16777215
 74
     1
 91
        0
 64
     7
 65
   257
 75
     1
175
     1
 42
1.0
 92
        8
 66
     8
424
  7895160
 43
1.0
 76
     1
 77
     6
 78
     2
 67
     7
 79
     5
170
     0
171
     0
290
     0
174
     0
 93
       13
 44
0.0
173
     0
291
     0
 45
0.0
1001
ACAD
1000
AcDbSavedByObjectVersion
1070
     0
  0
VISUALSTYLE
  5
4024
102
{ACAD_REACTORS
330
4017
102
}
330
4017
100
AcDbVisualStyle
  2
Thicken
 70
    13
 71
     2
 72
     2
 73
     0
 90
        0
 40
-0.6
 41
-30.0
 62
     5
 63
     7
421
 16777215
 74
     1
 91
        4
 64
     7
 65
   257
 75
     1
175
     1
 42
1.0
 92
       12
 66
     7
 43
1.0
 76
     1
 77
     6
 78
     2
 67
     7
 79
     5
170
     0
171
     0
290
     0
174
     0
 93
        1
 44
0.0
173
     0
291
     1
 45
0.0
1001
ACAD
1000
AcDbSavedByObjectVersion
1070
     0
  0
DICTIONARYVAR
  5
4211
102
{ACAD_REACTORS
330
420E
102
}
330
420E
100
DictionaryVariables
280
     0
  1
1:1
  0
DICTIONARYVAR
  5
4210
102
{ACAD_REACTORS
330
420E
102
}
330
420E
100
DictionaryVariables
280
     0
  1
STANDARD
  0
DICTIONARYVAR
  5
420F
102
{ACAD_REACTORS
330
420E
102
}
330
420E
100
DictionaryVariables
280
     0
  1
STANDARD
  0
DICTIONARY
  5
4106
102
{ACAD_REACTORS
330
40FB
102
}
330
40FB
100
AcDbDictionary
281
     1
  0
DICTIONARY
  5
4008
330
4007
100
AcDbDictionary
280
     1
281
     1
  3
ACAD_XREC_ROUNDTRIP
360
421D
  3
BUMPTILE
360
400A
  3
DIFFUSETILE
360
4009
  3
OPACITYTILE
360
400D
  3
REFLECTIONTILE
360
400C
  3
REFRACTIONTILE
360
400E
  3
SPECULARTILE
360
400B
  0
DICTIONARY
  5
4000
330
3FFF
100
AcDbDictionary
280
     1
281
     1
  3
ACAD_XREC_ROUNDTRIP
360
421C
  3
BUMPTILE
360
4002
  3
DIFFUSETILE
360
4001
  3
OPACITYTILE
360
4005
  3
REFLECTIONTILE
360
4004
  3
REFRACTIONTILE
360
4006
  3
SPECULARTILE
360
4003
  0
DICTIONARY
  5
4010
330
400F
100
AcDbDictionary
280
     1
281
     1
  3
ACAD_XREC_ROUNDTRIP
360
421E
  3
BUMPTILE
360
4012
  3
DIFFUSETILE
360
4011
  3
OPACITYTILE
360
4015
  3
REFLECTIONTILE
360
4014
  3
REFRACTIONTILE
360
4016
  3
SPECULARTILE
360
4013
  0
DICTIONARY
  5
4212
330
405A
100
AcDbDictionary
280
     1
281
     1
  3
ACAD_ROUNDTRIP_2008_TABLESTYLE_CELLSTYLEMAP
360
4213
  3
ACAD_XREC_ROUNDTRIP
360
421F
  0
XRECORD
  5
421D
102
{ACAD_REACTORS
330
4008
102
}
330
4008
100
AcDbXrecord
280
     1
102
MATERIAL
148
0.0
149
0.0
149
0.0
 93
        0
 94
      127
282
     0
 72
     0
 77
     0
171
     0
175
     0
179
     0
273
     0
  0
XRECORD
  5
400A
102
{ACAD_REACTORS
330
4008
102
}
330
4008
100
AcDbXrecord
280
     1
270
     1
271
     1
  0
XRECORD
  5
4009
102
{ACAD_REACTORS
330
4008
102
}
330
4008
100
AcDbXrecord
280
     1
270
     1
271
     1
  0
XRECORD
  5
400D
102
{ACAD_REACTORS
330
4008
102
}
330
4008
100
AcDbXrecord
280
     1
270
     1
271
     1
  0
XRECORD
  5
400C
102
{ACAD_REACTORS
330
4008
102
}
330
4008
100
AcDbXrecord
280
     1
270
     1
271
     1
  0
XRECORD
  5
400E
102
{ACAD_REACTORS
330
4008
102
}
330
4008
100
AcDbXrecord
280
     1
270
     1
271
     1
  0
XRECORD
  5
400B
102
{ACAD_REACTORS
330
4008
102
}
330
4008
100
AcDbXrecord
280
     1
270
     1
271
     1
  0
XRECORD
  5
421C
102
{ACAD_REACTORS
330
4000
102
}
330
4000
100
AcDbXrecord
280
     1
102
MATERIAL
148
0.0
149
0.0
149
0.0
 93
        0
 94
      127
282
     0
 72
     0
 77
     0
171
     0
175
     0
179
     0
273
     0
  0
XRECORD
  5
4002
102
{ACAD_REACTORS
330
4000
102
}
330
4000
100
AcDbXrecord
280
     1
270
     1
271
     1
  0
XRECORD
  5
4001
102
{ACAD_REACTORS
330
4000
102
}
330
4000
100
AcDbXrecord
280
     1
270
     1
271
     1
  0
XRECORD
  5
4005
102
{ACAD_REACTORS
330
4000
102
}
330
4000
100
AcDbXrecord
280
     1
270
     1
271
     1
  0
XRECORD
  5
4004
102
{ACAD_REACTORS
330
4000
102
}
330
4000
100
AcDbXrecord
280
     1
270
     1
271
     1
  0
XRECORD
  5
4006
102
{ACAD_REACTORS
330
4000
102
}
330
4000
100
AcDbXrecord
280
     1
270
     1
271
     1
  0
XRECORD
  5
4003
102
{ACAD_REACTORS
330
4000
102
}
330
4000
100
AcDbXrecord
280
     1
270
     1
271
     1
  0
XRECORD
  5
421E
102
{ACAD_REACTORS
330
4010
102
}
330
4010
100
AcDbXrecord
280
     1
102
MATERIAL
148
0.0
149
0.0
149
0.0
 93
        0
 94
      127
282
     0
 72
     0
 77
     0
171
     0
175
     0
179
     0
273
     0
  0
XRECORD
  5
4012
102
{ACAD_REACTORS
330
4010
102
}
330
4010
100
AcDbXrecord
280
     1
270
     1
271
     1
  0
XRECORD
  5
4011
102
{ACAD_REACTORS
330
4010
102
}
330
4010
100
AcDbXrecord
280
     1
270
     1
271
     1
  0
XRECORD
  5
4015
102
{ACAD_REACTORS
330
4010
102
}
330
4010
100
AcDbXrecord
280
     1
270
     1
271
     1
  0
XRECORD
  5
4014
102
{ACAD_REACTORS
330
4010
102
}
330
4010
100
AcDbXrecord
280
     1
270
     1
271
     1
  0
XRECORD
  5
4016
102
{ACAD_REACTORS
330
4010
102
}
330
4010
100
AcDbXrecord
280
     1
270
     1
271
     1
  0
XRECORD
  5
4013
102
{ACAD_REACTORS
330
4010
102
}
330
4010
100
AcDbXrecord
280
     1
270
     1
271
     1
  0
CELLSTYLEMAP
  5
4213
102
{ACAD_REACTORS
330
4212
102
}
330
4212
100
AcDbCellStyleMap
 90
        3
300
CELLSTYLE
  1
TABLEFORMAT_BEGIN
 90
        5
170
     1
 91
        0
 92
    32768
 62
   257
 93
        1
300
CONTENTFORMAT
  1
CONTENTFORMAT_BEGIN
 90
        0
 91
        0
 92
      512
 93
        0
300

 40
0.0
140
1.0
 94
        5
 62
     0
340
404B
144
0.25
309
CONTENTFORMAT_END
171
     0
 94
        0
309
TABLEFORMAT_END
  1
CELLSTYLE_BEGIN
 90
        1
 91
        1
300
_TITLE
309
CELLSTYLE_END
300
CELLSTYLE
  1
TABLEFORMAT_BEGIN
 90
        5
170
     1
 91
        0
 92
        0
 62
   257
 93
        1
300
CONTENTFORMAT
  1
CONTENTFORMAT_BEGIN
 90
        0
 91
        0
 92
      512
 93
        0
300

 40
0.0
140
1.0
 94
        5
 62
     0
340
404B
144
0.18
309
CONTENTFORMAT_END
171
     0
 94
        0
309
TABLEFORMAT_END
  1
CELLSTYLE_BEGIN
 90
        2
 91
        1
300
_HEADER
309
CELLSTYLE_END
300
CELLSTYLE
  1
TABLEFORMAT_BEGIN
 90
        5
170
     1
 91
        0
 92
        0
 62
   257
 93
        1
300
CONTENTFORMAT
  1
CONTENTFORMAT_BEGIN
 90
        0
 91
        0
 92
      512
 93
        0
300

 40
0.0
140
1.0
 94
        2
 62
     0
340
404B
144
0.18
309
CONTENTFORMAT_END
171
     0
 94
        0
309
TABLEFORMAT_END
  1
CELLSTYLE_BEGIN
 90
        3
 91
        2
300
_DATA
309
CELLSTYLE_END
  0
XRECORD
  5
421F
102
{ACAD_REACTORS
330
4212
102
}
330
4212
100
AcDbXrecord
280
     1
102
ACAD_ROUNDTRIP_PRE2007_TABLESTYLE
 90
      512
 91
        0
  1

 92
      512
 93
        0
  2

 94
      512
 95
        0
  3

  0
ENDSEC
  0
EOF
