  0
SECTION
  2
HEADER
  9
$ACADVER
  1
AC1027
  9
$ACADMAINTVER
 70
   125
  9
$DWGCODEPAGE
  3
ANSI_1252
  9
$LASTSAVEDBY
  1
MStaweczny
  9
$REQUIREDVERSIONS
160
                 0
  9
$INSBASE
 10
0.0
 20
0.0
 30
0.0
  9
$EXTMIN
 10
28781.13141572883
 20
24555.6078104661
 30
-0.0000000015834116
  9
$EXTMAX
 10
33936.37380533118
 20
26742.2321658875
 30
0.0000000061118102
  9
$LIMMIN
 10
0.0
 20
0.0
  9
$LIMMAX
 10
420.0
 20
297.0
  9
$ORTHOMODE
 70
     0
  9
$REGENMODE
 70
     1
  9
$FILLMODE
 70
     1
  9
$QTEXTMODE
 70
     0
  9
$MIRRTEXT
 70
     0
  9
$LTSCALE
 40
1.0
  9
$ATTMODE
 70
     1
  9
$TEXTSIZE
 40
2.5
  9
$TRACEWID
 40
1.0
  9
$TEXTSTYLE
  7
STANDARD
  9
$CLAYER
  8
0
  9
$CELTYPE
  6
ByLayer
  9
$CECOLOR
 62
   256
  9
$CELTSCALE
 40
1.0
  9
$DISPSILH
 70
     0
  9
$DIMSCALE
 40
1.0
  9
$DIMASZ
 40
0.12
  9
$DIMEXO
 40
0.05
  9
$DIMDLI
 40
0.5
  9
$DIMRND
 40
0.0
  9
$DIMDLE
 40
0.0
  9
$DIMEXE
 40
0.1
  9
$DIMTP
 40
0.1
  9
$DIMTM
 40
0.1
  9
$DIMTXT
 40
0.12
  9
$DIMCEN
 40
0.0
  9
$DIMTSZ
 40
0.0
  9
$DIMTOL
 70
     0
  9
$DIMLIM
 70
     0
  9
$DIMTIH
 70
     1
  9
$DIMTOH
 70
     1
  9
$DIMSE1
 70
     0
  9
$DIMSE2
 70
     0
  9
$DIMTAD
 70
     0
  9
$DIMZIN
 70
     7
  9
$DIMBLK
  1

  9
$DIMASO
 70
     1
  9
$DIMSHO
 70
     1
  9
$DIMPOST
  1

  9
$DIMAPOST
  1
mm
  9
$DIMALT
 70
     0
  9
$DIMALTD
 70
     2
  9
$DIMALTF
 40
25.4
  9
$DIMLFAC
 40
1.0
  9
$DIMTOFL
 70
     0
  9
$DIMTVP
 40
0.0
  9
$DIMTIX
 70
     0
  9
$DIMSOXD
 70
     0
  9
$DIMSAH
 70
     0
  9
$DIMBLK1
  1

  9
$DIMBLK2
  1

  9
$DIMSTYLE
  2
AM_ANSI
  9
$DIMCLRD
 70
   256
  9
$DIMCLRE
 70
   256
  9
$DIMCLRT
 70
   140
  9
$DIMTFAC
 40
0.71
  9
$DIMGAP
 40
0.06
  9
$DIMJUST
 70
     0
  9
$DIMSD1
 70
     0
  9
$DIMSD2
 70
     0
  9
$DIMTOLJ
 70
     1
  9
$DIMTZIN
 70
     0
  9
$DIMALTZ
 70
     0
  9
$DIMALTTZ
 70
     0
  9
$DIMUPT
 70
     0
  9
$DIMDEC
 70
     4
  9
$DIMTDEC
 70
     4
  9
$DIMALTU
 70
     2
  9
$DIMALTTD
 70
     2
  9
$DIMTXSTY
  7
STANDARD
  9
$DIMAUNIT
 70
     0
  9
$DIMADEC
 70
     0
  9
$DIMALTRND
 40
0.0
  9
$DIMAZIN
 70
     0
  9
$DIMDSEP
 70
    46
  9
$DIMATFIT
 70
     3
  9
$DIMFRAC
 70
     0
  9
$DIMLDRBLK
  1

  9
$DIMLUNIT
 70
     2
  9
$DIMLWD
 70
    -2
  9
$DIMLWE
 70
    -2
  9
$DIMTMOVE
 70
     0
  9
$DIMFXL
 40
1.0
  9
$DIMFXLON
 70
     0
  9
$DIMJOGANG
 40
0.7853981633974483
  9
$DIMTFILL
 70
     0
  9
$DIMTFILLCLR
 70
     0
  9
$DIMARCSYM
 70
     0
  9
$DIMLTYPE
  6

  9
$DIMLTEX1
  6

  9
$DIMLTEX2
  6

  9
$DIMTXTDIRECTION
 70
     0
  9
$LUNITS
 70
     2
  9
$LUPREC
 70
     2
  9
$SKETCHINC
 40
1.0
  9
$FILLETRAD
 40
2.5
  9
$AUNITS
 70
     0
  9
$AUPREC
 70
     0
  9
$MENU
  1
.
  9
$ELEVATION
 40
0.0
  9
$PELEVATION
 40
0.0
  9
$THICKNESS
 40
0.0
  9
$LIMCHECK
 70
     0
  9
$CHAMFERA
 40
2.5
  9
$CHAMFERB
 40
2.5
  9
$CHAMFERC
 40
0.0
  9
$CHAMFERD
 40
0.0
  9
$SKPOLY
 70
     0
  9
$TDCREATE
 40
2455251.684583334
  9
$TDUCREATE
 40
2455251.684583334
  9
$TDUPDATE
 40
2460270.647986111
  9
$TDUUPDATE
 40
2460270.647986111
  9
$TDINDWG
 40
0.0816425926
  9
$TDUSRTIMER
 40
0.0816408333
  9
$USRTIMER
 70
     1
  9
$ANGBASE
 50
0.0
  9
$ANGDIR
 70
     0
  9
$PDMODE
 70
     0
  9
$PDSIZE
 40
0.0
  9
$PLINEWID
 40
0.0
  9
$SPLFRAME
 70
     0
  9
$SPLINETYPE
 70
     6
  9
$SPLINESEGS
 70
     8
  9
$HANDSEED
  5
5C358
  9
$SURFTAB1
 70
     6
  9
$SURFTAB2
 70
     6
  9
$SURFTYPE
 70
     6
  9
$SURFU
 70
     6
  9
$SURFV
 70
     6
  9
$UCSBASE
  2

  9
$UCSNAME
  2

  9
$UCSORG
 10
0.0
 20
0.0
 30
0.0
  9
$UCSXDIR
 10
1.0
 20
0.0
 30
0.0
  9
$UCSYDIR
 10
0.0
 20
1.0
 30
0.0
  9
$UCSORTHOREF
  2

  9
$UCSORTHOVIEW
 70
     0
  9
$UCSORGTOP
 10
0.0
 20
0.0
 30
0.0
  9
$UCSORGBOTTOM
 10
0.0
 20
0.0
 30
0.0
  9
$UCSORGLEFT
 10
0.0
 20
0.0
 30
0.0
  9
$UCSORGRIGHT
 10
0.0
 20
0.0
 30
0.0
  9
$UCSORGFRONT
 10
0.0
 20
0.0
 30
0.0
  9
$UCSORGBACK
 10
0.0
 20
0.0
 30
0.0
  9
$PUCSBASE
  2

  9
$PUCSNAME
  2

  9
$PUCSORG
 10
0.0
 20
0.0
 30
0.0
  9
$PUCSXDIR
 10
1.0
 20
0.0
 30
0.0
  9
$PUCSYDIR
 10
0.0
 20
1.0
 30
0.0
  9
$PUCSORTHOREF
  2

  9
$PUCSORTHOVIEW
 70
     0
  9
$PUCSORGTOP
 10
0.0
 20
0.0
 30
0.0
  9
$PUCSORGBOTTOM
 10
0.0
 20
0.0
 30
0.0
  9
$PUCSORGLEFT
 10
0.0
 20
0.0
 30
0.0
  9
$PUCSORGRIGHT
 10
0.0
 20
0.0
 30
0.0
  9
$PUCSORGFRONT
 10
0.0
 20
0.0
 30
0.0
  9
$PUCSORGBACK
 10
0.0
 20
0.0
 30
0.0
  9
$USERI1
 70
     0
  9
$USERI2
 70
     0
  9
$USERI3
 70
     0
  9
$USERI4
 70
     0
  9
$USERI5
 70
     0
  9
$USERR1
 40
0.0
  9
$USERR2
 40
0.0
  9
$USERR3
 40
0.0
  9
$USERR4
 40
0.0
  9
$USERR5
 40
0.0
  9
$WORLDVIEW
 70
     1
  9
$SHADEDGE
 70
     3
  9
$SHADEDIF
 70
    70
  9
$TILEMODE
 70
     1
  9
$MAXACTVP
 70
    64
  9
$PINSBASE
 10
0.0
 20
0.0
 30
0.0
  9
$PLIMCHECK
 70
     0
  9
$PEXTMIN
 10
1.000000000000000E+20
 20
1.000000000000000E+20
 30
1.000000000000000E+20
  9
$PEXTMAX
 10
-1.000000000000000E+20
 20
-1.000000000000000E+20
 30
-1.000000000000000E+20
  9
$PLIMMIN
 10
0.0
 20
0.0
  9
$PLIMMAX
 10
420.0
 20
297.0
  9
$UNITMODE
 70
     0
  9
$VISRETAIN
 70
     1
  9
$PLINEGEN
 70
     0
  9
$PSLTSCALE
 70
     1
  9
$TREEDEPTH
 70
  3020
  9
$CMLSTYLE
  2
Standard
  9
$CMLJUST
 70
     0
  9
$CMLSCALE
 40
1.0
  9
$PROXYGRAPHICS
 70
     1
  9
$MEASUREMENT
 70
     0
  9
$CELWEIGHT
370
    -1
  9
$ENDCAPS
280
     0
  9
$JOINSTYLE
280
     0
  9
$LWDISPLAY
290
     0
  9
$INSUNITS
 70
     0
  9
$HYPERLINKBASE
  1

  9
$STYLESHEET
  1

  9
$XEDIT
290
     1
  9
$CEPSNTYPE
380
     0
  9
$PSTYLEMODE
290
     1
  9
$FINGERPRINTGUID
  2
{92FDBD6E-A323-1745-89A2-96248F77E13E}
  9
$VERSIONGUID
  2
{88638C1C-EB34-544F-ACB7-E61FF3720F33}
  9
$EXTNAMES
290
     1
  9
$PSVPSCALE
 40
0.0
  9
$OLESTARTUP
290
     0
  9
$SORTENTS
280
   127
  9
$INDEXCTL
280
     0
  9
$HIDETEXT
280
     0
  9
$XCLIPFRAME
280
     2
  9
$HALOGAP
280
     0
  9
$OBSCOLOR
 70
   257
  9
$OBSLTYPE
280
     0
  9
$INTERSECTIONDISPLAY
280
     0
  9
$INTERSECTIONCOLOR
 70
   257
  9
$DIMASSOC
280
     1
  9
$PROJECTNAME
  1

  9
$CAMERADISPLAY
290
     0
  9
$LENSLENGTH
 40
50.0
  9
$CAMERAHEIGHT
 40
0.0
  9
$STEPSPERSEC
 40
2.0
  9
$STEPSIZE
 40
6.0
  9
$3DDWFPREC
 40
2.0
  9
$PSOLWIDTH
 40
0.25
  9
$PSOLHEIGHT
 40
4.0
  9
$LOFTANG1
 40
1.570796326794896
  9
$LOFTANG2
 40
1.570796326794896
  9
$LOFTMAG1
 40
0.0
  9
$LOFTMAG2
 40
0.0
  9
$LOFTPARAM
 70
     7
  9
$LOFTNORMALS
280
     1
  9
$LATITUDE
 40
37.795
  9
$LONGITUDE
 40
-122.394
  9
$NORTHDIRECTION
 40
0.0
  9
$TIMEZONE
 70
 -8000
  9
$LIGHTGLYPHDISPLAY
280
     1
  9
$TILEMODELIGHTSYNCH
280
     1
  9
$CMATERIAL
347
59DB4
  9
$SOLIDHIST
280
     0
  9
$SHOWHIST
280
     1
  9
$DWFFRAME
280
     2
  9
$DGNFRAME
280
     0
  9
$REALWORLDSCALE
290
     1
  9
$INTERFERECOLOR
 62
     1
  9
$INTERFEREOBJVS
345
59DD6
  9
$INTERFEREVPVS
346
59DD3
  9
$CSHADOW
280
     0
  9
$SHADOWPLANELOCATION
 40
0.0
  0
ENDSEC
  0
SECTION
  2
CLASSES
  0
CLASS
  1
ACDBDICTIONARYWDFLT
  2
AcDbDictionaryWithDefault
  3
ObjectDBX Classes
 90
        0
 91
        1
280
     0
281
     0
  0
CLASS
  1
MATERIAL
  2
AcDbMaterial
  3
ObjectDBX Classes
 90
     1153
 91
        3
280
     0
281
     0
  0
CLASS
  1
VISUALSTYLE
  2
AcDbVisualStyle
  3
ObjectDBX Classes
 90
     4095
 91
       24
280
     0
281
     0
  0
CLASS
  1
SCALE
  2
AcDbScale
  3
ObjectDBX Classes
 90
     1153
 91
       17
280
     0
281
     0
  0
CLASS
  1
TABLESTYLE
  2
AcDbTableStyle
  3
ObjectDBX Classes
 90
     4095
 91
        1
280
     0
281
     0
  0
CLASS
  1
MLEADERSTYLE
  2
AcDbMLeaderStyle
  3
ACDB_MLEADERSTYLE_CLASS
 90
     4095
 91
        1
280
     0
281
     0
  0
CLASS
  1
ACDBSECTIONVIEWSTYLE
  2
AcDbSectionViewStyle
  3
ObjectDBX Classes
 90
     1025
 91
        3
280
     0
281
     0
  0
CLASS
  1
ACDBDETAILVIEWSTYLE
  2
AcDbDetailViewStyle
  3
ObjectDBX Classes
 90
     1025
 91
        3
280
     0
281
     0
  0
CLASS
  1
EXACXREFPANELOBJECT
  2
ExAcXREFPanelObject
  3
EXAC_ESW
 90
     1025
 91
        1
280
     0
281
     0
  0
CLASS
  1
NPOCOLLECTION
  2
AcDbImpNonPersistentObjectsCollection
  3
ObjectDBX Classes
 90
     1153
 91
        1
280
     0
281
     0
  0
CLASS
  1
DIMASSOC
  2
AcDbDimAssoc
  3
"AcDbDimAssoc|Product Desc:     AcDim ARX App For Dimension|Company:          Autodesk, Inc.|WEB Address:      www.autodesk.com"
 90
        0
 91
       36
280
     0
281
     0
  0
CLASS
  1
SORTENTSTABLE
  2
AcDbSortentsTable
  3
ObjectDBX Classes
 90
        0
 91
        2
280
     0
281
     0
  0
CLASS
  1
DICTIONARYVAR
  2
AcDbDictionaryVar
  3
ObjectDBX Classes
 90
        0
 91
        9
280
     0
281
     0
  0
CLASS
  1
CELLSTYLEMAP
  2
AcDbCellStyleMap
  3
ObjectDBX Classes
 90
     1152
 91
        1
280
     0
281
     0
  0
ENDSEC
  0
SECTION
  2
TABLES
  0
TABLE
  2
VPORT
  5
59DAB
330
0
100
AcDbSymbolTable
 70
     1
1001
ACAD
1000
DbSaveVer
1071
      209
  0
VPORT
  5
59E16
330
59DAB
100
AcDbSymbolTableRecord
100
AcDbViewportTableRecord
  2
*ACTIVE
 70
     0
 10
0.0
 20
0.0
 11
1.0
 21
1.0
 12
31657.94351991484
 22
25071.39303272023
 13
0.0
 23
0.0
 14
2.5
 24
2.5
 15
10.0
 25
10.0
 16
0.0
 26
0.0
 36
1.0
 17
0.0
 27
0.0
 37
0.0
 40
3576.081772619796
 41
1.986731001206272
 42
50.0
 43
0.0
 44
0.0
 50
0.0
 51
0.0
 71
     0
 72
  1000
 73
     1
 74
     3
 75
     0
 76
     0
 77
     0
 78
     0
281
     0
 65
     1
110
0.0
120
0.0
130
0.0
111
1.0
121
0.0
131
0.0
112
0.0
122
1.0
132
0.0
 79
     0
146
0.0
348
59DD2
 60
     3
 61
     5
292
     1
282
     0
141
0.0
142
0.0
 63
   250
421
  3355443
1001
ACAD_NAV_VCDISPLAY
1070
     3
  0
ENDTAB
  0
TABLE
  2
LTYPE
  5
59DA8
330
0
100
AcDbSymbolTable
 70
     3
  0
LTYPE
  5
59DFD
330
59DA8
100
AcDbSymbolTableRecord
100
AcDbLinetypeTableRecord
  2
ByBlock
 70
     0
  3

 72
    65
 73
     0
 40
0.0
  0
LTYPE
  5
59DFE
330
59DA8
100
AcDbSymbolTableRecord
100
AcDbLinetypeTableRecord
  2
ByLayer
 70
     0
  3

 72
    65
 73
     0
 40
0.0
  0
LTYPE
  5
59DFF
330
59DA8
100
AcDbSymbolTableRecord
100
AcDbLinetypeTableRecord
  2
CONTINUOUS
 70
     0
  3
Solid line
 72
    65
 73
     0
 40
0.0
  0
LTYPE
  5
5B12B
330
59DA8
100
AcDbSymbolTableRecord
100
AcDbLinetypeTableRecord
  2
DASHED2
 70
     0
  3
Dashed (.5x) _ _ _ _ _ _ _ _ _ _ _ _ _ _ _ _ _
 72
    65
 73
     2
 40
9.524999999999998
 49
6.349999999999999
 74
     0
 49
-3.174999999999999
 74
     0
  0
ENDTAB
  0
TABLE
  2
LAYER
  5
59DA5
102
{ACAD_XDICTIONARY
360
5B13A
102
}
330
0
100
AcDbSymbolTable
 70
    10
  0
LAYER
  5
59DF7
102
{ACAD_XDICTIONARY
360
5C331
102
}
330
59DA5
100
AcDbSymbolTableRecord
100
AcDbLayerTableRecord
  2
0
 70
     0
 62
     7
  6
CONTINUOUS
370
    -3
390
59DB2
347
59DC4
348
0
  0
LAYER
  5
59E17
102
{ACAD_XDICTIONARY
360
5C333
102
}
330
59DA5
100
AcDbSymbolTableRecord
100
AcDbLayerTableRecord
  2
LAYER1
 70
     0
 62
     1
  6
CONTINUOUS
370
    -3
390
59DB2
347
59DC4
348
0
  0
LAYER
  5
59E18
330
59DA5
100
AcDbSymbolTableRecord
100
AcDbLayerTableRecord
  2
DEFPOINTS
 70
     0
 62
     7
  6
CONTINUOUS
290
     0
370
    -3
390
59DB2
347
59DC4
348
0
  0
LAYER
  5
59E19
102
{ACAD_XDICTIONARY
360
5C335
102
}
330
59DA5
100
AcDbSymbolTableRecord
100
AcDbLayerTableRecord
  2
CUTOUT
 70
     0
 62
    60
  6
CONTINUOUS
370
    -3
390
59DB2
347
59DC4
348
0
  0
LAYER
  5
59E1A
102
{ACAD_XDICTIONARY
360
5C337
102
}
330
59DA5
100
AcDbSymbolTableRecord
100
AcDbLayerTableRecord
  2
SINK_SPECS
 70
     0
 62
   254
  6
CONTINUOUS
370
    -3
390
59DB2
347
59DC4
348
0
  0
LAYER
  5
59E1B
102
{ACAD_XDICTIONARY
360
5C339
102
}
330
59DA5
100
AcDbSymbolTableRecord
100
AcDbLayerTableRecord
  2
DIMS_SPECS
 70
     0
 62
    41
  6
CONTINUOUS
370
    -3
390
59DB2
347
59DC4
348
0
  0
LAYER
  5
5B12C
102
{ACAD_XDICTIONARY
360
5C33B
102
}
330
59DA5
100
AcDbSymbolTableRecord
100
AcDbLayerTableRecord
  2
Abode_tap drawing line
 70
     0
 62
     7
  6
CONTINUOUS
370
     5
390
59DB2
347
59DC4
348
0
  0
LAYER
  5
5B12D
102
{ACAD_XDICTIONARY
360
5C33D
102
}
330
59DA5
100
AcDbSymbolTableRecord
100
AcDbLayerTableRecord
  2
Abode_dims
 70
     0
 62
    14
  6
CONTINUOUS
370
    20
390
59DB2
347
59DC4
348
0
1001
ACAECLAYERSTANDARD
1000

1000

1001
AcCmTransparency
1071
        0
  0
LAYER
  5
5B12E
102
{ACAD_XDICTIONARY
360
5C33F
102
}
330
59DA5
100
AcDbSymbolTableRecord
100
AcDbLayerTableRecord
  2
Cut outs
 70
     0
 62
     7
  6
CONTINUOUS
370
    -3
390
59DB2
347
59DC4
348
0
1001
ACAECLAYERSTANDARD
1000

1000

1001
AcCmTransparency
1071
        0
  0
LAYER
  5
5B12F
102
{ACAD_XDICTIONARY
360
5C341
102
}
330
59DA5
100
AcDbSymbolTableRecord
100
AcDbLayerTableRecord
  2
DIMS SPECS
 70
     0
 62
    41
  6
CONTINUOUS
370
    35
390
59DB2
347
59DC4
348
0
  0
ENDTAB
  0
TABLE
  2
STYLE
  5
59DA6
330
0
100
AcDbSymbolTable
 70
     6
  0
STYLE
  5
59DF8
330
59DA6
100
AcDbSymbolTableRecord
100
AcDbTextStyleTableRecord
  2
STANDARD
 70
     0
 40
0.0
 41
1.0
 50
0.0
 71
     0
 42
2.5
  3
ISOCP.SHX
  4

  0
STYLE
  5
59DFC
330
59DA6
100
AcDbSymbolTableRecord
100
AcDbTextStyleTableRecord
  2
Annotative
 70
     0
 40
0.0
 41
1.0
 50
0.0
 71
     0
 42
0.2
  3
txt
  4

1001
ACADANNOTATIVE
1000
AnnotativeData
1002
{
1070
     1
1070
     1
1002
}
  0
STYLE
  5
59E1C
330
59DA6
100
AcDbSymbolTableRecord
100
AcDbTextStyleTableRecord
  2
ACISOTS
 70
     0
 40
1.0
 41
1.0
 50
0.0
 71
     0
 42
2.5
  3
isocp.shx
  4

  0
STYLE
  5
59E1D
330
59DA6
100
AcDbSymbolTableRecord
100
AcDbTextStyleTableRecord
  2
ABODE_ISO_BOLD
 70
     0
 40
17.0
 41
0.9
 50
0.0
 71
     0
 42
1.0
  3
txt
  4

  0
STYLE
  5
5B130
330
59DA6
100
AcDbSymbolTableRecord
100
AcDbTextStyleTableRecord
  2
Abode ISO Bold
 70
     0
 40
17.0
 41
0.9
 50
0.0
 71
     0
 42
1.0
  3
GOTHICB.TTF
  4

1001
ACAD
1000
Century Gothic
1071
 33554466
  0
STYLE
  5
5B131
330
59DA6
100
AcDbSymbolTableRecord
100
AcDbTextStyleTableRecord
  2
abode-iso
 70
     0
 40
17.0
 41
0.9
 50
0.0
 71
     0
 42
17.0
  3
GOTHIC.TTF
  4

1001
ACAD
1000
Century Gothic
1071
       34
  0
ENDTAB
  0
TABLE
  2
VIEW
  5
59DA9
330
0
100
AcDbSymbolTable
 70
     0
  0
ENDTAB
  0
TABLE
  2
UCS
  5
59DAA
330
0
100
AcDbSymbolTable
 70
     0
  0
ENDTAB
  0
TABLE
  2
APPID
  5
59DAC
330
0
100
AcDbSymbolTable
 70
    35
  0
APPID
  5
59DF9
330
59DAC
100
AcDbSymbolTableRecord
100
AcDbRegAppTableRecord
  2
ACAD
 70
     0
  0
APPID
  5
59E00
330
59DAC
100
AcDbSymbolTableRecord
100
AcDbRegAppTableRecord
  2
ACADANNOTATIVE
 70
     0
  0
APPID
  5
59E1E
330
59DAC
100
AcDbSymbolTableRecord
100
AcDbRegAppTableRecord
  2
ACAD_MLEADERVER
 70
     0
  0
APPID
  5
59E1F
330
59DAC
100
AcDbSymbolTableRecord
100
AcDbRegAppTableRecord
  2
MCAD_NO_VIS
 70
     0
  0
APPID
  5
59E20
330
59DAC
100
AcDbSymbolTableRecord
100
AcDbRegAppTableRecord
  2
ACAD_TEMP_GRAPHIC
 70
     0
  0
APPID
  5
59E21
330
59DAC
100
AcDbSymbolTableRecord
100
AcDbRegAppTableRecord
  2
AD_DRAW
 70
     0
  0
APPID
  5
59E22
330
59DAC
100
AcDbSymbolTableRecord
100
AcDbRegAppTableRecord
  2
ACATTRIBSERVICES
 70
     0
  0
APPID
  5
59E23
330
59DAC
100
AcDbSymbolTableRecord
100
AcDbRegAppTableRecord
  2
DESIGNERASSEMBLIES
 70
     0
  0
APPID
  5
59E24
330
59DAC
100
AcDbSymbolTableRecord
100
AcDbRegAppTableRecord
  2
ACADM_DIM_EDIT
 70
     0
  0
APPID
  5
59E25
330
59DAC
100
AcDbSymbolTableRecord
100
AcDbRegAppTableRecord
  2
AMDT_DM_ADJ
 70
     0
  0
APPID
  5
59E26
330
59DAC
100
AcDbSymbolTableRecord
100
AcDbRegAppTableRecord
  2
ACAD_DSTYLE_DIMJOGGED_JOGA
 70
     0
  0
APPID
  5
59E27
330
59DAC
100
AcDbSymbolTableRecord
100
AcDbRegAppTableRecord
  2
ACAECLAYERSTANDARD
 70
     0
  0
APPID
  5
59E28
330
59DAC
100
AcDbSymbolTableRecord
100
AcDbRegAppTableRecord
  2
ACAD_PSEXT
 70
     0
  0
APPID
  5
59E29
330
59DAC
100
AcDbSymbolTableRecord
100
AcDbRegAppTableRecord
  2
ACAD_DSTYLE_DIMJAG
 70
     0
  0
APPID
  5
59E2A
330
59DAC
100
AcDbSymbolTableRecord
100
AcDbRegAppTableRecord
  2
ACAD_DSTYLE_DIMTALN
 70
     0
  0
APPID
  5
59E2B
330
59DAC
100
AcDbSymbolTableRecord
100
AcDbRegAppTableRecord
  2
GENIUS_GENODEF_13
 70
     0
  0
APPID
  5
59E2C
330
59DAC
100
AcDbSymbolTableRecord
100
AcDbRegAppTableRecord
  2
ACAD_DSTYLE_DIMINSPECT
 70
     0
  0
APPID
  5
59E2D
330
59DAC
100
AcDbSymbolTableRecord
100
AcDbRegAppTableRecord
  2
GENIUS_GENREC_14
 70
     0
  0
APPID
  5
59E2E
330
59DAC
100
AcDbSymbolTableRecord
100
AcDbRegAppTableRecord
  2
GENIUS_GENOBJ-N-REC_13
 70
     0
  0
APPID
  5
59E2F
330
59DAC
100
AcDbSymbolTableRecord
100
AcDbRegAppTableRecord
  2
ACAD_DSTYLE_DIMRADIAL_EXTENSION
 70
     0
  0
APPID
  5
59E30
330
59DAC
100
AcDbSymbolTableRecord
100
AcDbRegAppTableRecord
  2
ACAD_DSTYLE_DIMBREAK
 70
     0
  0
APPID
  5
59E31
330
59DAC
100
AcDbSymbolTableRecord
100
AcDbRegAppTableRecord
  2
ACAD_EXEMPT_FROM_CAD_STANDARDS
 70
     0
  0
APPID
  5
59E32
330
59DAC
100
AcDbSymbolTableRecord
100
AcDbRegAppTableRecord
  2
ACAD_DSTYLE_DIMJOGGED_JOG0
 70
     0
  0
APPID
  5
59E33
330
59DAC
100
AcDbSymbolTableRecord
100
AcDbRegAppTableRecord
  2
ACAD_DSTYLE_DIMJOGGED_JOG1
 70
     0
  0
APPID
  5
59E34
330
59DAC
100
AcDbSymbolTableRecord
100
AcDbRegAppTableRecord
  2
ACAD_DSTYLE_DIMARC_LENGTH_
 70
     0
  0
APPID
  5
59E35
330
59DAC
100
AcDbSymbolTableRecord
100
AcDbRegAppTableRecord
  2
ACAD_DSTYLE_DIM_LINETYPE
 70
     0
  0
APPID
  5
59E36
330
59DAC
100
AcDbSymbolTableRecord
100
AcDbRegAppTableRecord
  2
ACAD_DSTYLE_DIM_EXT1_LINETYPE
 70
     0
  0
APPID
  5
59E37
330
59DAC
100
AcDbSymbolTableRecord
100
AcDbRegAppTableRecord
  2
ACAD_DSTYLE_DIM_EXT2_LINETYPE
 70
     0
  0
APPID
  5
59E38
330
59DAC
100
AcDbSymbolTableRecord
100
AcDbRegAppTableRecord
  2
ACAD_NAV_VCDISPLAY
 70
     0
  0
APPID
  5
5B135
330
59DAC
100
AcDbSymbolTableRecord
100
AcDbRegAppTableRecord
  2
ACAD_DIMASSOC_CALC_DIMLFAC
 70
     0
  0
APPID
  5
5B136
330
59DAC
100
AcDbSymbolTableRecord
100
AcDbRegAppTableRecord
  2
ACAD_DIMASSOC_DIMLFAC
 70
     0
  0
APPID
  5
5B137
330
59DAC
100
AcDbSymbolTableRecord
100
AcDbRegAppTableRecord
  2
ACAD_DIMASSOC_OVERRIDDEN_DIMLFAC
 70
     0
  0
APPID
  5
5B138
330
59DAC
100
AcDbSymbolTableRecord
100
AcDbRegAppTableRecord
  2
AcCmTransparency
 70
     0
  0
APPID
  5
5B139
330
59DAC
100
AcDbSymbolTableRecord
100
AcDbRegAppTableRecord
  2
ACAD_DSTYLE_DIMJAG_POSITION
 70
     0
  0
APPID
  5
5C2A6
330
59DAC
100
AcDbSymbolTableRecord
100
AcDbRegAppTableRecord
  2
AcadAnnoMonitorAlertIconDisabled
 70
     0
  0
ENDTAB
  0
TABLE
  2
DIMSTYLE
  5
59DAD
330
0
100
AcDbSymbolTable
 70
     9
100
AcDbDimStyleTable
 71
     2
340
59E39
340
59DFA
  0
DIMSTYLE
105
59DFA
330
59DAD
100
AcDbSymbolTableRecord
100
AcDbDimStyleTableRecord
  2
STANDARD
 70
     0
271
     2
272
     2
279
     2
284
     7
285
     7
286
     7
340
59DF8
  0
DIMSTYLE
105
59DFB
330
59DAD
100
AcDbSymbolTableRecord
100
AcDbDimStyleTableRecord
  2
Annotative
 70
     0
340
59DF8
1001
ACADANNOTATIVE
1000
AnnotativeData
1002
{
1070
     1
1070
     1
1002
}
  0
DIMSTYLE
105
59E39
330
59DAD
100
AcDbSymbolTableRecord
100
AcDbDimStyleTableRecord
  2
ABODE-ISO
 70
     0
 40
10.0
 41
1.25
 42
1.5
 43
6.0
 44
0.0
 45
0.00000001
 46
10.0
 77
     1
 78
    12
140
17.0
143
0.03937
147
0.75
171
     3
172
     1
176
   256
177
   256
178
   256
271
     2
272
     2
279
     2
284
     7
285
     7
286
     7
340
59DF8
  0
DIMSTYLE
105
59E3A
102
{ACAD_REACTORS
330
5BAE3
102
}
330
59DAD
100
AcDbSymbolTableRecord
100
AcDbDimStyleTableRecord
  2
ABODE-ISO$4
 70
     0
 40
10.0
 41
1.25
 42
1.5
 43
6.0
 44
0.0
 45
0.00000001
 46
10.0
 77
     1
 78
    12
140
17.0
143
0.03937
147
0.75
171
     3
172
     1
176
   256
177
   256
178
   256
271
     2
272
     2
279
     2
284
     7
285
     7
286
     7
340
59DF8
  0
DIMSTYLE
105
59E3B
102
{ACAD_REACTORS
330
5B974
330
5C1A1
330
5C19E
330
5C198
330
5C19B
330
5B977
102
}
330
59DAD
100
AcDbSymbolTableRecord
100
AcDbDimStyleTableRecord
  2
ABODE-ISO$0
 70
     0
 40
10.0
 41
1.25
 42
1.5
 43
6.0
 44
0.0
 45
0.00000001
 46
10.0
 77
     1
 78
    12
140
17.0
143
0.03937
147
0.75
171
     3
172
     1
176
   256
177
   256
178
   256
271
     2
272
     2
279
     2
284
     7
285
     7
286
     7
340
59DF8
  0
DIMSTYLE
105
59E3C
330
59DAD
100
AcDbSymbolTableRecord
100
AcDbDimStyleTableRecord
  2
AM_ANSI
 70
     0
  4
mm
 41
0.12
 42
0.05
 43
0.5
 44
0.1
 47
0.1
 48
0.1
 78
     7
140
0.12
141
0.0
146
0.71
147
0.06
176
   256
177
   256
178
   140
271
     2
272
     2
279
     2
284
     7
285
     7
286
     7
340
59DF8
  0
DIMSTYLE
105
5B132
330
59DAD
100
AcDbSymbolTableRecord
100
AcDbDimStyleTableRecord
  2
ISO-25
 70
     0
 41
2.5
 42
0.625
 43
3.75
 44
1.25
 73
     0
 74
     0
 77
     1
 78
     8
140
2.5
141
2.5
143
0.03937007874016
147
0.625
171
     3
172
     1
271
     2
272
     2
274
     3
278
    44
283
     0
284
     8
340
59DF8
  0
DIMSTYLE
105
5B133
102
{ACAD_REACTORS
330
5B2AE
330
5B956
330
5B95C
330
5B963
330
5B966
330
5B969
330
5B96C
102
}
330
59DAD
100
AcDbSymbolTableRecord
100
AcDbDimStyleTableRecord
  2
Abode dim style taps
 70
     0
 41
10.0
 42
10.0
 43
3.75
 44
3.0
 73
     0
 74
     0
 77
     1
 78
     8
140
10.0
141
2.5
143
0.03937007874016
147
3.0
171
     3
172
     1
271
     0
272
     0
274
     3
278
    44
283
     0
284
     8
340
59DF8
1001
ACAD_DSTYLE_DIMBREAK
1070
   391
1040
3.75
1001
ACAD_DSTYLE_DIMJAG
1070
   388
1040
1.5
1001
ACAD_DSTYLE_DIMTALN
1070
   392
1070
     0
  0
DIMSTYLE
105
5B134
102
{ACAD_REACTORS
330
5B145
102
}
330
59DAD
100
AcDbSymbolTableRecord
100
AcDbDimStyleTableRecord
  2
Dim-ISO-25
 70
     0
 41
3.5
 42
2.1
 43
10.5
 44
2.1
 47
0.1
 48
0.1
 73
     0
 74
     0
 77
     1
 78
    12
 79
     3
140
3.5
141
0.0
143
0.03937
146
0.714286
147
1.399999999999999
172
     1
179
     2
271
     2
272
     2
274
     4
283
     0
284
    12
285
    12
286
    12
340
59DF8
1001
ACAD_DSTYLE_DIMJAG
1070
   388
1040
1.5
1001
ACAD_DSTYLE_DIMTALN
1070
   392
1070
     1
1001
ACAD_DSTYLE_DIMBREAK
1070
   391
1040
3.5
  0
ENDTAB
  0
TABLE
  2
BLOCK_RECORD
  5
59DA4
330
0
100
AcDbSymbolTable
 70
    42
  0
BLOCK_RECORD
  5
59E12
330
59DA4
100
AcDbSymbolTableRecord
100
AcDbBlockTableRecord
  2
*Model_Space
340
59E15
 70
     0
280
     1
281
     0
  0
BLOCK_RECORD
  5
59E0E
330
59DA4
100
AcDbSymbolTableRecord
100
AcDbBlockTableRecord
  2
*Paper_Space
340
59E11
 70
     0
280
     1
281
     0
  0
BLOCK_RECORD
  5
59E3F
330
59DA4
100
AcDbSymbolTableRecord
100
AcDbBlockTableRecord
  2
$MODEL_SPACE
340
0
 70
     0
280
     1
281
     0
  0
BLOCK_RECORD
  5
59E41
330
59DA4
100
AcDbSymbolTableRecord
100
AcDbBlockTableRecord
  2
$PAPER_SPACE
340
0
 70
     0
280
     1
281
     0
  0
BLOCK_RECORD
  5
59E43
330
59DA4
100
AcDbSymbolTableRecord
100
AcDbBlockTableRecord
  2
*D2
340
0
 70
     0
280
     1
281
     0
  0
BLOCK_RECORD
  5
59E45
330
59DA4
100
AcDbSymbolTableRecord
100
AcDbBlockTableRecord
  2
*U3
340
0
102
{BLKREFS
331
59CD9
102
}
 70
     0
280
     1
281
     0
  0
BLOCK_RECORD
  5
59E46
330
59DA4
100
AcDbSymbolTableRecord
100
AcDbBlockTableRecord
  2
*D4
340
0
 70
     0
280
     1
281
     0
  0
BLOCK_RECORD
  5
59E48
330
59DA4
100
AcDbSymbolTableRecord
100
AcDbBlockTableRecord
  2
*U5
340
0
102
{BLKREFS
331
59CE3
102
}
 70
     0
280
     1
281
     0
  0
BLOCK_RECORD
  5
59E49
330
59DA4
100
AcDbSymbolTableRecord
100
AcDbBlockTableRecord
  2
*D6
340
0
 70
     0
280
     1
281
     0
  0
BLOCK_RECORD
  5
59E4B
330
59DA4
100
AcDbSymbolTableRecord
100
AcDbBlockTableRecord
  2
*U7
340
0
102
{BLKREFS
331
59D09
102
}
 70
     0
280
     1
281
     0
  0
BLOCK_RECORD
  5
59E4C
330
59DA4
100
AcDbSymbolTableRecord
100
AcDbBlockTableRecord
  2
*D8
340
0
 70
     0
280
     1
281
     0
  0
BLOCK_RECORD
  5
59E4E
330
59DA4
100
AcDbSymbolTableRecord
100
AcDbBlockTableRecord
  2
*U9
340
0
102
{BLKREFS
331
59CF4
102
}
 70
     0
280
     1
281
     0
  0
BLOCK_RECORD
  5
59E4F
330
59DA4
100
AcDbSymbolTableRecord
100
AcDbBlockTableRecord
  2
*D10
340
0
 70
     0
280
     1
281
     0
  0
BLOCK_RECORD
  5
59E51
330
59DA4
100
AcDbSymbolTableRecord
100
AcDbBlockTableRecord
  2
*U11
340
0
102
{BLKREFS
331
59CFC
102
}
 70
     0
280
     1
281
     0
  0
BLOCK_RECORD
  5
59E52
330
59DA4
100
AcDbSymbolTableRecord
100
AcDbBlockTableRecord
  2
*D12
340
0
 70
     0
280
     1
281
     0
  0
BLOCK_RECORD
  5
59E54
330
59DA4
100
AcDbSymbolTableRecord
100
AcDbBlockTableRecord
  2
*U13
340
0
102
{BLKREFS
331
59D03
102
}
 70
     0
280
     1
281
     0
  0
BLOCK_RECORD
  5
59E55
330
59DA4
100
AcDbSymbolTableRecord
100
AcDbBlockTableRecord
  2
*U14
340
0
 70
     0
280
     1
281
     0
  0
BLOCK_RECORD
  5
59E57
330
59DA4
100
AcDbSymbolTableRecord
100
AcDbBlockTableRecord
  2
*U15
340
0
 70
     0
280
     1
281
     0
  0
BLOCK_RECORD
  5
59E59
330
59DA4
100
AcDbSymbolTableRecord
100
AcDbBlockTableRecord
  2
*U16
340
0
 70
     0
280
     1
281
     0
  0
BLOCK_RECORD
  5
59E5B
330
59DA4
100
AcDbSymbolTableRecord
100
AcDbBlockTableRecord
  2
*U17
340
0
 70
     0
280
     1
281
     0
  0
BLOCK_RECORD
  5
59E5D
330
59DA4
100
AcDbSymbolTableRecord
100
AcDbBlockTableRecord
  2
*U18
340
0
 70
     0
280
     1
281
     0
  0
BLOCK_RECORD
  5
59E5F
330
59DA4
100
AcDbSymbolTableRecord
100
AcDbBlockTableRecord
  2
*U19
340
0
102
{BLKREFS
331
59C21
102
}
 70
     0
280
     1
281
     0
  0
BLOCK_RECORD
  5
5B0A3
330
59DA4
100
AcDbSymbolTableRecord
100
AcDbBlockTableRecord
  2
*D20
340
0
 70
     0
280
     1
281
     0
  0
BLOCK_RECORD
  5
5B0AF
330
59DA4
100
AcDbSymbolTableRecord
100
AcDbBlockTableRecord
  2
*D21
340
0
 70
     0
280
     1
281
     0
  0
BLOCK_RECORD
  5
5B0BB
330
59DA4
100
AcDbSymbolTableRecord
100
AcDbBlockTableRecord
  2
*D22
340
0
 70
     0
280
     1
281
     0
  0
BLOCK_RECORD
  5
5B0C8
330
59DA4
100
AcDbSymbolTableRecord
100
AcDbBlockTableRecord
  2
*D23
340
0
 70
     0
280
     1
281
     0
  0
BLOCK_RECORD
  5
5B0D1
330
59DA4
100
AcDbSymbolTableRecord
100
AcDbBlockTableRecord
  2
Filled-1
340
0
102
{BLKREFS
331
5B0B4
331
5B0B5
331
5B0C1
331
5B0C2
102
}
 70
     0
280
     1
281
     0
  0
BLOCK_RECORD
  5
5B0DF
330
59DA4
100
AcDbSymbolTableRecord
100
AcDbBlockTableRecord
  2
*D25
340
0
 70
     0
280
     1
281
     0
  0
BLOCK_RECORD
  5
5B0ED
330
59DA4
100
AcDbSymbolTableRecord
100
AcDbBlockTableRecord
  2
*D26
340
0
 70
     0
280
     1
281
     0
  0
BLOCK_RECORD
  5
5B0FB
330
59DA4
100
AcDbSymbolTableRecord
100
AcDbBlockTableRecord
  2
*D27
340
0
 70
     0
280
     1
281
     0
  0
BLOCK_RECORD
  5
5B107
330
59DA4
100
AcDbSymbolTableRecord
100
AcDbBlockTableRecord
  2
*D28
340
0
 70
     0
280
     1
281
     0
  0
BLOCK_RECORD
  5
5B113
330
59DA4
100
AcDbSymbolTableRecord
100
AcDbBlockTableRecord
  2
*D29
340
0
 70
     0
280
     1
281
     0
  0
BLOCK_RECORD
  5
5B11F
330
59DA4
100
AcDbSymbolTableRecord
100
AcDbBlockTableRecord
  2
*D30
340
0
 70
     0
280
     1
281
     0
  0
BLOCK_RECORD
  5
5C1A4
330
59DA4
100
AcDbSymbolTableRecord
100
AcDbBlockTableRecord
  2
*D32
340
0
 70
     0
280
     1
281
     0
  0
BLOCK_RECORD
  5
5C1B0
330
59DA4
100
AcDbSymbolTableRecord
100
AcDbBlockTableRecord
  2
*D33
340
0
 70
     0
280
     1
281
     0
  0
BLOCK_RECORD
  5
5C1BE
330
59DA4
100
AcDbSymbolTableRecord
100
AcDbBlockTableRecord
  2
*D34
340
0
 70
     0
280
     1
281
     0
  0
BLOCK_RECORD
  5
5C1CC
330
59DA4
100
AcDbSymbolTableRecord
100
AcDbBlockTableRecord
  2
*D35
340
0
 70
     0
280
     1
281
     0
  0
BLOCK_RECORD
  5
5C1D8
330
59DA4
100
AcDbSymbolTableRecord
100
AcDbBlockTableRecord
  2
*D36
340
0
 70
     0
280
     1
281
     0
  0
BLOCK_RECORD
  5
5C1E4
330
59DA4
100
AcDbSymbolTableRecord
100
AcDbBlockTableRecord
  2
*D37
340
0
 70
     0
280
     1
281
     0
  0
BLOCK_RECORD
  5
5C1F0
330
59DA4
100
AcDbSymbolTableRecord
100
AcDbBlockTableRecord
  2
*D38
340
0
 70
     0
280
     1
281
     0
  0
BLOCK_RECORD
  5
5C1FC
330
59DA4
100
AcDbSymbolTableRecord
100
AcDbBlockTableRecord
  2
*D39
340
0
 70
     0
280
     1
281
     0
  0
BLOCK_RECORD
  5
5C208
330
59DA4
100
AcDbSymbolTableRecord
100
AcDbBlockTableRecord
  2
*D40
340
0
 70
     0
280
     1
281
     0
  0
BLOCK_RECORD
  5
5C21E
330
59DA4
100
AcDbSymbolTableRecord
100
AcDbBlockTableRecord
  2
*D41
340
0
 70
     0
280
     1
281
     0
  0
ENDTAB
  0
ENDSEC
  0
SECTION
  2
BLOCKS
  0
BLOCK
  5
59E13
330
59E12
100
AcDbEntity
  8
0
100
AcDbBlockBegin
  2
*Model_Space
 70
     0
 10
0.0
 20
0.0
 30
0.0
  3
*Model_Space
  1

  0
ENDBLK
  5
59E14
330
59E12
100
AcDbEntity
  8
0
100
AcDbBlockEnd
  0
BLOCK
  5
59E0F
330
59E0E
100
AcDbEntity
 67
     1
  8
0
100
AcDbBlockBegin
  2
*Paper_Space
 70
     0
 10
0.0
 20
0.0
 30
0.0
  3
*Paper_Space
  1

  0
ENDBLK
  5
59E10
330
59E0E
100
AcDbEntity
 67
     1
  8
0
100
AcDbBlockEnd
  0
BLOCK
  5
59E40
330
59E3F
100
AcDbEntity
  8
0
100
AcDbBlockBegin
  2
$MODEL_SPACE
 70
     0
 10
0.0
 20
0.0
 30
0.0
  3
$MODEL_SPACE
  1

  0
ENDBLK
  5
5745B
330
59E3F
100
AcDbEntity
  8
0
100
AcDbBlockEnd
  0
BLOCK
  5
59E42
330
59E41
100
AcDbEntity
  8
0
100
AcDbBlockBegin
  2
$PAPER_SPACE
 70
     0
 10
0.0
 20
0.0
 30
0.0
  3
$PAPER_SPACE
  1

  0
ENDBLK
  5
57457
330
59E41
100
AcDbEntity
  8
0
100
AcDbBlockEnd
  0
BLOCK
  5
59E44
330
59E43
100
AcDbEntity
  8
0
100
AcDbBlockBegin
  2
*D2
 70
     1
 10
0.0
 20
0.0
 30
0.0
  3
*D2
  1

  0
LINE
  5
59CD5
330
59E43
100
AcDbEntity
  8
DIMS_SPECS
100
AcDbLine
 10
29486.70174887063
 20
25786.13176808136
 30
0.0
 11
29486.70174887063
 21
25744.16476819118
 31
0.0
  0
LINE
  5
59CD6
330
59E43
100
AcDbEntity
  8
DIMS_SPECS
100
AcDbLine
 10
29846.70174887063
 20
25786.13176808136
 30
0.0
 11
29846.70174887063
 21
25744.16476819118
 31
0.0
  0
LINE
  5
59CD7
330
59E43
100
AcDbEntity
  8
DIMS_SPECS
100
AcDbLine
 10
29499.20174887063
 20
25744.16476819118
 30
0.0
 11
29641.92034166464
 21
25744.16476819118
 31
0.0
  0
LINE
  5
59CD8
330
59E43
100
AcDbEntity
  8
DIMS_SPECS
100
AcDbLine
 10
29834.20174887064
 20
25744.16476819118
 30
0.0
 11
29691.48315607661
 21
25744.16476819118
 31
0.0
  0
INSERT
  5
59CD9
330
59E43
100
AcDbEntity
  8
0
100
AcDbBlockReference
  2
*U3
 10
0.0
 20
0.0
 30
0.0
  0
SOLID
  5
59CDA
330
59E43
100
AcDbEntity
  8
DIMS_SPECS
100
AcDbTrace
 10
29499.20174887063
 20
25746.24810152451
 30
0.0
 11
29499.20174887063
 21
25742.08143485785
 31
0.0
 12
29486.70174887063
 22
25744.16476819118
 32
0.0
 13
29486.70174887063
 23
25744.16476819118
 33
0.0
  0
SOLID
  5
59CDB
330
59E43
100
AcDbEntity
  8
DIMS_SPECS
100
AcDbTrace
 10
29834.20174887064
 20
25746.24810152451
 30
0.0
 11
29834.20174887064
 21
25742.08143485785
 31
0.0
 12
29846.70174887063
 22
25744.16476819118
 32
0.0
 13
29846.70174887063
 23
25744.16476819118
 33
0.0
  0
POINT
  5
59CDC
330
59E43
100
AcDbEntity
  8
DEFPOINTS
 62
     0
100
AcDbPoint
 10
29486.70174887063
 20
25801.13176808136
 30
0.0
  0
POINT
  5
59CDD
330
59E43
100
AcDbEntity
  8
DEFPOINTS
 62
     0
100
AcDbPoint
 10
29846.70174887063
 20
25801.13176808136
 30
0.0
  0
POINT
  5
59CDE
330
59E43
100
AcDbEntity
  8
DEFPOINTS
 62
     0
100
AcDbPoint
 10
29846.70174887063
 20
25744.16476819118
 30
0.0
  0
ENDBLK
  5
59C2D
330
59E43
100
AcDbEntity
  8
0
100
AcDbBlockEnd
  0
BLOCK
  5
59E61
330
59E45
100
AcDbEntity
  8
0
100
AcDbBlockBegin
  2
*U3
 70
     1
 10
0.0
 20
0.0
 30
0.0
  3
*U3
  1

  0
TEXT
  5
59D8D
330
59E45
100
AcDbEntity
  8
DIMS_SPECS
100
AcDbText
 10
29648.78587531522
 20
25735.87856832713
 30
0.0
 40
17.0
  1
360
 41
0.9
  7
ABODE_ISO_BOLD
100
AcDbText
  0
ENDBLK
  5
59D8F
330
59E45
100
AcDbEntity
  8
0
100
AcDbBlockEnd
  0
BLOCK
  5
59E47
330
59E46
100
AcDbEntity
  8
0
100
AcDbBlockBegin
  2
*D4
 70
     1
 10
0.0
 20
0.0
 30
0.0
  3
*D4
  1

  0
LINE
  5
59CDF
330
59E46
100
AcDbEntity
  8
DIMS_SPECS
100
AcDbLine
 10
29851.70174887064
 20
26211.13176808137
 30
0.0
 11
29891.74553813602
 21
26211.13176808137
 31
0.0
  0
LINE
  5
59CE0
330
59E46
100
AcDbEntity
  8
DIMS_SPECS
100
AcDbLine
 10
29851.70174887064
 20
25791.13176808137
 30
0.0
 11
29891.74553813602
 21
25791.13176808137
 31
0.0
  0
LINE
  5
59CE1
330
59E46
100
AcDbEntity
  8
DIMS_SPECS
100
AcDbLine
 10
29891.74553813602
 20
26198.63176808137
 30
0.0
 11
29891.74553813602
 21
26017.5593683533
 31
0.0
  0
LINE
  5
59CE2
330
59E46
100
AcDbEntity
  8
DIMS_SPECS
100
AcDbLine
 10
29891.74553813602
 20
25803.63176808138
 30
0.0
 11
29891.74553813602
 21
25984.70416780946
 31
0.0
  0
INSERT
  5
59CE3
330
59E46
100
AcDbEntity
  8
0
100
AcDbBlockReference
  2
*U5
 10
0.0
 20
0.0
 30
0.0
  0
SOLID
  5
59CE4
330
59E46
100
AcDbEntity
  8
DIMS_SPECS
100
AcDbTrace
 10
29889.66220480269
 20
26198.63176808137
 30
0.0
 11
29893.82887146935
 21
26198.63176808137
 31
0.0
 12
29891.74553813602
 22
26211.13176808137
 32
0.0
 13
29891.74553813602
 23
26211.13176808137
 33
0.0
  0
SOLID
  5
59CE5
330
59E46
100
AcDbEntity
  8
DIMS_SPECS
100
AcDbTrace
 10
29889.66220480269
 20
25803.63176808138
 30
0.0
 11
29893.82887146935
 21
25803.63176808138
 31
0.0
 12
29891.74553813602
 22
25791.13176808137
 32
0.0
 13
29891.74553813602
 23
25791.13176808137
 33
0.0
  0
POINT
  5
59CE6
330
59E46
100
AcDbEntity
  8
DEFPOINTS
 62
     0
100
AcDbPoint
 10
29836.70174887064
 20
26211.13176808137
 30
0.0
  0
POINT
  5
59CE7
330
59E46
100
AcDbEntity
  8
DEFPOINTS
 62
     0
100
AcDbPoint
 10
29836.70174887064
 20
25791.13176808137
 30
0.0
  0
POINT
  5
59CE8
330
59E46
100
AcDbEntity
  8
DEFPOINTS
 62
     0
100
AcDbPoint
 10
29891.74553813602
 20
25791.13176808137
 30
0.0
  0
ENDBLK
  5
59C3A
330
59E46
100
AcDbEntity
  8
0
100
AcDbBlockEnd
  0
BLOCK
  5
59E62
330
59E48
100
AcDbEntity
  8
0
100
AcDbBlockBegin
  2
*U5
 70
     1
 10
0.0
 20
0.0
 30
0.0
  3
*U5
  1

  0
TEXT
  5
59D91
330
59E48
100
AcDbEntity
  8
DIMS_SPECS
100
AcDbText
 10
29873.92847491369
 20
25992.84556821732
 30
0.0
 40
17.0
  1
420
 41
0.9
  7
ABODE_ISO_BOLD
100
AcDbText
  0
ENDBLK
  5
59D93
330
59E48
100
AcDbEntity
  8
0
100
AcDbBlockEnd
  0
BLOCK
  5
59E4A
330
59E49
100
AcDbEntity
  8
0
100
AcDbBlockBegin
  2
*D6
 70
     1
 10
0.0
 20
0.0
 30
0.0
  3
*D6
  1

  0
LINE
  5
59D08
330
59E49
100
AcDbEntity
  8
DIMS_SPECS
100
AcDbLine
 10
29851.37172199221
 20
25784.07181823938
 30
0.0
 11
29859.52170705978
 21
25774.59406832717
 31
0.0
  0
INSERT
  5
59D09
330
59E49
100
AcDbEntity
  8
0
100
AcDbBlockReference
  2
*U7
 10
0.0
 20
0.0
 30
0.0
  0
LINE
  5
59D0A
330
59E49
100
AcDbEntity
  8
DIMS_SPECS
100
AcDbLine
 10
29836.70174887062
 20
25801.13176808136
 30
0.0
 11
29843.22173692466
 21
25793.5495681516
 31
0.0
  0
SOLID
  5
59D0B
330
59E49
100
AcDbEntity
  8
DIMS_SPECS
100
AcDbTrace
 10
29852.95134697759
 20
25785.43014908396
 30
0.0
 11
29849.79209700684
 21
25782.71348739479
 31
0.0
 12
29843.22173692466
 22
25793.5495681516
 32
0.0
 13
29843.22173692466
 23
25793.5495681516
 33
0.0
  0
POINT
  5
59D0C
330
59E49
100
AcDbEntity
  8
DEFPOINTS
 62
     0
100
AcDbPoint
 10
29843.22173692466
 20
25793.5495681516
 30
0.0
  0
POINT
  5
59D0D
330
59E49
100
AcDbEntity
  8
DEFPOINTS
 62
     0
100
AcDbPoint
 10
29836.70174887062
 20
25801.13176808136
 30
0.0
  0
ENDBLK
  5
59C5B
330
59E49
100
AcDbEntity
  8
0
100
AcDbBlockEnd
  0
BLOCK
  5
59E66
330
59E4B
100
AcDbEntity
  8
0
100
AcDbBlockBegin
  2
*U7
 70
     1
 10
0.0
 20
0.0
 30
0.0
  3
*U7
  1

  0
TEXT
  5
59DA1
330
59E4B
100
AcDbEntity
  8
DIMS_SPECS
100
AcDbText
 10
29884.13336876757
 20
25744.27961484452
 30
0.0
 40
17.0
  1
R10
 41
0.9
  7
ABODE_ISO_BOLD
100
AcDbText
  0
ENDBLK
  5
59DA3
330
59E4B
100
AcDbEntity
  8
0
100
AcDbBlockEnd
  0
BLOCK
  5
59E4D
330
59E4C
100
AcDbEntity
  8
0
100
AcDbBlockBegin
  2
*D8
 70
     1
 10
0.0
 20
0.0
 30
0.0
  3
*D8
  1

  0
LINE
  5
59CEF
330
59E4C
100
AcDbEntity
  8
DIMS_SPECS
100
AcDbLine
 10
30155.50927713561
 20
25819.13176808136
 30
0.0
 11
30155.50927713561
 21
25746.0907392636
 31
0.0
  0
LINE
  5
59CF0
330
59E4C
100
AcDbEntity
  8
DIMS_SPECS
100
AcDbLine
 10
30502.50927713561
 20
25819.13176808136
 30
0.0
 11
30502.50927713561
 21
25746.0907392636
 31
0.0
  0
LINE
  5
59CF1
330
59E4C
100
AcDbEntity
  8
DIMS_SPECS
100
AcDbLine
 10
30168.00927713561
 20
25746.0907392636
 30
0.0
 11
30490.00927713561
 21
25746.0907392636
 31
0.0
  0
SOLID
  5
59CF2
330
59E4C
100
AcDbEntity
  8
DIMS_SPECS
100
AcDbTrace
 10
30168.00927713561
 20
25748.17407259693
 30
0.0
 11
30168.00927713561
 21
25744.00740593027
 31
0.0
 12
30155.50927713561
 22
25746.0907392636
 32
0.0
 13
30155.50927713561
 23
25746.0907392636
 33
0.0
  0
SOLID
  5
59CF3
330
59E4C
100
AcDbEntity
  8
DIMS_SPECS
100
AcDbTrace
 10
30490.00927713561
 20
25748.17407259693
 30
0.0
 11
30490.00927713561
 21
25744.00740593027
 31
0.0
 12
30502.50927713561
 22
25746.0907392636
 32
0.0
 13
30502.50927713561
 23
25746.0907392636
 33
0.0
  0
INSERT
  5
59CF4
330
59E4C
100
AcDbEntity
  8
0
100
AcDbBlockReference
  2
*U9
 10
0.0
 20
0.0
 30
0.0
  0
POINT
  5
59CF5
330
59E4C
100
AcDbEntity
  8
DEFPOINTS
 62
     0
100
AcDbPoint
 10
30155.50927713561
 20
25834.13176808136
 30
0.0
  0
POINT
  5
59CF6
330
59E4C
100
AcDbEntity
  8
DEFPOINTS
 62
     0
100
AcDbPoint
 10
30502.50927713561
 20
25834.13176808136
 30
0.0
  0
POINT
  5
59CF7
330
59E4C
100
AcDbEntity
  8
DEFPOINTS
 62
     0
100
AcDbPoint
 10
30502.50927713561
 20
25746.0907392636
 30
0.0
  0
ENDBLK
  5
59C64
330
59E4C
100
AcDbEntity
  8
0
100
AcDbBlockEnd
  0
BLOCK
  5
59E63
330
59E4E
100
AcDbEntity
  8
0
100
AcDbBlockBegin
  2
*U9
 70
     1
 10
0.0
 20
0.0
 30
0.0
  3
*U9
  1

  0
TEXT
  5
59D95
330
59E4E
100
AcDbEntity
  8
DIMS_SPECS
100
AcDbText
 10
30311.1038046679
 20
25754.23213967148
 30
0.0
 40
17.0
  1
347
 41
0.9
  7
ABODE_ISO_BOLD
100
AcDbText
  0
ENDBLK
  5
59D97
330
59E4E
100
AcDbEntity
  8
0
100
AcDbBlockEnd
  0
BLOCK
  5
59E50
330
59E4F
100
AcDbEntity
  8
0
100
AcDbBlockBegin
  2
*D10
 70
     1
 10
0.0
 20
0.0
 30
0.0
  3
*D10
  1

  0
LINE
  5
59CF8
330
59E4F
100
AcDbEntity
  8
DIMS_SPECS
100
AcDbLine
 10
30487.50927713561
 20
25804.13176808137
 30
0.0
 11
30552.55788599302
 21
25804.13176808137
 31
0.0
  0
LINE
  5
59CF9
330
59E4F
100
AcDbEntity
  8
DIMS_SPECS
100
AcDbLine
 10
30487.50927713561
 20
26211.13176808137
 30
0.0
 11
30552.55788599302
 21
26211.13176808137
 31
0.0
  0
LINE
  5
59CFA
330
59E4F
100
AcDbEntity
  8
DIMS_SPECS
100
AcDbLine
 10
30552.55788599302
 20
25816.63176808137
 30
0.0
 11
30552.55788599302
 21
25991.20416780947
 31
0.0
  0
LINE
  5
59CFB
330
59E4F
100
AcDbEntity
  8
DIMS_SPECS
100
AcDbLine
 10
30552.55788599302
 20
26198.63176808137
 30
0.0
 11
30552.55788599302
 21
26024.05936835332
 31
0.0
  0
INSERT
  5
59CFC
330
59E4F
100
AcDbEntity
  8
0
100
AcDbBlockReference
  2
*U11
 10
0.0
 20
0.0
 30
0.0
  0
SOLID
  5
59CFD
330
59E4F
100
AcDbEntity
  8
DIMS_SPECS
100
AcDbTrace
 10
30550.47455265968
 20
25816.63176808137
 30
0.0
 11
30554.64121932635
 21
25816.63176808137
 31
0.0
 12
30552.55788599302
 22
25804.13176808137
 32
0.0
 13
30552.55788599302
 23
25804.13176808137
 33
0.0
  0
SOLID
  5
59CFE
330
59E4F
100
AcDbEntity
  8
DIMS_SPECS
100
AcDbTrace
 10
30550.47455265968
 20
26198.63176808137
 30
0.0
 11
30554.64121932635
 21
26198.63176808137
 31
0.0
 12
30552.55788599302
 22
26211.13176808137
 32
0.0
 13
30552.55788599302
 23
26211.13176808137
 33
0.0
  0
POINT
  5
59CFF
330
59E4F
100
AcDbEntity
  8
DEFPOINTS
 62
     0
100
AcDbPoint
 10
30472.50927713561
 20
25804.13176808137
 30
0.0
  0
POINT
  5
59D00
330
59E4F
100
AcDbEntity
  8
DEFPOINTS
 62
     0
100
AcDbPoint
 10
30472.50927713561
 20
26211.13176808137
 30
0.0
  0
POINT
  5
59D01
330
59E4F
100
AcDbEntity
  8
DEFPOINTS
 62
     0
100
AcDbPoint
 10
30552.55788599302
 20
26211.13176808137
 30
0.0
  0
ENDBLK
  5
59C70
330
59E4F
100
AcDbEntity
  8
0
100
AcDbBlockEnd
  0
BLOCK
  5
59E64
330
59E51
100
AcDbEntity
  8
0
100
AcDbBlockBegin
  2
*U11
 70
     1
 10
0.0
 20
0.0
 30
0.0
  3
*U11
  1

  0
TEXT
  5
59D99
330
59E51
100
AcDbEntity
  8
DIMS_SPECS
100
AcDbText
 10
30534.75122385838
 20
25999.34556821734
 30
0.0
 40
17.0
  1
407
 41
0.9
  7
ABODE_ISO_BOLD
100
AcDbText
  0
ENDBLK
  5
59D9B
330
59E51
100
AcDbEntity
  8
0
100
AcDbBlockEnd
  0
BLOCK
  5
59E53
330
59E52
100
AcDbEntity
  8
0
100
AcDbBlockBegin
  2
*D12
 70
     1
 10
0.0
 20
0.0
 30
0.0
  3
*D12
  1

  0
LINE
  5
59D02
330
59E52
100
AcDbEntity
  8
DIMS_SPECS
100
AcDbLine
 10
30558.78801650124
 20
25783.57507580947
 30
0.0
 11
30457.41049774659
 21
25842.97918922893
 31
0.0
  0
INSERT
  5
59D03
330
59E52
100
AcDbEntity
  8
0
100
AcDbBlockReference
  2
*U13
 10
0.0
 20
0.0
 30
0.0
  0
SOLID
  5
59D04
330
59E52
100
AcDbEntity
  8
DIMS_SPECS
100
AcDbTrace
 10
30458.46376216893
 20
25844.77666296572
 30
0.0
 11
30456.35723332426
 21
25841.18171549214
 31
0.0
 12
30446.62565532589
 22
25849.29877576292
 32
0.0
 13
30446.62565532589
 23
25849.29877576292
 33
0.0
  0
ARC
  5
59D05
330
59E52
100
AcDbEntity
  8
DIMS_SPECS
100
AcDbCircle
 10
30472.50927713559
 20
25834.13176808136
 30
0.0
 40
30.00000000001092
100
AcDbArc
 50
149.6310068103274
 51
241.3521102434692
  0
POINT
  5
59D06
330
59E52
100
AcDbEntity
  8
DEFPOINTS
 62
     0
100
AcDbPoint
 10
30446.62565532589
 20
25849.29877576292
 30
0.0
  0
POINT
  5
59D07
330
59E52
100
AcDbEntity
  8
DEFPOINTS
 62
     0
100
AcDbPoint
 10
30472.50927713559
 20
25834.13176808136
 30
0.0
  0
ENDBLK
  5
59C7D
330
59E52
100
AcDbEntity
  8
0
100
AcDbBlockEnd
  0
BLOCK
  5
59E65
330
59E54
100
AcDbEntity
  8
0
100
AcDbBlockBegin
  2
*U13
 70
     1
 10
0.0
 20
0.0
 30
0.0
  3
*U13
  1

  0
TEXT
  5
59D9D
330
59E54
100
AcDbEntity
  8
DIMS_SPECS
100
AcDbText
 10
30400.54075618599
 20
25857.0098510673
 30
0.0
 40
17.0
  1
R30
 41
0.9
  7
ABODE_ISO_BOLD
100
AcDbText
  0
ENDBLK
  5
59D9F
330
59E54
100
AcDbEntity
  8
0
100
AcDbBlockEnd
  0
BLOCK
  5
59E56
330
59E55
100
AcDbEntity
  8
0
100
AcDbBlockBegin
  2
*U14
 70
     1
 10
0.0
 20
0.0
 30
0.0
  3
*U14
  1

  0
TEXT
  5
59D58
330
59E55
100
AcDbEntity
  8
CUTOUT
100
AcDbText
 10
46.81638339500205
 20
489.801286078782
 30
0.0
 40
40.0
  1
INSET CUT OUT
100
AcDbText
  0
ENDBLK
  5
59D5A
330
59E55
100
AcDbEntity
  8
0
100
AcDbBlockEnd
  0
BLOCK
  5
59E58
330
59E57
100
AcDbEntity
  8
0
100
AcDbBlockBegin
  2
*U15
 70
     1
 10
0.0
 20
0.0
 30
0.0
  3
*U15
  1

  0
TEXT
  5
59D5C
330
59E57
100
AcDbEntity
  8
CUTOUT
100
AcDbText
 10
652.2954231845504
 20
489.5231114857281
 30
0.0
 40
40.0
  1
UNDERMOUNT CUT OUT
100
AcDbText
  0
ENDBLK
  5
59D5E
330
59E57
100
AcDbEntity
  8
0
100
AcDbBlockEnd
  0
BLOCK
  5
59E5A
330
59E59
100
AcDbEntity
  8
0
100
AcDbBlockBegin
  2
*U16
 70
     1
 10
0.0
 20
0.0
 30
0.0
  3
*U16
  1

  0
TEXT
  5
59D60
330
59E59
100
AcDbEntity
  8
SINK_SPECS
100
AcDbText
 10
782.6731055582464
 20
400.6578353716559
 30
0.0
 40
8.0
  1
%%UImportant, to the fabricator / installer:
  7
ACISOTS
100
AcDbText
  0
TEXT
  5
59D61
330
59E59
100
AcDbEntity
  8
SINK_SPECS
100
AcDbText
 10
782.6731055582464
 20
387.3245020383226
 30
0.0
 40
8.0
  1
The cut out size indicated is flush with the bowl edge
  7
ACISOTS
100
AcDbText
  0
TEXT
  5
59D62
330
59E59
100
AcDbEntity
  8
SINK_SPECS
100
AcDbText
 10
782.6731055582464
 20
373.9911687049893
 30
0.0
 40
8.0
  1
with a minimum radius where appropriate.
  7
ACISOTS
100
AcDbText
  0
TEXT
  5
59D63
330
59E59
100
AcDbEntity
  8
SINK_SPECS
100
AcDbText
 10
782.6731055582464
 20
360.6578353716559
 30
0.0
 40
8.0
  1
You should confirm with your client if the
  7
ACISOTS
100
AcDbText
  0
TEXT
  5
59D64
330
59E59
100
AcDbEntity
  8
SINK_SPECS
100
AcDbText
 10
782.6731055582464
 20
347.3245020383227
 30
0.0
 40
8.0
  1
worksurface cutout is to be cut flush, inside or
  7
ACISOTS
100
AcDbText
  0
TEXT
  5
59D65
330
59E59
100
AcDbEntity
  8
SINK_SPECS
100
AcDbText
 10
782.6731055582464
 20
333.9911687049893
 30
0.0
 40
8.0
  1
outside this suggested perimeter size.
  7
ACISOTS
100
AcDbText
  0
TEXT
  5
59D66
330
59E59
100
AcDbEntity
  8
SINK_SPECS
100
AcDbText
 10
782.6731055582464
 20
320.657835371656
 30
0.0
 40
8.0
  1
If you create the cutout smaller or larger than the
  7
ACISOTS
100
AcDbText
  0
TEXT
  5
59D67
330
59E59
100
AcDbEntity
  8
SINK_SPECS
100
AcDbText
 10
782.6731055582464
 20
307.2931311884242
 30
0.0
 40
8.0
  1
indicated size then some accessories may not fit
  7
ACISOTS
100
AcDbText
  0
TEXT
  5
59D68
330
59E59
100
AcDbEntity
  8
SINK_SPECS
100
AcDbText
 10
782.9630550519076
 20
293.9597978550909
 30
0.0
 40
8.0
  1
correctly.
  7
ACISOTS
100
AcDbText
  0
TEXT
  5
59D69
330
59E59
100
AcDbEntity
  8
SINK_SPECS
100
AcDbText
 10
782.6731055582464
 20
280.6264645217575
 30
0.0
 40
8.0
  1
All details are provided in good faith and within the
  7
ACISOTS
100
AcDbText
  0
TEXT
  5
59D6A
330
59E59
100
AcDbEntity
  8
SINK_SPECS
100
AcDbText
 10
782.6731055582464
 20
267.2931311884243
 30
0.0
 40
8.0
  1
tolerances of the manufacturing process.
  7
ACISOTS
100
AcDbText
  0
TEXT
  5
59D6B
330
59E59
100
AcDbEntity
  8
SINK_SPECS
100
AcDbText
 10
782.6731055582464
 20
253.9597978550909
 30
0.0
 40
8.0
  1
We recommend that a test cutout is made in scrap
  7
ACISOTS
100
AcDbText
  0
TEXT
  5
59D6C
330
59E59
100
AcDbEntity
  8
SINK_SPECS
100
AcDbText
 10
782.6731055582464
 20
240.6264645217576
 30
0.0
 40
8.0
  1
timber and checked against the actual sink supplied
  7
ACISOTS
100
AcDbText
  0
TEXT
  5
59D6D
330
59E59
100
AcDbEntity
  8
SINK_SPECS
100
AcDbText
 10
782.6731055582464
 20
227.2931311884242
 30
0.0
 40
8.0
  1
before committing to cutting the worksurface.
  7
ACISOTS
100
AcDbText
  0
TEXT
  5
59D6E
330
59E59
100
AcDbEntity
  8
SINK_SPECS
100
AcDbText
 10
782.6731055582464
 20
213.9597978550909
 30
0.0
 40
8.0
  1
Abode can not accept liability for problems or costs
  7
ACISOTS
100
AcDbText
  0
TEXT
  5
59D6F
330
59E59
100
AcDbEntity
  8
SINK_SPECS
100
AcDbText
 10
782.6731055582464
 20
200.6264645217576
 30
0.0
 40
8.0
  1
incurred by failure to follow this advise.
  7
ACISOTS
100
AcDbText
  0
TEXT
  5
59D70
330
59E59
100
AcDbEntity
  8
SINK_SPECS
100
AcDbText
 10
782.6731055582464
 20
186.8931311884242
 30
0.0
 40
8.0
  1
AW5142 v1 (c) abode 19/11/21
  7
ACISOTS
100
AcDbText
  0
ENDBLK
  5
59D72
330
59E59
100
AcDbEntity
  8
0
100
AcDbBlockEnd
  0
BLOCK
  5
59E5C
330
59E5B
100
AcDbEntity
  8
0
100
AcDbBlockBegin
  2
*U17
 70
     1
 10
0.0
 20
0.0
 30
0.0
  3
*U17
  1

  0
TEXT
  5
59D74
330
59E5B
100
AcDbEntity
  8
CUTOUT
100
AcDbText
 10
29485.48175497455
 20
26229.79938876301
 30
0.0
 40
40.0
  1
INSET CUT OUT
100
AcDbText
  0
ENDBLK
  5
59D76
330
59E5B
100
AcDbEntity
  8
0
100
AcDbBlockEnd
  0
BLOCK
  5
59E5E
330
59E5D
100
AcDbEntity
  8
0
100
AcDbBlockBegin
  2
*U18
 70
     1
 10
0.0
 20
0.0
 30
0.0
  3
*U18
  1

  0
TEXT
  5
59D78
330
59E5D
100
AcDbEntity
  8
CUTOUT
100
AcDbText
 10
30090.9607947641
 20
26229.52121416996
 30
0.0
 40
40.0
  1
UNDERMOUNT CUT OUT
100
AcDbText
  0
ENDBLK
  5
59D7A
330
59E5D
100
AcDbEntity
  8
0
100
AcDbBlockEnd
  0
BLOCK
  5
59E60
330
59E5F
100
AcDbEntity
  8
0
100
AcDbBlockBegin
  2
*U19
 70
     1
 10
0.0
 20
0.0
 30
0.0
  3
*U19
  1

  0
TEXT
  5
59D7C
330
59E5F
100
AcDbEntity
  8
SINK_SPECS
100
AcDbText
 10
28868.35840391372
 20
26181.80948136256
 30
0.0
 40
8.0
  1
%%UImportant, to the fabricator / installer:
  7
ACISOTS
100
AcDbText
  0
TEXT
  5
59D7D
330
59E5F
100
AcDbEntity
  8
SINK_SPECS
100
AcDbText
 10
28868.35840391372
 20
26168.47614802923
 30
0.0
 40
8.0
  1
The cut out size indicated is flush with the bowl edge with a minimum radius
  7
ACISOTS
100
AcDbText
  0
TEXT
  5
59D7E
330
59E5F
100
AcDbEntity
  8
SINK_SPECS
100
AcDbText
 10
28868.35840391372
 20
26155.14281469589
 30
0.0
 40
8.0
  1
where appropriate.
  7
ACISOTS
100
AcDbText
  0
TEXT
  5
59D7F
330
59E5F
100
AcDbEntity
  8
SINK_SPECS
100
AcDbText
 10
28868.35840391372
 20
26141.80948136256
 30
0.0
 40
8.0
  1
You should confirm with your client if the worksurface cutout is to be cut
  7
ACISOTS
100
AcDbText
  0
TEXT
  5
59D80
330
59E5F
100
AcDbEntity
  8
SINK_SPECS
100
AcDbText
 10
28868.35840391372
 20
26128.47614802923
 30
0.0
 40
8.0
  1
flush, inside or outside this suggested perimeter size.
  7
ACISOTS
100
AcDbText
  0
TEXT
  5
59D81
330
59E5F
100
AcDbEntity
  8
SINK_SPECS
100
AcDbText
 10
28868.35840391372
 20
26115.1428146959
 30
0.0
 40
8.0
  1
If you create the cutout smaller or larger than the indicated size then some
  7
ACISOTS
100
AcDbText
  0
TEXT
  5
59D82
330
59E5F
100
AcDbEntity
  8
SINK_SPECS
100
AcDbText
 10
28868.35840391372
 20
26101.80948136257
 30
0.0
 40
8.0
  1
accessories may not fit correctly.
  7
ACISOTS
100
AcDbText
  0
TEXT
  5
59D83
330
59E5F
100
AcDbEntity
  8
SINK_SPECS
100
AcDbText
 10
28868.35840391372
 20
26088.47614802924
 30
0.0
 40
8.0
  1
All details are provided in good faith and within the tolerances of the
  7
ACISOTS
100
AcDbText
  0
TEXT
  5
59D84
330
59E5F
100
AcDbEntity
  8
SINK_SPECS
100
AcDbText
 10
28868.35840391372
 20
26075.1428146959
 30
0.0
 40
8.0
  1
manufacturing process.
  7
ACISOTS
100
AcDbText
  0
TEXT
  5
59D85
330
59E5F
100
AcDbEntity
  8
SINK_SPECS
100
AcDbText
 10
28868.35840391372
 20
26061.80948136257
 30
0.0
 40
8.0
  1
We recommend that a test cutout is made in scrap timber and checked against
  7
ACISOTS
100
AcDbText
  0
TEXT
  5
59D86
330
59E5F
100
AcDbEntity
  8
SINK_SPECS
100
AcDbText
 10
28868.35840391372
 20
26048.47614802924
 30
0.0
 40
8.0
  1
the actual sink supplied before committing to cutting the worksurface.
  7
ACISOTS
100
AcDbText
  0
TEXT
  5
59D87
330
59E5F
100
AcDbEntity
  8
SINK_SPECS
100
AcDbText
 10
28868.35840391372
 20
26035.1428146959
 30
0.0
 40
8.0
  1
Abode can not accept liability for problems or costs incurred by failure to
  7
ACISOTS
100
AcDbText
  0
TEXT
  5
59D88
330
59E5F
100
AcDbEntity
  8
SINK_SPECS
100
AcDbText
 10
28868.35840391372
 20
26021.80948136257
 30
0.0
 40
8.0
  1
follow this advise.
  7
ACISOTS
100
AcDbText
  0
TEXT
  5
59D89
330
59E5F
100
AcDbEntity
  8
SINK_SPECS
100
AcDbText
 10
28868.35840391372
 20
26008.07614802924
 30
0.0
 40
8.0
  1
AW5142 v1 (c) abode 19/11/21
  7
ACISOTS
100
AcDbText
  0
ENDBLK
  5
59D8B
330
59E5F
100
AcDbEntity
  8
0
100
AcDbBlockEnd
  0
BLOCK
  5
5B0A4
330
5B0A3
100
AcDbEntity
  8
0
100
AcDbBlockBegin
  2
*D20
 70
     1
 10
0.0
 20
0.0
 30
0.0
  3
*D20
  1

  0
LINE
  5
5B0A5
330
5B0A3
100
AcDbEntity
  8
Abode_tap drawing line
 62
     0
440
 16777216
370
    -2
100
AcDbLine
 10
-4313.566751154052
 20
8301.984545529865
 30
0.0
 11
-4313.566751154052
 21
8377.096331339316
 31
0.0
  0
LINE
  5
5B0A6
330
5B0A3
100
AcDbEntity
  8
Abode_tap drawing line
 62
     0
440
 16777216
370
    -2
100
AcDbLine
 10
-5213.566759513829
 20
8301.984545529865
 30
0.0
 11
-5213.566759513829
 21
8377.096331339316
 31
0.0
  0
LINE
  5
5B0A7
330
5B0A3
100
AcDbEntity
  8
Abode_tap drawing line
 62
     0
440
 16777216
370
    -2
100
AcDbLine
 10
-4317.066751154052
 20
8374.996331339316
 30
0.0
 11
-5210.066759513829
 21
8374.996331339316
 31
0.0
  0
SOLID
  5
5B0A8
330
5B0A3
100
AcDbEntity
  8
Abode_tap drawing line
 62
     0
440
 16777216
100
AcDbTrace
 10
-4317.066751154052
 20
8375.579664672651
 30
0.0
 11
-4317.066751154052
 21
8374.412998005983
 31
0.0
 12
-4313.566751154052
 22
8374.996331339316
 32
0.0
 13
-4313.566751154052
 23
8374.996331339316
 33
0.0
  0
SOLID
  5
5B0A9
330
5B0A3
100
AcDbEntity
  8
Abode_tap drawing line
 62
     0
440
 16777216
100
AcDbTrace
 10
-5210.066759513829
 20
8375.579664672651
 30
0.0
 11
-5210.066759513829
 21
8374.412998005983
 31
0.0
 12
-5213.566759513829
 22
8374.996331339316
 32
0.0
 13
-5213.566759513829
 23
8374.996331339316
 33
0.0
  0
MTEXT
  5
5B0AA
330
5B0A3
100
AcDbEntity
  8
Abode_tap drawing line
 62
     0
440
 16777216
100
AcDbMText
 10
-4763.566755333937
 20
8378.183336796343
 30
0.0
 40
3.5
 41
0.0
 46
0.0
 71
     5
 72
     1
  1
9000
 73
     1
 44
1.0
  0
POINT
  5
5B0AB
330
5B0A3
100
AcDbEntity
  8
DEFPOINTS
 62
     0
440
 16777216
100
AcDbPoint
 10
-4313.566751154052
 20
8299.884545529865
 30
0.0
  0
POINT
  5
5B0AC
330
5B0A3
100
AcDbEntity
  8
DEFPOINTS
 62
     0
440
 16777216
100
AcDbPoint
 10
-5213.566759513829
 20
8299.884545529865
 30
0.0
  0
POINT
  5
5B0AD
330
5B0A3
100
AcDbEntity
  8
DEFPOINTS
 62
     0
440
 16777216
100
AcDbPoint
 10
-5213.566759513829
 20
8374.996331339316
 30
0.0
  0
ENDBLK
  5
5B0AE
330
5B0A3
100
AcDbEntity
  8
0
100
AcDbBlockEnd
  0
BLOCK
  5
5B0B0
330
5B0AF
100
AcDbEntity
  8
0
100
AcDbBlockBegin
  2
*D21
 70
     1
 10
0.0
 20
0.0
 30
0.0
  3
*D21
  1

  0
LINE
  5
5B0B1
330
5B0AF
100
AcDbEntity
  8
DIMS SPECS
440
 16777216
100
AcDbLine
 10
-5196.070802848165
 20
7478.849048565392
 30
0.0
 11
-5196.070802848165
 21
7716.469156403859
 31
0.0
  0
LINE
  5
5B0B2
330
5B0AF
100
AcDbEntity
  8
DIMS SPECS
440
 16777216
100
AcDbLine
 10
-4331.068952725938
 20
7478.849048565392
 30
0.0
 11
-4331.068952725938
 21
7716.469156403859
 31
0.0
  0
LINE
  5
5B0B3
330
5B0AF
100
AcDbEntity
  8
DIMS SPECS
440
 16777216
100
AcDbLine
 10
-5183.570802848165
 20
7716.469156403859
 30
0.0
 11
-4343.568952725938
 21
7716.469156403859
 31
0.0
  0
INSERT
  5
5B0B4
330
5B0AF
100
AcDbEntity
  8
DIMS SPECS
440
 16777216
100
AcDbBlockReference
  2
Filled-1
 10
-5196.070802848165
 20
7716.469156403859
 30
0.0
 41
12.5
 42
12.5
 43
12.5
 50
180.0
  0
INSERT
  5
5B0B5
330
5B0AF
100
AcDbEntity
  8
DIMS SPECS
440
 16777216
100
AcDbBlockReference
  2
Filled-1
 10
-4331.068952725938
 20
7716.469156403859
 30
0.0
 41
12.5
 42
12.5
 43
12.5
  0
MTEXT
  5
5B0B6
330
5B0AF
100
AcDbEntity
  8
DIMS SPECS
440
 16777216
100
AcDbMText
 10
-4763.569877787051
 20
7732.896756675782
 30
0.0
 40
17.0
 41
0.0
 46
0.0
 71
     5
 72
     1
  1
\A1;865
  7
Abode ISO Bold
 73
     1
 44
1.0
  0
POINT
  5
5B0B7
330
5B0AF
100
AcDbEntity
  8
DEFPOINTS
 62
     0
440
 16777216
100
AcDbPoint
 10
-5196.070802848165
 20
7463.849048565393
 30
0.0
  0
POINT
  5
5B0B8
330
5B0AF
100
AcDbEntity
  8
DEFPOINTS
 62
     0
440
 16777216
100
AcDbPoint
 10
-4331.068952725938
 20
7463.849048565393
 30
0.0
  0
POINT
  5
5B0B9
330
5B0AF
100
AcDbEntity
  8
DEFPOINTS
 62
     0
440
 16777216
100
AcDbPoint
 10
-4331.068952725938
 20
7716.469156403859
 30
0.0
  0
ENDBLK
  5
5B0BA
330
5B0AF
100
AcDbEntity
  8
0
100
AcDbBlockEnd
  0
BLOCK
  5
5B0BC
330
5B0BB
100
AcDbEntity
  8
0
100
AcDbBlockBegin
  2
*D22
 70
     1
 10
0.0
 20
0.0
 30
0.0
  3
*D22
  1

  0
LINE
  5
5B0BD
330
5B0BB
100
AcDbEntity
  8
DIMS SPECS
440
 16777216
100
AcDbLine
 10
-4778.569877787052
 20
7668.199743357068
 30
0.0
 11
-5238.538545336464
 21
7668.199743357068
 31
0.0
  0
LINE
  5
5B0BE
330
5B0BB
100
AcDbEntity
  8
DIMS SPECS
440
 16777216
100
AcDbLine
 10
-4778.569877787052
 20
7259.498353773725
 30
0.0
 11
-5238.538545336464
 21
7259.498353773725
 31
0.0
  0
LINE
  5
5B0BF
330
5B0BB
100
AcDbEntity
  8
DIMS SPECS
440
 16777216
100
AcDbLine
 10
-5238.538545336464
 20
7655.699743357068
 30
0.0
 11
-5238.538545336464
 21
7480.276648837319
 31
0.0
  0
LINE
  5
5B0C0
330
5B0BB
100
AcDbEntity
  8
DIMS SPECS
440
 16777216
100
AcDbLine
 10
-5238.538545336464
 20
7271.998353773724
 30
0.0
 11
-5238.538545336464
 21
7447.421448293472
 31
0.0
  0
INSERT
  5
5B0C1
330
5B0BB
100
AcDbEntity
  8
DIMS SPECS
440
 16777216
100
AcDbBlockReference
  2
Filled-1
 10
-5238.538545336464
 20
7668.199743357068
 30
0.0
 41
12.5
 42
12.5
 43
12.5
 50
90.0
  0
INSERT
  5
5B0C2
330
5B0BB
100
AcDbEntity
  8
DIMS SPECS
440
 16777216
100
AcDbBlockReference
  2
Filled-1
 10
-5238.538545336464
 20
7259.498353773725
 30
0.0
 41
12.5
 42
12.5
 43
12.5
 50
270.0
  0
MTEXT
  5
5B0C3
330
5B0BB
100
AcDbEntity
  8
DIMS SPECS
440
 16777216
100
AcDbMText
 10
-5238.53854533646
 20
7463.849048565396
 30
0.0
 40
17.0
 41
0.0
 46
0.0
 71
     5
 72
     1
  1
\A1;409
  7
Abode ISO Bold
 73
     1
 44
1.0
  0
POINT
  5
5B0C4
330
5B0BB
100
AcDbEntity
  8
DEFPOINTS
 62
     0
440
 16777216
100
AcDbPoint
 10
-4763.569877787053
 20
7668.199743357068
 30
0.0
  0
POINT
  5
5B0C5
330
5B0BB
100
AcDbEntity
  8
DEFPOINTS
 62
     0
440
 16777216
100
AcDbPoint
 10
-4763.569877787053
 20
7259.498353773725
 30
0.0
  0
POINT
  5
5B0C6
330
5B0BB
100
AcDbEntity
  8
DEFPOINTS
 62
     0
440
 16777216
100
AcDbPoint
 10
-5238.538545336464
 20
7259.498353773725
 30
0.0
  0
ENDBLK
  5
5B0C7
330
5B0BB
100
AcDbEntity
  8
0
100
AcDbBlockEnd
  0
BLOCK
  5
5B0C9
330
5B0C8
100
AcDbEntity
  8
0
100
AcDbBlockBegin
  2
*D23
 70
     1
 10
0.0
 20
0.0
 30
0.0
  3
*D23
  1

  0
LINE
  5
5B0CA
330
5B0C8
100
AcDbEntity
  8
Abode_dims
 62
     0
440
 16777216
370
    -2
100
AcDbLine
 10
-4297.304918082707
 20
7697.720613146846
 30
0.0
 11
-4326.775606528722
 21
7670.982397709297
 31
0.0
  0
MTEXT
  5
5B0CB
330
5B0C8
100
AcDbEntity
  8
Abode_dims
 62
     0
440
 16777216
100
AcDbMText
 10
-4313.726490206246
 20
7693.651208422886
 30
0.0
 40
10.0
 41
0.0
 46
0.0
 71
     5
 72
     1
  1
R12
 11
0.7406066453280968
 21
0.6719388341924157
 31
0.0
 73
     1
 44
1.0
  0
LINE
  5
5B0CC
330
5B0C8
100
AcDbEntity
  8
Abode_dims
 62
     0
440
 16777216
370
    -2
100
AcDbLine
 10
-4343.068952725938
 20
7656.199743357065
 30
0.0
 11
-4334.181672982004
 21
7664.263009367371
 31
0.0
  0
SOLID
  5
5B0CD
330
5B0C8
100
AcDbEntity
  8
Abode_dims
 62
     0
440
 16777216
100
AcDbTrace
 10
-4327.89550458571
 20
7672.216742118175
 30
0.0
 11
-4325.655708471736
 21
7669.748053300416
 31
0.0
 12
-4334.181672982004
 22
7664.263009367371
 32
0.0
 13
-4334.181672982004
 23
7664.263009367371
 33
0.0
  0
POINT
  5
5B0CE
330
5B0C8
100
AcDbEntity
  8
DEFPOINTS
 62
     0
440
 16777216
100
AcDbPoint
 10
-4334.181672982004
 20
7664.263009367371
 30
0.0
  0
POINT
  5
5B0CF
330
5B0C8
100
AcDbEntity
  8
DEFPOINTS
 62
     0
440
 16777216
100
AcDbPoint
 10
-4343.068952725938
 20
7656.199743357065
 30
0.0
  0
ENDBLK
  5
5B0D0
330
5B0C8
100
AcDbEntity
  8
0
100
AcDbBlockEnd
  0
BLOCK
  5
5B0D2
330
5B0D1
100
AcDbEntity
  8
0
100
AcDbBlockBegin
  2
Filled-1
 70
     0
 10
0.0
 20
0.0
 30
0.0
  3
Filled-1
  1

  0
LINE
  5
5B0D3
330
5B0D1
100
AcDbEntity
  8
0
 62
     0
100
AcDbLine
 10
-1.0
 20
0.0
 30
0.0
 11
0.0
 21
0.0
 31
0.0
  0
POLYLINE
  5
5B0D4
330
5B0D1
100
AcDbEntity
  8
0
 62
     0
100
AcDb2dPolyline
 66
     1
 10
0.0
 20
0.0
 30
0.0
 70
   128
  0
VERTEX
  5
5B0D5
330
5B0D4
100
AcDbEntity
  8
0
 62
     0
100
AcDbVertex
100
AcDb2dVertex
 10
-1.0
 20
-0.3333333333333333
 30
0.0
  0
VERTEX
  5
5B0D6
330
5B0D4
100
AcDbEntity
  8
0
 62
     0
100
AcDbVertex
100
AcDb2dVertex
 10
0.0
 20
0.0
 30
0.0
  0
VERTEX
  5
5B0D7
330
5B0D4
100
AcDbEntity
  8
0
 62
     0
100
AcDbVertex
100
AcDb2dVertex
 10
-1.0
 20
0.3333333333333333
 30
0.0
  0
VERTEX
  5
5B0D8
330
5B0D4
100
AcDbEntity
  8
0
 62
     0
100
AcDbVertex
100
AcDb2dVertex
 10
-1.0
 20
-0.3333333333333333
 30
0.0
  0
SEQEND
  5
5B0D9
330
5B0D4
100
AcDbEntity
  8
0
 62
     0
  0
SOLID
  5
5B0DA
330
5B0D1
100
AcDbEntity
  8
0
 62
     0
100
AcDbTrace
 10
-1.0
 20
-0.3333333333333333
 30
0.0
 11
0.0
 21
0.0
 31
0.0
 12
-1.0
 22
0.3333333333333333
 32
0.0
 13
-1.0
 23
-0.3333333333333333
 33
0.0
  0
LINE
  5
5B0DB
330
5B0D1
100
AcDbEntity
  8
0
 62
     0
100
AcDbLine
 10
-1.0
 20
-0.3333333333333333
 30
0.0
 11
0.0
 21
0.0
 31
0.0
  0
LINE
  5
5B0DC
330
5B0D1
100
AcDbEntity
  8
0
 62
     0
100
AcDbLine
 10
0.0
 20
0.0
 30
0.0
 11
-1.0
 21
0.3333333333333333
 31
0.0
  0
LINE
  5
5B0DD
330
5B0D1
100
AcDbEntity
  8
0
 62
     0
100
AcDbLine
 10
-1.0
 20
0.3333333333333333
 30
0.0
 11
-1.0
 21
-0.3333333333333333
 31
0.0
  0
ENDBLK
  5
5B0DE
330
5B0D1
100
AcDbEntity
  8
0
100
AcDbBlockEnd
  0
BLOCK
  5
5B0E0
330
5B0DF
100
AcDbEntity
  8
0
100
AcDbBlockBegin
  2
*D25
 70
     1
 10
0.0
 20
0.0
 30
0.0
  3
*D25
  1

  0
LINE
  5
5B0E1
330
5B0DF
100
AcDbEntity
  8
Abode_dims
 62
     0
440
 16777216
370
    -2
100
AcDbLine
 10
-3373.047551431958
 20
8297.004450613608
 30
0.0
 11
-3374.066163542956
 21
8297.004450613608
 31
0.0
  0
LINE
  5
5B0E2
330
5B0DF
100
AcDbEntity
  8
Abode_dims
 62
     0
440
 16777216
370
    -2
100
AcDbLine
 10
-3372.297550674995
 20
8299.7633929638
 30
0.0
 11
-3374.066163542956
 21
8299.7633929638
 31
0.0
  0
LINE
  5
5B0E3
330
5B0DF
100
AcDbEntity
  8
Abode_dims
 62
     0
440
 16777216
370
    -2
100
AcDbLine
 10
-3371.066163542956
 20
8287.004450613606
 30
0.0
 11
-3371.066163542956
 21
8277.004450613608
 31
0.0
  0
LINE
  5
5B0E4
330
5B0DF
100
AcDbEntity
  8
Abode_dims
 62
     0
440
 16777216
370
    -2
100
AcDbLine
 10
-3371.066163542956
 20
8309.7633929638
 30
0.0
 11
-3371.066163542956
 21
8332.311824068847
 31
0.0
  0
LINE
  5
5B0E5
330
5B0DF
100
AcDbEntity
  8
Abode_dims
 62
     0
440
 16777216
370
    -2
100
AcDbLine
 10
-3371.066163542956
 20
8297.004450613608
 30
0.0
 11
-3371.066163542956
 21
8299.7633929638
 31
0.0
  0
SOLID
  5
5B0E6
330
5B0DF
100
AcDbEntity
  8
Abode_dims
 62
     0
440
 16777216
100
AcDbTrace
 10
-3372.732830209623
 20
8287.004450613606
 30
0.0
 11
-3369.399496876289
 21
8287.004450613606
 31
0.0
 12
-3371.066163542956
 22
8297.004450613608
 32
0.0
 13
-3371.066163542956
 23
8297.004450613608
 33
0.0
  0
SOLID
  5
5B0E7
330
5B0DF
100
AcDbEntity
  8
Abode_dims
 62
     0
440
 16777216
100
AcDbTrace
 10
-3372.732830209623
 20
8309.7633929638
 30
0.0
 11
-3369.399496876289
 21
8309.7633929638
 31
0.0
 12
-3371.066163542956
 22
8299.7633929638
 32
0.0
 13
-3371.066163542956
 23
8299.7633929638
 33
0.0
  0
MTEXT
  5
5B0E8
330
5B0DF
100
AcDbEntity
  8
Abode_dims
 62
     0
440
 16777216
100
AcDbMText
 10
-3379.175304061371
 20
8326.037608516323
 30
0.0
 40
10.0
 41
0.0
 46
0.0
 71
     5
 72
     1
  1
3
 11
0.0000000000000001
 21
1.0
 31
0.0
 73
     1
 44
1.0
  0
POINT
  5
5B0E9
330
5B0DF
100
AcDbEntity
  8
DEFPOINTS
 62
     0
440
 16777216
100
AcDbPoint
 10
-3363.047551431957
 20
8297.004450613608
 30
0.0
  0
POINT
  5
5B0EA
330
5B0DF
100
AcDbEntity
  8
DEFPOINTS
 62
     0
440
 16777216
100
AcDbPoint
 10
-3362.297550674995
 20
8299.7633929638
 30
0.0
  0
POINT
  5
5B0EB
330
5B0DF
100
AcDbEntity
  8
DEFPOINTS
 62
     0
440
 16777216
100
AcDbPoint
 10
-3371.066163542956
 20
8299.7633929638
 30
0.0
  0
ENDBLK
  5
5B0EC
330
5B0DF
100
AcDbEntity
  8
0
100
AcDbBlockEnd
  0
BLOCK
  5
5B0EE
330
5B0ED
100
AcDbEntity
  8
0
100
AcDbBlockBegin
  2
*D26
 70
     1
 10
0.0
 20
0.0
 30
0.0
  3
*D26
  1

  0
LINE
  5
5B0EF
330
5B0ED
100
AcDbEntity
  8
Abode_tap drawing line
 62
     0
440
 16777216
370
    -2
100
AcDbLine
 10
-3396.775024871771
 20
8276.482794556399
 30
0.0
 11
-3396.775024871771
 21
8269.810477763563
 31
0.0
  0
LINE
  5
5B0F0
330
5B0ED
100
AcDbEntity
  8
Abode_tap drawing line
 62
     0
440
 16777216
370
    -2
100
AcDbLine
 10
-3395.037973719526
 20
8270.023333040358
 30
0.0
 11
-3395.037973719526
 21
8269.810477763563
 31
0.0
  0
LINE
  5
5B0F1
330
5B0ED
100
AcDbEntity
  8
Abode_tap drawing line
 62
     0
440
 16777216
370
    -2
100
AcDbLine
 10
-3406.775024871771
 20
8272.810477763563
 30
0.0
 11
-3416.775024871771
 21
8272.810477763563
 31
0.0
  0
LINE
  5
5B0F2
330
5B0ED
100
AcDbEntity
  8
Abode_tap drawing line
 62
     0
440
 16777216
370
    -2
100
AcDbLine
 10
-3385.037973719525
 20
8272.810477763563
 30
0.0
 11
-3362.414508508066
 21
8272.810477763563
 31
0.0
  0
LINE
  5
5B0F3
330
5B0ED
100
AcDbEntity
  8
Abode_tap drawing line
 62
     0
440
 16777216
370
    -2
100
AcDbLine
 10
-3396.775024871771
 20
8272.810477763563
 30
0.0
 11
-3395.037973719526
 21
8272.810477763563
 31
0.0
  0
SOLID
  5
5B0F4
330
5B0ED
100
AcDbEntity
  8
Abode_tap drawing line
 62
     0
440
 16777216
100
AcDbTrace
 10
-3406.775024871771
 20
8274.47714443023
 30
0.0
 11
-3406.775024871771
 21
8271.143811096896
 31
0.0
 12
-3396.775024871771
 22
8272.810477763563
 32
0.0
 13
-3396.775024871771
 23
8272.810477763563
 33
0.0
  0
SOLID
  5
5B0F5
330
5B0ED
100
AcDbEntity
  8
Abode_tap drawing line
 62
     0
440
 16777216
100
AcDbTrace
 10
-3385.037973719525
 20
8274.47714443023
 30
0.0
 11
-3385.037973719525
 21
8271.143811096896
 31
0.0
 12
-3395.037973719526
 22
8272.810477763563
 32
0.0
 13
-3395.037973719526
 23
8272.810477763563
 33
0.0
  0
MTEXT
  5
5B0F6
330
5B0ED
100
AcDbEntity
  8
Abode_tap drawing line
 62
     0
440
 16777216
100
AcDbMText
 10
-3368.726241113795
 20
8280.830941610767
 30
0.0
 40
10.0
 41
0.0
 46
0.0
 71
     5
 72
     1
  1
2
 73
     1
 44
1.0
  0
POINT
  5
5B0F7
330
5B0ED
100
AcDbEntity
  8
DEFPOINTS
 62
     0
440
 16777216
100
AcDbPoint
 10
-3396.775024871771
 20
8286.482794556398
 30
0.0
  0
POINT
  5
5B0F8
330
5B0ED
100
AcDbEntity
  8
DEFPOINTS
 62
     0
440
 16777216
100
AcDbPoint
 10
-3395.037973719526
 20
8280.023333040357
 30
0.0
  0
POINT
  5
5B0F9
330
5B0ED
100
AcDbEntity
  8
DEFPOINTS
 62
     0
440
 16777216
100
AcDbPoint
 10
-3395.037973719526
 20
8272.810477763563
 30
0.0
  0
ENDBLK
  5
5B0FA
330
5B0ED
100
AcDbEntity
  8
0
100
AcDbBlockEnd
  0
BLOCK
  5
5B0FC
330
5B0FB
100
AcDbEntity
  8
0
100
AcDbBlockBegin
  2
*D27
 70
     1
 10
0.0
 20
0.0
 30
0.0
  3
*D27
  1

  0
LINE
  5
5B0FD
330
5B0FB
100
AcDbEntity
  8
DIMS SPECS
 62
     0
440
 16777216
370
    -2
100
AcDbLine
 10
-3397.274514014042
 20
7242.850138131091
 30
0.0
 11
-3397.274514014042
 21
7173.702441739326
 31
0.0
  0
LINE
  5
5B0FE
330
5B0FB
100
AcDbEntity
  8
DIMS SPECS
 62
     0
440
 16777216
370
    -2
100
AcDbLine
 10
-2513.274504014031
 20
7242.850138131091
 30
0.0
 11
-2513.274504014031
 21
7173.702441739326
 31
0.0
  0
LINE
  5
5B0FF
330
5B0FB
100
AcDbEntity
  8
DIMS SPECS
 62
     0
440
 16777216
370
    -2
100
AcDbLine
 10
-3387.274514014042
 20
7176.702441739326
 30
0.0
 11
-2523.274504014031
 21
7176.702441739326
 31
0.0
  0
SOLID
  5
5B100
330
5B0FB
100
AcDbEntity
  8
DIMS SPECS
 62
     0
440
 16777216
100
AcDbTrace
 10
-3387.274514014042
 20
7178.369108405992
 30
0.0
 11
-3387.274514014042
 21
7175.035775072659
 31
0.0
 12
-3397.274514014042
 22
7176.702441739326
 32
0.0
 13
-3397.274514014042
 23
7176.702441739326
 33
0.0
  0
SOLID
  5
5B101
330
5B0FB
100
AcDbEntity
  8
DIMS SPECS
 62
     0
440
 16777216
100
AcDbTrace
 10
-2523.274504014031
 20
7178.369108405992
 30
0.0
 11
-2523.274504014031
 21
7175.035775072659
 31
0.0
 12
-2513.274504014031
 22
7176.702441739326
 32
0.0
 13
-2513.274504014031
 23
7176.702441739326
 33
0.0
  0
MTEXT
  5
5B102
330
5B0FB
100
AcDbEntity
  8
DIMS SPECS
 62
     0
440
 16777216
100
AcDbMText
 10
-2955.274509014036
 20
7184.808171616542
 30
0.0
 40
10.0
 41
0.0
 46
0.0
 71
     5
 72
     1
  1
884
 73
     1
 44
1.0
  0
POINT
  5
5B103
330
5B0FB
100
AcDbEntity
  8
DEFPOINTS
 62
     0
440
 16777216
100
AcDbPoint
 10
-3397.274514014042
 20
7252.850138131091
 30
0.0
  0
POINT
  5
5B104
330
5B0FB
100
AcDbEntity
  8
DEFPOINTS
 62
     0
440
 16777216
100
AcDbPoint
 10
-2513.274504014031
 20
7252.850138131091
 30
0.0
  0
POINT
  5
5B105
330
5B0FB
100
AcDbEntity
  8
DEFPOINTS
 62
     0
440
 16777216
100
AcDbPoint
 10
-2513.274504014031
 20
7176.702441739326
 30
0.0
  0
ENDBLK
  5
5B106
330
5B0FB
100
AcDbEntity
  8
0
100
AcDbBlockEnd
  0
BLOCK
  5
5B108
330
5B107
100
AcDbEntity
  8
0
100
AcDbBlockBegin
  2
*D28
 70
     1
 10
0.0
 20
0.0
 30
0.0
  3
*D28
  1

  0
LINE
  5
5B109
330
5B107
100
AcDbEntity
  8
DIMS SPECS
 62
     0
440
 16777216
370
    -2
100
AcDbLine
 10
-3397.275024871773
 20
7242.850138144143
 30
0.0
 11
-3447.147055436104
 21
7242.850138144143
 31
0.0
  0
LINE
  5
5B10A
330
5B107
100
AcDbEntity
  8
DIMS SPECS
 62
     0
440
 16777216
370
    -2
100
AcDbLine
 10
-3397.274514014043
 20
7684.847958999698
 30
0.0
 11
-3447.147055436104
 21
7684.847958999698
 31
0.0
  0
LINE
  5
5B10B
330
5B107
100
AcDbEntity
  8
DIMS SPECS
 62
     0
440
 16777216
370
    -2
100
AcDbLine
 10
-3444.147055436104
 20
7252.850138144144
 30
0.0
 11
-3444.147055436104
 21
7674.847958999698
 31
0.0
  0
SOLID
  5
5B10C
330
5B107
100
AcDbEntity
  8
DIMS SPECS
 62
     0
440
 16777216
100
AcDbTrace
 10
-3445.813722102771
 20
7252.850138144144
 30
0.0
 11
-3442.480388769438
 21
7252.850138144144
 31
0.0
 12
-3444.147055436104
 22
7242.850138144143
 32
0.0
 13
-3444.147055436104
 23
7242.850138144143
 33
0.0
  0
SOLID
  5
5B10D
330
5B107
100
AcDbEntity
  8
DIMS SPECS
 62
     0
440
 16777216
100
AcDbTrace
 10
-3445.813722102771
 20
7674.847958999698
 30
0.0
 11
-3442.480388769438
 21
7674.847958999698
 31
0.0
 12
-3444.147055436104
 22
7684.847958999698
 32
0.0
 13
-3444.147055436104
 23
7684.847958999698
 33
0.0
  0
MTEXT
  5
5B10E
330
5B107
100
AcDbEntity
  8
DIMS SPECS
 62
     0
440
 16777216
100
AcDbMText
 10
-3452.167519283305
 20
7463.84904857192
 30
0.0
 40
10.0
 41
0.0
 46
0.0
 71
     5
 72
     1
  1
442
 11
0.0000000000000001
 21
1.0
 31
0.0
 73
     1
 44
1.0
  0
POINT
  5
5B10F
330
5B107
100
AcDbEntity
  8
DEFPOINTS
 62
     0
440
 16777216
100
AcDbPoint
 10
-3387.275024871773
 20
7242.850138144143
 30
0.0
  0
POINT
  5
5B110
330
5B107
100
AcDbEntity
  8
DEFPOINTS
 62
     0
440
 16777216
100
AcDbPoint
 10
-3387.274514014043
 20
7684.847958999698
 30
0.0
  0
POINT
  5
5B111
330
5B107
100
AcDbEntity
  8
DEFPOINTS
 62
     0
440
 16777216
100
AcDbPoint
 10
-3444.147055436104
 20
7684.847958999698
 30
0.0
  0
ENDBLK
  5
5B112
330
5B107
100
AcDbEntity
  8
0
100
AcDbBlockEnd
  0
BLOCK
  5
5B114
330
5B113
100
AcDbEntity
  8
0
100
AcDbBlockBegin
  2
*D29
 70
     1
 10
0.0
 20
0.0
 30
0.0
  3
*D29
  1

  0
LINE
  5
5B115
330
5B113
100
AcDbEntity
  8
DIMS SPECS
 62
     0
440
 16777216
370
    -2
100
AcDbLine
 10
-3075.787857773086
 20
7473.806797109727
 30
0.0
 11
-3075.787857773086
 21
7466.806797109725
 31
0.0
  0
LINE
  5
5B116
330
5B113
100
AcDbEntity
  8
DIMS SPECS
 62
     0
440
 16777216
370
    -2
100
AcDbLine
 10
-2516.48022696406
 20
7473.806797109727
 30
0.0
 11
-2516.48022696406
 21
7466.806797109725
 31
0.0
  0
LINE
  5
5B117
330
5B113
100
AcDbEntity
  8
DIMS SPECS
 62
     0
440
 16777216
370
    -2
100
AcDbLine
 10
-3065.787857773087
 20
7463.806797109725
 30
0.0
 11
-2526.48022696406
 21
7463.806797109725
 31
0.0
  0
SOLID
  5
5B118
330
5B113
100
AcDbEntity
  8
DIMS SPECS
 62
     0
440
 16777216
100
AcDbTrace
 10
-3065.787857773087
 20
7465.473463776394
 30
0.0
 11
-3065.787857773087
 21
7462.140130443059
 31
0.0
 12
-3075.787857773086
 22
7463.806797109725
 32
0.0
 13
-3075.787857773086
 23
7463.806797109725
 33
0.0
  0
SOLID
  5
5B119
330
5B113
100
AcDbEntity
  8
DIMS SPECS
 62
     0
440
 16777216
100
AcDbTrace
 10
-2526.48022696406
 20
7465.473463776394
 30
0.0
 11
-2526.48022696406
 21
7462.140130443059
 31
0.0
 12
-2516.48022696406
 22
7463.806797109725
 32
0.0
 13
-2516.48022696406
 23
7463.806797109725
 33
0.0
  0
MTEXT
  5
5B11A
330
5B113
100
AcDbEntity
  8
DIMS SPECS
 62
     0
440
 16777216
100
AcDbMText
 10
-2796.134042368573
 20
7471.912526986942
 30
0.0
 40
10.0
 41
0.0
 46
0.0
 71
     5
 72
     1
  1
559
 73
     1
 44
1.0
  0
POINT
  5
5B11B
330
5B113
100
AcDbEntity
  8
DEFPOINTS
 62
     0
440
 16777216
100
AcDbPoint
 10
-3075.787857773086
 20
7463.806797109725
 30
0.0
  0
POINT
  5
5B11C
330
5B113
100
AcDbEntity
  8
DEFPOINTS
 62
     0
440
 16777216
100
AcDbPoint
 10
-2516.48022696406
 20
7463.806797109725
 30
0.0
  0
POINT
  5
5B11D
330
5B113
100
AcDbEntity
  8
DEFPOINTS
 62
     0
440
 16777216
100
AcDbPoint
 10
-2516.48022696406
 20
7463.806797109725
 30
0.0
  0
ENDBLK
  5
5B11E
330
5B113
100
AcDbEntity
  8
0
100
AcDbBlockEnd
  0
BLOCK
  5
5B120
330
5B11F
100
AcDbEntity
  8
0
100
AcDbBlockBegin
  2
*D30
 70
     1
 10
0.0
 20
0.0
 30
0.0
  3
*D30
  1

  0
LINE
  5
5B121
330
5B11F
100
AcDbEntity
  8
DIMS SPECS
 62
     0
440
 16777216
370
    -2
100
AcDbLine
 10
-2786.134042368574
 20
7663.996877983812
 30
0.0
 11
-2743.887702845507
 21
7663.996877983812
 31
0.0
  0
LINE
  5
5B122
330
5B11F
100
AcDbEntity
  8
DIMS SPECS
 62
     0
440
 16777216
370
    -2
100
AcDbLine
 10
-2786.134042368574
 20
7263.616716235647
 30
0.0
 11
-2743.887702845507
 21
7263.616716235647
 31
0.0
  0
LINE
  5
5B123
330
5B11F
100
AcDbEntity
  8
DIMS SPECS
 62
     0
440
 16777216
370
    -2
100
AcDbLine
 10
-2746.887702845507
 20
7653.996877983813
 30
0.0
 11
-2746.887702845507
 21
7273.616716235647
 31
0.0
  0
SOLID
  5
5B124
330
5B11F
100
AcDbEntity
  8
DIMS SPECS
 62
     0
440
 16777216
100
AcDbTrace
 10
-2748.554369512174
 20
7653.996877983813
 30
0.0
 11
-2745.221036178841
 21
7653.996877983813
 31
0.0
 12
-2746.887702845507
 22
7663.996877983812
 32
0.0
 13
-2746.887702845507
 23
7663.996877983812
 33
0.0
  0
SOLID
  5
5B125
330
5B11F
100
AcDbEntity
  8
DIMS SPECS
 62
     0
440
 16777216
100
AcDbTrace
 10
-2748.554369512174
 20
7273.616716235647
 30
0.0
 11
-2745.221036178841
 21
7273.616716235647
 31
0.0
 12
-2746.887702845507
 22
7263.616716235647
 32
0.0
 13
-2746.887702845507
 23
7263.616716235647
 33
0.0
  0
MTEXT
  5
5B126
330
5B11F
100
AcDbEntity
  8
DIMS SPECS
 62
     0
440
 16777216
100
AcDbMText
 10
-2754.993432722722
 20
7551.710968177445
 30
0.0
 40
10.0
 41
0.0
 46
0.0
 71
     5
 72
     1
  1
400
 11
0.0000000000000001
 21
1.0
 31
0.0
 73
     1
 44
1.0
  0
POINT
  5
5B127
330
5B11F
100
AcDbEntity
  8
DEFPOINTS
 62
     0
440
 16777216
100
AcDbPoint
 10
-2796.134042368574
 20
7663.996877983812
 30
0.0
  0
POINT
  5
5B128
330
5B11F
100
AcDbEntity
  8
DEFPOINTS
 62
     0
440
 16777216
100
AcDbPoint
 10
-2796.134042368574
 20
7263.616716235647
 30
0.0
  0
POINT
  5
5B129
330
5B11F
100
AcDbEntity
  8
DEFPOINTS
 62
     0
440
 16777216
100
AcDbPoint
 10
-2746.887702845507
 20
7263.616716235647
 30
0.0
  0
ENDBLK
  5
5B12A
330
5B11F
100
AcDbEntity
  8
0
100
AcDbBlockEnd
  0
BLOCK
  5
5C1A5
330
5C1A4
100
AcDbEntity
  8
0
100
AcDbBlockBegin
  2
*D32
 70
     1
 10
0.0
 20
0.0
 30
0.0
  3
*D32
  1

  0
LINE
  5
5C215
330
5C1A4
100
AcDbEntity
  8
Abode_tap drawing line
 62
     0
440
 16777216
370
    -2
100
AcDbLine
 10
30450.35492153145
 20
26218.82504349553
 30
0.0
 11
30450.35492153145
 21
26293.93682930498
 31
0.0
  0
LINE
  5
5C216
330
5C1A4
100
AcDbEntity
  8
Abode_tap drawing line
 62
     0
440
 16777216
370
    -2
100
AcDbLine
 10
29550.35491317167
 20
26218.82504349553
 30
0.0
 11
29550.35491317167
 21
26293.93682930498
 31
0.0
  0
LINE
  5
5C217
330
5C1A4
100
AcDbEntity
  8
Abode_tap drawing line
 62
     0
440
 16777216
370
    -2
100
AcDbLine
 10
30446.85492153145
 20
26291.83682930498
 30
0.0
 11
29553.85491317167
 21
26291.83682930498
 31
0.0
  0
SOLID
  5
5C218
330
5C1A4
100
AcDbEntity
  8
Abode_tap drawing line
 62
     0
440
 16777216
100
AcDbTrace
 10
30446.85492153145
 20
26292.42016263831
 30
0.0
 11
30446.85492153145
 21
26291.25349597165
 31
0.0
 12
30450.35492153145
 22
26291.83682930498
 32
0.0
 13
30450.35492153145
 23
26291.83682930498
 33
0.0
  0
SOLID
  5
5C219
330
5C1A4
100
AcDbEntity
  8
Abode_tap drawing line
 62
     0
440
 16777216
100
AcDbTrace
 10
29553.85491317167
 20
26292.42016263831
 30
0.0
 11
29553.85491317167
 21
26291.25349597165
 31
0.0
 12
29550.35491317167
 22
26291.83682930498
 32
0.0
 13
29550.35491317167
 23
26291.83682930498
 33
0.0
  0
MTEXT
  5
5C21A
330
5C1A4
100
AcDbEntity
  8
Abode_tap drawing line
 62
     0
440
 16777216
100
AcDbMText
 10
30000.35491735157
 20
26294.98682930498
 30
0.0
 40
3.5
 41
0.0
 46
0.0
 71
     5
 72
     1
  1
9000
 73
     1
 44
1.0
  0
POINT
  5
5C21B
330
5C1A4
100
AcDbEntity
  8
DEFPOINTS
 62
     0
440
 16777216
100
AcDbPoint
 10
30450.35492153145
 20
26216.72504349553
 30
0.0
  0
POINT
  5
5C21C
330
5C1A4
100
AcDbEntity
  8
DEFPOINTS
 62
     0
440
 16777216
100
AcDbPoint
 10
29550.35491317167
 20
26216.72504349553
 30
0.0
  0
POINT
  5
5C21D
330
5C1A4
100
AcDbEntity
  8
DEFPOINTS
 62
     0
440
 16777216
100
AcDbPoint
 10
29550.35491317167
 20
26291.83682930498
 30
0.0
  0
ENDBLK
  5
5C1A6
330
5C1A4
100
AcDbEntity
  8
0
100
AcDbBlockEnd
  0
BLOCK
  5
5C1B1
330
5C1B0
100
AcDbEntity
  8
0
100
AcDbBlockBegin
  2
*D33
 70
     1
 10
0.0
 20
0.0
 30
0.0
  3
*D33
  1

  0
LINE
  5
5C1B3
330
5C1B0
100
AcDbEntity
  8
Abode_dims
 62
     0
440
 16777216
370
    -2
100
AcDbLine
 10
31390.87412125356
 20
26213.84494857928
 30
0.0
 11
31389.85550914256
 21
26213.84494857928
 31
0.0
  0
LINE
  5
5C1B4
330
5C1B0
100
AcDbEntity
  8
Abode_dims
 62
     0
440
 16777216
370
    -2
100
AcDbLine
 10
31391.62412201053
 20
26216.60389092947
 30
0.0
 11
31389.85550914256
 21
26216.60389092947
 31
0.0
  0
LINE
  5
5C1B5
330
5C1B0
100
AcDbEntity
  8
Abode_dims
 62
     0
440
 16777216
370
    -2
100
AcDbLine
 10
31392.85550914256
 20
26203.84494857928
 30
0.0
 11
31392.85550914256
 21
26193.84494857928
 31
0.0
  0
LINE
  5
5C1B6
330
5C1B0
100
AcDbEntity
  8
Abode_dims
 62
     0
440
 16777216
370
    -2
100
AcDbLine
 10
31392.85550914256
 20
26226.60389092947
 30
0.0
 11
31392.85550914256
 21
26247.01810449185
 31
0.0
  0
LINE
  5
5C1B7
330
5C1B0
100
AcDbEntity
  8
Abode_dims
 62
     0
440
 16777216
370
    -2
100
AcDbLine
 10
31392.85550914256
 20
26213.84494857928
 30
0.0
 11
31392.85550914256
 21
26216.60389092947
 31
0.0
  0
SOLID
  5
5C1B8
330
5C1B0
100
AcDbEntity
  8
Abode_dims
 62
     0
440
 16777216
100
AcDbTrace
 10
31391.1888424759
 20
26203.84494857928
 30
0.0
 11
31394.52217580923
 21
26203.84494857928
 31
0.0
 12
31392.85550914256
 22
26213.84494857928
 32
0.0
 13
31392.85550914256
 23
26213.84494857928
 33
0.0
  0
SOLID
  5
5C1B9
330
5C1B0
100
AcDbEntity
  8
Abode_dims
 62
     0
440
 16777216
100
AcDbTrace
 10
31391.1888424759
 20
26226.60389092947
 30
0.0
 11
31394.52217580923
 21
26226.60389092947
 31
0.0
 12
31392.85550914256
 22
26216.60389092947
 32
0.0
 13
31392.85550914256
 23
26216.60389092947
 33
0.0
  0
MTEXT
  5
5C1BA
330
5C1B0
100
AcDbEntity
  8
Abode_dims
 62
     0
440
 16777216
100
AcDbMText
 10
31384.85550914256
 20
26241.81099771064
 30
0.0
 40
10.0
 41
0.0
 46
0.0
 71
     5
 72
     1
  1
3
 11
0.0000000000000001
 21
1.0
 31
0.0
 73
     1
 44
1.0
  0
POINT
  5
5C1BB
330
5C1B0
100
AcDbEntity
  8
DEFPOINTS
 62
     0
440
 16777216
100
AcDbPoint
 10
31400.87412125356
 20
26213.84494857928
 30
0.0
  0
POINT
  5
5C1BC
330
5C1B0
100
AcDbEntity
  8
DEFPOINTS
 62
     0
440
 16777216
100
AcDbPoint
 10
31401.62412201052
 20
26216.60389092947
 30
0.0
  0
POINT
  5
5C1BD
330
5C1B0
100
AcDbEntity
  8
DEFPOINTS
 62
     0
440
 16777216
100
AcDbPoint
 10
31392.85550914256
 20
26216.60389092947
 30
0.0
  0
ENDBLK
  5
5C1B2
330
5C1B0
100
AcDbEntity
  8
0
100
AcDbBlockEnd
  0
BLOCK
  5
5C1BF
330
5C1BE
100
AcDbEntity
  8
0
100
AcDbBlockBegin
  2
*D34
 70
     1
 10
0.0
 20
0.0
 30
0.0
  3
*D34
  1

  0
LINE
  5
5C1C1
330
5C1BE
100
AcDbEntity
  8
Abode_tap drawing line
 62
     0
440
 16777216
370
    -2
100
AcDbLine
 10
31367.14664781373
 20
26193.32329252206
 30
0.0
 11
31367.14664781373
 21
26186.65097572923
 31
0.0
  0
LINE
  5
5C1C2
330
5C1BE
100
AcDbEntity
  8
Abode_tap drawing line
 62
     0
440
 16777216
370
    -2
100
AcDbLine
 10
31368.88369896598
 20
26186.86383100602
 30
0.0
 11
31368.88369896598
 21
26186.65097572923
 31
0.0
  0
LINE
  5
5C1C3
330
5C1BE
100
AcDbEntity
  8
Abode_tap drawing line
 62
     0
440
 16777216
370
    -2
100
AcDbLine
 10
31357.14664781374
 20
26189.65097572923
 30
0.0
 11
31347.14664781374
 21
26189.65097572923
 31
0.0
  0
LINE
  5
5C1C4
330
5C1BE
100
AcDbEntity
  8
Abode_tap drawing line
 62
     0
440
 16777216
370
    -2
100
AcDbLine
 10
31378.88369896598
 20
26189.65097572923
 30
0.0
 11
31399.73822652504
 21
26189.65097572923
 31
0.0
  0
LINE
  5
5C1C5
330
5C1BE
100
AcDbEntity
  8
Abode_tap drawing line
 62
     0
440
 16777216
370
    -2
100
AcDbLine
 10
31367.14664781373
 20
26189.65097572923
 30
0.0
 11
31368.88369896598
 21
26189.65097572923
 31
0.0
  0
SOLID
  5
5C1C6
330
5C1BE
100
AcDbEntity
  8
Abode_tap drawing line
 62
     0
440
 16777216
100
AcDbTrace
 10
31357.14664781374
 20
26191.3176423959
 30
0.0
 11
31357.14664781374
 21
26187.98430906256
 31
0.0
 12
31367.14664781373
 22
26189.65097572923
 32
0.0
 13
31367.14664781373
 23
26189.65097572923
 33
0.0
  0
SOLID
  5
5C1C7
330
5C1BE
100
AcDbEntity
  8
Abode_tap drawing line
 62
     0
440
 16777216
100
AcDbTrace
 10
31378.88369896598
 20
26191.3176423959
 30
0.0
 11
31378.88369896598
 21
26187.98430906256
 31
0.0
 12
31368.88369896598
 22
26189.65097572923
 32
0.0
 13
31368.88369896598
 23
26189.65097572923
 33
0.0
  0
MTEXT
  5
5C1C8
330
5C1BE
100
AcDbEntity
  8
Abode_tap drawing line
 62
     0
440
 16777216
100
AcDbMText
 10
31394.31096274551
 20
26197.6519599812
 30
0.0
 40
10.0
 41
0.0
 46
0.0
 71
     5
 72
     1
  1
2
 73
     1
 44
1.0
  0
POINT
  5
5C1C9
330
5C1BE
100
AcDbEntity
  8
DEFPOINTS
 62
     0
440
 16777216
100
AcDbPoint
 10
31367.14664781373
 20
26203.32329252206
 30
0.0
  0
POINT
  5
5C1CA
330
5C1BE
100
AcDbEntity
  8
DEFPOINTS
 62
     0
440
 16777216
100
AcDbPoint
 10
31368.88369896598
 20
26196.86383100602
 30
0.0
  0
POINT
  5
5C1CB
330
5C1BE
100
AcDbEntity
  8
DEFPOINTS
 62
     0
440
 16777216
100
AcDbPoint
 10
31368.88369896598
 20
26189.65097572923
 30
0.0
  0
ENDBLK
  5
5C1C0
330
5C1BE
100
AcDbEntity
  8
0
100
AcDbBlockEnd
  0
BLOCK
  5
5C1CD
330
5C1CC
100
AcDbEntity
  8
0
100
AcDbBlockBegin
  2
*D35
 70
     1
 10
0.0
 20
0.0
 30
0.0
  3
*D35
  1

  0
LINE
  5
5C304
330
5C1CC
100
AcDbEntity
  8
DIMS SPECS
440
 16777216
100
AcDbLine
 10
31345.09160034384
 20
25809.58754221406
 30
0.0
 11
31345.09160034384
 21
25748.4398458223
 31
0.0
  0
LINE
  5
5C305
330
5C1CC
100
AcDbEntity
  8
DIMS SPECS
440
 16777216
100
AcDbLine
 10
32229.09161034385
 20
25809.58754221406
 30
0.0
 11
32229.09161034385
 21
25748.4398458223
 31
0.0
  0
LINE
  5
5C306
330
5C1CC
100
AcDbEntity
  8
DIMS SPECS
440
 16777216
100
AcDbLine
 10
31357.59160034385
 20
25748.4398458223
 30
0.0
 11
32216.59161034386
 21
25748.4398458223
 31
0.0
  0
SOLID
  5
5C307
330
5C1CC
100
AcDbEntity
  8
DIMS SPECS
440
 16777216
100
AcDbTrace
 10
31357.59160034385
 20
25750.52317915563
 30
0.0
 11
31357.59160034385
 21
25746.35651248896
 31
0.0
 12
31345.09160034384
 22
25748.4398458223
 32
0.0
 13
31345.09160034384
 23
25748.4398458223
 33
0.0
  0
SOLID
  5
5C308
330
5C1CC
100
AcDbEntity
  8
DIMS SPECS
440
 16777216
100
AcDbTrace
 10
32216.59161034386
 20
25750.52317915563
 30
0.0
 11
32216.59161034386
 21
25746.35651248896
 31
0.0
 12
32229.09161034385
 22
25748.4398458223
 32
0.0
 13
32229.09161034385
 23
25748.4398458223
 33
0.0
  0
MTEXT
  5
5C309
330
5C1CC
100
AcDbEntity
  8
DIMS SPECS
440
 16777216
100
AcDbMText
 10
31787.09160534385
 20
25764.86744609422
 30
0.0
 40
17.0
 41
0.0
 46
0.0
 71
     5
 72
     1
  1
\A1;884
  7
Abode ISO Bold
 73
     1
 44
1.0
  0
POINT
  5
5C30A
330
5C1CC
100
AcDbEntity
  8
DEFPOINTS
 62
     0
440
 16777216
100
AcDbPoint
 10
31345.09160034384
 20
25824.58754221407
 30
0.0
  0
POINT
  5
5C30B
330
5C1CC
100
AcDbEntity
  8
DEFPOINTS
 62
     0
440
 16777216
100
AcDbPoint
 10
32229.09161034385
 20
25824.58754221407
 30
0.0
  0
POINT
  5
5C30C
330
5C1CC
100
AcDbEntity
  8
DEFPOINTS
 62
     0
440
 16777216
100
AcDbPoint
 10
32229.09161034385
 20
25748.4398458223
 30
0.0
  0
ENDBLK
  5
5C1CE
330
5C1CC
100
AcDbEntity
  8
0
100
AcDbBlockEnd
  0
BLOCK
  5
5C1D9
330
5C1D8
100
AcDbEntity
  8
0
100
AcDbBlockBegin
  2
*D36
 70
     1
 10
0.0
 20
0.0
 30
0.0
  3
*D36
  1

  0
LINE
  5
5C30D
330
5C1D8
100
AcDbEntity
  8
DIMS SPECS
440
 16777216
100
AcDbLine
 10
31340.09108948613
 20
25814.58754222712
 30
0.0
 11
31298.21905892183
 21
25814.58754222712
 31
0.0
  0
LINE
  5
5C30E
330
5C1D8
100
AcDbEntity
  8
DIMS SPECS
440
 16777216
100
AcDbLine
 10
31340.09160034386
 20
26256.58536308268
 30
0.0
 11
31298.21905892183
 21
26256.58536308268
 31
0.0
  0
LINE
  5
5C30F
330
5C1D8
100
AcDbEntity
  8
DIMS SPECS
440
 16777216
100
AcDbLine
 10
31298.21905892183
 20
25827.08754222712
 30
0.0
 11
31298.21905892183
 21
26019.37265251894
 31
0.0
  0
LINE
  5
5C310
330
5C1D8
100
AcDbEntity
  8
DIMS SPECS
440
 16777216
100
AcDbLine
 10
31298.21905892183
 20
26244.08536308268
 30
0.0
 11
31298.21905892183
 21
26051.80025279087
 31
0.0
  0
SOLID
  5
5C311
330
5C1D8
100
AcDbEntity
  8
DIMS SPECS
440
 16777216
100
AcDbTrace
 10
31296.1357255885
 20
25827.08754222712
 30
0.0
 11
31300.30239225516
 21
25827.08754222712
 31
0.0
 12
31298.21905892183
 22
25814.58754222712
 32
0.0
 13
31298.21905892183
 23
25814.58754222712
 33
0.0
  0
SOLID
  5
5C312
330
5C1D8
100
AcDbEntity
  8
DIMS SPECS
440
 16777216
100
AcDbTrace
 10
31296.1357255885
 20
26244.08536308268
 30
0.0
 11
31300.30239225516
 21
26244.08536308268
 31
0.0
 12
31298.21905892183
 22
26256.58536308268
 32
0.0
 13
31298.21905892183
 23
26256.58536308268
 33
0.0
  0
MTEXT
  5
5C313
330
5C1D8
100
AcDbEntity
  8
DIMS SPECS
440
 16777216
100
AcDbMText
 10
31298.21905892183
 20
26035.58645265489
 30
0.0
 40
17.0
 41
0.0
 46
0.0
 71
     5
 72
     1
  1
\A1;442
  7
Abode ISO Bold
 73
     1
 44
1.0
  0
POINT
  5
5C314
330
5C1D8
100
AcDbEntity
  8
DEFPOINTS
 62
     0
440
 16777216
100
AcDbPoint
 10
31355.09108948614
 20
25814.58754222712
 30
0.0
  0
POINT
  5
5C315
330
5C1D8
100
AcDbEntity
  8
DEFPOINTS
 62
     0
440
 16777216
100
AcDbPoint
 10
31355.09160034386
 20
26256.58536308268
 30
0.0
  0
POINT
  5
5C316
330
5C1D8
100
AcDbEntity
  8
DEFPOINTS
 62
     0
440
 16777216
100
AcDbPoint
 10
31298.21905892183
 20
26256.58536308268
 30
0.0
  0
ENDBLK
  5
5C1DA
330
5C1D8
100
AcDbEntity
  8
0
100
AcDbBlockEnd
  0
BLOCK
  5
5C1E5
330
5C1E4
100
AcDbEntity
  8
0
100
AcDbBlockBegin
  2
*D37
 70
     1
 10
0.0
 20
0.0
 30
0.0
  3
*D37
  1

  0
LINE
  5
5C317
330
5C1E4
100
AcDbEntity
  8
DIMS SPECS
440
 16777216
100
AcDbLine
 10
31666.5782565848
 20
26050.5442011927
 30
0.0
 11
31666.5782565848
 21
26035.5442011927
 31
0.0
  0
LINE
  5
5C318
330
5C1E4
100
AcDbEntity
  8
DIMS SPECS
440
 16777216
100
AcDbLine
 10
32225.88588739383
 20
26050.5442011927
 30
0.0
 11
32225.88588739383
 21
26035.5442011927
 31
0.0
  0
LINE
  5
5C319
330
5C1E4
100
AcDbEntity
  8
DIMS SPECS
440
 16777216
100
AcDbLine
 10
31679.07825658481
 20
26035.5442011927
 30
0.0
 11
32213.38588739383
 21
26035.5442011927
 31
0.0
  0
SOLID
  5
5C31A
330
5C1E4
100
AcDbEntity
  8
DIMS SPECS
440
 16777216
100
AcDbTrace
 10
31679.07825658481
 20
26037.62753452603
 30
0.0
 11
31679.07825658481
 21
26033.46086785937
 31
0.0
 12
31666.5782565848
 22
26035.5442011927
 32
0.0
 13
31666.5782565848
 23
26035.5442011927
 33
0.0
  0
SOLID
  5
5C31B
330
5C1E4
100
AcDbEntity
  8
DIMS SPECS
440
 16777216
100
AcDbTrace
 10
32213.38588739383
 20
26037.62753452603
 30
0.0
 11
32213.38588739383
 21
26033.46086785937
 31
0.0
 12
32225.88588739383
 22
26035.5442011927
 32
0.0
 13
32225.88588739383
 23
26035.5442011927
 33
0.0
  0
MTEXT
  5
5C31C
330
5C1E4
100
AcDbEntity
  8
DIMS SPECS
440
 16777216
100
AcDbMText
 10
31946.23207198932
 20
26051.97180146462
 30
0.0
 40
17.0
 41
0.0
 46
0.0
 71
     5
 72
     1
  1
\A1;559
  7
Abode ISO Bold
 73
     1
 44
1.0
  0
POINT
  5
5C31D
330
5C1E4
100
AcDbEntity
  8
DEFPOINTS
 62
     0
440
 16777216
100
AcDbPoint
 10
31666.5782565848
 20
26035.5442011927
 30
0.0
  0
POINT
  5
5C31E
330
5C1E4
100
AcDbEntity
  8
DEFPOINTS
 62
     0
440
 16777216
100
AcDbPoint
 10
32225.88588739383
 20
26035.5442011927
 30
0.0
  0
POINT
  5
5C31F
330
5C1E4
100
AcDbEntity
  8
DEFPOINTS
 62
     0
440
 16777216
100
AcDbPoint
 10
32225.88588739383
 20
26035.5442011927
 30
0.0
  0
ENDBLK
  5
5C1E6
330
5C1E4
100
AcDbEntity
  8
0
100
AcDbBlockEnd
  0
BLOCK
  5
5C1F1
330
5C1F0
100
AcDbEntity
  8
0
100
AcDbBlockBegin
  2
*D38
 70
     1
 10
0.0
 20
0.0
 30
0.0
  3
*D38
  1

  0
LINE
  5
5C320
330
5C1F0
100
AcDbEntity
  8
DIMS SPECS
440
 16777216
100
AcDbLine
 10
31961.23207198933
 20
26235.73428206679
 30
0.0
 11
31995.47841151245
 21
26235.73428206679
 31
0.0
  0
LINE
  5
5C321
330
5C1F0
100
AcDbEntity
  8
DIMS SPECS
440
 16777216
100
AcDbLine
 10
31961.23207198933
 20
25835.35412031863
 30
0.0
 11
31995.47841151245
 21
25835.35412031863
 31
0.0
  0
LINE
  5
5C322
330
5C1F0
100
AcDbEntity
  8
DIMS SPECS
440
 16777216
100
AcDbLine
 10
31995.47841151245
 20
26223.2342820668
 30
0.0
 11
31995.47841151245
 21
26139.87597253236
 31
0.0
  0
LINE
  5
5C323
330
5C1F0
100
AcDbEntity
  8
DIMS SPECS
440
 16777216
100
AcDbLine
 10
31995.47841151245
 20
25847.85412031863
 30
0.0
 11
31995.47841151245
 21
26107.02077198851
 31
0.0
  0
MTEXT
  5
5C324
330
5C1F0
100
AcDbEntity
  8
DIMS SPECS
440
 16777216
100
AcDbMText
 10
31995.47841151238
 20
26123.44837226042
 30
0.0
 40
17.0
 41
0.0
 46
0.0
 71
     5
 72
     1
  1
\A1;400
  7
Abode ISO Bold
 73
     1
 44
1.0
  0
SOLID
  5
5C325
330
5C1F0
100
AcDbEntity
  8
DIMS SPECS
440
 16777216
100
AcDbTrace
 10
31993.39507817911
 20
26223.2342820668
 30
0.0
 11
31997.56174484578
 21
26223.2342820668
 31
0.0
 12
31995.47841151245
 22
26235.73428206679
 32
0.0
 13
31995.47841151245
 23
26235.73428206679
 33
0.0
  0
SOLID
  5
5C326
330
5C1F0
100
AcDbEntity
  8
DIMS SPECS
440
 16777216
100
AcDbTrace
 10
31993.39507817911
 20
25847.85412031863
 30
0.0
 11
31997.56174484578
 21
25847.85412031863
 31
0.0
 12
31995.47841151245
 22
25835.35412031863
 32
0.0
 13
31995.47841151245
 23
25835.35412031863
 33
0.0
  0
POINT
  5
5C327
330
5C1F0
100
AcDbEntity
  8
DEFPOINTS
 62
     0
440
 16777216
100
AcDbPoint
 10
31946.23207198934
 20
26235.73428206679
 30
0.0
  0
POINT
  5
5C328
330
5C1F0
100
AcDbEntity
  8
DEFPOINTS
 62
     0
440
 16777216
100
AcDbPoint
 10
31946.23207198934
 20
25835.35412031863
 30
0.0
  0
POINT
  5
5C329
330
5C1F0
100
AcDbEntity
  8
DEFPOINTS
 62
     0
440
 16777216
100
AcDbPoint
 10
31995.47841151245
 20
25835.35412031863
 30
0.0
  0
ENDBLK
  5
5C1F2
330
5C1F0
100
AcDbEntity
  8
0
100
AcDbBlockEnd
  0
BLOCK
  5
5C1FD
330
5C1FC
100
AcDbEntity
  8
0
100
AcDbBlockBegin
  2
*D39
 70
     1
 10
0.0
 20
0.0
 30
0.0
  3
*D39
  1

  0
LINE
  5
5C2EA
330
5C1FC
100
AcDbEntity
  8
DIMS SPECS
440
 16777216
100
AcDbLine
 10
29546.29531150973
 20
26050.58645264836
 30
0.0
 11
29546.29531150973
 21
26288.20656048683
 31
0.0
  0
LINE
  5
5C2EB
330
5C1FC
100
AcDbEntity
  8
DIMS SPECS
440
 16777216
100
AcDbLine
 10
30411.29716163195
 20
26050.58645264836
 30
0.0
 11
30411.29716163195
 21
26288.20656048683
 31
0.0
  0
LINE
  5
5C2EC
330
5C1FC
100
AcDbEntity
  8
DIMS SPECS
440
 16777216
100
AcDbLine
 10
29558.79531150973
 20
26288.20656048683
 30
0.0
 11
30398.79716163195
 21
26288.20656048683
 31
0.0
  0
SOLID
  5
5C2ED
330
5C1FC
100
AcDbEntity
  8
DIMS SPECS
440
 16777216
100
AcDbTrace
 10
29558.79531150973
 20
26290.28989382016
 30
0.0
 11
29558.79531150973
 21
26286.1232271535
 31
0.0
 12
29546.29531150973
 22
26288.20656048683
 32
0.0
 13
29546.29531150973
 23
26288.20656048683
 33
0.0
  0
SOLID
  5
5C2EE
330
5C1FC
100
AcDbEntity
  8
DIMS SPECS
440
 16777216
100
AcDbTrace
 10
30398.79716163195
 20
26290.28989382016
 30
0.0
 11
30398.79716163195
 21
26286.1232271535
 31
0.0
 12
30411.29716163195
 22
26288.20656048683
 32
0.0
 13
30411.29716163195
 23
26288.20656048683
 33
0.0
  0
MTEXT
  5
5C2EF
330
5C1FC
100
AcDbEntity
  8
DIMS SPECS
440
 16777216
100
AcDbMText
 10
29978.79623657084
 20
26304.63416075875
 30
0.0
 40
17.0
 41
0.0
 46
0.0
 71
     5
 72
     1
  1
\A1;865
  7
Abode ISO Bold
 73
     1
 44
1.0
  0
POINT
  5
5C2F0
330
5C1FC
100
AcDbEntity
  8
DEFPOINTS
 62
     0
440
 16777216
100
AcDbPoint
 10
29546.29531150973
 20
26035.58645264837
 30
0.0
  0
POINT
  5
5C2F1
330
5C1FC
100
AcDbEntity
  8
DEFPOINTS
 62
     0
440
 16777216
100
AcDbPoint
 10
30411.29716163195
 20
26035.58645264837
 30
0.0
  0
POINT
  5
5C2F2
330
5C1FC
100
AcDbEntity
  8
DEFPOINTS
 62
     0
440
 16777216
100
AcDbPoint
 10
30411.29716163195
 20
26288.20656048683
 30
0.0
  0
ENDBLK
  5
5C1FE
330
5C1FC
100
AcDbEntity
  8
0
100
AcDbBlockEnd
  0
BLOCK
  5
5C209
330
5C208
100
AcDbEntity
  8
0
100
AcDbBlockBegin
  2
*D40
 70
     1
 10
0.0
 20
0.0
 30
0.0
  3
*D40
  1

  0
LINE
  5
5C2F3
330
5C208
100
AcDbEntity
  8
DIMS SPECS
440
 16777216
100
AcDbLine
 10
29963.79623657085
 20
26239.93714744005
 30
0.0
 11
29503.8275690215
 21
26239.93714744005
 31
0.0
  0
LINE
  5
5C2F4
330
5C208
100
AcDbEntity
  8
DIMS SPECS
440
 16777216
100
AcDbLine
 10
29963.79623657085
 20
25831.23575785671
 30
0.0
 11
29503.8275690215
 21
25831.23575785671
 31
0.0
  0
LINE
  5
5C2F5
330
5C208
100
AcDbEntity
  8
DIMS SPECS
440
 16777216
100
AcDbLine
 10
29503.8275690215
 20
26227.43714744005
 30
0.0
 11
29503.8275690215
 21
26052.0140529203
 31
0.0
  0
LINE
  5
5C2F6
330
5C208
100
AcDbEntity
  8
DIMS SPECS
440
 16777216
100
AcDbLine
 10
29503.8275690215
 20
25843.73575785671
 30
0.0
 11
29503.8275690215
 21
26019.15885237646
 31
0.0
  0
SOLID
  5
5C2F7
330
5C208
100
AcDbEntity
  8
DIMS SPECS
440
 16777216
100
AcDbTrace
 10
29501.74423568817
 20
26227.43714744005
 30
0.0
 11
29505.91090235484
 21
26227.43714744005
 31
0.0
 12
29503.8275690215
 22
26239.93714744005
 32
0.0
 13
29503.8275690215
 23
26239.93714744005
 33
0.0
  0
SOLID
  5
5C2F8
330
5C208
100
AcDbEntity
  8
DIMS SPECS
440
 16777216
100
AcDbTrace
 10
29501.74423568817
 20
25843.73575785671
 30
0.0
 11
29505.91090235484
 21
25843.73575785671
 31
0.0
 12
29503.8275690215
 22
25831.23575785671
 32
0.0
 13
29503.8275690215
 23
25831.23575785671
 33
0.0
  0
MTEXT
  5
5C2F9
330
5C208
100
AcDbEntity
  8
DIMS SPECS
440
 16777216
100
AcDbMText
 10
29503.8275690215
 20
26035.58645264837
 30
0.0
 40
17.0
 41
0.0
 46
0.0
 71
     5
 72
     1
  1
\A1;409
  7
Abode ISO Bold
 73
     1
 44
1.0
  0
POINT
  5
5C2FA
330
5C208
100
AcDbEntity
  8
DEFPOINTS
 62
     0
440
 16777216
100
AcDbPoint
 10
29978.79623657085
 20
26239.93714744005
 30
0.0
  0
POINT
  5
5C2FB
330
5C208
100
AcDbEntity
  8
DEFPOINTS
 62
     0
440
 16777216
100
AcDbPoint
 10
29978.79623657085
 20
25831.23575785671
 30
0.0
  0
POINT
  5
5C2FC
330
5C208
100
AcDbEntity
  8
DEFPOINTS
 62
     0
440
 16777216
100
AcDbPoint
 10
29503.8275690215
 20
25831.23575785671
 30
0.0
  0
ENDBLK
  5
5C20A
330
5C208
100
AcDbEntity
  8
0
100
AcDbBlockEnd
  0
BLOCK
  5
5C21F
330
5C21E
100
AcDbEntity
  8
0
100
AcDbBlockBegin
  2
*D41
 70
     1
 10
0.0
 20
0.0
 30
0.0
  3
*D41
  1

  0
LINE
  5
5C32A
330
5C21E
100
AcDbEntity
  8
DIMS SPECS
440
 16777216
100
AcDbLine
 10
30467.59750009917
 20
26252.79888430515
 30
0.0
 11
30426.6996075091
 21
26252.79888430515
 31
0.0
  0
LINE
  5
5C32B
330
5C21E
100
AcDbEntity
  8
DIMS SPECS
440
 16777216
100
AcDbLine
 10
30426.6996075091
 20
26252.79888430515
 30
0.0
 11
30417.4420244425
 21
26244.39964887775
 31
0.0
  0
MTEXT
  5
5C32C
330
5C21E
100
AcDbEntity
  8
DIMS SPECS
440
 16777216
100
AcDbMText
 10
30450.89855380414
 20
26269.01268444111
 30
0.0
 40
17.0
 41
0.0
 46
0.0
 71
     5
 72
     1
  1
\A1;R12
  7
Abode ISO Bold
 73
     1
 44
1.0
  0
LINE
  5
5C32D
330
5C21E
100
AcDbEntity
  8
DIMS SPECS
440
 16777216
100
AcDbLine
 10
30399.29716163196
 20
26227.93714744003
 30
0.0
 11
30408.1844413759
 21
26236.00041345034
 31
0.0
  0
SOLID
  5
5C32E
330
5C21E
100
AcDbEntity
  8
DIMS SPECS
440
 16777216
100
AcDbTrace
 10
30416.04215187126
 20
26245.94257938885
 30
0.0
 11
30418.84189701373
 21
26242.85671836664
 31
0.0
 12
30408.1844413759
 22
26236.00041345034
 32
0.0
 13
30408.1844413759
 23
26236.00041345034
 33
0.0
  0
POINT
  5
5C32F
330
5C21E
100
AcDbEntity
  8
DEFPOINTS
 62
     0
440
 16777216
100
AcDbPoint
 10
30408.1844413759
 20
26236.00041345034
 30
0.0
  0
POINT
  5
5C330
330
5C21E
100
AcDbEntity
  8
DEFPOINTS
 62
     0
440
 16777216
100
AcDbPoint
 10
30399.29716163196
 20
26227.93714744003
 30
0.0
  0
ENDBLK
  5
5C220
330
5C21E
100
AcDbEntity
  8
0
100
AcDbBlockEnd
  0
ENDSEC
  0
SECTION
  2
ENTITIES
  0
TEXT
  5
4EFD5
330
59E12
100
AcDbEntity
  8
LAYER1
100
AcDbText
 10
28758.63141572883
 20
26599.73216588747
 30
0.0
 40
150.0
  1
AW3185, AW3186, AW3187
100
AcDbText
  0
TEXT
  5
4EFEA
330
59E12
100
AcDbEntity
  8
LAYER1
100
AcDbText
 10
28869.31203281712
 20
25936.2547433408
 30
0.0
 40
30.0
  1
file version 1
100
AcDbText
  0
INSERT
  5
59C21
330
59E12
100
AcDbEntity
  8
0
100
AcDbBlockReference
  2
*U19
 10
0.0
 20
0.0
 30
0.0
  0
DIMENSION
  5
5B974
102
{ACAD_XDICTIONARY
360
5B975
102
}
102
{ACAD_REACTORS
330
5B976
102
}
330
59E12
100
AcDbEntity
  8
DIMS SPECS
100
AcDbDimension
280
     0
  2
*D39
 10
30411.29716163195
 20
26288.20656048683
 30
0.0
 11
29978.79623657084
 21
26304.63416075875
 31
0.0
 70
    32
 71
     5
 42
865.0018501222257
 73
     0
 74
     0
 75
     0
  3
ABODE-ISO$0
100
AcDbAlignedDimension
 13
29546.29531150973
 23
26035.58645264837
 33
0.0
 14
30411.29716163195
 24
26035.58645264837
 34
0.0
100
AcDbRotatedDimension
1001
ACAD
1000
DSTYLE
1002
{
1070
   340
1005
5B130
1070
   371
1070
    -1
1070
   372
1070
    -1
1002
}
  0
DIMENSION
  5
5B977
102
{ACAD_XDICTIONARY
360
5B978
102
}
102
{ACAD_REACTORS
330
5B979
102
}
330
59E12
100
AcDbEntity
  8
DIMS SPECS
100
AcDbDimension
280
     0
  2
*D40
 10
29503.8275690215
 20
25831.23575785671
 30
0.0
 11
29503.8275690215
 21
26035.58645264837
 31
0.0
 70
    32
  1
409
 71
     5
 42
408.7013895833442
 73
     0
 74
     0
 75
     0
  3
ABODE-ISO$0
100
AcDbAlignedDimension
 13
29978.79623657084
 23
26239.93714744004
 33
0.0
 14
29978.79623657084
 24
25831.23575785669
 34
0.0
 50
90.0
100
AcDbRotatedDimension
1001
ACAD
1000
DSTYLE
1002
{
1070
   340
1005
5B130
1070
   371
1070
    -1
1070
   372
1070
    -1
1002
}
  0
LWPOLYLINE
  5
5BAE1
102
{ACAD_REACTORS
330
5B976
330
5B979
330
5BAE5
102
}
330
59E12
100
AcDbEntity
  8
CUTOUT
100
AcDbPolyline
 90
        8
 70
     1
 43
0.0
 10
29558.29531150973
 20
26239.93714744004
 10
30399.29716163195
 20
26239.93714744004
 42
-0.4142135623730951
 10
30411.29716163195
 20
26227.93714744004
 10
30411.29716163195
 20
25843.23575785669
 42
-0.4142135623730951
 10
30399.29716163195
 20
25831.23575785669
 10
29558.29531150973
 20
25831.23575785669
 42
-0.4142135623730951
 10
29546.29531150973
 20
25843.23575785669
 10
29546.29531150973
 20
26227.93714744004
 42
-0.4142135623730951
  0
DIMENSION
  5
5BAE3
102
{ACAD_XDICTIONARY
360
5BAE4
102
}
102
{ACAD_REACTORS
330
5BAE5
102
}
330
59E12
100
AcDbEntity
  8
DIMS SPECS
100
AcDbDimension
280
     0
  2
*D41
 10
30399.29716163196
 20
26227.93714744003
 30
0.0
 11
30450.89855380414
 21
26269.01268444111
 31
0.0
 70
    36
 71
     5
 42
12.0
 73
     0
 74
     0
 75
     0
  3
ABODE-ISO$4
100
AcDbRadialDimension
 15
30408.1844413759
 25
26236.00041345034
 35
0.0
 40
0.0
1001
ACAD
1000
DSTYLE
1002
{
1070
   340
1005
5B130
1070
   371
1070
    -1
1070
   372
1070
    -1
1002
}
1001
ACAD_DSTYLE_DIMRADIAL_EXTENSION
1070
   387
1070
     1
1070
   388
1040
0.0
1070
   390
1040
1.570796326794896
  0
MTEXT
  5
5BAE9
330
59E12
100
AcDbEntity
  8
Cut outs
100
AcDbMText
 10
30599.44413290561
 20
26271.95139931742
 30
0.0
 40
20.0
 41
591.6606936265925
 46
0.0
 71
     1
 72
     5
  3
All details are provided in good faith and within tolerances of the manufacturers process.\P\PWe recommend that a cut out is made in timber and checked against the actual sink that has been supplied before cutting the work-surface. \P\PAbode cannot a
  1
ccept liability for problems or cost incurred by failure to follow this advise.\P\PAll dimensions, weights and measures are subject to change without prior notice. Errors and omissions accepted.
 73
     1
 44
1.0
1001
ACAD
1000
ACAD_MTEXT_COLUMN_INFO_BEGIN
1070
    75
1070
     2
1070
    79
1070
     0
1070
    76
1070
     1
1070
    78
1070
     0
1070
    48
1040
591.6606936265925
1070
    49
1040
12.5
1070
    50
1070
     1
1040
449.3254998950524
1000
ACAD_MTEXT_COLUMN_INFO_END
  0
MTEXT
  5
5BAEA
330
59E12
100
AcDbEntity
  8
Cut outs
100
AcDbMText
 10
29723.38364243233
 20
26177.04038653282
 30
0.0
 40
10.0
 41
260.7741974463315
 46
0.0
 71
     1
 72
     5
  3
All details are provided in good faith and within tolerances of the manufacturers process.\P\PWe recommend that a cut out is made in timber and checked against the actual sink that has been supplied before cutting the work-surface. \P\PAbode cannot a
  1
ccept liability for problems or cost incurred by failure to follow this advise.\P\PAll dimensions, weights and measures are subject to change without prior notice. Errors and omissions accepted.
 73
     1
 44
1.0
1001
ACAD
1000
ACAD_MTEXT_COLUMN_INFO_BEGIN
1070
    75
1070
     2
1070
    79
1070
     0
1070
    76
1070
     1
1070
    78
1070
     0
1070
    48
1040
260.7741974463315
1070
    49
1040
12.5
1070
    50
1070
     1
1040
449.3254998950524
1000
ACAD_MTEXT_COLUMN_INFO_END
  0
LWPOLYLINE
  5
5C196
102
{ACAD_REACTORS
330
5C19A
330
5C19D
102
}
330
59E12
100
AcDbEntity
  8
CUTOUT
100
AcDbPolyline
 90
        8
 70
     1
 43
0.0
 10
32229.09161034386
 20
26246.58536308266
 10
32229.09161034386
 20
25824.54340410566
 42
-0.4142285251287328
 10
32219.09109948613
 20
25814.54340411871
 10
31355.09108948612
 20
25814.58754222711
 42
-0.4141985997757656
 10
31345.09160034385
 20
25824.58754221407
 10
31345.09160034385
 20
26246.58536308266
 42
-0.4142135623730951
 10
31355.09160034385
 20
26256.58536308267
 10
32219.09161034386
 20
26256.58536308267
 42
-0.4142135623730953
  0
LWPOLYLINE
  5
5C197
102
{ACAD_REACTORS
330
5C1A0
330
5C1A3
102
}
330
59E12
100
AcDbEntity
  8
CUTOUT
  6
DASHED2
 48
5.0
100
AcDbPolyline
 90
        8
 70
     1
 43
0.0
 10
32220.88588739383
 20
25835.35412031861
 91
        3
 10
31671.57825658481
 20
25835.35412031861
 42
-0.4142135623730951
 91
        4
 10
31666.5782565848
 20
25840.35412031862
 10
31666.5782565848
 20
26230.73428206678
 42
-0.4142135623730951
 10
31671.57825658481
 20
26235.73428206678
 91
        1
 10
32220.88588739383
 20
26235.73428206678
 42
-0.4142135623730951
 91
        2
 10
32225.88588739383
 20
26230.73428206678
 10
32225.88588739383
 20
25840.35412031862
 42
-0.4142135623730951
  0
DIMENSION
  5
5C198
102
{ACAD_XDICTIONARY
360
5C199
102
}
102
{ACAD_REACTORS
330
5C19A
102
}
330
59E12
100
AcDbEntity
  8
DIMS SPECS
100
AcDbDimension
280
     0
  2
*D35
 10
32229.09161034385
 20
25748.4398458223
 30
0.0
 11
31787.09160534385
 21
25764.86744609422
 31
0.0
 70
    32
 71
     5
 42
884.0000100000107
 73
     0
 74
     0
 75
     0
  3
ABODE-ISO$0
100
AcDbAlignedDimension
 13
31345.09160034384
 23
25824.58754221407
 33
0.0
 14
32229.09161034385
 24
25824.58754221407
 34
0.0
100
AcDbRotatedDimension
1001
ACAD
1000
DSTYLE
1002
{
1070
   340
1005
5B130
1070
   371
1070
    -1
1070
   372
1070
    -1
1002
}
  0
DIMENSION
  5
5C19B
102
{ACAD_XDICTIONARY
360
5C19C
102
}
102
{ACAD_REACTORS
330
5C19D
102
}
330
59E12
100
AcDbEntity
  8
DIMS SPECS
100
AcDbDimension
280
     0
  2
*D36
 10
31298.21905892183
 20
26256.58536308268
 30
0.0
 11
31298.21905892183
 21
26035.58645265489
 31
0.0
 70
    32
 71
     5
 42
441.9978208555549
 73
     0
 74
     0
 75
     0
  3
ABODE-ISO$0
100
AcDbAlignedDimension
 13
31355.09108948612
 23
25814.58754222711
 33
0.0
 14
31355.09160034385
 24
26256.58536308267
 34
0.0
 50
90.0
100
AcDbRotatedDimension
1001
ACAD
1000
DSTYLE
1002
{
1070
   340
1005
5B130
1070
   371
1070
    -1
1070
   372
1070
    -1
1002
}
  0
DIMENSION
  5
5C19E
102
{ACAD_XDICTIONARY
360
5C19F
102
}
102
{ACAD_REACTORS
330
5C1A0
102
}
330
59E12
100
AcDbEntity
  8
DIMS SPECS
100
AcDbDimension
280
     0
  2
*D37
 10
32225.88588739383
 20
26035.5442011927
 30
0.0
 11
31946.23207198932
 21
26051.97180146462
 31
0.0
 70
    32
  1
559
 71
     5
 42
559.3076308090239
 73
     0
 74
     0
 75
     0
  3
ABODE-ISO$0
100
AcDbAlignedDimension
 13
31666.5782565848
 23
26035.5442011927
 33
0.0
 14
32225.88588739383
 24
26035.5442011927
 34
0.0
100
AcDbRotatedDimension
1001
ACAD
1000
DSTYLE
1002
{
1070
   340
1005
5B130
1070
   371
1070
    -1
1070
   372
1070
    -1
1002
}
  0
DIMENSION
  5
5C1A1
102
{ACAD_XDICTIONARY
360
5C1A2
102
}
102
{ACAD_REACTORS
330
5C1A3
102
}
330
59E12
100
AcDbEntity
  8
DIMS SPECS
100
AcDbDimension
280
     0
  2
*D38
 10
31995.47841151245
 20
25835.35412031863
 30
0.0
 11
31995.47841151238
 21
26123.44837226042
 31
0.0
 70
   160
  1
400
 71
     5
 42
400.3801617481658
 73
     0
 74
     0
 75
     0
  3
ABODE-ISO$0
100
AcDbAlignedDimension
 13
31946.23207198932
 23
26235.73428206678
 33
0.0
 14
31946.23207198932
 24
25835.35412031861
 34
0.0
 50
90.0
100
AcDbRotatedDimension
1001
ACAD
1000
DSTYLE
1002
{
1070
   340
1005
5B130
1070
   371
1070
    -1
1070
   372
1070
    -1
1002
}
  0
ENDSEC
  0
SECTION
  2
OBJECTS
  0
DICTIONARY
  5
59DAF
330
0
100
AcDbDictionary
281
     1
  3
ACAD_CIP_PREVIOUS_PRODUCT_INFO
350
59E68
  3
ACAD_COLOR
350
59E05
  3
ACAD_DETAILVIEWSTYLE
350
59E0C
  3
ACAD_GROUP
350
59DB0
  3
ACAD_LAYOUT
350
59E04
  3
ACAD_MATERIAL
350
59DB3
  3
ACAD_MLEADERSTYLE
350
59E08
  3
ACAD_MLINESTYLE
350
59E01
  3
ACAD_PLOTSETTINGS
350
59E03
  3
ACAD_PLOTSTYLENAME
350
59DB1
  3
ACAD_SCALELIST
350
59DE5
  3
ACAD_SECTIONVIEWSTYLE
350
59E0A
  3
ACAD_TABLESTYLE
350
59E06
  3
ACAD_VISUALSTYLE
350
59DCC
  3
ACDB_RECOMPOSE_DATA
350
5C34F
  3
AcDbVariableDictionary
350
5C343
  0
DICTIONARY
  5
5B13A
330
59DA5
100
AcDbDictionary
280
     1
281
     1
  3
ACAD_LAYERSTATES
360
5B13B
  0
DICTIONARY
  5
5C331
330
59DF7
100
AcDbDictionary
280
     1
281
     1
  3
ADSK_XREC_LAYER_RECONCILED
360
5C332
  0
DICTIONARY
  5
5C333
330
59E17
100
AcDbDictionary
280
     1
281
     1
  3
ADSK_XREC_LAYER_RECONCILED
360
5C334
  0
DICTIONARY
  5
5C335
330
59E19
100
AcDbDictionary
280
     1
281
     1
  3
ADSK_XREC_LAYER_RECONCILED
360
5C336
  0
DICTIONARY
  5
5C337
330
59E1A
100
AcDbDictionary
280
     1
281
     1
  3
ADSK_XREC_LAYER_RECONCILED
360
5C338
  0
DICTIONARY
  5
5C339
330
59E1B
100
AcDbDictionary
280
     1
281
     1
  3
ADSK_XREC_LAYER_RECONCILED
360
5C33A
  0
DICTIONARY
  5
5C33B
330
5B12C
100
AcDbDictionary
280
     1
281
     1
  3
ADSK_XREC_LAYER_RECONCILED
360
5C33C
  0
DICTIONARY
  5
5C33D
330
5B12D
100
AcDbDictionary
280
     1
281
     1
  3
ADSK_XREC_LAYER_RECONCILED
360
5C33E
  0
DICTIONARY
  5
5C33F
330
5B12E
100
AcDbDictionary
280
     1
281
     1
  3
ADSK_XREC_LAYER_RECONCILED
360
5C340
  0
DICTIONARY
  5
5C341
330
5B12F
100
AcDbDictionary
280
     1
281
     1
  3
ADSK_XREC_LAYER_RECONCILED
360
5C342
  0
DICTIONARY
  5
5B975
330
5B974
100
AcDbDictionary
280
     1
281
     1
  3
ACAD_DIMASSOC
360
5B976
  0
DICTIONARY
  5
5B978
330
5B977
100
AcDbDictionary
280
     1
281
     1
  3
ACAD_DIMASSOC
360
5B979
  0
DICTIONARY
  5
5BAE4
330
5BAE3
100
AcDbDictionary
280
     1
281
     1
  3
ACAD_DIMASSOC
360
5BAE5
  0
DICTIONARY
  5
5C199
330
5C198
100
AcDbDictionary
280
     1
281
     1
  3
ACAD_DIMASSOC
360
5C19A
  0
DICTIONARY
  5
5C19C
330
5C19B
100
AcDbDictionary
280
     1
281
     1
  3
ACAD_DIMASSOC
360
5C19D
  0
DICTIONARY
  5
5C19F
330
5C19E
100
AcDbDictionary
280
     1
281
     1
  3
ACAD_DIMASSOC
360
5C1A0
  0
DICTIONARY
  5
5C1A2
330
5C1A1
100
AcDbDictionary
280
     1
281
     1
  3
ACAD_DIMASSOC
360
5C1A3
  0
XRECORD
  5
59E68
102
{ACAD_REACTORS
330
59DAF
102
}
330
59DAF
100
AcDbXrecord
280
     1
300
ACDLT
300
2020
300

  0
DICTIONARY
  5
59E05
102
{ACAD_REACTORS
330
59DAF
102
}
330
59DAF
100
AcDbDictionary
281
     1
  0
DICTIONARY
  5
59E0C
102
{ACAD_REACTORS
330
59DAF
102
}
330
59DAF
100
AcDbDictionary
281
     1
  3
Imperial24
350
59E0D
  3
Metric50
350
5B13D
  0
DICTIONARY
  5
59DB0
102
{ACAD_REACTORS
330
59DAF
102
}
330
59DAF
100
AcDbDictionary
281
     1
  0
DICTIONARY
  5
59E04
102
{ACAD_REACTORS
330
59DAF
102
}
330
59DAF
100
AcDbDictionary
281
     1
  3
Layout1
350
59E11
  3
Model
350
59E15
  0
DICTIONARY
  5
59DB3
102
{ACAD_REACTORS
330
59DAF
102
}
330
59DAF
100
AcDbDictionary
281
     1
  3
ByBlock
350
59DBC
  3
ByLayer
350
59DB4
  3
Global
350
59DC4
  0
DICTIONARY
  5
59E08
102
{ACAD_REACTORS
330
59DAF
102
}
330
59DAF
100
AcDbDictionary
281
     1
  3
Standard
350
59E09
  0
DICTIONARY
  5
59E01
102
{ACAD_REACTORS
330
59DAF
102
}
330
59DAF
100
AcDbDictionary
281
     1
  3
Standard
350
59E02
  0
DICTIONARY
  5
59E03
102
{ACAD_REACTORS
330
59DAF
102
}
330
59DAF
100
AcDbDictionary
281
     1
  0
ACDBDICTIONARYWDFLT
  5
59DB1
102
{ACAD_REACTORS
330
59DAF
102
}
330
59DAF
100
AcDbDictionary
281
     1
  3
Normal
350
59DB2
100
AcDbDictionaryWithDefault
340
59DB2
  0
DICTIONARY
  5
59DE5
102
{ACAD_REACTORS
330
59DAF
102
}
330
59DAF
100
AcDbDictionary
281
     1
  3
A0
350
59DE6
  3
A1
350
59DE7
  3
A2
350
59DE8
  3
A3
350
59DE9
  3
A4
350
59DEA
  3
A5
350
59DEB
  3
A6
350
59DEC
  3
A7
350
59DED
  3
A8
350
59DEE
  3
A9
350
59DEF
  3
B0
350
59DF0
  3
B1
350
59DF1
  3
B2
350
59DF2
  3
B3
350
59DF3
  3
B4
350
59DF4
  3
B5
350
59DF5
  3
B6
350
59DF6
  0
DICTIONARY
  5
59E0A
102
{ACAD_REACTORS
330
59DAF
102
}
330
59DAF
100
AcDbDictionary
281
     1
  3
Imperial24
350
59E0B
  3
Metric50
350
5B13C
  0
DICTIONARY
  5
59E06
102
{ACAD_REACTORS
330
59DAF
102
}
330
59DAF
100
AcDbDictionary
281
     1
  3
Standard
350
59E07
  0
DICTIONARY
  5
59DCC
102
{ACAD_REACTORS
330
59DAF
102
}
330
59DAF
100
AcDbDictionary
281
     1
  3
2dWireframe
350
59DD2
  3
Basic
350
59DD1
  3
Brighten
350
59DD8
  3
ColorChange
350
59DDC
  3
Conceptual
350
59DD5
  3
Dim
350
59DD7
  3
EdgeColorOff
350
59DE4
  3
Facepattern
350
59DDB
  3
Flat
350
59DCD
  3
FlatWithEdges
350
59DCE
  3
Gouraud
350
59DCF
  3
GouraudWithEdges
350
59DD0
  3
Hidden
350
59DD4
  3
JitterOff
350
59DE2
  3
Linepattern
350
59DDA
  3
OverhangOff
350
59DE3
  3
Realistic
350
59DD6
  3
Shaded
350
59DE1
  3
Shaded with edges
350
59DE0
  3
Shades of Gray
350
59DDD
  3
Sketchy
350
59DDE
  3
Thicken
350
59DD9
  3
Wireframe
350
59DD3
  3
X-Ray
350
59DDF
  0
XRECORD
  5
5C34F
102
{ACAD_REACTORS
330
59DAF
102
}
330
59DAF
100
AcDbXrecord
280
     1
 90
        1
330
59E07
330
5BAE9
330
5BAEA
  0
DICTIONARY
  5
5C343
102
{ACAD_REACTORS
330
59DAF
102
}
330
59DAF
100
AcDbDictionary
281
     1
  3
CANNOSCALE
350
5C349
  3
CMLEADERSTYLE
350
5C345
  3
CTABLESTYLE
350
5C344
  3
CVIEWDETAILSTYLE
350
5C346
  3
CVIEWSECTIONSTYLE
350
5C347
  3
LAYEREVAL
350
5C34B
  3
LAYERNOTIFY
350
5C34C
  3
LIGHTINGUNITS
350
5C34A
  3
MSLTSCALE
350
5C348
  0
DICTIONARY
  5
5B13B
102
{ACAD_REACTORS
330
5B13A
102
}
330
5B13A
100
AcDbDictionary
281
     1
  0
XRECORD
  5
5C332
102
{ACAD_REACTORS
330
5C331
102
}
330
5C331
100
AcDbXrecord
280
     1
290
     1
  0
XRECORD
  5
5C334
102
{ACAD_REACTORS
330
5C333
102
}
330
5C333
100
AcDbXrecord
280
     1
290
     1
  0
XRECORD
  5
5C336
102
{ACAD_REACTORS
330
5C335
102
}
330
5C335
100
AcDbXrecord
280
     1
290
     1
  0
XRECORD
  5
5C338
102
{ACAD_REACTORS
330
5C337
102
}
330
5C337
100
AcDbXrecord
280
     1
290
     1
  0
XRECORD
  5
5C33A
102
{ACAD_REACTORS
330
5C339
102
}
330
5C339
100
AcDbXrecord
280
     1
290
     1
  0
XRECORD
  5
5C33C
102
{ACAD_REACTORS
330
5C33B
102
}
330
5C33B
100
AcDbXrecord
280
     1
290
     1
  0
XRECORD
  5
5C33E
102
{ACAD_REACTORS
330
5C33D
102
}
330
5C33D
100
AcDbXrecord
280
     1
290
     1
  0
XRECORD
  5
5C340
102
{ACAD_REACTORS
330
5C33F
102
}
330
5C33F
100
AcDbXrecord
280
     1
290
     1
  0
XRECORD
  5
5C342
102
{ACAD_REACTORS
330
5C341
102
}
330
5C341
100
AcDbXrecord
280
     1
290
     1
  0
DIMASSOC
  5
5B976
102
{ACAD_REACTORS
330
5B975
102
}
330
5B975
100
AcDbDimAssoc
330
5B974
 90
        3
 70
     0
 71
     0
  1
AcDbOsnapPointRef
 72
     2
331
5BAE1
 73
     2
 91
        7
 40
0.5
 10
-5196.070802848165
 20
7463.849048565393
 30
0.0
 75
     0
  1
AcDbOsnapPointRef
 72
     2
331
5BAE1
 73
     2
 91
        3
 40
0.5
 10
-4331.068952725938
 20
7463.849048565393
 30
0.0
 75
     0
  0
DIMASSOC
  5
5B979
102
{ACAD_REACTORS
330
5B978
102
}
330
5B978
100
AcDbDimAssoc
330
5B977
 90
        3
 70
     0
 71
     0
  1
AcDbOsnapPointRef
 72
     2
331
5BAE1
 73
     2
 91
        1
 40
0.5000000000000006
 10
-4763.569877787051
 20
7668.199743357066
 30
0.0
 75
     0
  1
AcDbOsnapPointRef
 72
     2
331
5BAE1
 73
     2
 91
        5
 40
0.4999999999999995
 10
-4763.569877787051
 20
7259.498353773721
 30
0.0
 75
     0
  0
DIMASSOC
  5
5BAE5
102
{ACAD_REACTORS
330
5BAE4
102
}
330
5BAE4
100
AcDbDimAssoc
330
5BAE3
 90
        2
 70
     0
 71
     0
  1
AcDbOsnapPointRef
 72
     3
331
5BAE1
 73
     2
 91
        2
 40
0.0
 10
0.0
 20
0.0
 30
0.0
 75
     0
  0
DIMASSOC
  5
5C19A
102
{ACAD_REACTORS
330
5C199
102
}
330
5C199
100
AcDbDimAssoc
330
5C198
 90
        3
 70
     0
 71
     0
  1
AcDbOsnapPointRef
 72
     1
331
5C196
 73
     2
 91
        4
 40
3.141592653589793
 10
-3397.274514014042
 20
7252.850138131091
 30
0.0
 75
     0
  1
AcDbOsnapPointRef
 72
     8
331
5C196
 73
     2
 91
        1
 40
0.9998954177245618
 10
-2513.274504014031
 20
7252.850138131091
 30
0.0
 75
     1
  1
AcDbOsnapPointRef
 72
     1
331
5C196
 73
     2
 91
        4
 40
3.141592653589793
 10
-3397.274514014042
 20
7252.850138131091
 30
0.0
 75
     0
  0
DIMASSOC
  5
5C19D
102
{ACAD_REACTORS
330
5C19C
102
}
330
5C19C
100
AcDbDimAssoc
330
5C19B
 90
        3
 70
     0
 71
     0
  1
AcDbOsnapPointRef
 72
     1
331
5C196
 73
     2
 91
        3
 40
1.0
 10
-3387.275024871772
 20
7242.850138144141
 30
0.0
 75
     0
  1
AcDbOsnapPointRef
 72
     1
331
5C196
 73
     2
 91
        6
 40
1.570796326794896
 10
-3387.274514014042
 20
7684.847958999696
 30
0.0
 75
     0
  0
DIMASSOC
  5
5C1A0
102
{ACAD_REACTORS
330
5C19F
102
}
330
5C19F
100
AcDbDimAssoc
330
5C19E
 90
        3
 70
     0
 71
     0
  1
AcDbOsnapPointRef
 72
     2
331
5C197
 73
     2
 91
        3
 40
0.5
 10
-3075.787857773086
 20
7463.806797109725
 30
0.0
 75
     0
  1
AcDbOsnapPointRef
 72
     2
331
5C197
 73
     2
 91
        7
 40
0.5
 10
-2516.48022696406
 20
7463.806797109725
 30
0.0
 75
     0
  0
DIMASSOC
  5
5C1A3
102
{ACAD_REACTORS
330
5C1A2
102
}
330
5C1A2
100
AcDbDimAssoc
330
5C1A1
 90
        3
 70
     0
 71
     0
  1
AcDbOsnapPointRef
 72
     2
331
5C197
 73
     2
 91
        5
 40
0.5
 10
-2796.134042368573
 20
7663.99687798381
 30
0.0
 75
     0
  1
AcDbOsnapPointRef
 72
     2
331
5C197
 73
     2
 91
        1
 40
0.5
 10
-2796.134042368573
 20
7263.616716235643
 30
0.0
 75
     0
  0
ACDBDETAILVIEWSTYLE
  5
59E0D
102
{ACAD_XDICTIONARY
360
5C352
102
}
102
{ACAD_REACTORS
330
59E0C
102
}
330
59E0C
100
AcDbModelDocViewStyle
 70
     0
  3
Imperial24
290
     0
100
AcDbDetailViewStyle
 70
     0
 71
     0
 90
        3
 71
     1
340
59DF8
 62
   256
 40
0.24
340
0
 62
   256
 40
0.24
300

 40
0.36
280
     3
 71
     2
340
59DFF
 90
       25
 62
   256
 71
     3
340
59DF8
 62
   256
 40
0.24
 90
        1
 40
0.75
 90
        1
300
%<\AcVar ViewType \f "%tc1">% %<\AcVar ViewDetailId>%\PSCALE %<\AcVar ViewScale \f "%sn">%
 71
     4
340
59DFF
 90
       25
 62
   256
340
59DFF
 90
       25
 62
   256
280
     0
  0
ACDBDETAILVIEWSTYLE
  5
5B13D
102
{ACAD_XDICTIONARY
360
5C356
102
}
102
{ACAD_REACTORS
330
59E0C
102
}
330
59E0C
100
AcDbModelDocViewStyle
 70
     0
  3
Metric50
290
     0
100
AcDbDetailViewStyle
 70
     0
 71
     0
 90
        3
 71
     1
340
59DF8
 62
   256
 40
5.0
340
0
 62
   256
 40
5.0
300

 40
0.0
280
     1
 71
     2
340
59DFF
 90
       25
 62
   256
 71
     3
340
59DF8
 62
   256
 40
5.0
 90
        0
 40
15.0
 90
        1
300
%<\AcVar ViewDetailId>% (%<\AcVar ViewScale \f "%sn">%)
 71
     4
340
59DFF
 90
       25
 62
   256
340
59DFF
 90
       25
 62
   256
280
     0
  0
LAYOUT
  5
59E11
102
{ACAD_REACTORS
330
59E04
102
}
330
59E04
100
AcDbPlotSettings
  1

  2
\\abode-sbs\upstairs
  4

  6

 40
0.0
 41
0.0
 42
0.0
 43
0.0
 44
0.0
 45
0.0
 46
0.0
 47
0.0
 48
0.0
 49
0.0
140
0.0
141
0.0
142
1.0
143
1.0
 70
   688
 72
     0
 73
     0
 74
     5
  7

 75
    16
147
1.0
 76
     0
 77
     2
 78
   300
148
0.0
149
0.0
100
AcDbLayout
  1
Layout1
 70
     1
 71
     1
 10
0.0
 20
0.0
 11
420.0
 21
297.0
 12
0.0
 22
0.0
 32
0.0
 14
1.000000000000000E+20
 24
1.000000000000000E+20
 34
1.000000000000000E+20
 15
-1.000000000000000E+20
 25
-1.000000000000000E+20
 35
-1.000000000000000E+20
146
0.0
 13
0.0
 23
0.0
 33
0.0
 16
1.0
 26
0.0
 36
0.0
 17
0.0
 27
1.0
 37
0.0
 76
     0
330
59E0E
  0
LAYOUT
  5
59E15
102
{ACAD_REACTORS
330
59E04
102
}
330
59E04
100
AcDbPlotSettings
  1

  2
\\abode-sbs\upstairs
  4

  6

 40
0.0
 41
0.0
 42
0.0
 43
0.0
 44
0.0
 45
0.0
 46
0.0
 47
0.0
 48
0.0
 49
0.0
140
0.0
141
0.0
142
1.0
143
1.0
 70
  1712
 72
     0
 73
     0
 74
     0
  7

 75
     0
147
1.0
 76
     0
 77
     2
 78
   300
148
0.0
149
0.0
100
AcDbLayout
  1
Model
 70
     1
 71
     0
 10
0.0
 20
0.0
 11
12.0
 21
9.0
 12
0.0
 22
0.0
 32
0.0
 14
0.0
 24
0.0
 34
0.0
 15
0.0
 25
0.0
 35
0.0
146
0.0
 13
0.0
 23
0.0
 33
0.0
 16
1.0
 26
0.0
 36
0.0
 17
0.0
 27
1.0
 37
0.0
 76
     0
330
59E12
331
59E16
  0
MATERIAL
  5
59DBC
102
{ACAD_XDICTIONARY
360
59DBD
102
}
102
{ACAD_REACTORS
330
59DB3
102
}
330
59DB3
100
AcDbMaterial
  1
ByBlock
 72
     0
 43
0.0208333333333333
 43
0.0
 43
0.0
 43
0.0
 43
0.0
 43
0.0208333333333333
 43
0.0
 43
0.0
 43
0.0
 43
0.0
 43
1.0
 43
0.0
 43
0.0
 43
0.0
 43
0.0
 43
1.0
 77
     0
 47
0.0208333333333333
 47
0.0
 47
0.0
 47
0.0
 47
0.0
 47
0.0208333333333333
 47
0.0
 47
0.0
 47
0.0
 47
0.0
 47
1.0
 47
0.0
 47
0.0
 47
0.0
 47
0.0
 47
1.0
171
     0
 49
0.0208333333333333
 49
0.0
 49
0.0
 49
0.0
 49
0.0
 49
0.0208333333333333
 49
0.0
 49
0.0
 49
0.0
 49
0.0
 49
1.0
 49
0.0
 49
0.0
 49
0.0
 49
0.0
 49
1.0
175
     0
142
0.0208333333333333
142
0.0
142
0.0
142
0.0
142
0.0
142
0.0208333333333333
142
0.0
142
0.0
142
0.0
142
0.0
142
1.0
142
0.0
142
0.0
142
0.0
142
0.0
142
1.0
179
     0
144
0.0208333333333333
144
0.0
144
0.0
144
0.0
144
0.0
144
0.0208333333333333
144
0.0
144
0.0
144
0.0
144
0.0
144
1.0
144
0.0
144
0.0
144
0.0
144
0.0
144
1.0
147
0.0208333333333333
147
0.0
147
0.0
147
0.0
147
0.0
147
0.0208333333333333
147
0.0
147
0.0
147
0.0
147
0.0
147
1.0
147
0.0
147
0.0
147
0.0
147
0.0
147
1.0
  0
MATERIAL
  5
59DB4
102
{ACAD_XDICTIONARY
360
59DB5
102
}
102
{ACAD_REACTORS
330
59DB3
102
}
330
59DB3
100
AcDbMaterial
  1
ByLayer
 72
     0
 43
0.0208333333333333
 43
0.0
 43
0.0
 43
0.0
 43
0.0
 43
0.0208333333333333
 43
0.0
 43
0.0
 43
0.0
 43
0.0
 43
1.0
 43
0.0
 43
0.0
 43
0.0
 43
0.0
 43
1.0
 77
     0
 47
0.0208333333333333
 47
0.0
 47
0.0
 47
0.0
 47
0.0
 47
0.0208333333333333
 47
0.0
 47
0.0
 47
0.0
 47
0.0
 47
1.0
 47
0.0
 47
0.0
 47
0.0
 47
0.0
 47
1.0
171
     0
 49
0.0208333333333333
 49
0.0
 49
0.0
 49
0.0
 49
0.0
 49
0.0208333333333333
 49
0.0
 49
0.0
 49
0.0
 49
0.0
 49
1.0
 49
0.0
 49
0.0
 49
0.0
 49
0.0
 49
1.0
175
     0
142
0.0208333333333333
142
0.0
142
0.0
142
0.0
142
0.0
142
0.0208333333333333
142
0.0
142
0.0
142
0.0
142
0.0
142
1.0
142
0.0
142
0.0
142
0.0
142
0.0
142
1.0
179
     0
144
0.0208333333333333
144
0.0
144
0.0
144
0.0
144
0.0
144
0.0208333333333333
144
0.0
144
0.0
144
0.0
144
0.0
144
1.0
144
0.0
144
0.0
144
0.0
144
0.0
144
1.0
147
0.0208333333333333
147
0.0
147
0.0
147
0.0
147
0.0
147
0.0208333333333333
147
0.0
147
0.0
147
0.0
147
0.0
147
1.0
147
0.0
147
0.0
147
0.0
147
0.0
147
1.0
  0
MATERIAL
  5
59DC4
102
{ACAD_XDICTIONARY
360
59DC5
102
}
102
{ACAD_REACTORS
330
59DB3
102
}
330
59DB3
100
AcDbMaterial
  1
Global
 72
     0
 43
0.0208333333333333
 43
0.0
 43
0.0
 43
0.0
 43
0.0
 43
0.0208333333333333
 43
0.0
 43
0.0
 43
0.0
 43
0.0
 43
1.0
 43
0.0
 43
0.0
 43
0.0
 43
0.0
 43
1.0
 77
     0
 47
0.0208333333333333
 47
0.0
 47
0.0
 47
0.0
 47
0.0
 47
0.0208333333333333
 47
0.0
 47
0.0
 47
0.0
 47
0.0
 47
1.0
 47
0.0
 47
0.0
 47
0.0
 47
0.0
 47
1.0
171
     0
 49
0.0208333333333333
 49
0.0
 49
0.0
 49
0.0
 49
0.0
 49
0.0208333333333333
 49
0.0
 49
0.0
 49
0.0
 49
0.0
 49
1.0
 49
0.0
 49
0.0
 49
0.0
 49
0.0
 49
1.0
175
     0
142
0.0208333333333333
142
0.0
142
0.0
142
0.0
142
0.0
142
0.0208333333333333
142
0.0
142
0.0
142
0.0
142
0.0
142
1.0
142
0.0
142
0.0
142
0.0
142
0.0
142
1.0
179
     0
144
0.0208333333333333
144
0.0
144
0.0
144
0.0
144
0.0
144
0.0208333333333333
144
0.0
144
0.0
144
0.0
144
0.0
144
1.0
144
0.0
144
0.0
144
0.0
144
0.0
144
1.0
147
0.0208333333333333
147
0.0
147
0.0
147
0.0
147
0.0
147
0.0208333333333333
147
0.0
147
0.0
147
0.0
147
0.0
147
1.0
147
0.0
147
0.0
147
0.0
147
0.0
147
1.0
  0
MLEADERSTYLE
  5
59E09
102
{ACAD_REACTORS
330
59E08
102
}
330
59E08
100
AcDbMLeaderStyle
179
     2
170
     2
171
     1
172
     0
 90
        2
 40
0.0
 41
0.0
173
     1
 91
-1056964608
340
59DFD
 92
       -2
290
     1
 42
0.09
291
     1
 43
0.36
  3
Standard
 44
0.18
300

342
59DF8
174
     1
178
     6
175
     1
176
     0
 93
-1056964608
 45
0.18
292
     0
297
     0
 46
0.18
 94
-1056964608
 47
1.0
 49
1.0
140
1.0
293
     1
141
0.0
294
     1
177
     0
142
1.0
295
     0
296
     0
143
0.125
271
     0
272
     9
273
     9
298
     0
  0
MLINESTYLE
  5
59E02
102
{ACAD_REACTORS
330
59E01
102
}
330
59E01
100
AcDbMlineStyle
  2
STANDARD
 70
     0
  3

 62
   256
 51
90.0
 52
90.0
 71
     2
 49
0.5
 62
   256
  6
BYLAYER
 49
-0.5
 62
   256
  6
BYLAYER
  0
ACDBPLACEHOLDER
  5
59DB2
102
{ACAD_REACTORS
330
59DB1
102
}
330
59DB1
  0
SCALE
  5
59DE6
102
{ACAD_REACTORS
330
59DE5
102
}
330
59DE5
100
AcDbScale
 70
     0
300
1:1
140
1.0
141
1.0
290
     1
  0
SCALE
  5
59DE7
102
{ACAD_REACTORS
330
59DE5
102
}
330
59DE5
100
AcDbScale
 70
     0
300
1/128" = 1'-0"
140
0.0078125
141
12.0
290
     0
  0
SCALE
  5
59DE8
102
{ACAD_REACTORS
330
59DE5
102
}
330
59DE5
100
AcDbScale
 70
     0
300
1/64" = 1'-0"
140
0.015625
141
12.0
290
     0
  0
SCALE
  5
59DE9
102
{ACAD_REACTORS
330
59DE5
102
}
330
59DE5
100
AcDbScale
 70
     0
300
1/32" = 1'-0"
140
0.03125
141
12.0
290
     0
  0
SCALE
  5
59DEA
102
{ACAD_REACTORS
330
59DE5
102
}
330
59DE5
100
AcDbScale
 70
     0
300
1/16" = 1'-0"
140
0.0625
141
12.0
290
     0
  0
SCALE
  5
59DEB
102
{ACAD_REACTORS
330
59DE5
102
}
330
59DE5
100
AcDbScale
 70
     0
300
3/32" = 1'-0"
140
0.09375
141
12.0
290
     0
  0
SCALE
  5
59DEC
102
{ACAD_REACTORS
330
59DE5
102
}
330
59DE5
100
AcDbScale
 70
     0
300
1/8" = 1'-0"
140
0.125
141
12.0
290
     0
  0
SCALE
  5
59DED
102
{ACAD_REACTORS
330
59DE5
102
}
330
59DE5
100
AcDbScale
 70
     0
300
3/16" = 1'-0"
140
0.1875
141
12.0
290
     0
  0
SCALE
  5
59DEE
102
{ACAD_REACTORS
330
59DE5
102
}
330
59DE5
100
AcDbScale
 70
     0
300
1/4" = 1'-0"
140
0.25
141
12.0
290
     0
  0
SCALE
  5
59DEF
102
{ACAD_REACTORS
330
59DE5
102
}
330
59DE5
100
AcDbScale
 70
     0
300
3/8" = 1'-0"
140
0.375
141
12.0
290
     0
  0
SCALE
  5
59DF0
102
{ACAD_REACTORS
330
59DE5
102
}
330
59DE5
100
AcDbScale
 70
     0
300
1/2" = 1'-0"
140
0.5
141
12.0
290
     0
  0
SCALE
  5
59DF1
102
{ACAD_REACTORS
330
59DE5
102
}
330
59DE5
100
AcDbScale
 70
     0
300
3/4" = 1'-0"
140
0.75
141
12.0
290
     0
  0
SCALE
  5
59DF2
102
{ACAD_REACTORS
330
59DE5
102
}
330
59DE5
100
AcDbScale
 70
     0
300
1" = 1'-0"
140
1.0
141
12.0
290
     0
  0
SCALE
  5
59DF3
102
{ACAD_REACTORS
330
59DE5
102
}
330
59DE5
100
AcDbScale
 70
     0
300
1-1/2" = 1'-0"
140
1.5
141
12.0
290
     0
  0
SCALE
  5
59DF4
102
{ACAD_REACTORS
330
59DE5
102
}
330
59DE5
100
AcDbScale
 70
     0
300
3" = 1'-0"
140
3.0
141
12.0
290
     0
  0
SCALE
  5
59DF5
102
{ACAD_REACTORS
330
59DE5
102
}
330
59DE5
100
AcDbScale
 70
     0
300
6" = 1'-0"
140
6.0
141
12.0
290
     0
  0
SCALE
  5
59DF6
102
{ACAD_REACTORS
330
59DE5
102
}
330
59DE5
100
AcDbScale
 70
     0
300
1'-0" = 1'-0"
140
12.0
141
12.0
290
     0
  0
ACDBSECTIONVIEWSTYLE
  5
59E0B
102
{ACAD_XDICTIONARY
360
5C350
102
}
102
{ACAD_REACTORS
330
59E0A
102
}
330
59E0A
100
AcDbModelDocViewStyle
 70
     0
  3
Imperial24
290
     0
100
AcDbSectionViewStyle
 70
     0
 71
     0
 90
       78
 71
     1
340
59DF8
 62
   256
 40
0.24
340
0
340
0
 62
   256
 40
0.24
300
I, O, Q, S, X, Z
 40
0.48
 90
        3
 40
0.18
 90
        1
 71
     2
340
59DFF
 90
       25
 62
   256
340
59DFF
 90
       50
 62
   256
 40
0.24
 40
0.0
 40
0.24
 71
     3
340
59DF8
 62
   256
 40
0.24
 90
        1
 40
0.75
 90
        1
300
%<\AcVar ViewType \f "%tc1">% %<\AcVar ViewSectionStartId>%-%<\AcVar ViewSectionEndId>%\PSCALE %<\AcVar ViewScale \f "%sn">%
 71
     4
 62
   256
 62
   257
300
ANSI31
 40
1.0
 90
        0
290
     0
290
     0
 90
        6
 40
0.0
 40
1.570796326794896
 40
0.2617993877991494
 40
1.308996938995747
 40
-0.2617993877991494
 40
1.832595714594046
  0
ACDBSECTIONVIEWSTYLE
  5
5B13C
102
{ACAD_XDICTIONARY
360
5C354
102
}
102
{ACAD_REACTORS
330
59E0A
102
}
330
59E0A
100
AcDbModelDocViewStyle
 70
     0
  3
Metric50
290
     0
100
AcDbSectionViewStyle
 70
     0
 71
     0
 90
      102
 71
     1
340
59DF8
 62
   256
 40
5.0
340
0
340
0
 62
   256
 40
5.0
300
I, O, Q, S, X, Z
 40
10.0
 90
        0
 40
2.5
 90
        0
 71
     2
340
59DFF
 90
       25
 62
   256
340
59DFF
 90
       50
 62
   256
 40
5.0
 40
2.5
 40
5.0
 71
     3
340
59DF8
 62
   256
 40
5.0
 90
        0
 40
15.0
 90
        1
300
%<\AcVar ViewSectionStartId>%-%<\AcVar ViewSectionEndId>% (%<\AcVar ViewScale \f "%sn">%)
 71
     4
 62
   256
 62
   257
300
ANSI31
 40
1.0
 90
        0
290
     0
290
     0
 90
        6
 40
0.0
 40
1.570796326794896
 40
0.2617993877991494
 40
1.308996938995747
 40
-0.2617993877991494
 40
1.832595714594046
  0
TABLESTYLE
  5
59E07
102
{ACAD_XDICTIONARY
360
5C34D
102
}
102
{ACAD_REACTORS
330
59E06
102
}
330
59E06
100
AcDbTableStyle
280
     0
  3
Standard
 70
     0
 71
     0
 40
0.06
 41
0.06
280
     0
281
     0
  7
STANDARD
140
0.18
170
     2
 62
     0
 63
     7
283
     0
 90
      512
 91
        0
  1

274
    -2
284
     1
 64
     0
275
    -2
285
     1
 65
     0
276
    -2
286
     1
 66
     0
277
    -2
287
     1
 67
     0
278
    -2
288
     1
 68
     0
279
    -2
289
     1
 69
     0
  7
STANDARD
140
0.25
170
     5
 62
     0
 63
     7
283
     0
 90
      512
 91
        0
  1

274
    -2
284
     1
 64
     0
275
    -2
285
     1
 65
     0
276
    -2
286
     1
 66
     0
277
    -2
287
     1
 67
     0
278
    -2
288
     1
 68
     0
279
    -2
289
     1
 69
     0
  7
STANDARD
140
0.18
170
     5
 62
     0
 63
     7
283
     0
 90
      512
 91
        0
  1

274
    -2
284
     1
 64
     0
275
    -2
285
     1
 65
     0
276
    -2
286
     1
 66
     0
277
    -2
287
     1
 67
     0
278
    -2
288
     1
 68
     0
279
    -2
289
     1
 69
     0
  0
VISUALSTYLE
  5
59DD2
102
{ACAD_REACTORS
330
59DCC
102
}
330
59DCC
100
AcDbVisualStyle
  2
2dWireframe
 70
     4
177
     3
291
     0
 70
    58
 90
        0
176
     1
 90
        2
176
     1
 90
        0
176
     1
 90
        0
176
     1
 40
0.6
176
     1
 40
30.0
176
     1
 62
     7
420
 16777215
176
     1
 90
        1
176
     1
 90
        4
176
     1
 62
     7
176
     1
 62
   257
176
     1
 90
        1
176
     1
 90
        1
176
     1
 40
1.0
176
     1
 90
        0
176
     1
 62
   257
176
     1
 40
1.0
176
     1
 90
        1
176
     1
 90
        6
176
     1
 90
        2
176
     1
 62
     7
176
     1
 90
        5
176
     1
 90
        0
176
     1
 90
        0
176
     1
290
     0
176
     1
 90
        1
176
     1
 40
0.0
176
     1
 90
        0
176
     1
290
     1
176
     1
290
     1
176
     1
290
     0
176
     1
290
     0
176
     1
290
     0
176
     1
290
     0
176
     1
290
     0
176
     1
290
     0
176
     1
290
     0
176
     1
 90
       50
176
     1
 40
0.0
176
     1
 40
1.0
176
     1
 90
        0
176
     1
 62
    18
420
        0
176
     1
 90
       50
176
     1
 90
        3
176
     1
 62
     5
420
      255
176
     1
290
     0
176
     1
 90
       50
176
     1
 90
       50
176
     1
 90
       50
176
     1
290
     0
176
     1
 90
       50
176
     1
 62
   256
176
     0
 40
1.0
176
     0
 90
        2
176
     1
  1
strokes_ogs.tif
176
     1
290
     0
176
     1
 40
1.0
176
     1
 40
1.0
176
     1
1001
ACAD
1000
AcDbSavedByObjectVersion
1070
     0
  0
VISUALSTYLE
  5
59DD1
102
{ACAD_REACTORS
330
59DCC
102
}
330
59DCC
100
AcDbVisualStyle
  2
Basic
 70
     7
177
     3
291
     1
 70
    58
 90
        1
176
     1
 90
        0
176
     1
 90
        1
176
     1
 90
        0
176
     1
 40
0.6
176
     1
 40
30.0
176
     1
 62
     7
420
 16777215
176
     1
 90
        0
176
     1
 90
        4
176
     1
 62
     7
176
     1
 62
   257
176
     1
 90
        1
176
     1
 90
        1
176
     1
 40
1.0
176
     1
 90
        8
176
     1
 62
     7
176
     1
 40
1.0
176
     1
 90
        1
176
     1
 90
        6
176
     1
 90
        2
176
     1
 62
     7
176
     1
 90
        5
176
     1
 90
        0
176
     1
 90
        0
176
     1
290
     0
176
     1
 90
        1
176
     1
 40
0.0
176
     1
 90
        0
176
     1
290
     0
176
     1
290
     1
176
     1
290
     1
176
     1
290
     0
176
     1
290
     0
176
     1
290
     0
176
     1
290
     0
176
     1
290
     0
176
     1
290
     0
176
     1
 90
       50
176
     1
 40
0.0
176
     1
 40
1.0
176
     1
 90
        0
176
     1
 62
    18
420
        0
176
     1
 90
       50
176
     1
 90
        3
176
     1
 62
     5
420
      255
176
     1
290
     0
176
     1
 90
       50
176
     1
 90
       50
176
     1
 90
       50
176
     1
290
     0
176
     1
 90
       50
176
     1
 62
   256
176
     0
 40
1.0
176
     0
 90
        2
176
     1
  1
strokes_ogs.tif
176
     1
290
     0
176
     1
 40
1.0
176
     1
 40
1.0
176
     1
1001
ACAD
1000
AcDbSavedByObjectVersion
1070
     0
  0
VISUALSTYLE
  5
59DD8
102
{ACAD_REACTORS
330
59DCC
102
}
330
59DCC
100
AcDbVisualStyle
  2
Brighten
 70
    12
177
     3
291
     1
 70
    58
 90
        2
176
     1
 90
        2
176
     1
 90
        0
176
     1
 90
        0
176
     1
 40
0.6
176
     1
 40
30.0
176
     1
 62
     7
420
 16777215
176
     1
 90
        1
176
     1
 90
        4
176
     1
 62
     7
176
     1
 62
   257
176
     1
 90
        1
176
     1
 90
        1
176
     1
 40
1.0
176
     1
 90
        8
176
     1
 62
     7
176
     1
 40
1.0
176
     1
 90
        1
176
     1
 90
        6
176
     1
 90
        2
176
     1
 62
     7
176
     1
 90
        5
176
     1
 90
        0
176
     1
 90
        0
176
     1
290
     0
176
     1
 90
        1
176
     1
 40
50.0
176
     1
 90
        0
176
     1
290
     0
176
     1
290
     1
176
     1
290
     1
176
     1
290
     0
176
     1
290
     0
176
     1
290
     0
176
     1
290
     0
176
     1
290
     0
176
     1
290
     0
176
     1
 90
       50
176
     1
 40
0.0
176
     1
 40
1.0
176
     1
 90
        0
176
     1
 62
    18
420
        0
176
     1
 90
       50
176
     1
 90
        3
176
     1
 62
     5
420
      255
176
     1
290
     0
176
     1
 90
       50
176
     1
 90
       50
176
     1
 90
       50
176
     1
290
     0
176
     1
 90
       50
176
     1
 62
   256
176
     0
 40
1.0
176
     0
 90
        2
176
     1
  1
strokes_ogs.tif
176
     1
290
     0
176
     1
 40
1.0
176
     1
 40
1.0
176
     1
1001
ACAD
1000
AcDbSavedByObjectVersion
1070
     0
  0
VISUALSTYLE
  5
59DDC
102
{ACAD_REACTORS
330
59DCC
102
}
330
59DCC
100
AcDbVisualStyle
  2
ColorChange
 70
    16
177
     3
291
     1
 70
    58
 90
        2
176
     1
 90
        2
176
     1
 90
        3
176
     1
 90
        0
176
     1
 40
0.6
176
     1
 40
30.0
176
     1
 62
     8
420
  8421504
176
     1
 90
        1
176
     1
 90
        4
176
     1
 62
     7
176
     1
 62
   257
176
     1
 90
        1
176
     1
 90
        1
176
     1
 40
1.0
176
     1
 90
        8
176
     1
 62
     8
420
  8421504
176
     1
 40
1.0
176
     1
 90
        1
176
     1
 90
        6
176
     1
 90
        2
176
     1
 62
     7
176
     1
 90
        5
176
     1
 90
        0
176
     1
 90
        0
176
     1
290
     0
176
     1
 90
        1
176
     1
 40
0.0
176
     1
 90
        0
176
     1
290
     0
176
     1
290
     1
176
     1
290
     1
176
     1
290
     0
176
     1
290
     0
176
     1
290
     0
176
     1
290
     0
176
     1
290
     0
176
     1
290
     0
176
     1
 90
       50
176
     1
 40
0.0
176
     1
 40
1.0
176
     1
 90
        0
176
     1
 62
    18
420
        0
176
     1
 90
       50
176
     1
 90
        3
176
     1
 62
     5
420
      255
176
     1
290
     0
176
     1
 90
       50
176
     1
 90
       50
176
     1
 90
       50
176
     1
290
     0
176
     1
 90
       50
176
     1
 62
   256
176
     0
 40
1.0
176
     0
 90
        2
176
     1
  1
strokes_ogs.tif
176
     1
290
     0
176
     1
 40
1.0
176
     1
 40
1.0
176
     1
1001
ACAD
1000
AcDbSavedByObjectVersion
1070
     0
  0
VISUALSTYLE
  5
59DD5
102
{ACAD_REACTORS
330
59DCC
102
}
330
59DCC
100
AcDbVisualStyle
  2
Conceptual
 70
     9
177
     3
291
     0
 70
    58
 90
        3
176
     1
 90
        2
176
     1
 90
        0
176
     1
 90
        0
176
     1
 40
0.6
176
     1
 40
30.0
176
     1
 62
     7
420
 16777215
176
     1
 90
        2
176
     1
 90
        2
176
     1
 62
     7
176
     1
 62
   257
176
     1
 90
        1
176
     1
 90
        1
176
     1
 40
179.0
176
     1
 90
        8
176
     1
 62
     7
176
     1
 40
1.0
176
     1
 90
        1
176
     1
 90
        6
176
     1
 90
        2
176
     1
 62
     7
176
     1
 90
        3
176
     1
 90
        0
176
     1
 90
        0
176
     1
290
     0
176
     1
 90
        1
176
     1
 40
0.0
176
     1
 90
        0
176
     1
290
     0
176
     1
290
     1
176
     1
290
     1
176
     1
290
     0
176
     1
290
     0
176
     1
290
     0
176
     1
290
     0
176
     1
290
     0
176
     1
290
     0
176
     1
 90
       50
176
     1
 40
0.0
176
     1
 40
1.0
176
     1
 90
        0
176
     1
 62
    18
420
        0
176
     1
 90
       50
176
     1
 90
        3
176
     1
 62
     5
420
      255
176
     1
290
     0
176
     1
 90
       50
176
     1
 90
       50
176
     1
 90
       50
176
     1
290
     0
176
     1
 90
       50
176
     1
 62
   256
176
     0
 40
1.0
176
     0
 90
        2
176
     1
  1
strokes_ogs.tif
176
     1
290
     0
176
     1
 40
1.0
176
     1
 40
1.0
176
     1
1001
ACAD
1000
AcDbSavedByObjectVersion
1070
     0
  0
VISUALSTYLE
  5
59DD7
102
{ACAD_REACTORS
330
59DCC
102
}
330
59DCC
100
AcDbVisualStyle
  2
Dim
 70
    11
177
     3
291
     1
 70
    58
 90
        2
176
     1
 90
        2
176
     1
 90
        0
176
     1
 90
        0
176
     1
 40
0.6
176
     1
 40
30.0
176
     1
 62
     7
420
 16777215
176
     1
 90
        1
176
     1
 90
        4
176
     1
 62
     7
176
     1
 62
   257
176
     1
 90
        1
176
     1
 90
        1
176
     1
 40
1.0
176
     1
 90
        8
176
     1
 62
     7
176
     1
 40
1.0
176
     1
 90
        1
176
     1
 90
        6
176
     1
 90
        2
176
     1
 62
     7
176
     1
 90
        5
176
     1
 90
        0
176
     1
 90
        0
176
     1
290
     0
176
     1
 90
        1
176
     1
 40
-50.0
176
     1
 90
        0
176
     1
290
     0
176
     1
290
     1
176
     1
290
     1
176
     1
290
     0
176
     1
290
     0
176
     1
290
     0
176
     1
290
     0
176
     1
290
     0
176
     1
290
     0
176
     1
 90
       50
176
     1
 40
0.0
176
     1
 40
1.0
176
     1
 90
        0
176
     1
 62
    18
420
        0
176
     1
 90
       50
176
     1
 90
        3
176
     1
 62
     5
420
      255
176
     1
290
     0
176
     1
 90
       50
176
     1
 90
       50
176
     1
 90
       50
176
     1
290
     0
176
     1
 90
       50
176
     1
 62
   256
176
     0
 40
1.0
176
     0
 90
        2
176
     1
  1
strokes_ogs.tif
176
     1
290
     0
176
     1
 40
1.0
176
     1
 40
1.0
176
     1
1001
ACAD
1000
AcDbSavedByObjectVersion
1070
     0
  0
VISUALSTYLE
  5
59DE4
102
{ACAD_REACTORS
330
59DCC
102
}
330
59DCC
100
AcDbVisualStyle
  2
EdgeColorOff
 70
    22
177
     3
291
     1
 70
    58
 90
        2
176
     0
 90
        2
176
     0
 90
        0
176
     0
 90
        0
176
     0
 40
0.6
176
     0
 40
30.0
176
     0
 62
     7
420
 16777215
176
     0
 90
        1
176
     0
 90
        4
176
     0
 62
     7
176
     0
 62
   257
176
     0
 90
        1
176
     0
 90
        1
176
     0
 40
1.0
176
     0
 90
        8
176
     2
 62
     7
176
     0
 40
1.0
176
     0
 90
        1
176
     0
 90
        6
176
     0
 90
        2
176
     0
 62
     7
176
     0
 90
        5
176
     0
 90
        0
176
     0
 90
        0
176
     0
290
     0
176
     0
 90
        1
176
     0
 40
0.0
176
     0
 90
        0
176
     0
290
     0
176
     1
290
     1
176
     1
290
     1
176
     1
290
     0
176
     1
290
     0
176
     1
290
     0
176
     1
290
     0
176
     1
290
     0
176
     1
290
     0
176
     1
 90
       50
176
     0
 40
0.0
176
     0
 40
1.0
176
     0
 90
        0
176
     0
 62
    18
420
        0
176
     0
 90
       50
176
     0
 90
        3
176
     0
 62
     5
420
      255
176
     0
290
     0
176
     1
 90
       50
176
     0
 90
       50
176
     0
 90
       50
176
     0
290
     0
176
     1
 90
       50
176
     0
 62
   256
176
     0
 40
1.0
176
     0
 90
        2
176
     0
  1
strokes_ogs.tif
176
     0
290
     0
176
     1
 40
1.0
176
     0
 40
1.0
176
     0
1001
ACAD
1000
AcDbSavedByObjectVersion
1070
     0
  0
VISUALSTYLE
  5
59DDB
102
{ACAD_REACTORS
330
59DCC
102
}
330
59DCC
100
AcDbVisualStyle
  2
Facepattern
 70
    15
177
     3
291
     1
 70
    58
 90
        2
176
     1
 90
        2
176
     1
 90
        0
176
     1
 90
        0
176
     1
 40
0.6
176
     1
 40
30.0
176
     1
 62
     7
420
 16777215
176
     1
 90
        1
176
     1
 90
        4
176
     1
 62
     7
176
     1
 62
   257
176
     1
 90
        1
176
     1
 90
        1
176
     1
 40
1.0
176
     1
 90
        8
176
     1
 62
     7
176
     1
 40
1.0
176
     1
 90
        1
176
     1
 90
        6
176
     1
 90
        2
176
     1
 62
     7
176
     1
 90
        5
176
     1
 90
        0
176
     1
 90
        0
176
     1
290
     0
176
     1
 90
        1
176
     1
 40
0.0
176
     1
 90
        0
176
     1
290
     0
176
     1
290
     1
176
     1
290
     1
176
     1
290
     0
176
     1
290
     0
176
     1
290
     0
176
     1
290
     0
176
     1
290
     0
176
     1
290
     0
176
     1
 90
       50
176
     1
 40
0.0
176
     1
 40
1.0
176
     1
 90
        0
176
     1
 62
    18
420
        0
176
     1
 90
       50
176
     1
 90
        3
176
     1
 62
     5
420
      255
176
     1
290
     0
176
     1
 90
       50
176
     1
 90
       50
176
     1
 90
       50
176
     1
290
     0
176
     1
 90
       50
176
     1
 62
   256
176
     0
 40
1.0
176
     0
 90
        2
176
     1
  1
strokes_ogs.tif
176
     1
290
     0
176
     1
 40
1.0
176
     1
 40
1.0
176
     1
1001
ACAD
1000
AcDbSavedByObjectVersion
1070
     0
  0
VISUALSTYLE
  5
59DCD
102
{ACAD_REACTORS
330
59DCC
102
}
330
59DCC
100
AcDbVisualStyle
  2
Flat
 70
     0
177
     3
291
     1
 70
    58
 90
        2
176
     1
 90
        1
176
     1
 90
        1
176
     1
 90
        2
176
     1
 40
0.6
176
     1
 40
30.0
176
     1
 62
     7
420
 16777215
176
     1
 90
        0
176
     1
 90
        0
176
     1
 62
     7
176
     1
 62
   257
176
     1
 90
        1
176
     1
 90
        1
176
     1
 40
1.0
176
     1
 90
        8
176
     1
 62
     7
176
     1
 40
1.0
176
     1
 90
        1
176
     1
 90
        6
176
     1
 90
        2
176
     1
 62
     7
176
     1
 90
        5
176
     1
 90
        0
176
     1
 90
        0
176
     1
290
     0
176
     1
 90
       13
176
     1
 40
0.0
176
     1
 90
        0
176
     1
290
     0
176
     1
290
     1
176
     1
290
     1
176
     1
290
     0
176
     1
290
     0
176
     1
290
     0
176
     1
290
     0
176
     1
290
     0
176
     1
290
     0
176
     1
 90
       50
176
     1
 40
0.0
176
     1
 40
1.0
176
     1
 90
        0
176
     1
 62
    18
420
        0
176
     1
 90
       50
176
     1
 90
        3
176
     1
 62
     5
420
      255
176
     1
290
     0
176
     1
 90
       50
176
     1
 90
       50
176
     1
 90
       50
176
     1
290
     0
176
     1
 90
       50
176
     1
 62
   256
176
     0
 40
1.0
176
     0
 90
        2
176
     1
  1
strokes_ogs.tif
176
     1
290
     0
176
     1
 40
1.0
176
     1
 40
1.0
176
     1
1001
ACAD
1000
AcDbSavedByObjectVersion
1070
     0
  0
VISUALSTYLE
  5
59DCE
102
{ACAD_REACTORS
330
59DCC
102
}
330
59DCC
100
AcDbVisualStyle
  2
FlatWithEdges
 70
     1
177
     3
291
     1
 70
    58
 90
        2
176
     1
 90
        1
176
     1
 90
        1
176
     1
 90
        2
176
     1
 40
0.6
176
     1
 40
30.0
176
     1
 62
     7
420
 16777215
176
     1
 90
        1
176
     1
 90
        0
176
     1
 62
     7
176
     1
 62
   257
176
     1
 90
        1
176
     1
 90
        1
176
     1
 40
1.0
176
     1
 90
        0
176
     1
 62
   257
176
     1
 40
1.0
176
     1
 90
        1
176
     1
 90
        6
176
     1
 90
        2
176
     1
 62
     7
176
     1
 90
        5
176
     1
 90
        0
176
     1
 90
        0
176
     1
290
     0
176
     1
 90
       13
176
     1
 40
0.0
176
     1
 90
        0
176
     1
290
     0
176
     1
290
     1
176
     1
290
     1
176
     1
290
     0
176
     1
290
     0
176
     1
290
     0
176
     1
290
     0
176
     1
290
     0
176
     1
290
     0
176
     1
 90
       50
176
     1
 40
0.0
176
     1
 40
1.0
176
     1
 90
        0
176
     1
 62
    18
420
        0
176
     1
 90
       50
176
     1
 90
        3
176
     1
 62
     5
420
      255
176
     1
290
     0
176
     1
 90
       50
176
     1
 90
       50
176
     1
 90
       50
176
     1
290
     0
176
     1
 90
       50
176
     1
 62
   256
176
     0
 40
1.0
176
     0
 90
        2
176
     1
  1
strokes_ogs.tif
176
     1
290
     0
176
     1
 40
1.0
176
     1
 40
1.0
176
     1
1001
ACAD
1000
AcDbSavedByObjectVersion
1070
     0
  0
VISUALSTYLE
  5
59DCF
102
{ACAD_REACTORS
330
59DCC
102
}
330
59DCC
100
AcDbVisualStyle
  2
Gouraud
 70
     2
177
     3
291
     1
 70
    58
 90
        2
176
     1
 90
        2
176
     1
 90
        1
176
     1
 90
        2
176
     1
 40
0.6
176
     1
 40
30.0
176
     1
 62
     7
420
 16777215
176
     1
 90
        0
176
     1
 90
        0
176
     1
 62
     7
176
     1
 62
   257
176
     1
 90
        1
176
     1
 90
        1
176
     1
 40
1.0
176
     1
 90
        0
176
     1
 62
     7
176
     1
 40
1.0
176
     1
 90
        1
176
     1
 90
        6
176
     1
 90
        2
176
     1
 62
     7
176
     1
 90
        5
176
     1
 90
        0
176
     1
 90
        0
176
     1
290
     0
176
     1
 90
       13
176
     1
 40
0.0
176
     1
 90
        0
176
     1
290
     0
176
     1
290
     1
176
     1
290
     1
176
     1
290
     0
176
     1
290
     0
176
     1
290
     0
176
     1
290
     0
176
     1
290
     0
176
     1
290
     0
176
     1
 90
       50
176
     1
 40
0.0
176
     1
 40
1.0
176
     1
 90
        0
176
     1
 62
    18
420
        0
176
     1
 90
       50
176
     1
 90
        3
176
     1
 62
     5
420
      255
176
     1
290
     0
176
     1
 90
       50
176
     1
 90
       50
176
     1
 90
       50
176
     1
290
     0
176
     1
 90
       50
176
     1
 62
   256
176
     0
 40
1.0
176
     0
 90
        2
176
     1
  1
strokes_ogs.tif
176
     1
290
     0
176
     1
 40
1.0
176
     1
 40
1.0
176
     1
1001
ACAD
1000
AcDbSavedByObjectVersion
1070
     0
  0
VISUALSTYLE
  5
59DD0
102
{ACAD_REACTORS
330
59DCC
102
}
330
59DCC
100
AcDbVisualStyle
  2
GouraudWithEdges
 70
     3
177
     3
291
     1
 70
    58
 90
        2
176
     1
 90
        2
176
     1
 90
        1
176
     1
 90
        2
176
     1
 40
0.6
176
     1
 40
30.0
176
     1
 62
     7
420
 16777215
176
     1
 90
        1
176
     1
 90
        0
176
     1
 62
     7
176
     1
 62
   257
176
     1
 90
        1
176
     1
 90
        1
176
     1
 40
1.0
176
     1
 90
        0
176
     1
 62
   257
176
     1
 40
1.0
176
     1
 90
        1
176
     1
 90
        6
176
     1
 90
        2
176
     1
 62
     7
176
     1
 90
        5
176
     1
 90
        0
176
     1
 90
        0
176
     1
290
     0
176
     1
 90
       13
176
     1
 40
0.0
176
     1
 90
        0
176
     1
290
     0
176
     1
290
     1
176
     1
290
     1
176
     1
290
     0
176
     1
290
     0
176
     1
290
     0
176
     1
290
     0
176
     1
290
     0
176
     1
290
     0
176
     1
 90
       50
176
     1
 40
0.0
176
     1
 40
1.0
176
     1
 90
        0
176
     1
 62
    18
420
        0
176
     1
 90
       50
176
     1
 90
        3
176
     1
 62
     5
420
      255
176
     1
290
     0
176
     1
 90
       50
176
     1
 90
       50
176
     1
 90
       50
176
     1
290
     0
176
     1
 90
       50
176
     1
 62
   256
176
     0
 40
1.0
176
     0
 90
        2
176
     1
  1
strokes_ogs.tif
176
     1
290
     0
176
     1
 40
1.0
176
     1
 40
1.0
176
     1
1001
ACAD
1000
AcDbSavedByObjectVersion
1070
     0
  0
VISUALSTYLE
  5
59DD4
102
{ACAD_REACTORS
330
59DCC
102
}
330
59DCC
100
AcDbVisualStyle
  2
Hidden
 70
     6
177
     3
291
     0
 70
    58
 90
        1
176
     1
 90
        2
176
     1
 90
        2
176
     1
 90
        0
176
     1
 40
0.6
176
     1
 40
30.0
176
     1
 62
     7
420
 16777215
176
     1
 90
        2
176
     1
 90
        2
176
     1
 62
     7
176
     1
 62
   257
176
     1
 90
        2
176
     1
 90
        1
176
     1
 40
40.0
176
     1
 90
        0
176
     1
 62
   257
176
     1
 40
1.0
176
     1
 90
        1
176
     1
 90
        6
176
     1
 90
        2
176
     1
 62
     7
176
     1
 90
        3
176
     1
 90
        0
176
     1
 90
        0
176
     1
290
     0
176
     1
 90
        1
176
     1
 40
0.0
176
     1
 90
        0
176
     1
290
     0
176
     1
290
     1
176
     1
290
     1
176
     1
290
     0
176
     1
290
     0
176
     1
290
     0
176
     1
290
     0
176
     1
290
     0
176
     1
290
     0
176
     1
 90
       50
176
     1
 40
0.0
176
     1
 40
1.0
176
     1
 90
        0
176
     1
 62
    18
420
        0
176
     1
 90
       50
176
     1
 90
        3
176
     1
 62
     5
420
      255
176
     1
290
     0
176
     1
 90
       50
176
     1
 90
       50
176
     1
 90
       50
176
     1
290
     0
176
     1
 90
       50
176
     1
 62
   256
176
     0
 40
1.0
176
     0
 90
        2
176
     1
  1
strokes_ogs.tif
176
     1
290
     0
176
     1
 40
1.0
176
     1
 40
1.0
176
     1
1001
ACAD
1000
AcDbSavedByObjectVersion
1070
     0
  0
VISUALSTYLE
  5
59DE2
102
{ACAD_REACTORS
330
59DCC
102
}
330
59DCC
100
AcDbVisualStyle
  2
JitterOff
 70
    20
177
     3
291
     1
 70
    58
 90
        2
176
     0
 90
        2
176
     0
 90
        0
176
     0
 90
        0
176
     0
 40
0.6
176
     0
 40
30.0
176
     0
 62
     7
420
 16777215
176
     0
 90
        1
176
     0
 90
        4
176
     0
 62
     7
176
     0
 62
   257
176
     0
 90
        1
176
     0
 90
        1
176
     0
 40
1.0
176
     0
 90
       10
176
     2
 62
     7
176
     0
 40
1.0
176
     0
 90
        1
176
     0
 90
        6
176
     0
 90
        2
176
     0
 62
     7
176
     0
 90
        5
176
     0
 90
        0
176
     0
 90
        0
176
     0
290
     0
176
     0
 90
        1
176
     0
 40
0.0
176
     0
 90
        0
176
     0
290
     0
176
     1
290
     1
176
     1
290
     1
176
     1
290
     0
176
     1
290
     0
176
     1
290
     0
176
     1
290
     0
176
     1
290
     0
176
     1
290
     0
176
     1
 90
       50
176
     0
 40
0.0
176
     0
 40
1.0
176
     0
 90
        0
176
     0
 62
    18
420
        0
176
     0
 90
       50
176
     0
 90
        3
176
     0
 62
     5
420
      255
176
     0
290
     0
176
     1
 90
       50
176
     0
 90
       50
176
     0
 90
       50
176
     0
290
     0
176
     1
 90
       50
176
     0
 62
   256
176
     0
 40
1.0
176
     0
 90
        2
176
     0
  1
strokes_ogs.tif
176
     0
290
     0
176
     1
 40
1.0
176
     0
 40
1.0
176
     0
1001
ACAD
1000
AcDbSavedByObjectVersion
1070
     0
  0
VISUALSTYLE
  5
59DDA
102
{ACAD_REACTORS
330
59DCC
102
}
330
59DCC
100
AcDbVisualStyle
  2
Linepattern
 70
    14
177
     3
291
     1
 70
    58
 90
        2
176
     1
 90
        2
176
     1
 90
        0
176
     1
 90
        0
176
     1
 40
0.6
176
     1
 40
30.0
176
     1
 62
     7
420
 16777215
176
     1
 90
        1
176
     1
 90
        4
176
     1
 62
     7
176
     1
 62
   257
176
     1
 90
        7
176
     1
 90
        7
176
     1
 40
1.0
176
     1
 90
        8
176
     1
 62
     7
176
     1
 40
1.0
176
     1
 90
        1
176
     1
 90
        6
176
     1
 90
        2
176
     1
 62
     7
176
     1
 90
        5
176
     1
 90
        0
176
     1
 90
        0
176
     1
290
     0
176
     1
 90
        1
176
     1
 40
0.0
176
     1
 90
        0
176
     1
290
     0
176
     1
290
     1
176
     1
290
     1
176
     1
290
     0
176
     1
290
     0
176
     1
290
     0
176
     1
290
     0
176
     1
290
     0
176
     1
290
     0
176
     1
 90
       50
176
     1
 40
0.0
176
     1
 40
1.0
176
     1
 90
        0
176
     1
 62
    18
420
        0
176
     1
 90
       50
176
     1
 90
        3
176
     1
 62
     5
420
      255
176
     1
290
     0
176
     1
 90
       50
176
     1
 90
       50
176
     1
 90
       50
176
     1
290
     0
176
     1
 90
       50
176
     1
 62
   256
176
     0
 40
1.0
176
     0
 90
        2
176
     1
  1
strokes_ogs.tif
176
     1
290
     0
176
     1
 40
1.0
176
     1
 40
1.0
176
     1
1001
ACAD
1000
AcDbSavedByObjectVersion
1070
     0
  0
VISUALSTYLE
  5
59DE3
102
{ACAD_REACTORS
330
59DCC
102
}
330
59DCC
100
AcDbVisualStyle
  2
OverhangOff
 70
    21
177
     3
291
     1
 70
    58
 90
        2
176
     0
 90
        2
176
     0
 90
        0
176
     0
 90
        0
176
     0
 40
0.6
176
     0
 40
30.0
176
     0
 62
     7
420
 16777215
176
     0
 90
        1
176
     0
 90
        4
176
     0
 62
     7
176
     0
 62
   257
176
     0
 90
        1
176
     0
 90
        1
176
     0
 40
1.0
176
     0
 90
        9
176
     2
 62
     7
176
     0
 40
1.0
176
     0
 90
        1
176
     0
 90
        6
176
     0
 90
        2
176
     0
 62
     7
176
     0
 90
        5
176
     0
 90
        0
176
     0
 90
        0
176
     0
290
     0
176
     0
 90
        1
176
     0
 40
0.0
176
     0
 90
        0
176
     0
290
     0
176
     1
290
     1
176
     1
290
     1
176
     1
290
     0
176
     1
290
     0
176
     1
290
     0
176
     1
290
     0
176
     1
290
     0
176
     1
290
     0
176
     1
 90
       50
176
     0
 40
0.0
176
     0
 40
1.0
176
     0
 90
        0
176
     0
 62
    18
420
        0
176
     0
 90
       50
176
     0
 90
        3
176
     0
 62
     5
420
      255
176
     0
290
     0
176
     1
 90
       50
176
     0
 90
       50
176
     0
 90
       50
176
     0
290
     0
176
     1
 90
       50
176
     0
 62
   256
176
     0
 40
1.0
176
     0
 90
        2
176
     0
  1
strokes_ogs.tif
176
     0
290
     0
176
     1
 40
1.0
176
     0
 40
1.0
176
     0
1001
ACAD
1000
AcDbSavedByObjectVersion
1070
     0
  0
VISUALSTYLE
  5
59DD6
102
{ACAD_REACTORS
330
59DCC
102
}
330
59DCC
100
AcDbVisualStyle
  2
Realistic
 70
     8
177
     3
291
     0
 70
    58
 90
        2
176
     1
 90
        3
176
     1
 90
        0
176
     1
 90
        2
176
     1
 40
0.6
176
     1
 40
30.0
176
     1
 62
     7
420
 16777215
176
     1
 90
        0
176
     1
 90
        0
176
     1
 62
     7
176
     1
 62
   257
176
     1
 90
        1
176
     1
 90
        1
176
     1
 40
1.0
176
     1
 90
        8
176
     1
 62
   257
176
     1
 40
1.0
176
     1
 90
        1
176
     1
 90
        6
176
     1
 90
        2
176
     1
 62
     7
176
     1
 90
        3
176
     1
 90
        0
176
     1
 90
        0
176
     1
290
     0
176
     1
 90
       13
176
     1
 40
0.0
176
     1
 90
        0
176
     1
290
     0
176
     1
290
     1
176
     1
290
     1
176
     1
290
     0
176
     1
290
     0
176
     1
290
     0
176
     1
290
     0
176
     1
290
     0
176
     1
290
     0
176
     1
 90
       50
176
     1
 40
0.0
176
     1
 40
1.0
176
     1
 90
        0
176
     1
 62
    18
420
        0
176
     1
 90
       50
176
     1
 90
        3
176
     1
 62
     5
420
      255
176
     1
290
     0
176
     1
 90
       50
176
     1
 90
       50
176
     1
 90
       50
176
     1
290
     0
176
     1
 90
       50
176
     1
 62
   256
176
     0
 40
1.0
176
     0
 90
        2
176
     1
  1
strokes_ogs.tif
176
     1
290
     0
176
     1
 40
1.0
176
     1
 40
1.0
176
     1
1001
ACAD
1000
AcDbSavedByObjectVersion
1070
     0
  0
VISUALSTYLE
  5
59DE1
102
{ACAD_REACTORS
330
59DCC
102
}
330
59DCC
100
AcDbVisualStyle
  2
Shaded
 70
    27
177
     3
291
     0
 70
    58
 90
        2
176
     1
 90
        2
176
     1
 90
        1
176
     1
 90
        2
176
     1
 40
0.6
176
     1
 40
30.0
176
     1
 62
     7
420
 16777215
176
     1
 90
        0
176
     1
 90
        4
176
     1
 62
     7
176
     1
 62
   257
176
     1
 90
        1
176
     1
 90
        1
176
     1
 40
1.0
176
     1
 90
        8
176
     1
 62
   257
176
     1
 40
1.0
176
     1
 90
        1
176
     1
 90
        6
176
     1
 90
        2
176
     1
 62
     8
420
  7895160
176
     1
 90
        3
176
     1
 90
        0
176
     1
 90
        0
176
     1
290
     0
176
     1
 90
        5
176
     1
 40
0.0
176
     1
 90
        0
176
     1
290
     0
176
     1
290
     1
176
     1
290
     1
176
     1
290
     0
176
     1
290
     0
176
     1
290
     0
176
     1
290
     0
176
     1
290
     0
176
     1
290
     0
176
     1
 90
       50
176
     1
 40
0.0
176
     1
 40
1.0
176
     1
 90
        0
176
     1
 62
    18
420
        0
176
     1
 90
       50
176
     1
 90
        3
176
     1
 62
     5
420
      255
176
     1
290
     0
176
     1
 90
       50
176
     1
 90
       50
176
     1
 90
       50
176
     1
290
     0
176
     1
 90
       50
176
     1
 62
   256
176
     0
 40
1.0
176
     0
 90
        2
176
     1
  1
strokes_ogs.tif
176
     1
290
     0
176
     1
 40
1.0
176
     1
 40
1.0
176
     1
1001
ACAD
1000
AcDbSavedByObjectVersion
1070
     0
  0
VISUALSTYLE
  5
59DE0
102
{ACAD_REACTORS
330
59DCC
102
}
330
59DCC
100
AcDbVisualStyle
  2
Shaded with edges
 70
    26
177
     3
291
     0
 70
    58
 90
        2
176
     1
 90
        2
176
     1
 90
        1
176
     1
 90
        2
176
     1
 40
0.6
176
     1
 40
30.0
176
     1
 62
     7
420
 16777215
176
     1
 90
        1
176
     1
 90
        2
176
     1
 62
     7
176
     1
 62
   257
176
     1
 90
        2
176
     1
 90
        1
176
     1
 40
1.0
176
     1
 90
        8
176
     1
 62
   257
176
     1
 40
1.0
176
     1
 90
        1
176
     1
 90
        6
176
     1
 90
        2
176
     1
 62
     7
176
     1
 90
        3
176
     1
 90
        0
176
     1
 90
        0
176
     1
290
     0
176
     1
 90
        5
176
     1
 40
0.0
176
     1
 90
        0
176
     1
290
     0
176
     1
290
     1
176
     1
290
     1
176
     1
290
     0
176
     1
290
     0
176
     1
290
     0
176
     1
290
     0
176
     1
290
     0
176
     1
290
     0
176
     1
 90
       50
176
     1
 40
0.0
176
     1
 40
1.0
176
     1
 90
        0
176
     1
 62
    18
420
        0
176
     1
 90
       50
176
     1
 90
        3
176
     1
 62
     5
420
      255
176
     1
290
     0
176
     1
 90
       50
176
     1
 90
       50
176
     1
 90
       50
176
     1
290
     0
176
     1
 90
       50
176
     1
 62
   256
176
     0
 40
1.0
176
     0
 90
        2
176
     1
  1
strokes_ogs.tif
176
     1
290
     0
176
     1
 40
1.0
176
     1
 40
1.0
176
     1
1001
ACAD
1000
AcDbSavedByObjectVersion
1070
     0
  0
VISUALSTYLE
  5
59DDD
102
{ACAD_REACTORS
330
59DCC
102
}
330
59DCC
100
AcDbVisualStyle
  2
Shades of Gray
 70
    23
177
     3
291
     0
 70
    58
 90
        2
176
     1
 90
        2
176
     1
 90
        3
176
     1
 90
        0
176
     1
 40
0.6
176
     1
 40
30.0
176
     1
 62
     7
420
 16777215
176
     1
 90
        2
176
     1
 90
        2
176
     1
 62
     7
176
     1
 62
     7
176
     1
 90
        1
176
     1
 90
        1
176
     1
 40
40.0
176
     1
 90
        8
176
     1
 62
     7
176
     1
 40
1.0
176
     1
 90
        1
176
     1
 90
        6
176
     1
 90
        2
176
     1
 62
     7
176
     1
 90
        3
176
     1
 90
        0
176
     1
 90
        0
176
     1
290
     0
176
     1
 90
        1
176
     1
 40
0.0
176
     1
 90
        0
176
     1
290
     0
176
     1
290
     1
176
     1
290
     1
176
     1
290
     0
176
     1
290
     0
176
     1
290
     0
176
     1
290
     0
176
     1
290
     0
176
     1
290
     0
176
     1
 90
       50
176
     1
 40
0.0
176
     1
 40
1.0
176
     1
 90
        0
176
     1
 62
    18
420
        0
176
     1
 90
       50
176
     1
 90
        3
176
     1
 62
     5
420
      255
176
     1
290
     0
176
     1
 90
       50
176
     1
 90
       50
176
     1
 90
       50
176
     1
290
     0
176
     1
 90
       50
176
     1
 62
   256
176
     0
 40
1.0
176
     0
 90
        2
176
     1
  1
strokes_ogs.tif
176
     1
290
     0
176
     1
 40
1.0
176
     1
 40
1.0
176
     1
1001
ACAD
1000
AcDbSavedByObjectVersion
1070
     0
  0
VISUALSTYLE
  5
59DDE
102
{ACAD_REACTORS
330
59DCC
102
}
330
59DCC
100
AcDbVisualStyle
  2
Sketchy
 70
    24
177
     3
291
     0
 70
    58
 90
        1
176
     1
 90
        2
176
     1
 90
        2
176
     1
 90
        0
176
     1
 40
0.6
176
     1
 40
30.0
176
     1
 62
     7
420
 16777215
176
     1
 90
        2
176
     1
 90
        2
176
     1
 62
     7
176
     1
 62
     7
176
     1
 90
        1
176
     1
 90
        1
176
     1
 40
40.0
176
     1
 90
       11
176
     1
 62
     7
176
     1
 40
1.0
176
     1
 90
        1
176
     1
 90
        6
176
     1
 90
        2
176
     1
 62
     7
176
     1
 90
        6
176
     1
 90
        0
176
     1
 90
        0
176
     1
290
     0
176
     1
 90
        1
176
     1
 40
0.0
176
     1
 90
        0
176
     1
290
     0
176
     1
290
     1
176
     1
290
     1
176
     1
290
     0
176
     1
290
     0
176
     1
290
     0
176
     1
290
     0
176
     1
290
     0
176
     1
290
     0
176
     1
 90
       50
176
     1
 40
0.0
176
     1
 40
1.0
176
     1
 90
        0
176
     1
 62
    18
420
        0
176
     1
 90
       50
176
     1
 90
        3
176
     1
 62
     5
420
      255
176
     1
290
     0
176
     1
 90
       50
176
     1
 90
       50
176
     1
 90
       50
176
     1
290
     0
176
     1
 90
       50
176
     1
 62
   256
176
     0
 40
1.0
176
     0
 90
        2
176
     1
  1
strokes_ogs.tif
176
     1
290
     0
176
     1
 40
1.0
176
     1
 40
1.0
176
     1
1001
ACAD
1000
AcDbSavedByObjectVersion
1070
     0
  0
VISUALSTYLE
  5
59DD9
102
{ACAD_REACTORS
330
59DCC
102
}
330
59DCC
100
AcDbVisualStyle
  2
Thicken
 70
    13
177
     3
291
     1
 70
    58
 90
        2
176
     1
 90
        2
176
     1
 90
        0
176
     1
 90
        0
176
     1
 40
0.6
176
     1
 40
30.0
176
     1
 62
     7
420
 16777215
176
     1
 90
        1
176
     1
 90
        4
176
     1
 62
     7
176
     1
 62
   257
176
     1
 90
        1
176
     1
 90
        1
176
     1
 40
1.0
176
     1
 90
       12
176
     1
 62
     7
176
     1
 40
1.0
176
     1
 90
        1
176
     1
 90
        6
176
     1
 90
        2
176
     1
 62
     7
176
     1
 90
        5
176
     1
 90
        0
176
     1
 90
        0
176
     1
290
     0
176
     1
 90
        1
176
     1
 40
0.0
176
     1
 90
        0
176
     1
290
     0
176
     1
290
     1
176
     1
290
     1
176
     1
290
     0
176
     1
290
     0
176
     1
290
     0
176
     1
290
     0
176
     1
290
     0
176
     1
290
     0
176
     1
 90
       50
176
     1
 40
0.0
176
     1
 40
1.0
176
     1
 90
        0
176
     1
 62
    18
420
        0
176
     1
 90
       50
176
     1
 90
        3
176
     1
 62
     5
420
      255
176
     1
290
     0
176
     1
 90
       50
176
     1
 90
       50
176
     1
 90
       50
176
     1
290
     0
176
     1
 90
       50
176
     1
 62
   256
176
     0
 40
1.0
176
     0
 90
        2
176
     1
  1
strokes_ogs.tif
176
     1
290
     0
176
     1
 40
1.0
176
     1
 40
1.0
176
     1
1001
ACAD
1000
AcDbSavedByObjectVersion
1070
     0
  0
VISUALSTYLE
  5
59DD3
102
{ACAD_REACTORS
330
59DCC
102
}
330
59DCC
100
AcDbVisualStyle
  2
Wireframe
 70
     5
177
     3
291
     0
 70
    58
 90
        0
176
     1
 90
        2
176
     1
 90
        0
176
     1
 90
        0
176
     1
 40
0.6
176
     1
 40
30.0
176
     1
 62
     7
420
 16777215
176
     1
 90
        1
176
     1
 90
        4
176
     1
 62
     7
176
     1
 62
   257
176
     1
 90
        1
176
     1
 90
        1
176
     1
 40
1.0
176
     1
 90
        0
176
     1
 62
   257
176
     1
 40
1.0
176
     1
 90
        1
176
     1
 90
        6
176
     1
 90
        2
176
     1
 62
     7
176
     1
 90
        3
176
     1
 90
        0
176
     1
 90
        0
176
     1
290
     0
176
     1
 90
        1
176
     1
 40
0.0
176
     1
 90
        0
176
     1
290
     0
176
     1
290
     1
176
     1
290
     1
176
     1
290
     0
176
     1
290
     0
176
     1
290
     0
176
     1
290
     0
176
     1
290
     0
176
     1
290
     0
176
     1
 90
       50
176
     1
 40
0.0
176
     1
 40
1.0
176
     1
 90
        0
176
     1
 62
    18
420
        0
176
     1
 90
       50
176
     1
 90
        3
176
     1
 62
     5
420
      255
176
     1
290
     0
176
     1
 90
       50
176
     1
 90
       50
176
     1
 90
       50
176
     1
290
     0
176
     1
 90
       50
176
     1
 62
   256
176
     0
 40
1.0
176
     0
 90
        2
176
     1
  1
strokes_ogs.tif
176
     1
290
     0
176
     1
 40
1.0
176
     1
 40
1.0
176
     1
1001
ACAD
1000
AcDbSavedByObjectVersion
1070
     0
  0
VISUALSTYLE
  5
59DDF
102
{ACAD_REACTORS
330
59DCC
102
}
330
59DCC
100
AcDbVisualStyle
  2
X-Ray
 70
    25
177
     3
291
     0
 70
    58
 90
        2
176
     1
 90
        2
176
     1
 90
        1
176
     1
 90
        1
176
     1
 40
0.5
176
     1
 40
30.0
176
     1
 62
     7
420
 16777215
176
     1
 90
        1
176
     1
 90
        0
176
     1
 62
     7
176
     1
 62
   257
176
     1
 90
        1
176
     1
 90
        1
176
     1
 40
1.0
176
     1
 90
        8
176
     1
 62
     7
176
     1
 40
1.0
176
     1
 90
        1
176
     1
 90
        6
176
     1
 90
        2
176
     1
 62
     7
176
     1
 90
        3
176
     1
 90
        0
176
     1
 90
        0
176
     1
290
     0
176
     1
 90
       13
176
     1
 40
0.0
176
     1
 90
        0
176
     1
290
     0
176
     1
290
     1
176
     1
290
     1
176
     1
290
     0
176
     1
290
     0
176
     1
290
     0
176
     1
290
     0
176
     1
290
     0
176
     1
290
     0
176
     1
 90
       50
176
     1
 40
0.0
176
     1
 40
1.0
176
     1
 90
        0
176
     1
 62
    18
420
        0
176
     1
 90
       50
176
     1
 90
        3
176
     1
 62
     5
420
      255
176
     1
290
     0
176
     1
 90
       50
176
     1
 90
       50
176
     1
 90
       50
176
     1
290
     0
176
     1
 90
       50
176
     1
 62
   256
176
     0
 40
1.0
176
     0
 90
        2
176
     1
  1
strokes_ogs.tif
176
     1
290
     0
176
     1
 40
1.0
176
     1
 40
1.0
176
     1
1001
ACAD
1000
AcDbSavedByObjectVersion
1070
     0
  0
DICTIONARYVAR
  5
5C349
102
{ACAD_REACTORS
330
5C343
102
}
330
5C343
100
DictionaryVariables
280
     0
  1
1:1
  0
DICTIONARYVAR
  5
5C345
102
{ACAD_REACTORS
330
5C343
102
}
330
5C343
100
DictionaryVariables
280
     0
  1
STANDARD
  0
DICTIONARYVAR
  5
5C344
102
{ACAD_REACTORS
330
5C343
102
}
330
5C343
100
DictionaryVariables
280
     0
  1
STANDARD
  0
DICTIONARYVAR
  5
5C346
102
{ACAD_REACTORS
330
5C343
102
}
330
5C343
100
DictionaryVariables
280
     0
  1
Imperial24
  0
DICTIONARYVAR
  5
5C347
102
{ACAD_REACTORS
330
5C343
102
}
330
5C343
100
DictionaryVariables
280
     0
  1
Imperial24
  0
DICTIONARYVAR
  5
5C34B
102
{ACAD_REACTORS
330
5C343
102
}
330
5C343
100
DictionaryVariables
280
     0
  1
1
  0
DICTIONARYVAR
  5
5C34C
102
{ACAD_REACTORS
330
5C343
102
}
330
5C343
100
DictionaryVariables
280
     0
  1
15
  0
DICTIONARYVAR
  5
5C34A
102
{ACAD_REACTORS
330
5C343
102
}
330
5C343
100
DictionaryVariables
280
     0
  1
0
  0
DICTIONARYVAR
  5
5C348
102
{ACAD_REACTORS
330
5C343
102
}
330
5C343
100
DictionaryVariables
280
     0
  1
0
  0
DICTIONARY
  5
5C352
330
59E0D
100
AcDbDictionary
280
     1
281
     1
  3
ACAD_XREC_ROUNDTRIP
360
5C353
  0
DICTIONARY
  5
5C356
330
5B13D
100
AcDbDictionary
280
     1
281
     1
  3
ACAD_XREC_ROUNDTRIP
360
5C357
  0
DICTIONARY
  5
59DBD
330
59DBC
100
AcDbDictionary
280
     1
281
     1
  3
BUMPTILE
360
59DBF
  3
DIFFUSETILE
360
59DBE
  3
OPACITYTILE
360
59DC2
  3
REFLECTIONTILE
360
59DC1
  3
REFRACTIONTILE
360
59DC3
  3
SPECULARTILE
360
59DC0
  0
DICTIONARY
  5
59DB5
330
59DB4
100
AcDbDictionary
280
     1
281
     1
  3
BUMPTILE
360
59DB7
  3
DIFFUSETILE
360
59DB6
  3
OPACITYTILE
360
59DBA
  3
REFLECTIONTILE
360
59DB9
  3
REFRACTIONTILE
360
59DBB
  3
SPECULARTILE
360
59DB8
  0
DICTIONARY
  5
59DC5
330
59DC4
100
AcDbDictionary
280
     1
281
     1
  3
BUMPTILE
360
59DC7
  3
DIFFUSETILE
360
59DC6
  3
OPACITYTILE
360
59DCA
  3
REFLECTIONTILE
360
59DC9
  3
REFRACTIONTILE
360
59DCB
  3
SPECULARTILE
360
59DC8
  0
DICTIONARY
  5
5C350
330
59E0B
100
AcDbDictionary
280
     1
281
     1
  3
ACAD_XREC_ROUNDTRIP
360
5C351
  0
DICTIONARY
  5
5C354
330
5B13C
100
AcDbDictionary
280
     1
281
     1
  3
ACAD_XREC_ROUNDTRIP
360
5C355
  0
DICTIONARY
  5
5C34D
330
59E07
100
AcDbDictionary
280
     1
281
     1
  3
ACAD_ROUNDTRIP_2008_TABLESTYLE_CELLSTYLEMAP
360
5C34E
  0
XRECORD
  5
5C353
102
{ACAD_REACTORS
330
5C352
102
}
330
5C352
100
AcDbXrecord
280
     1
102
DISPLAYNAME
  1
Imperial24
102
FLAGS
 90
        0
  0
XRECORD
  5
5C357
102
{ACAD_REACTORS
330
5C356
102
}
330
5C356
100
AcDbXrecord
280
     1
102
DISPLAYNAME
  1
Metric50
102
FLAGS
 90
        0
  0
XRECORD
  5
59DBF
102
{ACAD_REACTORS
330
59DBD
102
}
330
59DBD
100
AcDbXrecord
280
     1
270
     1
271
     1
  0
XRECORD
  5
59DBE
102
{ACAD_REACTORS
330
59DBD
102
}
330
59DBD
100
AcDbXrecord
280
     1
270
     1
271
     1
  0
XRECORD
  5
59DC2
102
{ACAD_REACTORS
330
59DBD
102
}
330
59DBD
100
AcDbXrecord
280
     1
270
     1
271
     1
  0
XRECORD
  5
59DC1
102
{ACAD_REACTORS
330
59DBD
102
}
330
59DBD
100
AcDbXrecord
280
     1
270
     1
271
     1
  0
XRECORD
  5
59DC3
102
{ACAD_REACTORS
330
59DBD
102
}
330
59DBD
100
AcDbXrecord
280
     1
270
     1
271
     1
  0
XRECORD
  5
59DC0
102
{ACAD_REACTORS
330
59DBD
102
}
330
59DBD
100
AcDbXrecord
280
     1
270
     1
271
     1
  0
XRECORD
  5
59DB7
102
{ACAD_REACTORS
330
59DB5
102
}
330
59DB5
100
AcDbXrecord
280
     1
270
     1
271
     1
  0
XRECORD
  5
59DB6
102
{ACAD_REACTORS
330
59DB5
102
}
330
59DB5
100
AcDbXrecord
280
     1
270
     1
271
     1
  0
XRECORD
  5
59DBA
102
{ACAD_REACTORS
330
59DB5
102
}
330
59DB5
100
AcDbXrecord
280
     1
270
     1
271
     1
  0
XRECORD
  5
59DB9
102
{ACAD_REACTORS
330
59DB5
102
}
330
59DB5
100
AcDbXrecord
280
     1
270
     1
271
     1
  0
XRECORD
  5
59DBB
102
{ACAD_REACTORS
330
59DB5
102
}
330
59DB5
100
AcDbXrecord
280
     1
270
     1
271
     1
  0
XRECORD
  5
59DB8
102
{ACAD_REACTORS
330
59DB5
102
}
330
59DB5
100
AcDbXrecord
280
     1
270
     1
271
     1
  0
XRECORD
  5
59DC7
102
{ACAD_REACTORS
330
59DC5
102
}
330
59DC5
100
AcDbXrecord
280
     1
270
     1
271
     1
  0
XRECORD
  5
59DC6
102
{ACAD_REACTORS
330
59DC5
102
}
330
59DC5
100
AcDbXrecord
280
     1
270
     1
271
     1
  0
XRECORD
  5
59DCA
102
{ACAD_REACTORS
330
59DC5
102
}
330
59DC5
100
AcDbXrecord
280
     1
270
     1
271
     1
  0
XRECORD
  5
59DC9
102
{ACAD_REACTORS
330
59DC5
102
}
330
59DC5
100
AcDbXrecord
280
     1
270
     1
271
     1
  0
XRECORD
  5
59DCB
102
{ACAD_REACTORS
330
59DC5
102
}
330
59DC5
100
AcDbXrecord
280
     1
270
     1
271
     1
  0
XRECORD
  5
59DC8
102
{ACAD_REACTORS
330
59DC5
102
}
330
59DC5
100
AcDbXrecord
280
     1
270
     1
271
     1
  0
XRECORD
  5
5C351
102
{ACAD_REACTORS
330
5C350
102
}
330
5C350
100
AcDbXrecord
280
     1
102
DISPLAYNAME
  1
Imperial24
102
FLAGS
 90
        0
  0
XRECORD
  5
5C355
102
{ACAD_REACTORS
330
5C354
102
}
330
5C354
100
AcDbXrecord
280
     1
102
DISPLAYNAME
  1
Metric50
102
FLAGS
 90
        0
  0
CELLSTYLEMAP
  5
5C34E
102
{ACAD_REACTORS
330
5C34D
102
}
330
5C34D
100
AcDbCellStyleMap
 90
        3
300
CELLSTYLE
  1
TABLEFORMAT_BEGIN
 90
        5
170
     1
 91
        0
 92
    32768
 62
   257
 93
        1
300
CONTENTFORMAT
  1
CONTENTFORMAT_BEGIN
 90
        0
 91
        0
 92
      512
 93
        0
300

 40
0.0
140
1.0
 94
        5
 62
     0
340
59DF8
144
0.25
309
CONTENTFORMAT_END
171
     0
 94
        0
309
TABLEFORMAT_END
  1
CELLSTYLE_BEGIN
 90
        1
 91
        1
300
_TITLE
309
CELLSTYLE_END
300
CELLSTYLE
  1
TABLEFORMAT_BEGIN
 90
        5
170
     1
 91
        0
 92
        0
 62
   257
 93
        1
300
CONTENTFORMAT
  1
CONTENTFORMAT_BEGIN
 90
        0
 91
        0
 92
      512
 93
        0
300

 40
0.0
140
1.0
 94
        5
 62
     0
340
59DF8
144
0.18
309
CONTENTFORMAT_END
171
     0
 94
        0
309
TABLEFORMAT_END
  1
CELLSTYLE_BEGIN
 90
        2
 91
        1
300
_HEADER
309
CELLSTYLE_END
300
CELLSTYLE
  1
TABLEFORMAT_BEGIN
 90
        5
170
     1
 91
        0
 92
        0
 62
   257
 93
        1
300
CONTENTFORMAT
  1
CONTENTFORMAT_BEGIN
 90
        0
 91
        0
 92
      512
 93
        0
300

 40
0.0
140
1.0
 94
        2
 62
     0
340
59DF8
144
0.18
309
CONTENTFORMAT_END
171
     0
 94
        0
309
TABLEFORMAT_END
  1
CELLSTYLE_BEGIN
 90
        3
 91
        2
300
_DATA
309
CELLSTYLE_END
  0
ENDSEC
  0
EOF
