  0
SECTION
  2
HEADER
  9
$ACADVER
  1
AC1021
  9
$ACADMAINTVER
 70
    50
  9
$DWGCODEPAGE
  3
ANSI_1252
  9
$LASTSAVEDBY
  1
mstaweczny
  9
$INSBASE
 10
0.0
 20
0.0
 30
0.0
  9
$EXTMIN
 10
9140.387153413399
 20
12241.70859648269
 30
0.0
  9
$EXTMAX
 10
12314.93854411496
 20
13883.31881993185
 30
0.0
  9
$LIMMIN
 10
0.0
 20
0.0
  9
$LIMMAX
 10
420.0
 20
297.0
  9
$ORTHOMODE
 70
     0
  9
$REGENMODE
 70
     1
  9
$FILLMODE
 70
     1
  9
$QTEXTMODE
 70
     0
  9
$MIRRTEXT
 70
     0
  9
$LTSCALE
 40
1.0
  9
$ATTMODE
 70
     1
  9
$TEXTSIZE
 40
2.5
  9
$TRACEWID
 40
1.0
  9
$TEXTSTYLE
  7
STANDARD
  9
$CLAYER
  8
0
  9
$CELTYPE
  6
ByLayer
  9
$CECOLOR
 62
   256
  9
$CELTSCALE
 40
1.0
  9
$DISPSILH
 70
     0
  9
$DIMSCALE
 40
1.0
  9
$DIMASZ
 40
0.12
  9
$DIMEXO
 40
0.05
  9
$DIMDLI
 40
0.5
  9
$DIMRND
 40
0.0
  9
$DIMDLE
 40
0.0
  9
$DIMEXE
 40
0.1
  9
$DIMTP
 40
0.1
  9
$DIMTM
 40
0.1
  9
$DIMTXT
 40
0.12
  9
$DIMCEN
 40
0.0
  9
$DIMTSZ
 40
0.0
  9
$DIMTOL
 70
     0
  9
$DIMLIM
 70
     0
  9
$DIMTIH
 70
     1
  9
$DIMTOH
 70
     1
  9
$DIMSE1
 70
     0
  9
$DIMSE2
 70
     0
  9
$DIMTAD
 70
     0
  9
$DIMZIN
 70
     7
  9
$DIMBLK
  1

  9
$DIMASO
 70
     1
  9
$DIMSHO
 70
     1
  9
$DIMPOST
  1

  9
$DIMAPOST
  1
mm
  9
$DIMALT
 70
     0
  9
$DIMALTD
 70
     2
  9
$DIMALTF
 40
25.4
  9
$DIMLFAC
 40
1.0
  9
$DIMTOFL
 70
     0
  9
$DIMTVP
 40
0.0
  9
$DIMTIX
 70
     0
  9
$DIMSOXD
 70
     0
  9
$DIMSAH
 70
     0
  9
$DIMBLK1
  1

  9
$DIMBLK2
  1

  9
$DIMSTYLE
  2
AM_ANSI
  9
$DIMCLRD
 70
   256
  9
$DIMCLRE
 70
   256
  9
$DIMCLRT
 70
   140
  9
$DIMTFAC
 40
0.71
  9
$DIMGAP
 40
0.06
  9
$DIMJUST
 70
     0
  9
$DIMSD1
 70
     0
  9
$DIMSD2
 70
     0
  9
$DIMTOLJ
 70
     1
  9
$DIMTZIN
 70
     7
  9
$DIMALTZ
 70
     0
  9
$DIMALTTZ
 70
     0
  9
$DIMUPT
 70
     0
  9
$DIMDEC
 70
     4
  9
$DIMTDEC
 70
     4
  9
$DIMALTU
 70
     2
  9
$DIMALTTD
 70
     4
  9
$DIMTXSTY
  7
STANDARD
  9
$DIMAUNIT
 70
     0
  9
$DIMADEC
 70
     0
  9
$DIMALTRND
 40
0.0
  9
$DIMAZIN
 70
     2
  9
$DIMDSEP
 70
    46
  9
$DIMATFIT
 70
     3
  9
$DIMFRAC
 70
     0
  9
$DIMLDRBLK
  1

  9
$DIMLUNIT
 70
     2
  9
$DIMLWD
 70
    -1
  9
$DIMLWE
 70
    -1
  9
$DIMTMOVE
 70
     0
  9
$DIMFXL
 40
1.0
  9
$DIMFXLON
 70
     0
  9
$DIMJOGANG
 40
0.7853981633974483
  9
$DIMTFILL
 70
     0
  9
$DIMTFILLCLR
 70
     0
  9
$DIMARCSYM
 70
     1
  9
$DIMLTYPE
  6
ByBlock
  9
$DIMLTEX1
  6
ByBlock
  9
$DIMLTEX2
  6
ByBlock
  9
$LUNITS
 70
     2
  9
$LUPREC
 70
     2
  9
$SKETCHINC
 40
1.0
  9
$FILLETRAD
 40
2.5
  9
$AUNITS
 70
     0
  9
$AUPREC
 70
     0
  9
$MENU
  1
.
  9
$ELEVATION
 40
0.0
  9
$PELEVATION
 40
0.0
  9
$THICKNESS
 40
0.0
  9
$LIMCHECK
 70
     0
  9
$CHAMFERA
 40
2.5
  9
$CHAMFERB
 40
2.5
  9
$CHAMFERC
 40
0.0
  9
$CHAMFERD
 40
0.0
  9
$SKPOLY
 70
     0
  9
$TDCREATE
 40
2455251.642918206
  9
$TDUCREATE
 40
2455251.601251539
  9
$TDUPDATE
 40
2457624.641708253
  9
$TDUUPDATE
 40
2457624.600041586
  9
$TDINDWG
 40
0.0278988310
  9
$TDUSRTIMER
 40
0.0278987153
  9
$USRTIMER
 70
     1
  9
$ANGBASE
 50
0.0
  9
$ANGDIR
 70
     0
  9
$PDMODE
 70
     0
  9
$PDSIZE
 40
0.0
  9
$PLINEWID
 40
0.0
  9
$SPLFRAME
 70
     0
  9
$SPLINETYPE
 70
     6
  9
$SPLINESEGS
 70
     8
  9
$HANDSEED
  5
1AA26
  9
$SURFTAB1
 70
     6
  9
$SURFTAB2
 70
     6
  9
$SURFTYPE
 70
     6
  9
$SURFU
 70
     6
  9
$SURFV
 70
     6
  9
$UCSBASE
  2

  9
$UCSNAME
  2

  9
$UCSORG
 10
0.0
 20
0.0
 30
0.0
  9
$UCSXDIR
 10
1.0
 20
0.0
 30
0.0
  9
$UCSYDIR
 10
0.0
 20
1.0
 30
0.0
  9
$UCSORTHOREF
  2

  9
$UCSORTHOVIEW
 70
     0
  9
$UCSORGTOP
 10
0.0
 20
0.0
 30
0.0
  9
$UCSORGBOTTOM
 10
0.0
 20
0.0
 30
0.0
  9
$UCSORGLEFT
 10
0.0
 20
0.0
 30
0.0
  9
$UCSORGRIGHT
 10
0.0
 20
0.0
 30
0.0
  9
$UCSORGFRONT
 10
0.0
 20
0.0
 30
0.0
  9
$UCSORGBACK
 10
0.0
 20
0.0
 30
0.0
  9
$PUCSBASE
  2

  9
$PUCSNAME
  2

  9
$PUCSORG
 10
0.0
 20
0.0
 30
0.0
  9
$PUCSXDIR
 10
1.0
 20
0.0
 30
0.0
  9
$PUCSYDIR
 10
0.0
 20
1.0
 30
0.0
  9
$PUCSORTHOREF
  2

  9
$PUCSORTHOVIEW
 70
     0
  9
$PUCSORGTOP
 10
0.0
 20
0.0
 30
0.0
  9
$PUCSORGBOTTOM
 10
0.0
 20
0.0
 30
0.0
  9
$PUCSORGLEFT
 10
0.0
 20
0.0
 30
0.0
  9
$PUCSORGRIGHT
 10
0.0
 20
0.0
 30
0.0
  9
$PUCSORGFRONT
 10
0.0
 20
0.0
 30
0.0
  9
$PUCSORGBACK
 10
0.0
 20
0.0
 30
0.0
  9
$USERI1
 70
     0
  9
$USERI2
 70
     0
  9
$USERI3
 70
     0
  9
$USERI4
 70
     0
  9
$USERI5
 70
     0
  9
$USERR1
 40
0.0
  9
$USERR2
 40
0.0
  9
$USERR3
 40
0.0
  9
$USERR4
 40
0.0
  9
$USERR5
 40
0.0
  9
$WORLDVIEW
 70
     1
  9
$SHADEDGE
 70
     3
  9
$SHADEDIF
 70
    70
  9
$TILEMODE
 70
     1
  9
$MAXACTVP
 70
    64
  9
$PINSBASE
 10
0.0
 20
0.0
 30
0.0
  9
$PLIMCHECK
 70
     0
  9
$PEXTMIN
 10
1.000000000000000E+20
 20
1.000000000000000E+20
 30
1.000000000000000E+20
  9
$PEXTMAX
 10
-1.000000000000000E+20
 20
-1.000000000000000E+20
 30
-1.000000000000000E+20
  9
$PLIMMIN
 10
0.0
 20
0.0
  9
$PLIMMAX
 10
420.0
 20
297.0
  9
$UNITMODE
 70
     0
  9
$VISRETAIN
 70
     1
  9
$PLINEGEN
 70
     0
  9
$PSLTSCALE
 70
     1
  9
$TREEDEPTH
 70
  3020
  9
$CMLSTYLE
  2
Standard
  9
$CMLJUST
 70
     0
  9
$CMLSCALE
 40
1.0
  9
$PROXYGRAPHICS
 70
     1
  9
$MEASUREMENT
 70
     0
  9
$CELWEIGHT
370
    -1
  9
$ENDCAPS
280
     0
  9
$JOINSTYLE
280
     0
  9
$LWDISPLAY
290
     0
  9
$INSUNITS
 70
     0
  9
$HYPERLINKBASE
  1

  9
$STYLESHEET
  1

  9
$XEDIT
290
     1
  9
$CEPSNTYPE
380
     0
  9
$PSTYLEMODE
290
     1
  9
$FINGERPRINTGUID
  2
{182908E2-D9F5-496D-9863-9DEAA4A1A736}
  9
$VERSIONGUID
  2
{65CF3D73-8C1A-462A-A11A-85402455102C}
  9
$EXTNAMES
290
     1
  9
$PSVPSCALE
 40
0.0
  9
$OLESTARTUP
290
     0
  9
$SORTENTS
280
   127
  9
$INDEXCTL
280
     0
  9
$HIDETEXT
280
     0
  9
$XCLIPFRAME
290
     0
  9
$HALOGAP
280
     0
  9
$OBSCOLOR
 70
   257
  9
$OBSLTYPE
280
     0
  9
$INTERSECTIONDISPLAY
280
     0
  9
$INTERSECTIONCOLOR
 70
   257
  9
$DIMASSOC
280
     1
  9
$PROJECTNAME
  1

  9
$CAMERADISPLAY
290
     0
  9
$LENSLENGTH
 40
50.0
  9
$CAMERAHEIGHT
 40
0.0
  9
$STEPSPERSEC
 40
2.0
  9
$STEPSIZE
 40
6.0
  9
$3DDWFPREC
 40
2.0
  9
$PSOLWIDTH
 40
0.25
  9
$PSOLHEIGHT
 40
4.0
  9
$LOFTANG1
 40
1.570796326794896
  9
$LOFTANG2
 40
1.570796326794896
  9
$LOFTMAG1
 40
0.0
  9
$LOFTMAG2
 40
0.0
  9
$LOFTPARAM
 70
     7
  9
$LOFTNORMALS
280
     1
  9
$LATITUDE
 40
37.795
  9
$LONGITUDE
 40
-122.394
  9
$NORTHDIRECTION
 40
0.0
  9
$TIMEZONE
 70
 -8000
  9
$LIGHTGLYPHDISPLAY
280
     1
  9
$TILEMODELIGHTSYNCH
280
     1
  9
$CMATERIAL
347
1A7B5
  9
$SOLIDHIST
280
     1
  9
$SHOWHIST
280
     1
  9
$DWFFRAME
280
     2
  9
$DGNFRAME
280
     0
  9
$REALWORLDSCALE
290
     1
  9
$INTERFERECOLOR
 62
     1
  9
$INTERFEREOBJVS
345
1A7D7
  9
$INTERFEREVPVS
346
1A7D4
  9
$CSHADOW
280
     0
  9
$SHADOWPLANELOCATION
 40
0.0
  0
ENDSEC
  0
SECTION
  2
CLASSES
  0
CLASS
  1
ACDBDICTIONARYWDFLT
  2
AcDbDictionaryWithDefault
  3
ObjectDBX Classes
 90
        0
 91
        1
280
     0
281
     0
  0
CLASS
  1
MATERIAL
  2
AcDbMaterial
  3
ObjectDBX Classes
 90
     1153
 91
        3
280
     0
281
     0
  0
CLASS
  1
VISUALSTYLE
  2
AcDbVisualStyle
  3
ObjectDBX Classes
 90
     4095
 91
       16
280
     0
281
     0
  0
CLASS
  1
SCALE
  2
AcDbScale
  3
ObjectDBX Classes
 90
     1153
 91
       33
280
     0
281
     0
  0
CLASS
  1
TABLESTYLE
  2
AcDbTableStyle
  3
ObjectDBX Classes
 90
     4095
 91
        1
280
     0
281
     0
  0
CLASS
  1
MLEADERSTYLE
  2
AcDbMLeaderStyle
  3
ACDB_MLEADERSTYLE_CLASS
 90
     4095
 91
        1
280
     0
281
     0
  0
CLASS
  1
AMGSETTINGSOBJ
  2
AmgSettingsObj
  3
"AcadM|Product Description: AutoCAD Mechanical|Company: Autodesk, Inc."
 90
     1024
 91
        2
280
     0
281
     0
  0
CLASS
  1
ACME_DOCUMENT
  2
AcMeDbDoc
  3
AcMeServices
 90
     1024
 91
        1
280
     0
281
     0
  0
CLASS
  1
ACMESCOPE
  2
AcMeScope
  3
AcMeServices
 90
     1024
 91
        1
280
     0
281
     0
  0
CLASS
  1
ACMECOMMANDHISTORY
  2
AcMeCommandHistory
  3
AcMeServices
 90
     1024
 91
        1
280
     0
281
     0
  0
CLASS
  1
ACIMSYSVARMAN
  2
AcImSysVarManager
  3
AcMeServices
 90
     1024
 91
        5
280
     0
281
     0
  0
CLASS
  1
ACIMINTSYSVAR
  2
AcImIntSysVar
  3
AcMeServices
 90
     1024
 91
       27
280
     0
281
     0
  0
CLASS
  1
ACMEDRAWINGMAN
  2
AcMeDrawingMan
  3
AcMeServices
 90
     1024
 91
        1
280
     0
281
     0
  0
CLASS
  1
ACMEVIEW
  2
AcMeView
  3
AcMeServices
 90
     1024
 91
        1
280
     0
281
     0
  0
CLASS
  1
ACDBENTITYCACHE
  2
AcMeEntityCache
  3
AcMeServices
 90
     1024
 91
        1
280
     0
281
     0
  0
CLASS
  1
GSMANAGER
  2
AcMeGSManager
  3
AcMeServices
 90
     1024
 91
        1
280
     0
281
     0
  0
CLASS
  1
AMDTINTERNALREACTOR
  2
AmdtInternalReactor
  3
AcMeServices
 90
     1024
 91
        2
280
     0
281
     0
  0
CLASS
  1
ACMESTATEMGR
  2
AcMeStateMgr
  3
AcMeServices
 90
     1024
 91
        1
280
     0
281
     0
  0
CLASS
  1
ACGREFMASTER
  2
AcGrefMaster
  3
AcAttribServices
 90
     1024
 91
        1
280
     0
281
     0
  0
CLASS
  1
AM_DRAWING_MGR
  2
AcDmDwgMgr
  3
AcMechDwgViewMgmt
 90
     1024
 91
        1
280
     0
281
     0
  0
CLASS
  1
AM_DWG_DOCUMENT
  2
AcDmDwgDocument
  3
AcMechDwgViewMgmt
 90
     1024
 91
        1
280
     0
281
     0
  0
CLASS
  1
AM_DWG_SHEET
  2
AcDmSheet
  3
AcMechDwgViewMgmt
 90
     1024
 91
        1
280
     0
281
     0
  0
CLASS
  1
AM_VIEWDIMPARMAP
  2
AcDmViewDimParMap
  3
AcMechDwgViewMgmt
 90
     1024
 91
        1
280
     0
281
     0
  0
CLASS
  1
ACIMREALSYSVAR
  2
AcImRealSysVar
  3
AcMeServices
 90
     1024
 91
        1
280
     0
281
     0
  0
CLASS
  1
AM_DWGMGR_NAME
  2
AcDmDwgMgrName
  3
AcMechDwgViewMgmt
 90
     1024
 91
        1
280
     0
281
     0
  0
CLASS
  1
ACME_DATABASE
  2
AcMeDbDatabase
  3
AcMeServices
 90
     1024
 91
        2
280
     0
281
     0
  0
CLASS
  1
ACRFINSADJUSTERMGR
  2
AcRfInsAdjusterMgr
  3
AcMeServices
 90
     1024
 91
        1
280
     0
281
     0
  0
CLASS
  1
ACGREFACADMASTER
  2
AcGrefacadMaster
  3
AcGrefServices
 90
     1024
 91
        1
280
     0
281
     0
  0
CLASS
  1
AMDTMENUSTATEMGR
  2
AmdtMenuStateMgr
  3
McadcomServices
 90
     1024
 91
        1
280
     0
281
     0
  0
CLASS
  1
AMDTMCOMMENUSTATE
  2
AmdtMcomMenuState
  3
McadcomServices
 90
     1024
 91
        1
280
     0
281
     0
  0
CLASS
  1
AMIMASTER
  2
AmiMaster
  3
AmiServices
 90
     1024
 91
        1
280
     0
281
     0
  0
CLASS
  1
MAPIAMMOUDLE
  2
MApiAmModule
  3
MApiAmServices
 90
     1024
 91
        1
280
     0
281
     0
  0
CLASS
  1
ACIMSTRSYSVAR
  2
AcImStrSysVar
  3
AcMeServices
 90
     1024
 91
        5
280
     0
281
     0
  0
CLASS
  1
AMDTADMENUSTATE
  2
AmdtAdMenuState
  3
DesignerServices
 90
     1024
 91
        1
280
     0
281
     0
  0
CLASS
  1
ADAPPL
  2
AcAdAppl
  3
DesignerServices
 90
     1024
 91
        1
280
     0
281
     0
  0
CLASS
  1
DEPMGR
  2
AcAdDepMgr
  3
DesignerServices
 90
     1024
 91
        1
280
     0
281
     0
  0
CLASS
  1
PARAMMGR
  2
AcAdParamMgr
  3
DesignerServices
 90
     1024
 91
        1
280
     0
281
     0
  0
CLASS
  1
PARAMSCOPE
  2
AcAdParamScope
  3
DesignerServices
 90
     1024
 91
        1
280
     0
281
     0
  0
CLASS
  1
NAMEDAPPL
  2
AcAdNamedAppl
  3
DesignerServices
 90
     1024
 91
        1
280
     0
281
     0
  0
CLASS
  1
AMDTDMMENUSTATE
  2
AmdtDmMenuState
  3
AcMechDwgViewMgmt
 90
     1024
 91
        1
280
     0
281
     0
  0
CLASS
  1
AMDTAMMENUSTATE
  2
AmdtAmMenuState
  3
DesignerAssemblies
 90
     1024
 91
        1
280
     0
281
     0
  0
CLASS
  1
ACAMPROJECT
  2
AcAmProject
  3
DesignerAssemblies
 90
     1024
 91
        1
280
     0
281
     0
  0
CLASS
  1
ACAMGRCOMPDEF
  2
AcAmGrCompDef
  3
DesignerAssemblies
 90
     1024
 91
        1
280
     0
281
     0
  0
CLASS
  1
ACCMCONTEXT
  2
AcCmContext
  3
DesignerAssemblies
 90
     1024
 91
        1
280
     0
281
     0
  0
CLASS
  1
ACAMCOMPDEF
  2
AcAmCompDef
  3
DesignerAssemblies
 90
     1024
 91
        1
280
     0
281
     0
  0
CLASS
  1
ACAMCOMPDEFMGR
  2
AcAmCompDefMgr
  3
DesignerAssemblies
 90
     1024
 91
        1
280
     0
281
     0
  0
CLASS
  1
AMCONTEXTMGR
  2
AcAmContextMgr
  3
DesignerAssemblies
 90
     1024
 91
        1
280
     0
281
     0
  0
CLASS
  1
ACAMCONTEXTMODELER
  2
AcAmContextModeler
  3
DesignerAssemblies
 90
     1024
 91
        1
280
     0
281
     0
  0
CLASS
  1
ACMDATADICTIONARY
  2
AcmDataDictionary
  3
"AcmSymBB|Product Description: AutoCAD Mechanical|Company: Autodesk, Inc."
 90
     1024
 91
        1
280
     0
281
     0
  0
CLASS
  1
CATALOGSTATE
  2
AcAmCatalogState
  3
DesignerAssemblies
 90
     1024
 91
        1
280
     0
281
     0
  0
CLASS
  1
ACAMGRCOMPDEFSET
  2
AcAmGrCompDefSet
  3
DesignerAssemblies
 90
     1024
 91
        1
280
     0
281
     0
  0
CLASS
  1
AMDTBROWSERDBTAB
  2
AmdtBrowserDbTab
  3
McadcomServices
 90
     1024
 91
        1
280
     0
281
     0
  0
CLASS
  1
CBROWSERAPPOBJECT
  2
CBrowserAppObject
  3
McadcomServices
 90
     1024
 91
        3
280
     0
281
     0
  0
CLASS
  1
DM_PLACEHOLDER
  2
AcDmSelsetPlaceholder
  3
AcMechDwgViewMgmt
 90
     1024
 91
        1
280
     0
281
     0
  0
CLASS
  1
EXACXREFPANELOBJECT
  2
ExAcXREFPanelObject
  3
EXAC_ESW
 90
     1025
 91
        1
280
     0
281
     0
  0
CLASS
  1
NPOCOLLECTION
  2
AcDbImpNonPersistentObjectsCollection
  3
ObjectDBX Classes
 90
     1153
 91
        1
280
     0
281
     0
  0
CLASS
  1
ACMSTANDARDANSI
  2
AcmStandardANSI
  3
"Amdt_StdImp|Product Description: AutoCAD Mechanical|Company: Autodesk, Inc."
 90
     1024
 91
        1
280
     0
281
     0
  0
CLASS
  1
ACMSURFSTANDARDANSI
  2
AcmSurfTextStdANSI
  3
"Amdt_StdImp|Product Description: AutoCAD Mechanical|Company: Autodesk, Inc."
 90
     1024
 91
        1
280
     0
281
     0
  0
CLASS
  1
ACMFCFSTANDARDANSI
  2
AcmFCFStdANSI
  3
"Amdt_StdImp|Product Description: AutoCAD Mechanical|Company: Autodesk, Inc."
 90
     1024
 91
        1
280
     0
281
     0
  0
CLASS
  1
ACMWELDSTANDARDANSI
  2
AcmWeldingStdANSI
  3
"Amdt_StdImp|Product Description: AutoCAD Mechanical|Company: Autodesk, Inc."
 90
     1024
 91
        1
280
     0
281
     0
  0
CLASS
  1
ACMIDSTANDARDANSI
  2
AcmIdStdANSI
  3
"Amdt_StdImp|Product Description: AutoCAD Mechanical|Company: Autodesk, Inc."
 90
     1024
 91
        1
280
     0
281
     0
  0
CLASS
  1
ACMDATUMSTANDARDANSI
  2
AcmDatumStdANSI
  3
"Amdt_StdImp|Product Description: AutoCAD Mechanical|Company: Autodesk, Inc."
 90
     1024
 91
        1
280
     0
281
     0
  0
CLASS
  1
ACMBOMSTANDARDANSI
  2
AcmBOMStdANSI
  3
"Amdt_StdImp|Product Description: AutoCAD Mechanical|Company: Autodesk, Inc."
 90
     1024
 91
        1
280
     0
281
     0
  0
CLASS
  1
ACMDETAILSTANDARDANSI
  2
AmdtDetailSymStdANSI
  3
"Amdt_StdImp|Product Description: AutoCAD Mechanical|Company: Autodesk, Inc."
 90
     1024
 91
        1
280
     0
281
     0
  0
CLASS
  1
ACMSECTIONSTANDARDANSI
  2
AmdtSectionSymStdANSI
  3
"Amdt_StdImp|Product Description: AutoCAD Mechanical|Company: Autodesk, Inc."
 90
     1024
 91
        1
280
     0
281
     0
  0
CLASS
  1
ACMCENTERLINESTANDARDANSI
  2
AmdtCenterLineStdANSI
  3
"Amdt_StdImp|Product Description: AutoCAD Mechanical|Company: Autodesk, Inc."
 90
     1024
 91
        1
280
     0
281
     0
  0
CLASS
  1
ACMTHREADLINESTANDARDANSI
  2
AmdtThreadLineStdANSI
  3
"Amdt_StdImp|Product Description: AutoCAD Mechanical|Company: Autodesk, Inc."
 90
     1024
 91
        1
280
     0
281
     0
  0
CLASS
  1
ACMNOTESTANDARDANSI
  2
AmdtNoteStdANSI
  3
"Amdt_StdImp|Product Description: AutoCAD Mechanical|Company: Autodesk, Inc."
 90
     1024
 91
        1
280
     0
281
     0
  0
CLASS
  1
ACMTAPERSTANDARDANSI
  2
AcmTaperStdANSI
  3
"Amdt_StdImp|Product Description: AutoCAD Mechanical|Company: Autodesk, Inc."
 90
     1024
 91
        1
280
     0
281
     0
  0
CLASS
  1
ACMANOOTATIONVIEWSTANDARDANSI
  2
AmdtAnViewStdANSI
  3
"Amdt_StdImp|Product Description: AutoCAD Mechanical|Company: Autodesk, Inc."
 90
     1024
 91
        1
280
     0
281
     0
  0
CLASS
  1
ACAMGLAYSTD
  2
AcAmgLayStd
  3
"AmgLay|Product Description: AutoCAD Mechanical|Company: Autodesk, Inc."
 90
     1024
 91
        2
280
     0
281
     0
  0
CLASS
  1
ACAMGDIMSTD
  2
AcAmgDimStd
  3
"AmgDim|Product Description: AutoCAD Mechanical|Company: Autodesk, Inc."
 90
     1024
 91
        2
280
     0
281
     0
  0
CLASS
  1
AMGOBJPROPCFG
  2
AmgObjPropCfg
  3
"AmgLay|Product Description: AutoCAD Mechanical|Company: Autodesk, Inc."
 90
     1025
 91
        1
280
     0
281
     0
  0
CLASS
  1
ACAMGHOLECHARTSTDANSI
  2
AcAmgHoleChartStdANSI
  3
AmgDim|Product Description: AutoCAD Mechanical|Company: Autodesk, Inc.
 90
     1024
 91
        1
280
     0
281
     0
  0
CLASS
  1
ACAMGTITLESTD
  2
AcAmgTitleStd
  3
"AmgTitle|Product Description: AutoCAD Mechanical|Company: Autodesk, Inc."
 90
     4095
 91
        2
280
     0
281
     0
  0
CLASS
  1
AMDTNOTETEMPLATEDB
  2
AmdtNoteTemplateDB
  3
AcmSymBB|Product Description: AutoCAD Mechanical|Company: Autodesk, Inc.
 90
     1024
 91
       12
280
     0
281
     0
  0
CLASS
  1
DIMASSOC
  2
AcDbDimAssoc
  3
"AcDbDimAssoc|Product Desc:     AcDim ARX App For Dimension|Company:          Autodesk, Inc.|WEB Address:      www.autodesk.com"
 90
        0
 91
        6
280
     0
281
     0
  0
CLASS
  1
SORTENTSTABLE
  2
AcDbSortentsTable
  3
ObjectDBX Classes
 90
        0
 91
        1
280
     0
281
     0
  0
CLASS
  1
ACMSTANDARDISO
  2
AcmStandardISO
  3
"Amdt_StdImp|Product Description: AutoCAD Mechanical|Company: Autodesk, Inc."
 90
     1024
 91
        1
280
     0
281
     0
  0
CLASS
  1
ACMSURFSTANDARDISO2002
  2
AcmSurfTextStdISO2002
  3
"Amdt_StdImp|Product Description: AutoCAD Mechanical|Company: Autodesk, Inc."
 90
     1024
 91
        1
280
     0
281
     0
  0
CLASS
  1
ACMFCFSTANDARDISO
  2
AcmFCFStdISO
  3
"Amdt_StdImp|Product Description: AutoCAD Mechanical|Company: Autodesk, Inc."
 90
     1024
 91
        1
280
     0
281
     0
  0
CLASS
  1
ACMWELDSTANDARDISO
  2
AcmWeldingStdISO
  3
"Amdt_StdImp|Product Description: AutoCAD Mechanical|Company: Autodesk, Inc."
 90
     1024
 91
        1
280
     0
281
     0
  0
CLASS
  1
ACMIDSTANDARDISO
  2
AcmIdStdISO
  3
"Amdt_StdImp|Product Description: AutoCAD Mechanical|Company: Autodesk, Inc."
 90
     1024
 91
        1
280
     0
281
     0
  0
CLASS
  1
ACMDATUMSTANDARDISO
  2
AcmDatumStdISO
  3
"Amdt_StdImp|Product Description: AutoCAD Mechanical|Company: Autodesk, Inc."
 90
     1024
 91
        1
280
     0
281
     0
  0
CLASS
  1
ACMBOMSTANDARDISO
  2
AcmBOMStdISO
  3
"Amdt_StdImp|Product Description: AutoCAD Mechanical|Company: Autodesk, Inc."
 90
     1024
 91
        1
280
     0
281
     0
  0
CLASS
  1
ACMDETAILSTANDARDISO
  2
AmdtDetailSymStdISO
  3
"Amdt_StdImp|Product Description: AutoCAD Mechanical|Company: Autodesk, Inc."
 90
     1024
 91
        1
280
     0
281
     0
  0
CLASS
  1
ACMSECTIONSTANDARDISO2001
  2
AmdtSectionSymStdISO2001
  3
"Amdt_StdImp|Product Description: AutoCAD Mechanical|Company: Autodesk, Inc."
 90
     1024
 91
        1
280
     0
281
     0
  0
CLASS
  1
ACMCENTERLINESTANDARDISO
  2
AmdtCenterLineStdISO
  3
"Amdt_StdImp|Product Description: AutoCAD Mechanical|Company: Autodesk, Inc."
 90
     1024
 91
        1
280
     0
281
     0
  0
CLASS
  1
ACMNOTESTANDARDISO
  2
AmdtNoteStdISO
  3
"Amdt_StdImp|Product Description: AutoCAD Mechanical|Company: Autodesk, Inc."
 90
     1024
 91
        1
280
     0
281
     0
  0
CLASS
  1
ACAMGHOLECHARTSTDISO
  2
AcAmgHoleChartStdISO
  3
AmgDim|Product Description: AutoCAD Mechanical|Company: Autodesk, Inc.
 90
     1024
 91
        1
280
     0
281
     0
  0
CLASS
  1
ACMTHREADLINESTANDARDISO
  2
AmdtThreadLineStdISO
  3
"Amdt_StdImp|Product Description: AutoCAD Mechanical|Company: Autodesk, Inc."
 90
     1024
 91
        1
280
     0
281
     0
  0
CLASS
  1
ACMTAPERSTANDARDISO
  2
AcmTaperStdISO
  3
"Amdt_StdImp|Product Description: AutoCAD Mechanical|Company: Autodesk, Inc."
 90
     1024
 91
        1
280
     0
281
     0
  0
CLASS
  1
ACMANOOTATIONVIEWSTANDARDISO
  2
AmdtAnViewStdISO
  3
"Amdt_StdImp|Product Description: AutoCAD Mechanical|Company: Autodesk, Inc."
 90
     1024
 91
        1
280
     0
281
     0
  0
CLASS
  1
AMDTEDGESTANDARDISO13715
  2
AmdtEdgeStdISO13715
  3
"Amdt_StdImp|Product Description: AutoCAD Mechanical|Company: Autodesk, Inc."
 90
     1024
 91
        1
280
     0
281
     0
  0
CLASS
  1
ACMDATAENTRYBLOCK
  2
AcmDataEntryBlock
  3
AcmSymBB|Product Description: AutoCAD Mechanical|Company: Autodesk, Inc.
 90
     1024
 91
        1
280
     0
281
     0
  0
CLASS
  1
ACAMGFILTERDAT
  2
AcAmgFilterDat
  3
"AcadM|Product Description: AutoCAD Mechanical|Company: Autodesk, Inc."
 90
     1024
 91
        6
280
     0
281
     0
  0
CLASS
  1
DICTIONARYVAR
  2
AcDbDictionaryVar
  3
ObjectDBX Classes
 90
        0
 91
        7
280
     0
281
     0
  0
CLASS
  1
CELLSTYLEMAP
  2
AcDbCellStyleMap
  3
ObjectDBX Classes
 90
     1152
 91
        1
280
     0
281
     0
  0
ENDSEC
  0
SECTION
  2
TABLES
  0
TABLE
  2
VPORT
  5
1A7AC
330
0
100
AcDbSymbolTable
 70
     1
  0
VPORT
  5
1A81C
330
1A7AC
100
AcDbSymbolTableRecord
100
AcDbViewportTableRecord
  2
*ACTIVE
 70
     0
 10
0.0
 20
0.0
 11
1.0
 21
1.0
 12
11167.89629562686
 22
12479.56822440648
 13
0.0
 23
0.0
 14
2.5
 24
2.5
 15
10.0
 25
10.0
 16
0.0
 26
0.0
 36
1.0
 17
0.0
 27
0.0
 37
0.0
 40
3110.197091804055
 41
1.780742459396751
 42
50.0
 43
0.0
 44
0.0
 50
0.0
 51
0.0
 71
     0
 72
  1000
 73
     1
 74
     3
 75
     0
 76
     0
 77
     0
 78
     0
281
     0
 65
     0
110
0.0
120
0.0
130
0.0
111
1.0
121
0.0
131
0.0
112
0.0
122
1.0
132
0.0
 79
     0
146
0.0
348
1A7D3
 60
     3
 61
     5
292
     1
282
     0
141
0.0
142
0.0
 63
   250
421
  3355443
  0
ENDTAB
  0
TABLE
  2
LTYPE
  5
1A7A9
330
0
100
AcDbSymbolTable
 70
    22
  0
LTYPE
  5
1A806
330
1A7A9
100
AcDbSymbolTableRecord
100
AcDbLinetypeTableRecord
  2
ByBlock
 70
     0
  3

 72
    65
 73
     0
 40
0.0
  0
LTYPE
  5
1A807
330
1A7A9
100
AcDbSymbolTableRecord
100
AcDbLinetypeTableRecord
  2
ByLayer
 70
     0
  3

 72
    65
 73
     0
 40
0.0
  0
LTYPE
  5
1A808
330
1A7A9
100
AcDbSymbolTableRecord
100
AcDbLinetypeTableRecord
  2
CONTINUOUS
 70
     0
  3
Solid line
 72
    65
 73
     0
 40
0.0
  0
LTYPE
  5
1A81D
330
1A7A9
100
AcDbSymbolTableRecord
100
AcDbLinetypeTableRecord
  2
DASHED2
 70
     0
  3
Dashed (.5x) _ _ _ _ _ _ _ _ _ _ _ _ _ _ _ _ _
 72
    65
 73
     2
 40
9.524999999999998
 49
6.349999999999997
 74
     0
 49
-3.174999999999998
 74
     0
  0
LTYPE
  5
1A88A
330
1A7A9
100
AcDbSymbolTableRecord
100
AcDbLinetypeTableRecord
  2
HIDDEN
 70
     0
  3
Hidden __ __ __ __ __ __ __ __ __ __ __ __ __ _
 72
    65
 73
     2
 40
0.375
 49
0.25
 74
     0
 49
-0.125
 74
     0
  0
LTYPE
  5
1A88B
330
1A7A9
100
AcDbSymbolTableRecord
100
AcDbLinetypeTableRecord
  2
PHANTOM2
 70
     0
  3
Phantom (.5x) ___ _ _ ___ _ _ ___ _ _ ___ _ _
 72
    65
 73
     6
 40
1.25
 49
0.625
 74
     0
 49
-0.125
 74
     0
 49
0.125
 74
     0
 49
-0.125
 74
     0
 49
0.125
 74
     0
 49
-0.125
 74
     0
  0
LTYPE
  5
1A88C
330
1A7A9
100
AcDbSymbolTableRecord
100
AcDbLinetypeTableRecord
  2
CENTER
 70
     0
  3
Center ____ _ ____ _ ____ _ ____ _ ____ _ ____
 72
    65
 73
     4
 40
2.0
 49
1.25
 74
     0
 49
-0.25
 74
     0
 49
0.25
 74
     0
 49
-0.25
 74
     0
  0
LTYPE
  5
1A8CE
330
1A7A9
100
AcDbSymbolTableRecord
100
AcDbLinetypeTableRecord
  2
AM_ISO02W050
 70
     0
  3
__ __ __ __ __ __ __ __ __ __ __ __ __ __ __
 72
    65
 73
     2
 40
7.5
 49
6.0
 74
     0
 49
-1.5
 74
     0
  0
LTYPE
  5
1A8CF
330
1A7A9
100
AcDbSymbolTableRecord
100
AcDbLinetypeTableRecord
  2
AM_ISO08W050
 70
     0
  3
____ . ____ . ____ . ____ . ____ . ____ . ____
 72
    65
 73
     4
 40
18.0
 49
12.0
 74
     0
 49
-1.5
 74
     0
 49
3.0
 74
     0
 49
-1.5
 74
     0
  0
LTYPE
  5
1A8D0
330
1A7A9
100
AcDbSymbolTableRecord
100
AcDbLinetypeTableRecord
  2
AM_ISO09W050
 70
     0
  3
_____ . . _____ . . _____ . . ____ .. ____
 72
    65
 73
     6
 40
22.5
 49
12.0
 74
     0
 49
-1.5
 74
     0
 49
3.0
 74
     0
 49
-1.5
 74
     0
 49
3.0
 74
     0
 49
-1.5
 74
     0
  0
LTYPE
  5
1A8D1
330
1A7A9
100
AcDbSymbolTableRecord
100
AcDbLinetypeTableRecord
  2
Amconstr
 70
     0
  3
_______________________
 72
    65
 73
     2
 40
9999.0
 49
9999.0
 74
     0
 49
0.0
 74
     0
  0
LTYPE
  5
1A8D2
330
1A7A9
100
AcDbSymbolTableRecord
100
AcDbLinetypeTableRecord
  2
AM_ISO08W050x2
 70
     0
  3
__ . __ . __ . __ . __ . __
 72
    65
 73
     4
 40
9.0
 49
6.0
 74
     0
 49
-0.75
 74
     0
 49
1.5
 74
     0
 49
-0.75
 74
     0
  0
LTYPE
  5
1A8D3
330
1A7A9
100
AcDbSymbolTableRecord
100
AcDbLinetypeTableRecord
  2
AM_ISO02W050x2
 70
     0
  3
 _ _ _ _ _ _ _ _ _ _ _ _
 72
    65
 73
     2
 40
3.75
 49
3.0
 74
     0
 49
-0.75
 74
     0
  0
LTYPE
  5
1A8D6
330
1A7A9
100
AcDbSymbolTableRecord
100
AcDbLinetypeTableRecord
  2
Amzigzag
 70
     0
  3
/\/-/\/-/\/-/\/-/\/-/\/
 72
    65
 73
     2
 40
11.0001
 49
0.0001
 74
     4
 75
   136
340
1A8D5
 46
0.04
 50
0.0
 44
0.0
 45
0.0
 49
-11.0
 74
     0
  0
LTYPE
  5
1A8D7
330
1A7A9
100
AcDbSymbolTableRecord
100
AcDbLinetypeTableRecord
  2
CENTER2
 70
     0
  3
Center (.5x) ___ _ ___ _ ___ _ ___ _ ___ _ ___
 72
    65
 73
     4
 40
1.125
 49
0.75
 74
     0
 49
-0.125
 74
     0
 49
0.125
 74
     0
 49
-0.125
 74
     0
  0
LTYPE
  5
1A8D8
330
1A7A9
100
AcDbSymbolTableRecord
100
AcDbLinetypeTableRecord
  2
HIDDEN2
 70
     0
  3
Hidden (.5x) _ _ _ _ _ _ _ _ _ _ _ _ _ _ _ _ _
 72
    65
 73
     2
 40
0.1875
 49
0.125
 74
     0
 49
-0.0625
 74
     0
  0
LTYPE
  5
1A8D9
330
1A7A9
100
AcDbSymbolTableRecord
100
AcDbLinetypeTableRecord
  2
Amzigzag2
 70
     0
  3
/\/-/\/-/\/-/\/-/\/-/\/
 72
    65
 73
     2
 40
0.4401
 49
0.0001
 74
     4
 75
   136
340
1A8D5
 46
0.0016
 50
0.0
 44
0.0
 45
0.0
 49
-0.4400000000000001
 74
     0
  0
LTYPE
  5
1A8E7
330
1A7A9
100
AcDbSymbolTableRecord
100
AcDbLinetypeTableRecord
  2
ACANSTGB
 70
     0
  3
__ . . __ . .
 72
    65
 73
     6
 40
0.35433070866
 49
0.15748031496
 74
     0
 49
-0.03937007874
 74
     0
 49
0.03937007874
 74
     0
 49
-0.03937007874
 74
     0
 49
0.03937007874
 74
     0
 49
-0.03937007874
 74
     0
  0
LTYPE
  5
1A8E8
330
1A7A9
100
AcDbSymbolTableRecord
100
AcDbLinetypeTableRecord
  2
ACANSTGL
 70
     0
  3
_ _ _ _ _
 72
    65
 73
     2
 40
0.11811023622
 49
0.07874015748
 74
     0
 49
-0.03937007874
 74
     0
  0
LTYPE
  5
1A92D
330
1A7A9
100
AcDbSymbolTableRecord
100
AcDbLinetypeTableRecord
  2
ACISOWELD
 70
     0
  3
_ _ _ _ _
 72
    65
 73
     2
 40
2.0
 49
2.0
 74
     0
 49
-1.0
 74
     0
  0
LTYPE
  5
1A92E
330
1A7A9
100
AcDbSymbolTableRecord
100
AcDbLinetypeTableRecord
  2
ACISOTGB
 70
     0
  3
__ . . __ . .
 72
    65
 73
     6
 40
9.0
 49
4.0
 74
     0
 49
-1.0
 74
     0
 49
1.0
 74
     0
 49
-1.0
 74
     0
 49
1.0
 74
     0
 49
-1.0
 74
     0
  0
LTYPE
  5
1A92F
330
1A7A9
100
AcDbSymbolTableRecord
100
AcDbLinetypeTableRecord
  2
ACISOTGL
 70
     0
  3
_ _ _ _ _
 72
    65
 73
     2
 40
3.0
 49
2.0
 74
     0
 49
-1.0
 74
     0
  0
LTYPE
  5
1A930
330
1A7A9
100
AcDbSymbolTableRecord
100
AcDbLinetypeTableRecord
  2
DASHDOT
 70
     0
  3
Dash dot __ . __ . __ . __ . __ . __ . __ . __
 72
    65
 73
     4
 40
25.4
 49
12.7
 74
     0
 49
-6.349999999999999
 74
     0
 49
0.0
 74
     0
 49
-6.349999999999999
 74
     0
  0
ENDTAB
  0
TABLE
  2
LAYER
  5
1A7A6
102
{ACAD_XDICTIONARY
360
1A942
102
}
330
0
100
AcDbSymbolTable
 70
     7
  0
LAYER
  5
1A800
102
{ACAD_XDICTIONARY
360
1AA0C
102
}
330
1A7A6
100
AcDbSymbolTableRecord
100
AcDbLayerTableRecord
  2
0
 70
     0
 62
     7
  6
CONTINUOUS
370
    -3
390
1A7B3
347
1A7C5
  0
LAYER
  5
1A81E
102
{ACAD_XDICTIONARY
360
1AA0E
102
}
330
1A7A6
100
AcDbSymbolTableRecord
100
AcDbLayerTableRecord
  2
LAYER1
 70
     0
 62
     1
  6
CONTINUOUS
370
    -3
390
1A7B3
347
1A7C5
  0
LAYER
  5
1A81F
330
1A7A6
100
AcDbSymbolTableRecord
100
AcDbLayerTableRecord
  2
DEFPOINTS
 70
     0
 62
     7
  6
CONTINUOUS
290
     0
370
    -3
390
1A7B3
347
1A7C5
  0
LAYER
  5
1A820
102
{ACAD_XDICTIONARY
360
1AA10
102
}
330
1A7A6
100
AcDbSymbolTableRecord
100
AcDbLayerTableRecord
  2
DIMS_SPECS
 70
     0
 62
    41
  6
CONTINUOUS
370
    -3
390
1A7B3
347
1A7C5
  0
LAYER
  5
1A821
102
{ACAD_XDICTIONARY
360
1AA12
102
}
330
1A7A6
100
AcDbSymbolTableRecord
100
AcDbLayerTableRecord
  2
CUTOUT
 70
     0
 62
    60
  6
CONTINUOUS
370
    -3
390
1A7B3
347
1A7C5
  0
LAYER
  5
1A931
102
{ACAD_XDICTIONARY
360
1AA14
102
}
330
1A7A6
100
AcDbSymbolTableRecord
100
AcDbLayerTableRecord
  2
DIMS SPECS
 70
     0
 62
    41
  6
CONTINUOUS
370
    35
390
1A7B3
347
1A7C5
  0
LAYER
  5
1A932
102
{ACAD_XDICTIONARY
360
1A933
102
}
330
1A7A6
100
AcDbSymbolTableRecord
100
AcDbLayerTableRecord
  2
NEW
 70
     0
 62
     1
  6
CONTINUOUS
370
    30
390
1A7B3
347
1A7C5
  0
ENDTAB
  0
TABLE
  2
STYLE
  5
1A7A7
330
0
100
AcDbSymbolTable
 70
    10
  0
STYLE
  5
1A801
330
1A7A7
100
AcDbSymbolTableRecord
100
AcDbTextStyleTableRecord
  2
STANDARD
 70
     0
 40
0.0
 41
1.0
 50
0.0
 71
     0
 42
2.5
  3
ISOCP.SHX
  4

  0
STYLE
  5
1A805
330
1A7A7
100
AcDbSymbolTableRecord
100
AcDbTextStyleTableRecord
  2
Annotative
 70
     0
 40
0.0
 41
1.0
 50
0.0
 71
     0
 42
0.2
  3
txt
  4

1001
ACADANNOTATIVE
1000
AnnotativeData
1002
{
1070
     1
1070
     1
1002
}
  0
STYLE
  5
1A822
330
1A7A7
100
AcDbSymbolTableRecord
100
AcDbTextStyleTableRecord
  2
ACISOTS
 70
     0
 40
1.0
 41
1.0
 50
0.0
 71
     0
 42
2.5
  3
isocp.shx
  4

  0
STYLE
  5
1A823
330
1A7A7
100
AcDbSymbolTableRecord
100
AcDbTextStyleTableRecord
  2
ABODE-ISO
 70
     0
 40
17.0
 41
0.9
 50
0.0
 71
     0
 42
0.2
  3
txt
  4

  0
STYLE
  5
1A8D5
330
1A7A7
100
AcDbSymbolTableRecord
100
AcDbTextStyleTableRecord
  2

 70
     1
 40
0.0
 41
1.0
 50
0.0
 71
     0
 42
2.5
  3
genltshp.shx
  4

  0
STYLE
  5
1A8E5
330
1A7A7
100
AcDbSymbolTableRecord
100
AcDbTextStyleTableRecord
  2
ACANSTS
 70
     0
 40
1.0
 41
1.0
 50
0.0
 71
     0
 42
2.5
  3
romans.shx
  4

  0
STYLE
  5
1A8E6
330
1A7A7
100
AcDbSymbolTableRecord
100
AcDbTextStyleTableRecord
  2
ACANSGDT
 70
     0
 40
0.0
 41
1.0
 50
0.0
 71
     0
 42
2.5
  3
amgdt.shx
  4

  0
STYLE
  5
1A934
330
1A7A7
100
AcDbSymbolTableRecord
100
AcDbTextStyleTableRecord
  2
ACISOGDT
 70
     0
 40
0.0
 41
1.0
 50
0.0
 71
     0
 42
2.5
  3
amgdt.shx
  4

  0
STYLE
  5
1A935
330
1A7A7
100
AcDbSymbolTableRecord
100
AcDbTextStyleTableRecord
  2
SLDTEXTSTYLE0
 70
     0
 40
0.0
 41
0.75
 50
0.0
 71
     0
 42
0.2
  3
TXT
  4

  0
STYLE
  5
1A936
330
1A7A7
100
AcDbSymbolTableRecord
100
AcDbTextStyleTableRecord
  2
Abode ISO Bold
 70
     0
 40
17.0
 41
0.9
 50
0.0
 71
     0
 42
1.0
  3
GOTHICB.TTF
  4

1001
ACAD
1000
Century Gothic
1071
 33554466
  0
ENDTAB
  0
TABLE
  2
VIEW
  5
1A7AA
330
0
100
AcDbSymbolTable
 70
     0
  0
ENDTAB
  0
TABLE
  2
UCS
  5
1A7AB
330
0
100
AcDbSymbolTable
 70
     0
  0
ENDTAB
  0
TABLE
  2
APPID
  5
1A7AD
330
0
100
AcDbSymbolTable
 70
    23
  0
APPID
  5
1A802
330
1A7AD
100
AcDbSymbolTableRecord
100
AcDbRegAppTableRecord
  2
ACAD
 70
     0
  0
APPID
  5
1A809
330
1A7AD
100
AcDbSymbolTableRecord
100
AcDbRegAppTableRecord
  2
ACADANNOTATIVE
 70
     0
  0
APPID
  5
1A813
330
1A7AD
100
AcDbSymbolTableRecord
100
AcDbRegAppTableRecord
  2
ACAD_MLEADERVER
 70
     0
  0
APPID
  5
1A824
330
1A7AD
100
AcDbSymbolTableRecord
100
AcDbRegAppTableRecord
  2
MCAD_NO_VIS
 70
     0
  0
APPID
  5
1A825
330
1A7AD
100
AcDbSymbolTableRecord
100
AcDbRegAppTableRecord
  2
ACAD_TEMP_GRAPHIC
 70
     0
  0
APPID
  5
1A826
330
1A7AD
100
AcDbSymbolTableRecord
100
AcDbRegAppTableRecord
  2
AD_DRAW
 70
     0
  0
APPID
  5
1A827
330
1A7AD
100
AcDbSymbolTableRecord
100
AcDbRegAppTableRecord
  2
ACATTRIBSERVICES
 70
     0
  0
APPID
  5
1A828
330
1A7AD
100
AcDbSymbolTableRecord
100
AcDbRegAppTableRecord
  2
DESIGNERASSEMBLIES
 70
     0
  0
APPID
  5
1A829
330
1A7AD
100
AcDbSymbolTableRecord
100
AcDbRegAppTableRecord
  2
ACADM_DIM_EDIT
 70
     0
  0
APPID
  5
1A82A
330
1A7AD
100
AcDbSymbolTableRecord
100
AcDbRegAppTableRecord
  2
AMDT_DM_ADJ
 70
     0
  0
APPID
  5
1A82B
330
1A7AD
100
AcDbSymbolTableRecord
100
AcDbRegAppTableRecord
  2
ACAD_DSTYLE_DIMJOGGED_JOGA
 70
     0
  0
APPID
  5
1A82C
330
1A7AD
100
AcDbSymbolTableRecord
100
AcDbRegAppTableRecord
  2
ACAECLAYERSTANDARD
 70
     0
  0
APPID
  5
1A82D
330
1A7AD
100
AcDbSymbolTableRecord
100
AcDbRegAppTableRecord
  2
ACAD_PSEXT
 70
     0
  0
APPID
  5
1A82E
330
1A7AD
100
AcDbSymbolTableRecord
100
AcDbRegAppTableRecord
  2
ACAD_DSTYLE_DIMJAG
 70
     0
  0
APPID
  5
1A82F
330
1A7AD
100
AcDbSymbolTableRecord
100
AcDbRegAppTableRecord
  2
ACAD_DSTYLE_DIMTALN
 70
     0
  0
APPID
  5
1A830
330
1A7AD
100
AcDbSymbolTableRecord
100
AcDbRegAppTableRecord
  2
GENIUS_GENODEF_13
 70
     0
  0
APPID
  5
1A831
330
1A7AD
100
AcDbSymbolTableRecord
100
AcDbRegAppTableRecord
  2
ACAD_DSTYLE_DIMINSPECT
 70
     0
  0
APPID
  5
1A832
330
1A7AD
100
AcDbSymbolTableRecord
100
AcDbRegAppTableRecord
  2
GENIUS_GENREC_14
 70
     0
  0
APPID
  5
1A833
330
1A7AD
100
AcDbSymbolTableRecord
100
AcDbRegAppTableRecord
  2
GENIUS_GENOBJ-N-REC_13
 70
     0
  0
APPID
  5
1A834
330
1A7AD
100
AcDbSymbolTableRecord
100
AcDbRegAppTableRecord
  2
ACAD_DSTYLE_DIMRADIAL_EXTENSION
 70
     0
  0
APPID
  5
1A835
330
1A7AD
100
AcDbSymbolTableRecord
100
AcDbRegAppTableRecord
  2
ACAD_DSTYLE_DIMBREAK
 70
     0
  0
APPID
  5
1A941
330
1A7AD
100
AcDbSymbolTableRecord
100
AcDbRegAppTableRecord
  2
ACAD_DSTYLE_DIMJOGGED_JOGANGLE_SYMBOL
 70
     0
  0
APPID
  5
1AA0A
330
1A7AD
100
AcDbSymbolTableRecord
100
AcDbRegAppTableRecord
  2
ACAD_EXEMPT_FROM_CAD_STANDARDS
 70
     0
  0
ENDTAB
  0
TABLE
  2
DIMSTYLE
  5
1A7AE
330
0
100
AcDbSymbolTable
 70
    19
100
AcDbDimStyleTable
 71
     1
340
1A8CC
  0
DIMSTYLE
105
1A803
330
1A7AE
100
AcDbSymbolTableRecord
100
AcDbDimStyleTableRecord
  2
STANDARD
 70
     0
271
     2
272
     2
279
     2
284
     8
285
     8
286
     8
340
1A801
  0
DIMSTYLE
105
1A804
330
1A7AE
100
AcDbSymbolTableRecord
100
AcDbDimStyleTableRecord
  2
Annotative
 70
     0
340
1A801
1001
ACADANNOTATIVE
1000
AnnotativeData
1002
{
1070
     1
1070
     1
1002
}
  0
DIMSTYLE
105
1A836
330
1A7AE
100
AcDbSymbolTableRecord
100
AcDbDimStyleTableRecord
  2
AM_ISO
 70
     0
  4
"
 41
3.5
 42
1.0
 43
10.0
 44
1.0
 47
0.1
 48
0.1
 73
     0
 74
     0
 77
     1
 78
     8
140
3.5
141
0.0
143
0.0393701
146
0.71
147
1.5
172
     1
176
   256
177
   256
178
     2
271
     2
272
     2
279
     2
284
     8
285
     8
286
     8
340
1A801
  0
DIMSTYLE
105
1A8CC
102
{ACAD_REACTORS
330
1A8BC
102
}
330
1A7AE
100
AcDbSymbolTableRecord
100
AcDbDimStyleTableRecord
  2
AM_ANSI
 70
     0
  4
mm
 41
0.12
 42
0.05
 43
0.5
 44
0.1
 47
0.1
 48
0.1
 78
     7
 79
     2
 90
     1
140
0.12
141
0.0
146
0.71
147
0.06
176
   256
177
   256
178
   140
274
     4
284
     7
340
1A801
345
1A806
346
1A806
347
1A806
371
    -1
372
    -1
  0
DIMSTYLE
105
1A8DA
330
1A7AE
100
AcDbSymbolTableRecord
100
AcDbDimStyleTableRecord
  2
AM_ANSI$3
 70
     0
  4
mm
 41
0.12
 42
0.05
 43
0.5
 44
0.1
 47
0.1
 48
0.1
 78
     7
 79
     2
 90
     1
140
0.12
141
0.0
146
0.71
147
0.06
176
   256
177
   256
178
   140
274
     4
284
     7
288
     1
289
     0
340
1A801
345
1A806
346
1A806
347
1A806
371
    -1
372
    -1
  0
DIMSTYLE
105
1A8DB
330
1A7AE
100
AcDbSymbolTableRecord
100
AcDbDimStyleTableRecord
  2
AM_ANSI$4
 70
     0
  4
mm
 41
0.12
 42
0.05
 43
0.5
 44
0.1
 47
0.1
 48
0.1
 78
     7
 79
     2
 90
     1
140
0.12
141
0.0
146
0.71
147
0.06
176
   256
177
   256
178
   140
274
     4
284
     7
340
1A801
345
1A806
346
1A806
347
1A806
371
    -1
372
    -1
  0
DIMSTYLE
105
1A8DC
330
1A7AE
100
AcDbSymbolTableRecord
100
AcDbDimStyleTableRecord
  2
AM_ANSI$7
 70
     0
  4
mm
 41
0.12
 42
0.05
 43
0.5
 44
0.1
 47
0.1
 48
0.1
 78
     7
 79
     2
 90
     1
140
0.12
141
0.0
146
0.71
147
0.06
176
   256
177
   256
178
   140
274
     4
284
     7
340
1A801
345
1A806
346
1A806
347
1A806
371
    -1
372
    -1
  0
DIMSTYLE
105
1A8DD
330
1A7AE
100
AcDbSymbolTableRecord
100
AcDbDimStyleTableRecord
  2
AM_ANSI$SF
 70
     0
  4
mm
 41
0.12
 42
0.05
 43
0.5
 44
0.1
 47
0.1
 48
0.1
 75
     1
 76
     1
 78
     7
 79
     2
 90
     1
140
0.12
141
0.0
146
0.71
147
0.06
176
   256
177
   256
178
   140
274
     4
284
     7
340
1A801
345
1A806
346
1A806
347
1A806
371
    -1
372
    -1
  0
DIMSTYLE
105
1A8E2
330
1A7AE
100
AcDbSymbolTableRecord
100
AcDbDimStyleTableRecord
  2
AM_ANSI$SH
 70
     0
  4
mm
 41
0.12
 42
0.05
 43
0.5
 44
0.1
 47
0.1
 48
0.1
 75
     1
 76
     1
 78
     7
 79
     2
 90
     1
140
0.12
141
0.0
146
0.71
147
0.06
173
     1
176
   256
177
   256
178
   140
274
     4
284
     7
340
1A801
343
1A8DE
345
1A806
346
1A806
347
1A806
371
    -1
372
    -1
  0
DIMSTYLE
105
1A937
330
1A7AE
100
AcDbSymbolTableRecord
100
AcDbDimStyleTableRecord
  2
ISO-25
 70
     0
 41
2.5
 42
0.625
 43
3.75
 44
1.25
 73
     0
 74
     0
 77
     1
 78
     8
140
2.5
141
2.5
143
0.03937007874016
147
0.625
171
     3
172
     1
271
     2
272
     2
274
     3
278
    44
283
     0
284
     8
340
1A801
  0
DIMSTYLE
105
1A938
330
1A7AE
100
AcDbSymbolTableRecord
100
AcDbDimStyleTableRecord
  2
abode-iso
 70
     0
 40
10.0
 41
1.25
 42
1.5
 43
6.0
 44
0.0
 45
0.00000001
 46
10.0
 70
   256
 77
     1
 78
    12
 79
     3
140
17.0
143
0.03937
147
0.75
171
     3
172
     1
176
   256
177
   256
178
   256
271
     0
272
     0
274
     3
340
1A823
342
1A83D
371
    25
372
    25
1001
ACAD_DSTYLE_DIMJAG
1070
   388
1040
1.5
1001
ACAD_DSTYLE_DIMTALN
1070
   392
1070
     0
  0
DIMSTYLE
105
1A939
330
1A7AE
100
AcDbSymbolTableRecord
100
AcDbDimStyleTableRecord
  2
abode-iso$7
 70
     0
 40
10.0
 41
2.5
 42
1.5
 43
6.0
 44
3.174999999999999
 45
0.00000001
 46
10.0
 70
   256
 77
     1
 78
    12
 79
     3
140
2.5
143
0.03937
146
1.399999999999999
147
0.762
171
     3
172
     1
176
     7
177
   256
178
   256
271
     0
272
     0
274
     3
340
1A823
371
    25
372
    25
1001
ACAD_DSTYLE_DIMBREAK
1070
   391
1040
3.75
1001
ACAD_DSTYLE_DIMJAG
1070
   388
1040
1.5
1001
ACAD_DSTYLE_DIMTALN
1070
   392
1070
     0
  0
DIMSTYLE
105
1A93A
102
{ACAD_REACTORS
330
1A94F
330
1A991
102
}
330
1A7AE
100
AcDbSymbolTableRecord
100
AcDbDimStyleTableRecord
  2
abode-iso$4
 70
     0
 40
10.0
 41
1.25
 42
1.5
 43
6.0
 44
0.0
 45
0.00000001
 46
10.0
 70
   256
 77
     1
 78
    12
 79
     3
140
17.0
143
0.03937
147
0.75
171
     3
172
     1
176
   256
177
   256
178
   256
271
     0
272
     0
274
     3
340
1A823
342
1A83D
371
    25
372
    25
1001
ACAD_DSTYLE_DIMBREAK
1070
   391
1040
3.75
1001
ACAD_DSTYLE_DIMJAG
1070
   388
1040
1.5
1001
ACAD_DSTYLE_DIMTALN
1070
   392
1070
     0
  0
DIMSTYLE
105
1A93B
102
{ACAD_REACTORS
330
1A950
330
1A953
330
1A959
330
1A95C
330
1A992
330
1A995
330
1A99B
330
1A99E
102
}
330
1A7AE
100
AcDbSymbolTableRecord
100
AcDbDimStyleTableRecord
  2
abode-iso$0
 70
     0
 40
10.0
 41
1.25
 42
1.5
 43
6.0
 44
0.0
 45
0.00000001
 46
10.0
 70
   256
 77
     1
 78
    12
 79
     3
140
17.0
143
0.03937
147
0.75
171
     3
172
     1
176
   256
177
   256
178
   256
271
     0
272
     0
274
     3
340
1A823
342
1A83D
371
    25
372
    25
1001
ACAD_DSTYLE_DIMJAG
1070
   388
1040
1.5
1001
ACAD_DSTYLE_DIMTALN
1070
   392
1070
     0
  0
DIMSTYLE
105
1A93C
330
1A7AE
100
AcDbSymbolTableRecord
100
AcDbDimStyleTableRecord
  2
SLDDIMSTYLE0
 70
     0
 41
3.301999999999999
 44
0.0
 45
0.000000001
 73
     0
 77
     1
 78
    12
140
3.5
144
8.0
147
0.875
173
     1
271
     2
272
     2
284
    12
340
1A935
  0
DIMSTYLE
105
1A93D
330
1A7AE
100
AcDbSymbolTableRecord
100
AcDbDimStyleTableRecord
  2
SLDDIMSTYLE1
 70
     0
 41
3.301999999999999
 44
0.0
 45
0.000000001
 73
     0
 77
     1
 78
    12
140
3.5
144
8.0
147
0.875
173
     1
271
     2
272
     2
284
    12
340
1A935
  0
DIMSTYLE
105
1A93E
330
1A7AE
100
AcDbSymbolTableRecord
100
AcDbDimStyleTableRecord
  2
SLDDIMSTYLE3
 70
     0
 41
3.301999999999999
 44
0.0
 45
0.000000001
 73
     0
 77
     1
 78
    12
140
3.5
144
8.0
147
0.875
173
     1
271
     2
272
     2
284
    12
340
1A935
  0
DIMSTYLE
105
1A93F
330
1A7AE
100
AcDbSymbolTableRecord
100
AcDbDimStyleTableRecord
  2
abode-iso$2
 70
     0
 40
10.0
 41
1.25
 42
1.5
 43
6.0
 44
0.0
 45
0.00000001
 46
10.0
 70
   256
 77
     1
 78
    12
 79
     3
140
17.0
143
0.03937
147
0.75
171
     3
172
     1
176
   256
177
   256
178
   256
271
     0
272
     0
274
     3
340
1A823
342
1A83D
371
    25
372
    25
1001
ACAD_DSTYLE_DIMJAG
1070
   388
1040
1.5
1001
ACAD_DSTYLE_DIMTALN
1070
   392
1070
     0
  0
DIMSTYLE
105
1A940
330
1A7AE
100
AcDbSymbolTableRecord
100
AcDbDimStyleTableRecord
  2
abode-iso$3
 70
     0
 40
10.0
 41
1.25
 42
1.5
 43
6.0
 44
0.0
 45
0.00000001
 46
10.0
 70
   256
 77
     1
 78
    12
 79
     3
140
17.0
143
0.03937
147
0.75
171
     3
172
     1
176
   256
177
   256
178
   256
271
     0
272
     0
274
     3
340
1A823
342
1A83D
371
    25
372
    25
1001
ACAD_DSTYLE_DIMJAG
1070
   388
1040
1.5
1001
ACAD_DSTYLE_DIMTALN
1070
   392
1070
     0
  0
ENDTAB
  0
TABLE
  2
BLOCK_RECORD
  5
1A7A5
330
0
100
AcDbSymbolTable
 70
    29
  0
BLOCK_RECORD
  5
1A818
330
1A7A5
100
AcDbSymbolTableRecord
100
AcDbBlockTableRecord
  2
*Model_Space
340
1A81B
 70
     0
280
     1
281
     0
  0
BLOCK_RECORD
  5
1A814
330
1A7A5
100
AcDbSymbolTableRecord
100
AcDbBlockTableRecord
  2
*Paper_Space
340
1A817
 70
     0
280
     1
281
     0
  0
BLOCK_RECORD
  5
1A839
330
1A7A5
100
AcDbSymbolTableRecord
100
AcDbBlockTableRecord
  2
$MODEL_SPACE
340
0
 70
     0
280
     1
281
     0
  0
BLOCK_RECORD
  5
1A83B
330
1A7A5
100
AcDbSymbolTableRecord
100
AcDbBlockTableRecord
  2
$PAPER_SPACE
340
0
 70
     0
280
     1
281
     0
  0
BLOCK_RECORD
  5
1A83D
330
1A7A5
100
AcDbSymbolTableRecord
100
AcDbBlockTableRecord
  2
FILLED-1
340
0
102
{BLKREFS
331
18B38
331
18B39
331
18B45
331
18B46
331
18B53
331
18B54
331
18B5F
331
18B60
331
18B6C
331
1A8F6
331
1A8FF
331
1A900
331
1A90C
331
1A90D
331
1A91A
331
1A91B
331
1A926
331
1A927
331
1A9E0
331
1A9E6
331
1A9E7
331
1A9F0
331
1A9F1
331
1A9FB
331
1A9FC
331
1AA04
331
1AA05
102
}
 70
     0
280
     1
281
     0
  0
BLOCK_RECORD
  5
1A83F
330
1A7A5
100
AcDbSymbolTableRecord
100
AcDbBlockTableRecord
  2
*D3
340
0
 70
     0
280
     1
281
     0
  0
BLOCK_RECORD
  5
1A841
330
1A7A5
100
AcDbSymbolTableRecord
100
AcDbBlockTableRecord
  2
*U4
340
0
102
{BLKREFS
331
18B3A
102
}
 70
     0
280
     1
281
     0
  0
BLOCK_RECORD
  5
1A843
330
1A7A5
100
AcDbSymbolTableRecord
100
AcDbBlockTableRecord
  2
*D5
340
0
 70
     0
280
     1
281
     0
  0
BLOCK_RECORD
  5
1A845
330
1A7A5
100
AcDbSymbolTableRecord
100
AcDbBlockTableRecord
  2
*U6
340
0
102
{BLKREFS
331
18B47
102
}
 70
     0
280
     1
281
     0
  0
BLOCK_RECORD
  5
1A847
330
1A7A5
100
AcDbSymbolTableRecord
100
AcDbBlockTableRecord
  2
*D7
340
0
 70
     0
280
     1
281
     0
  0
BLOCK_RECORD
  5
1A849
330
1A7A5
100
AcDbSymbolTableRecord
100
AcDbBlockTableRecord
  2
*U8
340
0
102
{BLKREFS
331
18B55
102
}
 70
     0
280
     1
281
     0
  0
BLOCK_RECORD
  5
1A84B
330
1A7A5
100
AcDbSymbolTableRecord
100
AcDbBlockTableRecord
  2
*D9
340
0
 70
     0
280
     1
281
     0
  0
BLOCK_RECORD
  5
1A84D
330
1A7A5
100
AcDbSymbolTableRecord
100
AcDbBlockTableRecord
  2
*U10
340
0
102
{BLKREFS
331
18B61
102
}
 70
     0
280
     1
281
     0
  0
BLOCK_RECORD
  5
1A84F
330
1A7A5
100
AcDbSymbolTableRecord
100
AcDbBlockTableRecord
  2
*D11
340
0
 70
     0
280
     1
281
     0
  0
BLOCK_RECORD
  5
1A851
330
1A7A5
100
AcDbSymbolTableRecord
100
AcDbBlockTableRecord
  2
*U12
340
0
102
{BLKREFS
331
18B6A
102
}
 70
     0
280
     1
281
     0
  0
BLOCK_RECORD
  5
1A853
330
1A7A5
100
AcDbSymbolTableRecord
100
AcDbBlockTableRecord
  2
*U13
340
0
 70
     0
280
     1
281
     0
  0
BLOCK_RECORD
  5
1A855
330
1A7A5
100
AcDbSymbolTableRecord
100
AcDbBlockTableRecord
  2
*U14
340
0
 70
     0
280
     1
281
     0
  0
BLOCK_RECORD
  5
1A857
330
1A7A5
100
AcDbSymbolTableRecord
100
AcDbBlockTableRecord
  2
*U15
340
0
102
{BLKREFS
331
18B30
102
}
 70
     0
280
     1
281
     0
  0
BLOCK_RECORD
  5
1A8DE
330
1A7A5
100
AcDbSymbolTableRecord
100
AcDbBlockTableRecord
  2
GENAXEH
340
0
 70
     0
280
     1
281
     0
  0
BLOCK_RECORD
  5
1A8F0
330
1A7A5
100
AcDbSymbolTableRecord
100
AcDbBlockTableRecord
  2
*D18
340
0
 70
     0
280
     1
281
     0
  0
BLOCK_RECORD
  5
1A8FA
330
1A7A5
100
AcDbSymbolTableRecord
100
AcDbBlockTableRecord
  2
*D19
340
0
 70
     0
280
     1
281
     0
  0
BLOCK_RECORD
  5
1A906
330
1A7A5
100
AcDbSymbolTableRecord
100
AcDbBlockTableRecord
  2
*D20
340
0
 70
     0
280
     1
281
     0
  0
BLOCK_RECORD
  5
1A913
330
1A7A5
100
AcDbSymbolTableRecord
100
AcDbBlockTableRecord
  2
*D21
340
0
 70
     0
280
     1
281
     0
  0
BLOCK_RECORD
  5
1A921
330
1A7A5
100
AcDbSymbolTableRecord
100
AcDbBlockTableRecord
  2
*D22
340
0
 70
     0
280
     1
281
     0
  0
BLOCK_RECORD
  5
1A99F
330
1A7A5
100
AcDbSymbolTableRecord
100
AcDbBlockTableRecord
  2
*D24
340
0
 70
     0
280
     1
281
     0
  0
BLOCK_RECORD
  5
1A9A9
330
1A7A5
100
AcDbSymbolTableRecord
100
AcDbBlockTableRecord
  2
*D25
340
0
 70
     0
280
     1
281
     0
  0
BLOCK_RECORD
  5
1A9B5
330
1A7A5
100
AcDbSymbolTableRecord
100
AcDbBlockTableRecord
  2
*D26
340
0
 70
     0
280
     1
281
     0
  0
BLOCK_RECORD
  5
1A9C2
330
1A7A5
100
AcDbSymbolTableRecord
100
AcDbBlockTableRecord
  2
*D27
340
0
 70
     0
280
     1
281
     0
  0
BLOCK_RECORD
  5
1A9D0
330
1A7A5
100
AcDbSymbolTableRecord
100
AcDbBlockTableRecord
  2
*D28
340
0
 70
     0
280
     1
281
     0
  0
ENDTAB
  0
ENDSEC
  0
SECTION
  2
BLOCKS
  0
BLOCK
  5
1A819
330
1A818
100
AcDbEntity
  8
0
100
AcDbBlockBegin
  2
*Model_Space
 70
     0
 10
0.0
 20
0.0
 30
0.0
  3
*Model_Space
  1

  0
ENDBLK
  5
1A81A
330
1A818
100
AcDbEntity
  8
0
100
AcDbBlockEnd
  0
BLOCK
  5
1A815
330
1A814
100
AcDbEntity
 67
     1
  8
0
100
AcDbBlockBegin
  2
*Paper_Space
 70
     0
 10
0.0
 20
0.0
 30
0.0
  3
*Paper_Space
  1

  0
ENDBLK
  5
1A816
330
1A814
100
AcDbEntity
 67
     1
  8
0
100
AcDbBlockEnd
  0
BLOCK
  5
1A83A
330
1A839
100
AcDbEntity
  8
0
100
AcDbBlockBegin
  2
$MODEL_SPACE
 70
     0
 10
0.0
 20
0.0
 30
0.0
  3
$MODEL_SPACE
  1

  0
ENDBLK
  5
19FBF
330
1A839
100
AcDbEntity
  8
0
100
AcDbBlockEnd
  0
BLOCK
  5
1A83C
330
1A83B
100
AcDbEntity
  8
0
100
AcDbBlockBegin
  2
$PAPER_SPACE
 70
     0
 10
0.0
 20
0.0
 30
0.0
  3
$PAPER_SPACE
  1

  0
ENDBLK
  5
19FBB
330
1A83B
100
AcDbEntity
  8
0
100
AcDbBlockEnd
  0
BLOCK
  5
1A83E
330
1A83D
100
AcDbEntity
  8
0
100
AcDbBlockBegin
  2
FILLED-1
 70
     0
 10
0.0
 20
0.0
 30
0.0
  3
FILLED-1
  1

  0
LINE
  5
13A
330
1A83D
100
AcDbEntity
  8
0
 62
     0
100
AcDbLine
 10
-1.0
 20
0.0
 30
0.0
 11
0.0
 21
0.0
 31
0.0
  0
POLYLINE
  5
13B
330
1A83D
100
AcDbEntity
  8
0
 62
     0
100
AcDb2dPolyline
 66
     1
 10
0.0
 20
0.0
 30
0.0
 70
   128
  0
VERTEX
  5
1A782
330
13B
100
AcDbEntity
  8
0
 62
     0
100
AcDbVertex
100
AcDb2dVertex
 10
-1.0
 20
-0.3333333333333333
 30
0.0
  0
VERTEX
  5
1A783
330
13B
100
AcDbEntity
  8
0
 62
     0
100
AcDbVertex
100
AcDb2dVertex
 10
0.0
 20
0.0
 30
0.0
  0
VERTEX
  5
1A784
330
13B
100
AcDbEntity
  8
0
 62
     0
100
AcDbVertex
100
AcDb2dVertex
 10
-1.0
 20
0.3333333333333333
 30
0.0
  0
VERTEX
  5
1A785
330
13B
100
AcDbEntity
  8
0
 62
     0
100
AcDbVertex
100
AcDb2dVertex
 10
-1.0
 20
-0.3333333333333333
 30
0.0
  0
SEQEND
  5
1A786
330
13B
100
AcDbEntity
  8
0
 62
     0
  0
SOLID
  5
141
330
1A83D
100
AcDbEntity
  8
0
 62
     0
100
AcDbTrace
 10
-1.0
 20
-0.3333333333333333
 30
0.0
 11
0.0
 21
0.0
 31
0.0
 12
-1.0
 22
0.3333333333333333
 32
0.0
 13
-1.0
 23
-0.3333333333333333
 33
0.0
  0
LINE
  5
142
330
1A83D
100
AcDbEntity
  8
0
 62
     0
100
AcDbLine
 10
-1.0
 20
-0.3333333333333333
 30
0.0
 11
0.0
 21
0.0
 31
0.0
  0
LINE
  5
143
330
1A83D
100
AcDbEntity
  8
0
 62
     0
100
AcDbLine
 10
0.0
 20
0.0
 30
0.0
 11
-1.0
 21
0.3333333333333333
 31
0.0
  0
LINE
  5
144
330
1A83D
100
AcDbEntity
  8
0
 62
     0
100
AcDbLine
 10
-1.0
 20
0.3333333333333333
 30
0.0
 11
-1.0
 21
-0.3333333333333333
 31
0.0
  0
ENDBLK
  5
145
330
1A83D
100
AcDbEntity
  8
0
100
AcDbBlockEnd
  0
BLOCK
  5
1A840
330
1A83F
100
AcDbEntity
  8
0
100
AcDbBlockBegin
  2
*D3
 70
     1
 10
0.0
 20
0.0
 30
0.0
  3
*D3
  1

  0
LINE
  5
18B35
330
1A83F
100
AcDbEntity
  8
DIMS_SPECS
100
AcDbLine
 10
9638.313884406107
 20
12800.22942990906
 30
0.0
 11
9638.313884406107
 21
12712.29167102355
 31
0.0
  0
LINE
  5
18B36
330
1A83F
100
AcDbEntity
  8
DIMS_SPECS
100
AcDbLine
 10
10778.3138844061
 20
12800.22942990906
 30
0.0
 11
10778.3138844061
 21
12712.29167102355
 31
0.0
  0
LINE
  5
18B37
330
1A83F
100
AcDbEntity
  8
DIMS_SPECS
100
AcDbLine
 10
9650.813884406106
 20
12712.29167102355
 30
0.0
 11
10765.81388440611
 21
12712.29167102355
 31
0.0
  0
INSERT
  5
18B38
330
1A83F
100
AcDbEntity
  8
DIMS_SPECS
100
AcDbBlockReference
  2
FILLED-1
 10
9638.313884406107
 20
12712.29167102355
 30
0.0
 41
12.5
 42
12.5
 43
12.5
 50
180.0
  0
INSERT
  5
18B39
330
1A83F
100
AcDbEntity
  8
DIMS_SPECS
100
AcDbBlockReference
  2
FILLED-1
 10
10778.3138844061
 20
12712.29167102355
 30
0.0
 41
12.5
 42
12.5
 43
12.5
  0
INSERT
  5
18B3A
330
1A83F
100
AcDbEntity
  8
0
100
AcDbBlockReference
  2
*U4
 10
0.0
 20
0.0
 30
0.0
  0
POINT
  5
18B3B
330
1A83F
100
AcDbEntity
  8
DEFPOINTS
 62
     0
100
AcDbPoint
 10
9638.313884406107
 20
12815.22942990906
 30
0.0
  0
POINT
  5
18B3C
330
1A83F
100
AcDbEntity
  8
DEFPOINTS
 62
     0
100
AcDbPoint
 10
10778.3138844061
 20
12815.22942990906
 30
0.0
  0
POINT
  5
18B3D
330
1A83F
100
AcDbEntity
  8
DEFPOINTS
 62
     0
100
AcDbPoint
 10
10778.3138844061
 20
12712.29167102355
 30
0.0
  0
ENDBLK
  5
18B34
330
1A83F
100
AcDbEntity
  8
0
100
AcDbBlockEnd
  0
BLOCK
  5
1A842
330
1A841
100
AcDbEntity
  8
0
100
AcDbBlockBegin
  2
*U4
 70
     1
 10
0.0
 20
0.0
 30
0.0
  3
*U4
  1

  0
TEXT
  5
19DB3
330
1A841
100
AcDbEntity
  8
DIMS_SPECS
100
AcDbText
 10
10183.53329297171
 20
12720.43307143142
 30
0.0
 40
17.0
  1
1140
 41
0.9
  7
ABODE-ISO
100
AcDbText
  0
ENDBLK
  5
19DB5
330
1A841
100
AcDbEntity
  8
0
100
AcDbBlockEnd
  0
BLOCK
  5
1A844
330
1A843
100
AcDbEntity
  8
0
100
AcDbBlockBegin
  2
*D5
 70
     1
 10
0.0
 20
0.0
 30
0.0
  3
*D5
  1

  0
LINE
  5
18B41
330
1A843
100
AcDbEntity
  8
DIMS_SPECS
100
AcDbLine
 10
10783.31388440611
 20
13285.22942990906
 30
0.0
 11
10844.46975163916
 21
13285.22942990906
 31
0.0
  0
LINE
  5
18B42
330
1A843
100
AcDbEntity
  8
DIMS_SPECS
100
AcDbLine
 10
10783.3138844061
 20
12805.22942990906
 30
0.0
 11
10844.46975163916
 21
12805.22942990906
 31
0.0
  0
LINE
  5
18B43
330
1A843
100
AcDbEntity
  8
DIMS_SPECS
100
AcDbLine
 10
10844.46975163916
 20
13272.72942990906
 30
0.0
 11
10844.46975163916
 21
13061.65703018098
 31
0.0
  0
LINE
  5
18B44
330
1A843
100
AcDbEntity
  8
DIMS_SPECS
100
AcDbLine
 10
10844.46975163916
 20
12817.72942990906
 30
0.0
 11
10844.46975163916
 21
13028.80182963714
 31
0.0
  0
INSERT
  5
18B45
330
1A843
100
AcDbEntity
  8
DIMS_SPECS
100
AcDbBlockReference
  2
FILLED-1
 10
10844.46975163916
 20
13285.22942990906
 30
0.0
 41
12.5
 42
12.5
 43
12.5
 50
90.0
  0
INSERT
  5
18B46
330
1A843
100
AcDbEntity
  8
DIMS_SPECS
100
AcDbBlockReference
  2
FILLED-1
 10
10844.46975163916
 20
12805.22942990906
 30
0.0
 41
12.5
 42
12.5
 43
12.5
 50
270.0
  0
INSERT
  5
18B47
330
1A843
100
AcDbEntity
  8
0
100
AcDbBlockReference
  2
*U6
 10
0.0
 20
0.0
 30
0.0
  0
POINT
  5
18B48
330
1A843
100
AcDbEntity
  8
DEFPOINTS
 62
     0
100
AcDbPoint
 10
10768.31388440611
 20
13285.22942990906
 30
0.0
  0
POINT
  5
18B49
330
1A843
100
AcDbEntity
  8
DEFPOINTS
 62
     0
100
AcDbPoint
 10
10768.3138844061
 20
12805.22942990906
 30
0.0
  0
POINT
  5
18B4A
330
1A843
100
AcDbEntity
  8
DEFPOINTS
 62
     0
100
AcDbPoint
 10
10844.46975163916
 20
12805.22942990906
 30
0.0
  0
ENDBLK
  5
18B40
330
1A843
100
AcDbEntity
  8
0
100
AcDbBlockEnd
  0
BLOCK
  5
1A846
330
1A845
100
AcDbEntity
  8
0
100
AcDbBlockBegin
  2
*U6
 70
     1
 10
0.0
 20
0.0
 30
0.0
  3
*U6
  1

  0
TEXT
  5
19DB7
330
1A845
100
AcDbEntity
  8
DIMS_SPECS
100
AcDbText
 10
10826.83470745153
 20
13036.94323004502
 30
0.0
 40
17.0
  1
480
 41
0.9
  7
ABODE-ISO
100
AcDbText
  0
ENDBLK
  5
19DB9
330
1A845
100
AcDbEntity
  8
0
100
AcDbBlockEnd
  0
BLOCK
  5
1A848
330
1A847
100
AcDbEntity
  8
0
100
AcDbBlockBegin
  2
*D7
 70
     1
 10
0.0
 20
0.0
 30
0.0
  3
*D7
  1

  0
LINE
  5
18B4E
330
1A847
100
AcDbEntity
  8
DIMS_SPECS
100
AcDbLine
 10
9638.313884406107
 20
12800.22942990906
 30
0.0
 11
9638.313884406107
 21
12762.24592830231
 31
0.0
  0
LINE
  5
18B4F
330
1A847
100
AcDbEntity
  8
DIMS_SPECS
100
AcDbLine
 10
9677.493908402993
 20
12790.22942990906
 30
0.0
 11
9677.493908402993
 21
12762.24592830231
 31
0.0
  0
LINE
  5
18B50
330
1A847
100
AcDbEntity
  8
DIMS_SPECS
100
AcDbLine
 10
9625.813884406106
 20
12762.24592830231
 30
0.0
 11
9613.313884406107
 21
12762.24592830231
 31
0.0
  0
LINE
  5
18B51
330
1A847
100
AcDbEntity
  8
DIMS_SPECS
100
AcDbLine
 10
9689.993908402993
 20
12762.24592830231
 30
0.0
 11
9702.493908402992
 21
12762.24592830231
 31
0.0
  0
LINE
  5
18B52
330
1A847
100
AcDbEntity
  8
DIMS_SPECS
100
AcDbLine
 10
9638.313884406107
 20
12762.24592830231
 30
0.0
 11
9677.493908402993
 21
12762.24592830231
 31
0.0
  0
INSERT
  5
18B53
330
1A847
100
AcDbEntity
  8
DIMS_SPECS
100
AcDbBlockReference
  2
FILLED-1
 10
9638.313884406107
 20
12762.24592830231
 30
0.0
 41
12.5
 42
12.5
 43
12.5
  0
INSERT
  5
18B54
330
1A847
100
AcDbEntity
  8
DIMS_SPECS
100
AcDbBlockReference
  2
FILLED-1
 10
9677.493908402993
 20
12762.24592830231
 30
0.0
 41
12.5
 42
12.5
 43
12.5
 50
180.0
  0
INSERT
  5
18B55
330
1A847
100
AcDbEntity
  8
0
100
AcDbBlockReference
  2
*U8
 10
0.0
 20
0.0
 30
0.0
  0
POINT
  5
18B56
330
1A847
100
AcDbEntity
  8
DEFPOINTS
 62
     0
100
AcDbPoint
 10
9638.313884406107
 20
12815.22942990906
 30
0.0
  0
POINT
  5
18B57
330
1A847
100
AcDbEntity
  8
DEFPOINTS
 62
     0
100
AcDbPoint
 10
9677.493908402993
 20
12805.22942990906
 30
0.0
  0
POINT
  5
18B58
330
1A847
100
AcDbEntity
  8
DEFPOINTS
 62
     0
100
AcDbPoint
 10
9677.493908402993
 20
12762.24592830231
 30
0.0
  0
ENDBLK
  5
18B4D
330
1A847
100
AcDbEntity
  8
0
100
AcDbBlockEnd
  0
BLOCK
  5
1A84A
330
1A849
100
AcDbEntity
  8
0
100
AcDbBlockBegin
  2
*U8
 70
     1
 10
0.0
 20
0.0
 30
0.0
  3
*U8
  1

  0
TEXT
  5
19DBB
330
1A849
100
AcDbEntity
  8
DIMS_SPECS
100
AcDbText
 10
9646.395092869539
 20
12770.38732871019
 30
0.0
 40
17.0
  1
39
 41
0.9
  7
ABODE-ISO
100
AcDbText
  0
ENDBLK
  5
19DBD
330
1A849
100
AcDbEntity
  8
0
100
AcDbBlockEnd
  0
BLOCK
  5
1A84C
330
1A84B
100
AcDbEntity
  8
0
100
AcDbBlockBegin
  2
*D9
 70
     1
 10
0.0
 20
0.0
 30
0.0
  3
*D9
  1

  0
LINE
  5
18B5C
330
1A84B
100
AcDbEntity
  8
DIMS_SPECS
100
AcDbLine
 10
9677.493908402993
 20
12790.22942990906
 30
0.0
 11
9677.493908402993
 21
12761.85602207402
 31
0.0
  0
LINE
  5
18B5D
330
1A84B
100
AcDbEntity
  8
DIMS_SPECS
100
AcDbLine
 10
10386.89390840321
 20
12790.22942990906
 30
0.0
 11
10386.89390840321
 21
12761.85602207402
 31
0.0
  0
LINE
  5
18B5E
330
1A84B
100
AcDbEntity
  8
DIMS_SPECS
100
AcDbLine
 10
9689.993908402993
 20
12761.85602207402
 30
0.0
 11
10374.39390840321
 21
12761.85602207402
 31
0.0
  0
INSERT
  5
18B5F
330
1A84B
100
AcDbEntity
  8
DIMS_SPECS
100
AcDbBlockReference
  2
FILLED-1
 10
9677.493908402993
 20
12761.85602207402
 30
0.0
 41
12.5
 42
12.5
 43
12.5
 50
180.0
  0
INSERT
  5
18B60
330
1A84B
100
AcDbEntity
  8
DIMS_SPECS
100
AcDbBlockReference
  2
FILLED-1
 10
10386.89390840321
 20
12761.85602207402
 30
0.0
 41
12.5
 42
12.5
 43
12.5
  0
INSERT
  5
18B61
330
1A84B
100
AcDbEntity
  8
0
100
AcDbBlockReference
  2
*U10
 10
0.0
 20
0.0
 30
0.0
  0
POINT
  5
18B62
330
1A84B
100
AcDbEntity
  8
DEFPOINTS
 62
     0
100
AcDbPoint
 10
9677.493908402993
 20
12805.22942990906
 30
0.0
  0
POINT
  5
18B63
330
1A84B
100
AcDbEntity
  8
DEFPOINTS
 62
     0
100
AcDbPoint
 10
10386.89390840321
 20
12805.22942990906
 30
0.0
  0
POINT
  5
18B64
330
1A84B
100
AcDbEntity
  8
DEFPOINTS
 62
     0
100
AcDbPoint
 10
10386.89390840321
 20
12761.85602207402
 30
0.0
  0
ENDBLK
  5
18B5B
330
1A84B
100
AcDbEntity
  8
0
100
AcDbBlockEnd
  0
BLOCK
  5
1A84E
330
1A84D
100
AcDbEntity
  8
0
100
AcDbBlockBegin
  2
*U10
 70
     1
 10
0.0
 20
0.0
 30
0.0
  3
*U10
  1

  0
TEXT
  5
19DBF
330
1A84D
100
AcDbEntity
  8
DIMS_SPECS
100
AcDbText
 10
10014.39244681235
 20
12769.9974224819
 30
0.0
 40
17.0
  1
709
 41
0.9
  7
ABODE-ISO
100
AcDbText
  0
ENDBLK
  5
19DC1
330
1A84D
100
AcDbEntity
  8
0
100
AcDbBlockEnd
  0
BLOCK
  5
1A850
330
1A84F
100
AcDbEntity
  8
0
100
AcDbBlockBegin
  2
*D11
 70
     1
 10
0.0
 20
0.0
 30
0.0
  3
*D11
  1

  0
LINE
  5
18B68
330
1A84F
100
AcDbEntity
  8
DIMS_SPECS
100
AcDbLine
 10
10847.34605101179
 20
12760.81406927192
 30
0.0
 11
10805.93850512463
 21
12760.81406927192
 31
0.0
  0
LINE
  5
18B69
330
1A84F
100
AcDbEntity
  8
DIMS_SPECS
100
AcDbLine
 10
10805.93850512463
 20
12760.81406927192
 30
0.0
 11
10781.11017398679
 21
12796.72254003077
 31
0.0
  0
INSERT
  5
18B6A
330
1A84F
100
AcDbEntity
  8
0
100
AcDbBlockReference
  2
*U12
 10
0.0
 20
0.0
 30
0.0
  0
LINE
  5
18B6B
330
1A84F
100
AcDbEntity
  8
DIMS_SPECS
100
AcDbLine
 10
10768.31388440611
 20
12815.22942990906
 30
0.0
 11
10774.00112421975
 21
12807.00414551871
 31
0.0
  0
INSERT
  5
18B6C
330
1A84F
100
AcDbEntity
  8
DIMS_SPECS
100
AcDbBlockReference
  2
FILLED-1
 10
10774.00112421975
 20
12807.00414551871
 30
0.0
 41
12.5
 42
12.5
 43
12.5
 50
124.661292944385
  0
POINT
  5
18B6D
330
1A84F
100
AcDbEntity
  8
DEFPOINTS
 62
     0
100
AcDbPoint
 10
10774.00112421975
 20
12807.00414551871
 30
0.0
  0
POINT
  5
18B6E
330
1A84F
100
AcDbEntity
  8
DEFPOINTS
 62
     0
100
AcDbPoint
 10
10768.31388440611
 20
12815.22942990906
 30
0.0
  0
ENDBLK
  5
18B67
330
1A84F
100
AcDbEntity
  8
0
100
AcDbBlockEnd
  0
BLOCK
  5
1A852
330
1A851
100
AcDbEntity
  8
0
100
AcDbBlockBegin
  2
*U12
 70
     1
 10
0.0
 20
0.0
 30
0.0
  3
*U12
  1

  0
TEXT
  5
19DC3
330
1A851
100
AcDbEntity
  8
DIMS_SPECS
100
AcDbText
 10
10811.49350172559
 20
12768.9554696798
 30
0.0
 40
17.0
  1
R10
 41
0.9
  7
ABODE-ISO
100
AcDbText
  0
ENDBLK
  5
19DC5
330
1A851
100
AcDbEntity
  8
0
100
AcDbBlockEnd
  0
BLOCK
  5
1A854
330
1A853
100
AcDbEntity
  8
0
100
AcDbBlockBegin
  2
*U13
 70
     1
 10
0.0
 20
0.0
 30
0.0
  3
*U13
  1

  0
TEXT
  5
19D87
330
1A853
100
AcDbEntity
  8
CUTOUT
100
AcDbText
 10
10115.34487094337
 20
13303.8970505907
 30
0.0
 40
40.0
  1
INSET CUT OUT
100
AcDbText
  0
ENDBLK
  5
19D89
330
1A853
100
AcDbEntity
  8
0
100
AcDbBlockEnd
  0
BLOCK
  5
1A856
330
1A855
100
AcDbEntity
  8
0
100
AcDbBlockBegin
  2
*U14
 70
     1
 10
0.0
 20
0.0
 30
0.0
  3
*U14
  1

  0
TEXT
  5
19D8B
330
1A855
100
AcDbEntity
  8
CUTOUT
100
AcDbText
 10
10104.93885744783
 20
13097.72304568121
 30
0.0
 40
40.0
  1
BOWL(S),
100
AcDbText
  0
TEXT
  5
19D8C
330
1A855
100
AcDbEntity
  8
CUTOUT
100
AcDbText
 10
10044.93885744783
 20
13031.05637901455
 30
0.0
 40
40.0
  1
OVERFLOW,
100
AcDbText
  0
TEXT
  5
19D8D
330
1A855
100
AcDbEntity
  8
CUTOUT
100
AcDbText
 10
10070.93885744783
 20
12964.38971234788
 30
0.0
 40
40.0
  1
TAP AREA
100
AcDbText
  0
ENDBLK
  5
19D8F
330
1A855
100
AcDbEntity
  8
0
100
AcDbBlockEnd
  0
BLOCK
  5
1A858
330
1A857
100
AcDbEntity
  8
0
100
AcDbBlockBegin
  2
*U15
 70
     1
 10
0.0
 20
0.0
 30
0.0
  3
*U15
  1

  0
TEXT
  5
19D9A
330
1A857
100
AcDbEntity
  8
0
 62
     1
100
AcDbText
 10
9157.662024408031
 20
13145.80784265363
 30
0.0
 40
8.0
  1
All details are provided in good faith and
  7
ACISOTS
100
AcDbText
  0
TEXT
  5
19D9B
330
1A857
100
AcDbEntity
  8
0
 62
     1
100
AcDbText
 10
9139.214024408031
 20
13132.47450932029
 30
0.0
 40
8.0
  1
within
  7
ACISOTS
100
AcDbText
  0
TEXT
  5
19D9C
330
1A857
100
AcDbEntity
  8
0
 62
     1
100
AcDbText
 10
9175.185024408035
 20
13119.14117598696
 30
0.0
 40
8.0
  1
the tolerances of the manufacturing process.
  7
ACISOTS
100
AcDbText
  0
TEXT
  5
19D9D
330
1A857
100
AcDbEntity
  8
0
 62
     1
100
AcDbText
 10
9140.518824408033
 20
13105.80784265362
 30
0.0
 40
8.0
  1
Note: the dimensions on ceramic fireclay
  7
ACISOTS
100
AcDbText
  0
TEXT
  5
19D9E
330
1A857
100
AcDbEntity
  8
0
 62
     1
100
AcDbText
 10
9139.214024408031
 20
13092.47450932029
 30
0.0
 40
8.0
  1
products
  7
ACISOTS
100
AcDbText
  0
TEXT
  5
19D9F
330
1A857
100
AcDbEntity
  8
0
 62
     1
100
AcDbText
 10
9142.042624408036
 20
13079.14117598696
 30
0.0
 40
8.0
  1
are subject to wider tolerances due to the
  7
ACISOTS
100
AcDbText
  0
TEXT
  5
19DA0
330
1A857
100
AcDbEntity
  8
0
 62
     1
100
AcDbText
 10
9139.214024408031
 20
13065.80784265362
 30
0.0
 40
8.0
  1
nature
  7
ACISOTS
100
AcDbText
  0
TEXT
  5
19DA1
330
1A857
100
AcDbEntity
  8
0
 62
     1
100
AcDbText
 10
9163.757024408035
 20
13052.47450932029
 30
0.0
 40
8.0
  1
of this natural material and the firing
  7
ACISOTS
100
AcDbText
  0
TEXT
  5
19DA2
330
1A857
100
AcDbEntity
  8
0
 62
     1
100
AcDbText
 10
9139.214024408031
 20
13039.14117598695
 30
0.0
 40
8.0
  1
process.
  7
ACISOTS
100
AcDbText
  0
TEXT
  5
19DA3
330
1A857
100
AcDbEntity
  8
0
 62
     1
100
AcDbText
 10
9168.709024408036
 20
13012.47450932029
 30
0.0
 40
8.0
  1
We recommend that a test cutout is made in
  7
ACISOTS
100
AcDbText
  0
TEXT
  5
19DA4
330
1A857
100
AcDbEntity
  8
0
 62
     1
100
AcDbText
 10
9144.328324408034
 20
12999.14117598695
 30
0.0
 40
8.0
  1
scrap timber and checked against the actual
  7
ACISOTS
100
AcDbText
  0
TEXT
  5
19DA5
330
1A857
100
AcDbEntity
  8
0
 62
     1
100
AcDbText
 10
9139.214024408031
 20
12985.80784265362
 30
0.0
 40
8.0
  1
sink
  7
ACISOTS
100
AcDbText
  0
TEXT
  5
19DA6
330
1A857
100
AcDbEntity
  8
0
 62
     1
100
AcDbText
 10
9195.376024408037
 20
12972.47450932029
 30
0.0
 40
8.0
  1
supplied before committing to cutting
  7
ACISOTS
100
AcDbText
  0
TEXT
  5
19DA7
330
1A857
100
AcDbEntity
  8
0
 62
     1
100
AcDbText
 10
9139.214024408031
 20
12959.14117598695
 30
0.0
 40
8.0
  1
the
  7
ACISOTS
100
AcDbText
  0
TEXT
  5
19DA8
330
1A857
100
AcDbEntity
  8
0
 62
     1
100
AcDbText
 10
9385.854024408034
 20
12945.80784265362
 30
0.0
 40
8.0
  1
worksurface.
  7
ACISOTS
100
AcDbText
  0
TEXT
  5
19DA9
330
1A857
100
AcDbEntity
  8
0
 62
     1
100
AcDbText
 10
9166.043024408033
 20
12919.14117598695
 30
0.0
 40
8.0
  1
Abode can not accept liability for problems
  7
ACISOTS
100
AcDbText
  0
TEXT
  5
19DAA
330
1A857
100
AcDbEntity
  8
0
 62
     1
100
AcDbText
 10
9139.214024408031
 20
12905.80784265362
 30
0.0
 40
8.0
  1
or
  7
ACISOTS
100
AcDbText
  0
TEXT
  5
19DAB
330
1A857
100
AcDbEntity
  8
0
 62
     1
100
AcDbText
 10
9170.233024408037
 20
12892.47450932028
 30
0.0
 40
8.0
  1
costs incurred by failure to follow this advise,
  7
ACISOTS
100
AcDbText
  0
TEXT
  5
19DAC
330
1A857
100
AcDbEntity
  8
0
 62
     1
100
AcDbText
 10
9162.995024408036
 20
12879.14117598695
 30
0.0
 40
8.0
  1
dimensions weights & measures are subject
  7
ACISOTS
100
AcDbText
  0
TEXT
  5
19DAD
330
1A857
100
AcDbEntity
  8
0
 62
     1
100
AcDbText
 10
9139.214024408031
 20
12865.80784265361
 30
0.0
 40
8.0
  1
to
  7
ACISOTS
100
AcDbText
  0
TEXT
  5
19DAE
330
1A857
100
AcDbEntity
  8
0
 62
     1
100
AcDbText
 10
9146.233024408036
 20
12852.47450932028
 30
0.0
 40
8.0
  1
change without prior notice. Errors and omissions
  7
ACISOTS
100
AcDbText
  0
TEXT
  5
19DAF
330
1A857
100
AcDbEntity
  8
0
 62
     1
100
AcDbText
 10
9406.804024408037
 20
12839.14117598695
 30
0.0
 40
8.0
  1
excepted
  7
ACISOTS
100
AcDbText
  0
ENDBLK
  5
19DB1
330
1A857
100
AcDbEntity
  8
0
100
AcDbBlockEnd
  0
BLOCK
  5
1A8E0
330
1A8DE
100
AcDbEntity
  8
0
100
AcDbBlockBegin
  2
GENAXEH
 70
     0
 10
0.0
 20
0.0
 30
0.0
  3
GENAXEH
  1

  0
LINE
  5
1A8DF
330
1A8DE
100
AcDbEntity
  8
0
100
AcDbLine
 10
-1.0
 20
0.0
 30
0.0
 11
1.0
 21
0.0
 31
0.0
  0
ENDBLK
  5
1A8E1
330
1A8DE
100
AcDbEntity
  8
0
100
AcDbBlockEnd
  0
BLOCK
  5
1A8F1
330
1A8F0
100
AcDbEntity
  8
0
100
AcDbBlockBegin
  2
*D18
 70
     1
 10
0.0
 20
0.0
 30
0.0
  3
*D18
  1

  0
LINE
  5
1A8F2
330
1A8F0
100
AcDbEntity
  8
DIMS SPECS
100
AcDbLine
 10
206263.8254331117
 20
807.1082230877946
 30
0.0
 11
206222.6467111538
 21
807.10822308778
 31
0.0
  0
LINE
  5
1A8F3
330
1A8F0
100
AcDbEntity
  8
DIMS SPECS
100
AcDbLine
 10
206222.6467111538
 20
807.10822308778
 30
0.0
 11
206157.2368994379
 21
877.9455880261521
 31
0.0
  0
MTEXT
  5
1A8F4
330
1A8F0
100
AcDbEntity
  8
DIMS SPECS
100
AcDbMText
 10
206246.9860721327
 20
823.5358233596894
 30
0.0
 40
17.0
 41
0.0
 46
0.0
 71
     5
 72
     1
  1
\A1;R90
  7
Abode ISO Bold
 73
     1
 44
1.0
  0
LINE
  5
1A8F5
330
1A8F0
100
AcDbEntity
  8
DIMS SPECS
100
AcDbLine
 10
206087.7008633458
 20
953.2515617905882
 30
0.0
 11
206148.7568950364
 21
887.129243363277
 31
0.0
  0
INSERT
  5
1A8F6
330
1A8F0
100
AcDbEntity
  8
DIMS SPECS
100
AcDbBlockReference
  2
FILLED-1
 10
206148.7568950364
 20
887.129243363277
 30
0.0
 41
12.5
 42
12.5
 43
12.5
 50
132.7187670264881
  0
POINT
  5
1A8F7
330
1A8F0
100
AcDbEntity
  8
DEFPOINTS
 62
     0
100
AcDbPoint
 10
206148.7568950364
 20
887.129243363277
 30
0.0
  0
POINT
  5
1A8F8
330
1A8F0
100
AcDbEntity
  8
DEFPOINTS
 62
     0
100
AcDbPoint
 10
206087.7008633458
 20
953.2515617905882
 30
0.0
  0
ENDBLK
  5
1A8F9
330
1A8F0
100
AcDbEntity
  8
0
100
AcDbBlockEnd
  0
BLOCK
  5
1A8FB
330
1A8FA
100
AcDbEntity
  8
0
100
AcDbBlockBegin
  2
*D19
 70
     1
 10
0.0
 20
0.0
 30
0.0
  3
*D19
  1

  0
LINE
  5
1A8FC
330
1A8FA
100
AcDbEntity
  8
DIMS SPECS
100
AcDbLine
 10
205197.700863346
 20
938.2515617905369
 30
0.0
 11
205197.700863346
 21
777.9780293545477
 31
0.0
  0
LINE
  5
1A8FD
330
1A8FA
100
AcDbEntity
  8
DIMS SPECS
100
AcDbLine
 10
206177.7008633459
 20
938.2515617905424
 30
0.0
 11
206177.7008633459
 21
777.9780293545477
 31
0.0
  0
LINE
  5
1A8FE
330
1A8FA
100
AcDbEntity
  8
DIMS SPECS
100
AcDbLine
 10
205210.200863346
 20
777.9780293545477
 30
0.0
 11
206165.2008633458
 21
777.9780293545477
 31
0.0
  0
INSERT
  5
1A8FF
330
1A8FA
100
AcDbEntity
  8
DIMS SPECS
100
AcDbBlockReference
  2
FILLED-1
 10
205197.700863346
 20
777.9780293545477
 30
0.0
 41
12.5
 42
12.5
 43
12.5
 50
180.0
  0
INSERT
  5
1A900
330
1A8FA
100
AcDbEntity
  8
DIMS SPECS
100
AcDbBlockReference
  2
FILLED-1
 10
206177.7008633459
 20
777.9780293545477
 30
0.0
 41
12.5
 42
12.5
 43
12.5
  0
MTEXT
  5
1A901
330
1A8FA
100
AcDbEntity
  8
DIMS SPECS
100
AcDbMText
 10
205687.7008633459
 20
794.4056296264716
 30
0.0
 40
17.0
 41
0.0
 46
0.0
 71
     5
 72
     1
  1
\A1;980
  7
Abode ISO Bold
 73
     1
 44
1.0
  0
POINT
  5
1A902
330
1A8FA
100
AcDbEntity
  8
DEFPOINTS
 62
     0
100
AcDbPoint
 10
205197.700863346
 20
953.2515617905369
 30
0.0
  0
POINT
  5
1A903
330
1A8FA
100
AcDbEntity
  8
DEFPOINTS
 62
     0
100
AcDbPoint
 10
206177.7008633459
 20
953.2515617905424
 30
0.0
  0
POINT
  5
1A904
330
1A8FA
100
AcDbEntity
  8
DEFPOINTS
 62
     0
100
AcDbPoint
 10
206177.7008633459
 20
777.9780293545477
 30
0.0
  0
ENDBLK
  5
1A905
330
1A8FA
100
AcDbEntity
  8
0
100
AcDbBlockEnd
  0
BLOCK
  5
1A907
330
1A906
100
AcDbEntity
  8
0
100
AcDbBlockBegin
  2
*D20
 70
     1
 10
0.0
 20
0.0
 30
0.0
  3
*D20
  1

  0
LINE
  5
1A908
330
1A906
100
AcDbEntity
  8
DIMS SPECS
100
AcDbLine
 10
206102.7008633459
 20
863.2515617905424
 30
0.0
 11
206251.4860731328
 21
863.2515617905424
 31
0.0
  0
LINE
  5
1A909
330
1A906
100
AcDbEntity
  8
DIMS SPECS
100
AcDbLine
 10
206102.7008633458
 20
1343.251561790544
 30
0.0
 11
206251.4860731328
 21
1343.251561790544
 31
0.0
  0
LINE
  5
1A90A
330
1A906
100
AcDbEntity
  8
DIMS SPECS
100
AcDbLine
 10
206251.4860731328
 20
875.7515617905424
 30
0.0
 11
206251.4860731328
 21
1086.823961518619
 31
0.0
  0
LINE
  5
1A90B
330
1A906
100
AcDbEntity
  8
DIMS SPECS
100
AcDbLine
 10
206251.4860731328
 20
1330.751561790544
 30
0.0
 11
206251.4860731328
 21
1119.679162062467
 31
0.0
  0
INSERT
  5
1A90C
330
1A906
100
AcDbEntity
  8
DIMS SPECS
100
AcDbBlockReference
  2
FILLED-1
 10
206251.4860731328
 20
863.2515617905424
 30
0.0
 41
12.5
 42
12.5
 43
12.5
 50
270.0
  0
INSERT
  5
1A90D
330
1A906
100
AcDbEntity
  8
DIMS SPECS
100
AcDbBlockReference
  2
FILLED-1
 10
206251.4860731328
 20
1343.251561790544
 30
0.0
 41
12.5
 42
12.5
 43
12.5
 50
90.0
  0
MTEXT
  5
1A90E
330
1A906
100
AcDbEntity
  8
DIMS SPECS
100
AcDbMText
 10
206251.4860731328
 20
1103.251561790576
 30
0.0
 40
17.0
 41
0.0
 46
0.0
 71
     5
 72
     1
  1
\A1;480
  7
Abode ISO Bold
 73
     1
 44
1.0
  0
POINT
  5
1A90F
330
1A906
100
AcDbEntity
  8
DEFPOINTS
 62
     0
100
AcDbPoint
 10
206087.7008633459
 20
863.2515617905424
 30
0.0
  0
POINT
  5
1A910
330
1A906
100
AcDbEntity
  8
DEFPOINTS
 62
     0
100
AcDbPoint
 10
206087.7008633458
 20
1343.251561790544
 30
0.0
  0
POINT
  5
1A911
330
1A906
100
AcDbEntity
  8
DEFPOINTS
 62
     0
100
AcDbPoint
 10
206251.4860731328
 20
1343.251561790544
 30
0.0
  0
ENDBLK
  5
1A912
330
1A906
100
AcDbEntity
  8
0
100
AcDbBlockEnd
  0
BLOCK
  5
1A914
330
1A913
100
AcDbEntity
  8
0
100
AcDbBlockBegin
  2
*D21
 70
     1
 10
0.0
 20
0.0
 30
0.0
  3
*D21
  1

  0
LINE
  5
1A915
330
1A913
100
AcDbEntity
  8
DIMS SPECS
100
AcDbLine
 10
205197.700863346
 20
938.2515617905433
 30
0.0
 11
205197.700863346
 21
820.9094483122171
 31
0.0
  0
LINE
  5
1A916
330
1A913
100
AcDbEntity
  8
DIMS SPECS
100
AcDbLine
 10
205221.1115990558
 20
881.1785007585982
 30
0.0
 11
205221.1115990558
 21
820.9094483122171
 31
0.0
  0
LINE
  5
1A917
330
1A913
100
AcDbEntity
  8
DIMS SPECS
100
AcDbLine
 10
205233.6115990558
 20
820.9094483122171
 30
0.0
 11
205246.1115990558
 21
820.9094483122171
 31
0.0
  0
LINE
  5
1A918
330
1A913
100
AcDbEntity
  8
DIMS SPECS
100
AcDbLine
 10
205185.200863346
 20
820.9094483122171
 30
0.0
 11
205135.0368932576
 21
820.9094483122171
 31
0.0
  0
LINE
  5
1A919
330
1A913
100
AcDbEntity
  8
DIMS SPECS
100
AcDbLine
 10
205221.1115990558
 20
820.9094483122171
 30
0.0
 11
205197.700863346
 21
820.9094483122171
 31
0.0
  0
INSERT
  5
1A91A
330
1A913
100
AcDbEntity
  8
DIMS SPECS
100
AcDbBlockReference
  2
FILLED-1
 10
205221.1115990558
 20
820.9094483122171
 30
0.0
 41
12.5
 42
12.5
 43
12.5
 50
180.0
  0
INSERT
  5
1A91B
330
1A913
100
AcDbEntity
  8
DIMS SPECS
100
AcDbBlockReference
  2
FILLED-1
 10
205197.700863346
 20
820.9094483122171
 30
0.0
 41
12.5
 42
12.5
 43
12.5
  0
MTEXT
  5
1A91C
330
1A913
100
AcDbEntity
  8
DIMS SPECS
100
AcDbMText
 10
205153.8688783018
 20
837.3370485841411
 30
0.0
 40
17.0
 41
0.0
 46
0.0
 71
     5
 72
     1
  1
\A1;23
  7
Abode ISO Bold
 73
     1
 44
1.0
  0
POINT
  5
1A91D
330
1A913
100
AcDbEntity
  8
DEFPOINTS
 62
     0
100
AcDbPoint
 10
205197.700863346
 20
953.2515617905433
 30
0.0
  0
POINT
  5
1A91E
330
1A913
100
AcDbEntity
  8
DEFPOINTS
 62
     0
100
AcDbPoint
 10
205221.1115990558
 20
896.1785007585982
 30
0.0
  0
POINT
  5
1A91F
330
1A913
100
AcDbEntity
  8
DEFPOINTS
 62
     0
100
AcDbPoint
 10
205221.1115990558
 20
820.9094483122171
 30
0.0
  0
ENDBLK
  5
1A920
330
1A913
100
AcDbEntity
  8
0
100
AcDbBlockEnd
  0
BLOCK
  5
1A922
330
1A921
100
AcDbEntity
  8
0
100
AcDbBlockBegin
  2
*D22
 70
     1
 10
0.0
 20
0.0
 30
0.0
  3
*D22
  1

  0
LINE
  5
1A923
330
1A921
100
AcDbEntity
  8
DIMS SPECS
100
AcDbLine
 10
205221.1115990558
 20
881.1785007585982
 30
0.0
 11
205221.1115990558
 21
820.9094483122171
 31
0.0
  0
LINE
  5
1A924
330
1A921
100
AcDbEntity
  8
DIMS SPECS
100
AcDbLine
 10
205719.1322351675
 20
848.2515617905429
 30
0.0
 11
205719.1322351675
 21
820.9094483122171
 31
0.0
  0
LINE
  5
1A925
330
1A921
100
AcDbEntity
  8
DIMS SPECS
100
AcDbLine
 10
205233.6115990558
 20
820.9094483122171
 30
0.0
 11
205706.6322351674
 21
820.9094483122171
 31
0.0
  0
INSERT
  5
1A926
330
1A921
100
AcDbEntity
  8
DIMS SPECS
100
AcDbBlockReference
  2
FILLED-1
 10
205221.1115990558
 20
820.9094483122171
 30
0.0
 41
12.5
 42
12.5
 43
12.5
 50
180.0
  0
INSERT
  5
1A927
330
1A921
100
AcDbEntity
  8
DIMS SPECS
100
AcDbBlockReference
  2
FILLED-1
 10
205719.1322351675
 20
820.9094483122171
 30
0.0
 41
12.5
 42
12.5
 43
12.5
  0
MTEXT
  5
1A928
330
1A921
100
AcDbEntity
  8
DIMS SPECS
100
AcDbMText
 10
205468.6219171117
 20
837.3370485841411
 30
0.0
 40
17.0
 41
0.0
 46
0.0
 71
     5
 72
     1
  1
\A1;498
  7
Abode ISO Bold
 73
     1
 44
1.0
  0
POINT
  5
1A929
330
1A921
100
AcDbEntity
  8
DEFPOINTS
 62
     0
100
AcDbPoint
 10
205221.1115990558
 20
896.1785007585982
 30
0.0
  0
POINT
  5
1A92A
330
1A921
100
AcDbEntity
  8
DEFPOINTS
 62
     0
100
AcDbPoint
 10
205719.1322351675
 20
863.2515617905427
 30
0.0
  0
POINT
  5
1A92B
330
1A921
100
AcDbEntity
  8
DEFPOINTS
 62
     0
100
AcDbPoint
 10
205719.1322351675
 20
820.9094483122171
 30
0.0
  0
ENDBLK
  5
1A92C
330
1A921
100
AcDbEntity
  8
0
100
AcDbBlockEnd
  0
BLOCK
  5
1A9A0
330
1A99F
100
AcDbEntity
  8
0
100
AcDbBlockBegin
  2
*D24
 70
     1
 10
0.0
 20
0.0
 30
0.0
  3
*D24
  1

  0
LINE
  5
1A9DC
330
1A99F
100
AcDbEntity
  8
DIMS SPECS
100
AcDbLine
 10
10863.39175272854
 20
12772.34867844984
 30
0.0
 11
10822.21303077069
 21
12772.34867844984
 31
0.0
  0
LINE
  5
1A9DD
330
1A99F
100
AcDbEntity
  8
DIMS SPECS
100
AcDbLine
 10
10822.21303077069
 20
12772.34867844984
 30
0.0
 11
10756.80321905472
 21
12843.18604338823
 31
0.0
  0
MTEXT
  5
1A9DE
330
1A99F
100
AcDbEntity
  8
DIMS SPECS
100
AcDbMText
 10
10846.55239174961
 20
12788.77627872176
 30
0.0
 40
17.0
 41
0.0
 46
0.0
 71
     5
 72
     1
  1
\A1;R90
  7
Abode ISO Bold
 73
     1
 44
1.0
  0
LINE
  5
1A9DF
330
1A99F
100
AcDbEntity
  8
DIMS SPECS
100
AcDbLine
 10
10687.26718296269
 20
12918.49201715266
 30
0.0
 11
10748.32321465325
 21
12852.36969872535
 31
0.0
  0
INSERT
  5
1A9E0
330
1A99F
100
AcDbEntity
  8
DIMS SPECS
100
AcDbBlockReference
  2
FILLED-1
 10
10748.32321465325
 20
12852.36969872535
 30
0.0
 41
12.5
 42
12.5
 43
12.5
 50
132.7187670264952
  0
POINT
  5
1A9E1
330
1A99F
100
AcDbEntity
  8
DEFPOINTS
 62
     0
100
AcDbPoint
 10
10748.32321465325
 20
12852.36969872535
 30
0.0
  0
POINT
  5
1A9E2
330
1A99F
100
AcDbEntity
  8
DEFPOINTS
 62
     0
100
AcDbPoint
 10
10687.26718296269
 20
12918.49201715266
 30
0.0
  0
ENDBLK
  5
1A9A1
330
1A99F
100
AcDbEntity
  8
0
100
AcDbBlockEnd
  0
BLOCK
  5
1A9AA
330
1A9A9
100
AcDbEntity
  8
0
100
AcDbBlockBegin
  2
*D25
 70
     1
 10
0.0
 20
0.0
 30
0.0
  3
*D25
  1

  0
LINE
  5
1A9E3
330
1A9A9
100
AcDbEntity
  8
DIMS SPECS
100
AcDbLine
 10
9797.267182962837
 20
12903.49201715261
 30
0.0
 11
9797.267182962837
 21
12743.21848471662
 31
0.0
  0
LINE
  5
1A9E4
330
1A9A9
100
AcDbEntity
  8
DIMS SPECS
100
AcDbLine
 10
10777.26718296272
 20
12903.49201715262
 30
0.0
 11
10777.26718296272
 21
12743.21848471662
 31
0.0
  0
LINE
  5
1A9E5
330
1A9A9
100
AcDbEntity
  8
DIMS SPECS
100
AcDbLine
 10
9809.767182962836
 20
12743.21848471662
 30
0.0
 11
10764.76718296272
 21
12743.21848471662
 31
0.0
  0
INSERT
  5
1A9E6
330
1A9A9
100
AcDbEntity
  8
DIMS SPECS
100
AcDbBlockReference
  2
FILLED-1
 10
9797.267182962837
 20
12743.21848471662
 30
0.0
 41
12.5
 42
12.5
 43
12.5
 50
180.0
  0
INSERT
  5
1A9E7
330
1A9A9
100
AcDbEntity
  8
DIMS SPECS
100
AcDbBlockReference
  2
FILLED-1
 10
10777.26718296272
 20
12743.21848471662
 30
0.0
 41
12.5
 42
12.5
 43
12.5
  0
MTEXT
  5
1A9E8
330
1A9A9
100
AcDbEntity
  8
DIMS SPECS
100
AcDbMText
 10
10287.26718296278
 20
12759.64608498855
 30
0.0
 40
17.0
 41
0.0
 46
0.0
 71
     5
 72
     1
  1
\A1;980
  7
Abode ISO Bold
 73
     1
 44
1.0
  0
POINT
  5
1A9E9
330
1A9A9
100
AcDbEntity
  8
DEFPOINTS
 62
     0
100
AcDbPoint
 10
9797.267182962837
 20
12918.49201715261
 30
0.0
  0
POINT
  5
1A9EA
330
1A9A9
100
AcDbEntity
  8
DEFPOINTS
 62
     0
100
AcDbPoint
 10
10777.26718296272
 20
12918.49201715262
 30
0.0
  0
POINT
  5
1A9EB
330
1A9A9
100
AcDbEntity
  8
DEFPOINTS
 62
     0
100
AcDbPoint
 10
10777.26718296272
 20
12743.21848471662
 30
0.0
  0
ENDBLK
  5
1A9AB
330
1A9A9
100
AcDbEntity
  8
0
100
AcDbBlockEnd
  0
BLOCK
  5
1A9B6
330
1A9B5
100
AcDbEntity
  8
0
100
AcDbBlockBegin
  2
*D26
 70
     1
 10
0.0
 20
0.0
 30
0.0
  3
*D26
  1

  0
LINE
  5
1A9EC
330
1A9B5
100
AcDbEntity
  8
DIMS SPECS
100
AcDbLine
 10
10702.26718296272
 20
12828.49201715262
 30
0.0
 11
10851.05239274962
 21
12828.49201715262
 31
0.0
  0
LINE
  5
1A9ED
330
1A9B5
100
AcDbEntity
  8
DIMS SPECS
100
AcDbLine
 10
10702.26718296266
 20
13308.49201715262
 30
0.0
 11
10851.05239274962
 21
13308.49201715262
 31
0.0
  0
LINE
  5
1A9EE
330
1A9B5
100
AcDbEntity
  8
DIMS SPECS
100
AcDbLine
 10
10851.05239274962
 20
12840.99201715262
 30
0.0
 11
10851.05239274962
 21
13052.06441688069
 31
0.0
  0
LINE
  5
1A9EF
330
1A9B5
100
AcDbEntity
  8
DIMS SPECS
100
AcDbLine
 10
10851.05239274962
 20
13295.99201715262
 30
0.0
 11
10851.05239274962
 21
13084.91961742454
 31
0.0
  0
INSERT
  5
1A9F0
330
1A9B5
100
AcDbEntity
  8
DIMS SPECS
100
AcDbBlockReference
  2
FILLED-1
 10
10851.05239274962
 20
12828.49201715262
 30
0.0
 41
12.5
 42
12.5
 43
12.5
 50
270.0
  0
INSERT
  5
1A9F1
330
1A9B5
100
AcDbEntity
  8
DIMS SPECS
100
AcDbBlockReference
  2
FILLED-1
 10
10851.05239274962
 20
13308.49201715262
 30
0.0
 41
12.5
 42
12.5
 43
12.5
 50
90.0
  0
MTEXT
  5
1A9F2
330
1A9B5
100
AcDbEntity
  8
DIMS SPECS
100
AcDbMText
 10
10851.05239274962
 20
13068.49201715262
 30
0.0
 40
17.0
 41
0.0
 46
0.0
 71
     5
 72
     1
  1
\A1;480
  7
Abode ISO Bold
 73
     1
 44
1.0
  0
POINT
  5
1A9F3
330
1A9B5
100
AcDbEntity
  8
DEFPOINTS
 62
     0
100
AcDbPoint
 10
10687.26718296272
 20
12828.49201715262
 30
0.0
  0
POINT
  5
1A9F4
330
1A9B5
100
AcDbEntity
  8
DEFPOINTS
 62
     0
100
AcDbPoint
 10
10687.26718296266
 20
13308.49201715262
 30
0.0
  0
POINT
  5
1A9F5
330
1A9B5
100
AcDbEntity
  8
DEFPOINTS
 62
     0
100
AcDbPoint
 10
10851.05239274962
 20
13308.49201715262
 30
0.0
  0
ENDBLK
  5
1A9B7
330
1A9B5
100
AcDbEntity
  8
0
100
AcDbBlockEnd
  0
BLOCK
  5
1A9C3
330
1A9C2
100
AcDbEntity
  8
0
100
AcDbBlockBegin
  2
*D27
 70
     1
 10
0.0
 20
0.0
 30
0.0
  3
*D27
  1

  0
LINE
  5
1A9F6
330
1A9C2
100
AcDbEntity
  8
DIMS SPECS
100
AcDbLine
 10
9797.267182962837
 20
12903.49201715262
 30
0.0
 11
9797.267182962837
 21
12786.14990367429
 31
0.0
  0
LINE
  5
1A9F7
330
1A9C2
100
AcDbEntity
  8
DIMS SPECS
100
AcDbLine
 10
9820.677918672691
 20
12846.41895612067
 30
0.0
 11
9820.677918672691
 21
12786.14990367429
 31
0.0
  0
LINE
  5
1A9F8
330
1A9C2
100
AcDbEntity
  8
DIMS SPECS
100
AcDbLine
 10
9833.17791867269
 20
12786.14990367429
 30
0.0
 11
9845.677918672691
 21
12786.14990367429
 31
0.0
  0
LINE
  5
1A9F9
330
1A9C2
100
AcDbEntity
  8
DIMS SPECS
100
AcDbLine
 10
9784.767182962838
 20
12786.14990367429
 30
0.0
 11
9734.603212874461
 21
12786.14990367429
 31
0.0
  0
LINE
  5
1A9FA
330
1A9C2
100
AcDbEntity
  8
DIMS SPECS
100
AcDbLine
 10
9820.677918672691
 20
12786.14990367429
 30
0.0
 11
9797.267182962837
 21
12786.14990367429
 31
0.0
  0
INSERT
  5
1A9FB
330
1A9C2
100
AcDbEntity
  8
DIMS SPECS
100
AcDbBlockReference
  2
FILLED-1
 10
9820.677918672691
 20
12786.14990367429
 30
0.0
 41
12.5
 42
12.5
 43
12.5
 50
180.0
  0
INSERT
  5
1A9FC
330
1A9C2
100
AcDbEntity
  8
DIMS SPECS
100
AcDbBlockReference
  2
FILLED-1
 10
9797.267182962837
 20
12786.14990367429
 30
0.0
 41
12.5
 42
12.5
 43
12.5
  0
MTEXT
  5
1A9FD
330
1A9C2
100
AcDbEntity
  8
DIMS SPECS
100
AcDbMText
 10
9753.435197918648
 20
12802.57750394621
 30
0.0
 40
17.0
 41
0.0
 46
0.0
 71
     5
 72
     1
  1
\A1;23
  7
Abode ISO Bold
 73
     1
 44
1.0
  0
POINT
  5
1A9FE
330
1A9C2
100
AcDbEntity
  8
DEFPOINTS
 62
     0
100
AcDbPoint
 10
9797.267182962837
 20
12918.49201715262
 30
0.0
  0
POINT
  5
1A9FF
330
1A9C2
100
AcDbEntity
  8
DEFPOINTS
 62
     0
100
AcDbPoint
 10
9820.677918672691
 20
12861.41895612067
 30
0.0
  0
POINT
  5
1AA00
330
1A9C2
100
AcDbEntity
  8
DEFPOINTS
 62
     0
100
AcDbPoint
 10
9820.677918672691
 20
12786.14990367429
 30
0.0
  0
ENDBLK
  5
1A9C4
330
1A9C2
100
AcDbEntity
  8
0
100
AcDbBlockEnd
  0
BLOCK
  5
1A9D1
330
1A9D0
100
AcDbEntity
  8
0
100
AcDbBlockBegin
  2
*D28
 70
     1
 10
0.0
 20
0.0
 30
0.0
  3
*D28
  1

  0
LINE
  5
1AA01
330
1A9D0
100
AcDbEntity
  8
DIMS SPECS
100
AcDbLine
 10
9820.677918672691
 20
12846.41895612067
 30
0.0
 11
9820.677918672691
 21
12786.14990367429
 31
0.0
  0
LINE
  5
1AA02
330
1A9D0
100
AcDbEntity
  8
DIMS SPECS
100
AcDbLine
 10
10318.69855478433
 20
12813.49201715262
 30
0.0
 11
10318.69855478433
 21
12786.14990367429
 31
0.0
  0
LINE
  5
1AA03
330
1A9D0
100
AcDbEntity
  8
DIMS SPECS
100
AcDbLine
 10
9833.17791867269
 20
12786.14990367429
 30
0.0
 11
10306.19855478433
 21
12786.14990367429
 31
0.0
  0
INSERT
  5
1AA04
330
1A9D0
100
AcDbEntity
  8
DIMS SPECS
100
AcDbBlockReference
  2
FILLED-1
 10
9820.677918672691
 20
12786.14990367429
 30
0.0
 41
12.5
 42
12.5
 43
12.5
 50
180.0
  0
INSERT
  5
1AA05
330
1A9D0
100
AcDbEntity
  8
DIMS SPECS
100
AcDbBlockReference
  2
FILLED-1
 10
10318.69855478433
 20
12786.14990367429
 30
0.0
 41
12.5
 42
12.5
 43
12.5
  0
MTEXT
  5
1AA06
330
1A9D0
100
AcDbEntity
  8
DIMS SPECS
100
AcDbMText
 10
10068.1882367285
 20
12802.57750394621
 30
0.0
 40
17.0
 41
0.0
 46
0.0
 71
     5
 72
     1
  1
\A1;498
  7
Abode ISO Bold
 73
     1
 44
1.0
  0
POINT
  5
1AA07
330
1A9D0
100
AcDbEntity
  8
DEFPOINTS
 62
     0
100
AcDbPoint
 10
9820.677918672691
 20
12861.41895612067
 30
0.0
  0
POINT
  5
1AA08
330
1A9D0
100
AcDbEntity
  8
DEFPOINTS
 62
     0
100
AcDbPoint
 10
10318.69855478433
 20
12828.49201715262
 30
0.0
  0
POINT
  5
1AA09
330
1A9D0
100
AcDbEntity
  8
DEFPOINTS
 62
     0
100
AcDbPoint
 10
10318.69855478433
 20
12786.14990367429
 30
0.0
  0
ENDBLK
  5
1A9D2
330
1A9D0
100
AcDbEntity
  8
0
100
AcDbBlockEnd
  0
ENDSEC
  0
SECTION
  2
ENTITIES
  0
TEXT
  5
18B15
330
1A818
100
AcDbEntity
  8
LAYER1
100
AcDbText
 10
9819.655823840212
 20
13740.75976481374
 30
0.0
 40
150.0
  1
AW3140
100
AcDbText
  0
INSERT
  5
18B30
330
1A818
100
AcDbEntity
  8
0
100
AcDbBlockReference
  2
*U15
 10
0.0
 20
0.0
 30
0.0
  0
TEXT
  5
18B31
330
1A818
100
AcDbEntity
  8
LAYER1
100
AcDbText
 10
9231.214947431769
 20
12884.31348587337
 30
0.0
 40
30.0
  1
file version 1
100
AcDbText
  0
MTEXT
  5
1A987
102
{ACAD_XDICTIONARY
360
1AA21
102
}
330
1A818
100
AcDbEntity
  8
CUTOUT
  6
DASHED2
 48
5.0
100
AcDbMText
 10
9781.441768278323
 20
13162.98568501161
 30
0.0
 40
40.0
 41
559.4757407245924
 46
0.0
 71
     1
 72
     5
  1
\pi178.74;BOWL(S), \P\pi148.74;OVERFLOW,\P\pi161.74;TAP AREA
 73
     1
 44
1.0
  0
LWPOLYLINE
  5
1A988
330
1A818
100
AcDbEntity
  8
CUTOUT
  6
DASHED2
 48
5.0
100
AcDbPolyline
 90
        8
 70
     1
 43
0.0
 10
10186.05354789617
 20
13174.97104660589
 10
9932.893273873297
 20
13174.97104660589
 42
0.4142135623730951
 10
9912.893273873297
 20
13154.97104660589
 10
9912.893273873297
 20
12987.01309187302
 42
0.4142135623730951
 10
9932.893273873297
 20
12967.01309187302
 10
10186.05354789617
 20
12967.01309187302
 42
0.4142135623730951
 10
10206.05354789617
 20
12987.01309187302
 10
10206.05354789617
 20
13154.97104660589
 42
0.4142135623730951
1001
GENIUS_GENREC_14
1002
{
1000
PYDIR
1011
10206.05354789617
1021
12967.01309187302
1031
0.0
1002
}
1002
{
1000
PXDIR
1011
9912.893273873297
1021
13174.97104660589
1031
0.0
1002
}
1002
{
1000
PORI
1011
10206.05354789617
1021
13174.97104660589
1031
0.0
1002
}
1002
{
1000
PINS
1011
10206.05354789617
1021
13174.97104660589
1031
0.0
1002
}
1002
{
1000
PINS2
1011
9912.893273873297
1021
12967.01309187302
1031
0.0
1002
}
1002
{
1000
C
1070
     1
1002
}
1001
GENIUS_GENOBJ-N-REC_13
1002
{
1000
OWNER
1000
GEN
1002
}
1001
GENIUS_GENODEF_13
1002
{
1000
HIER
1070
     0
1002
}
1002
{
1000
MANEDIT
1070
     0
1002
}
1002
{
1000
NOSEL
1070
     0
1002
}
1002
{
1000
BEHIND
1070
     0
1002
}
1002
{
1000
OTHER
1070
     0
1002
}
1002
{
1000
REACTOR
1002
}
  0
LINE
  5
1A989
102
{ACAD_REACTORS
330
1A994
102
}
330
1A818
100
AcDbEntity
  8
CUTOUT
100
AcDbLine
 10
9797.267182962748
 20
13218.49201715262
 30
0.0
 11
9797.267182962837
 21
12918.49201715261
 31
0.0
  0
ARC
  5
1A98A
102
{ACAD_REACTORS
330
1A99D
102
}
330
1A818
100
AcDbEntity
  8
CUTOUT
100
AcDbCircle
 10
9887.267182962837
 20
12918.49201715262
 30
0.0
 40
90.0
100
AcDbArc
 50
180.0
 51
270.0
  0
LINE
  5
1A98B
330
1A818
100
AcDbEntity
  8
CUTOUT
100
AcDbLine
 10
9887.267182962837
 20
12828.49201715262
 30
0.0
 11
10687.26718296272
 21
12828.49201715262
 31
0.0
  0
ARC
  5
1A98C
102
{ACAD_REACTORS
330
1A994
330
1A997
102
}
330
1A818
100
AcDbEntity
  8
CUTOUT
100
AcDbCircle
 10
10687.26718296272
 20
12918.49201715262
 30
0.0
 40
90.0
100
AcDbArc
 50
270.0
 51
0.0
  0
LINE
  5
1A98D
330
1A818
100
AcDbEntity
  8
CUTOUT
100
AcDbLine
 10
10777.26718296272
 20
12918.49201715264
 30
0.0
 11
10777.26718296266
 21
13218.49201715264
 31
0.0
  0
ARC
  5
1A98E
330
1A818
100
AcDbEntity
  8
CUTOUT
100
AcDbCircle
 10
10687.26718296266
 20
13218.49201715262
 30
0.0
 40
90.0
100
AcDbArc
 50
0.0
 51
90.0
  0
LINE
  5
1A98F
102
{ACAD_REACTORS
330
1A997
102
}
330
1A818
100
AcDbEntity
  8
CUTOUT
100
AcDbLine
 10
10687.26718296266
 20
13308.49201715262
 30
0.0
 11
9887.26718296275
 21
13308.49201715262
 31
0.0
  0
ARC
  5
1A990
330
1A818
100
AcDbEntity
  8
CUTOUT
100
AcDbCircle
 10
9887.26718296275
 20
13218.49201715262
 30
0.0
 40
90.0
100
AcDbArc
 50
90.0
 51
180.0
  0
DIMENSION
  5
1A991
330
1A818
100
AcDbEntity
  8
DIMS SPECS
100
AcDbDimension
  2
*D24
 10
10687.26718296269
 20
12918.49201715266
 30
0.0
 11
10846.55239174961
 21
12772.34867844984
 31
0.0
 70
   164
 71
     5
 42
90.00000000001092
 73
     0
 74
     0
 75
     0
  3
abode-iso$4
100
AcDbRadialDimension
 15
10748.32321465325
 25
12852.36969872535
 35
0.0
 40
0.0
1001
ACAD_DSTYLE_DIMINSPECT
1070
   396
1000
100%
1070
   395
1000

1070
   394
1070
    33
1070
   393
1070
     0
1001
ACAD_DSTYLE_DIMRADIAL_EXTENSION
1070
   387
1070
     1
1070
   388
1040
4.712388980384689
1070
   390
1040
0.0
1001
ACAD
1000
DSTYLE
1002
{
1070
   340
1005
1A936
1070
   371
1070
    -1
1070
   372
1070
    -1
1002
}
  0
DIMENSION
  5
1A992
102
{ACAD_XDICTIONARY
360
1A993
102
}
102
{ACAD_REACTORS
330
1A994
102
}
330
1A818
100
AcDbEntity
  8
DIMS SPECS
100
AcDbDimension
  2
*D25
 10
10777.26718296272
 20
12743.21848471662
 30
0.0
 11
10287.26718296278
 21
12759.64608498855
 31
0.0
 70
    32
 71
     5
 42
979.9999999998835
 73
     0
 74
     0
 75
     0
  3
abode-iso$0
100
AcDbAlignedDimension
 13
9797.267182962837
 23
12918.49201715261
 33
0.0
 14
10777.26718296272
 24
12918.49201715262
 34
0.0
100
AcDbRotatedDimension
1001
ACAD_DSTYLE_DIMINSPECT
1070
   396
1000
100%
1070
   395
1000

1070
   394
1070
    33
1070
   393
1070
     0
1001
ACAD
1000
DSTYLE
1002
{
1070
   340
1005
1A936
1070
   371
1070
    -1
1070
   372
1070
    -1
1002
}
  0
DIMENSION
  5
1A995
102
{ACAD_XDICTIONARY
360
1A996
102
}
102
{ACAD_REACTORS
330
1A997
102
}
330
1A818
100
AcDbEntity
  8
DIMS SPECS
100
AcDbDimension
  2
*D26
 10
10851.05239274962
 20
13308.49201715262
 30
0.0
 11
10851.05239274962
 21
13068.49201715262
 31
0.0
 70
    32
 71
     5
 42
480.0000000000018
 73
     0
 74
     0
 75
     0
  3
abode-iso$0
100
AcDbAlignedDimension
 13
10687.26718296272
 23
12828.49201715262
 33
0.0
 14
10687.26718296266
 24
13308.49201715262
 34
0.0
 50
90.0
100
AcDbRotatedDimension
1001
ACAD_DSTYLE_DIMINSPECT
1070
   396
1000
100%
1070
   395
1000

1070
   394
1070
    33
1070
   393
1070
     0
1001
ACAD
1000
DSTYLE
1002
{
1070
   340
1005
1A936
1070
   371
1070
    -1
1070
   372
1070
    -1
1002
}
  0
MTEXT
  5
1A998
102
{ACAD_XDICTIONARY
360
1AA23
102
}
330
1A818
100
AcDbEntity
  8
CUTOUT
100
AcDbMText
 10
10011.24056063777
 20
13386.6256519953
 30
0.0
 40
40.0
 41
559.4757407245924
 46
0.0
 71
     1
 72
     5
  1
\pi107.74;INSET CUT OUT
 73
     1
 44
1.0
  0
LINE
  5
1A999
102
{ACAD_REACTORS
330
1A99D
102
}
330
1A818
100
AcDbEntity
  8
CUTOUT
  6
DASHED2
 48
5.0
100
AcDbLine
 10
9820.677918672691
 20
13275.56507818467
 30
0.0
 11
9820.677918672691
 21
12861.41895612067
 31
0.0
  0
LINE
  5
1A99A
330
1A818
100
AcDbEntity
  8
CUTOUT
  6
DASHED2
 48
5.0
100
AcDbLine
 10
10318.69855478433
 20
13308.49201715262
 30
0.0
 11
10318.69855478433
 21
12828.49201715262
 31
0.0
  0
DIMENSION
  5
1A99B
102
{ACAD_XDICTIONARY
360
1A99C
102
}
102
{ACAD_REACTORS
330
1A99D
102
}
330
1A818
100
AcDbEntity
  8
DIMS SPECS
100
AcDbDimension
  2
*D27
 10
9820.677918672691
 20
12786.14990367429
 30
0.0
 11
9753.435197918648
 21
12786.14990367429
 31
0.0
 70
   160
 71
     5
 42
23.41073570985463
 73
     0
 74
     0
 75
     0
  3
abode-iso$0
100
AcDbAlignedDimension
 13
9797.267182962837
 23
12918.49201715262
 33
0.0
 14
9820.677918672691
 24
12861.41895612067
 34
0.0
100
AcDbRotatedDimension
1001
ACAD_DSTYLE_DIMINSPECT
1070
   396
1000
100%
1070
   395
1000

1070
   394
1070
    33
1070
   393
1070
     0
1001
ACAD
1000
DSTYLE
1002
{
1070
   340
1005
1A936
1070
   371
1070
    -1
1070
   372
1070
    -1
1002
}
  0
DIMENSION
  5
1A99E
330
1A818
100
AcDbEntity
  8
DIMS SPECS
100
AcDbDimension
  2
*D28
 10
10318.69855478433
 20
12786.14990367429
 30
0.0
 11
10068.1882367285
 21
12786.14990367429
 31
0.0
 70
   160
 71
     5
 42
498.0206361116434
 73
     0
 74
     0
 75
     0
  3
abode-iso$0
100
AcDbAlignedDimension
 13
9820.677918672691
 23
12861.41895612067
 33
0.0
 14
10318.69855478433
 24
12828.49201715262
 34
0.0
100
AcDbRotatedDimension
1001
ACAD_DSTYLE_DIMINSPECT
1070
   396
1000
100%
1070
   395
1000

1070
   394
1070
    33
1070
   393
1070
     0
1001
ACAD
1000
DSTYLE
1002
{
1070
   340
1005
1A936
1070
   371
1070
    -1
1070
   372
1070
    -1
1002
}
  0
ENDSEC
  0
SECTION
  2
OBJECTS
  0
DICTIONARY
  5
1A7B0
330
0
100
AcDbDictionary
281
     1
  3
ACAD_COLOR
350
1A80E
  3
ACAD_GROUP
350
1A7B1
  3
ACAD_LAYOUT
350
1A80D
  3
ACAD_MATERIAL
350
1A7B4
  3
ACAD_MLEADERSTYLE
350
1A811
  3
ACAD_MLINESTYLE
350
1A80A
  3
ACAD_PLOTSETTINGS
350
1A80C
  3
ACAD_PLOTSTYLENAME
350
1A7B2
  3
ACAD_SCALELIST
350
1A7DE
  3
ACAD_TABLESTYLE
350
1A80F
  3
ACAD_VISUALSTYLE
350
1A7CD
  3
ACDB_RECOMPOSE_DATA
350
1AA25
  3
AcDbVariableDictionary
350
1AA17
  3
AcmDictionary
350
1A8B0
  3
AMG
350
1A85A
  3
AMGSNAPSETTINGS
350
1A97E
  0
DICTIONARY
  5
1A942
330
1A7A6
100
AcDbDictionary
280
     1
281
     1
  3
ACAD_LAYERSTATES
360
1A943
  0
DICTIONARY
  5
1AA0C
330
1A800
100
AcDbDictionary
280
     1
281
     1
  3
ADSK_XREC_LAYER_RECONCILED
360
1AA0D
  0
DICTIONARY
  5
1AA0E
330
1A81E
100
AcDbDictionary
280
     1
281
     1
  3
ADSK_XREC_LAYER_RECONCILED
360
1AA0F
  0
DICTIONARY
  5
1AA10
330
1A820
100
AcDbDictionary
280
     1
281
     1
  3
ADSK_XREC_LAYER_RECONCILED
360
1AA11
  0
DICTIONARY
  5
1AA12
330
1A821
100
AcDbDictionary
280
     1
281
     1
  3
ADSK_XREC_LAYER_RECONCILED
360
1AA13
  0
DICTIONARY
  5
1AA14
330
1A931
100
AcDbDictionary
280
     1
281
     1
  3
ADSK_XREC_LAYER_RECONCILED
360
1AA15
  0
DICTIONARY
  5
1A933
330
1A932
100
AcDbDictionary
280
     1
281
     1
  3
ADSK_XREC_LAYER_RECONCILED
360
1AA16
  0
DICTIONARY
  5
1AA21
330
1A987
100
AcDbDictionary
280
     1
281
     1
  3
ACAD_MTEXT_2008_RT
360
1AA22
  0
DICTIONARY
  5
1A993
330
1A992
100
AcDbDictionary
280
     1
281
     1
  3
ACAD_DIMASSOC
360
1A994
  0
DICTIONARY
  5
1A996
330
1A995
100
AcDbDictionary
280
     1
281
     1
  3
ACAD_DIMASSOC
360
1A997
  0
DICTIONARY
  5
1AA23
330
1A998
100
AcDbDictionary
280
     1
281
     1
  3
ACAD_MTEXT_2008_RT
360
1AA24
  0
DICTIONARY
  5
1A99C
330
1A99B
100
AcDbDictionary
280
     1
281
     1
  3
ACAD_DIMASSOC
360
1A99D
  0
DICTIONARY
  5
1A80E
102
{ACAD_REACTORS
330
1A7B0
102
}
330
1A7B0
100
AcDbDictionary
281
     1
  0
DICTIONARY
  5
1A7B1
102
{ACAD_REACTORS
330
1A7B0
102
}
330
1A7B0
100
AcDbDictionary
281
     1
  0
DICTIONARY
  5
1A80D
102
{ACAD_REACTORS
330
1A7B0
102
}
330
1A7B0
100
AcDbDictionary
281
     1
  3
Layout1
350
1A817
  3
Model
350
1A81B
  0
DICTIONARY
  5
1A7B4
102
{ACAD_REACTORS
330
1A7B0
102
}
330
1A7B0
100
AcDbDictionary
281
     1
  3
ByBlock
350
1A7BD
  3
ByLayer
350
1A7B5
  3
Global
350
1A7C5
  0
DICTIONARY
  5
1A811
102
{ACAD_REACTORS
330
1A7B0
102
}
330
1A7B0
100
AcDbDictionary
281
     1
  3
Standard
350
1A812
  0
DICTIONARY
  5
1A80A
102
{ACAD_REACTORS
330
1A7B0
102
}
330
1A7B0
100
AcDbDictionary
281
     1
  3
Standard
350
1A80B
  0
DICTIONARY
  5
1A80C
102
{ACAD_REACTORS
330
1A7B0
102
}
330
1A7B0
100
AcDbDictionary
281
     1
  0
ACDBDICTIONARYWDFLT
  5
1A7B2
102
{ACAD_REACTORS
330
1A7B0
102
}
330
1A7B0
100
AcDbDictionary
281
     1
  3
Normal
350
1A7B3
100
AcDbDictionaryWithDefault
340
1A7B3
  0
DICTIONARY
  5
1A7DE
102
{ACAD_REACTORS
330
1A7B0
102
}
330
1A7B0
100
AcDbDictionary
281
     1
  3
A0
350
1A7DF
  3
A1
350
1A7E0
  3
A2
350
1A7E1
  3
A3
350
1A7E2
  3
A4
350
1A7E3
  3
A5
350
1A7E4
  3
A6
350
1A7E5
  3
A7
350
1A7E6
  3
A8
350
1A7E7
  3
A9
350
1A7E8
  3
B0
350
1A7E9
  3
B1
350
1A7EA
  3
B2
350
1A7EB
  3
B3
350
1A7EC
  3
B4
350
1A7ED
  3
B5
350
1A7EE
  3
B6
350
1A7EF
  3
B7
350
1A7F0
  3
B8
350
1A7F1
  3
B9
350
1A7F2
  3
C0
350
1A7F3
  3
C1
350
1A7F4
  3
C2
350
1A7F5
  3
C3
350
1A7F6
  3
C4
350
1A7F7
  3
C5
350
1A7F8
  3
C6
350
1A7F9
  3
C7
350
1A7FA
  3
C8
350
1A7FB
  3
C9
350
1A7FC
  3
D0
350
1A7FD
  3
D1
350
1A7FE
  3
D2
350
1A7FF
  0
DICTIONARY
  5
1A80F
102
{ACAD_REACTORS
330
1A7B0
102
}
330
1A7B0
100
AcDbDictionary
281
     1
  3
Standard
350
1A810
  0
DICTIONARY
  5
1A7CD
102
{ACAD_REACTORS
330
1A7B0
102
}
330
1A7B0
100
AcDbDictionary
281
     1
  3
2dWireframe
350
1A7D3
  3
3D Hidden
350
1A7D5
  3
3dWireframe
350
1A7D4
  3
Basic
350
1A7D2
  3
Brighten
350
1A7D9
  3
ColorChange
350
1A7DD
  3
Conceptual
350
1A7D6
  3
Dim
350
1A7D8
  3
Facepattern
350
1A7DC
  3
Flat
350
1A7CE
  3
FlatWithEdges
350
1A7CF
  3
Gouraud
350
1A7D0
  3
GouraudWithEdges
350
1A7D1
  3
Linepattern
350
1A7DB
  3
Realistic
350
1A7D7
  3
Thicken
350
1A7DA
  0
XRECORD
  5
1AA25
102
{ACAD_REACTORS
330
1A7B0
102
}
330
1A7B0
100
AcDbXrecord
280
     1
 90
        1
330
1A810
330
1A987
330
1A998
  0
DICTIONARY
  5
1AA17
102
{ACAD_REACTORS
330
1A7B0
102
}
330
1A7B0
100
AcDbDictionary
281
     1
  3
CANNOSCALE
350
1AA1B
  3
CMLEADERSTYLE
350
1AA19
  3
CTABLESTYLE
350
1AA18
  3
LAYEREVAL
350
1AA1D
  3
LAYERNOTIFY
350
1AA1E
  3
LIGHTINGUNITS
350
1AA1C
  3
MSLTSCALE
350
1AA1A
  0
DICTIONARY
  5
1A8B0
102
{ACAD_REACTORS
330
1A7B0
102
}
330
1A7B0
100
AcDbDictionary
281
     1
  3
AcmStdDictionary
350
1A8BB
  0
DICTIONARY
  5
1A85A
102
{ACAD_REACTORS
330
1A7B0
102
}
330
1A7B0
100
AcDbDictionary
281
     1
  0
DICTIONARY
  5
1A97E
102
{ACAD_REACTORS
330
1A7B0
102
}
330
1A7B0
100
AcDbDictionary
281
     1
  0
DICTIONARY
  5
1A943
102
{ACAD_REACTORS
330
1A942
102
}
330
1A942
100
AcDbDictionary
281
     1
  0
XRECORD
  5
1AA0D
102
{ACAD_REACTORS
330
1AA0C
102
}
330
1AA0C
100
AcDbXrecord
280
     1
290
     1
  0
XRECORD
  5
1AA0F
102
{ACAD_REACTORS
330
1AA0E
102
}
330
1AA0E
100
AcDbXrecord
280
     1
290
     1
  0
XRECORD
  5
1AA11
102
{ACAD_REACTORS
330
1AA10
102
}
330
1AA10
100
AcDbXrecord
280
     1
290
     1
  0
XRECORD
  5
1AA13
102
{ACAD_REACTORS
330
1AA12
102
}
330
1AA12
100
AcDbXrecord
280
     1
290
     1
  0
XRECORD
  5
1AA15
102
{ACAD_REACTORS
330
1AA14
102
}
330
1AA14
100
AcDbXrecord
280
     1
290
     1
  0
XRECORD
  5
1AA16
102
{ACAD_REACTORS
330
1A933
102
}
330
1A933
100
AcDbXrecord
280
     1
290
     1
  0
XRECORD
  5
1AA22
102
{ACAD_REACTORS
330
1AA21
102
}
330
1AA21
100
AcDbXrecord
280
     1
 40
125417.0
  1
\pxqc;BOWL(S), \POVERFLOW,\PTAP AREA
  0
DIMASSOC
  5
1A994
102
{ACAD_REACTORS
330
1A993
102
}
330
1A993
100
AcDbDimAssoc
330
1A992
 90
        3
 70
     0
 71
     0
  1
AcDbOsnapPointRef
 72
     1
331
1A989
 73
     0
 91
        0
 40
0.0
 10
0.0
 20
0.0
 30
2.000000000000000E+50
 75
     0
  1
AcDbOsnapPointRef
 72
     1
331
1A98C
 73
     0
 91
        0
 40
0.0
 10
0.0
 20
0.0
 30
2.000000000000000E+50
 75
     0
  0
DIMASSOC
  5
1A997
102
{ACAD_REACTORS
330
1A996
102
}
330
1A996
100
AcDbDimAssoc
330
1A995
 90
        3
 70
     0
 71
     0
  1
AcDbOsnapPointRef
 72
    13
331
1A98C
 73
     0
 91
        0
 40
0.0
 10
0.0
 20
0.0
 30
2.000000000000000E+50
 75
     0
  1
AcDbOsnapPointRef
 72
    13
331
1A98F
 73
     0
 91
        0
 40
0.0
 10
0.0
 20
0.0
 30
2.000000000000000E+50
 75
     0
  0
XRECORD
  5
1AA24
102
{ACAD_REACTORS
330
1AA23
102
}
330
1AA23
100
AcDbXrecord
280
     1
 40
19139.0
  1
\pxqc;INSET CUT OUT
  0
DIMASSOC
  5
1A99D
102
{ACAD_REACTORS
330
1A99C
102
}
330
1A99C
100
AcDbDimAssoc
330
1A99B
 90
        1
 70
     0
 71
     0
  1
AcDbOsnapPointRef
 72
    13
331
1A98A
 73
     0
 91
        0
 40
0.0
 10
0.0
 20
0.0
 30
2.000000000000000E+50
 75
     0
  0
LAYOUT
  5
1A817
102
{ACAD_REACTORS
330
1A80D
102
}
330
1A80D
100
AcDbPlotSettings
  1

  2
\\abode-sbs\Upstairs
  4

  6

 40
0.0
 41
0.0
 42
0.0
 43
0.0
 44
0.0
 45
0.0
 46
0.0
 47
0.0
 48
0.0
 49
0.0
140
0.0
141
0.0
142
1.0
143
1.0
 70
   688
 72
     0
 73
     0
 74
     5
  7

 75
    16
147
1.0
 76
     0
 77
     2
 78
   300
148
0.0
149
0.0
100
AcDbLayout
  1
Layout1
 70
     1
 71
     1
 10
0.0
 20
0.0
 11
420.0
 21
297.0
 12
0.0
 22
0.0
 32
0.0
 14
1.000000000000000E+20
 24
1.000000000000000E+20
 34
1.000000000000000E+20
 15
-1.000000000000000E+20
 25
-1.000000000000000E+20
 35
-1.000000000000000E+20
146
0.0
 13
0.0
 23
0.0
 33
0.0
 16
1.0
 26
0.0
 36
0.0
 17
0.0
 27
1.0
 37
0.0
 76
     0
330
1A814
  0
LAYOUT
  5
1A81B
102
{ACAD_REACTORS
330
1A80D
102
}
330
1A80D
100
AcDbPlotSettings
  1

  2
\\abode-sbs\Upstairs
  4

  6

 40
0.0
 41
0.0
 42
0.0
 43
0.0
 44
0.0
 45
0.0
 46
0.0
 47
0.0
 48
0.0
 49
0.0
140
0.0
141
0.0
142
1.0
143
1.0
 70
  1712
 72
     0
 73
     0
 74
     0
  7

 75
     0
147
1.0
 76
     0
 77
     2
 78
   300
148
0.0
149
0.0
100
AcDbLayout
  1
Model
 70
     1
 71
     0
 10
0.0
 20
0.0
 11
12.0
 21
9.0
 12
0.0
 22
0.0
 32
0.0
 14
0.0
 24
0.0
 34
0.0
 15
0.0
 25
0.0
 35
0.0
146
0.0
 13
0.0
 23
0.0
 33
0.0
 16
1.0
 26
0.0
 36
0.0
 17
0.0
 27
1.0
 37
0.0
 76
     0
330
1A818
331
1A81C
  0
MATERIAL
  5
1A7BD
102
{ACAD_XDICTIONARY
360
1A7BE
102
}
102
{ACAD_REACTORS
330
1A7B4
102
}
330
1A7B4
100
AcDbMaterial
  1
ByBlock
 72
     0
 43
0.0208333333333333
 43
0.0
 43
0.0
 43
0.0
 43
0.0
 43
0.0208333333333333
 43
0.0
 43
0.0
 43
0.0
 43
0.0
 43
1.0
 43
0.0
 43
0.0
 43
0.0
 43
0.0
 43
1.0
 77
     0
 47
0.0208333333333333
 47
0.0
 47
0.0
 47
0.0
 47
0.0
 47
0.0208333333333333
 47
0.0
 47
0.0
 47
0.0
 47
0.0
 47
1.0
 47
0.0
 47
0.0
 47
0.0
 47
0.0
 47
1.0
171
     0
 49
0.0208333333333333
 49
0.0
 49
0.0
 49
0.0
 49
0.0
 49
0.0208333333333333
 49
0.0
 49
0.0
 49
0.0
 49
0.0
 49
1.0
 49
0.0
 49
0.0
 49
0.0
 49
0.0
 49
1.0
175
     0
142
0.0208333333333333
142
0.0
142
0.0
142
0.0
142
0.0
142
0.0208333333333333
142
0.0
142
0.0
142
0.0
142
0.0
142
1.0
142
0.0
142
0.0
142
0.0
142
0.0
142
1.0
179
     0
144
0.0208333333333333
144
0.0
144
0.0
144
0.0
144
0.0
144
0.0208333333333333
144
0.0
144
0.0
144
0.0
144
0.0
144
1.0
144
0.0
144
0.0
144
0.0
144
0.0
144
1.0
147
0.0208333333333333
147
0.0
147
0.0
147
0.0
147
0.0
147
0.0208333333333333
147
0.0
147
0.0
147
0.0
147
0.0
147
1.0
147
0.0
147
0.0
147
0.0
147
0.0
147
1.0
  0
MATERIAL
  5
1A7B5
102
{ACAD_XDICTIONARY
360
1A7B6
102
}
102
{ACAD_REACTORS
330
1A7B4
102
}
330
1A7B4
100
AcDbMaterial
  1
ByLayer
 72
     0
 43
0.0208333333333333
 43
0.0
 43
0.0
 43
0.0
 43
0.0
 43
0.0208333333333333
 43
0.0
 43
0.0
 43
0.0
 43
0.0
 43
1.0
 43
0.0
 43
0.0
 43
0.0
 43
0.0
 43
1.0
 77
     0
 47
0.0208333333333333
 47
0.0
 47
0.0
 47
0.0
 47
0.0
 47
0.0208333333333333
 47
0.0
 47
0.0
 47
0.0
 47
0.0
 47
1.0
 47
0.0
 47
0.0
 47
0.0
 47
0.0
 47
1.0
171
     0
 49
0.0208333333333333
 49
0.0
 49
0.0
 49
0.0
 49
0.0
 49
0.0208333333333333
 49
0.0
 49
0.0
 49
0.0
 49
0.0
 49
1.0
 49
0.0
 49
0.0
 49
0.0
 49
0.0
 49
1.0
175
     0
142
0.0208333333333333
142
0.0
142
0.0
142
0.0
142
0.0
142
0.0208333333333333
142
0.0
142
0.0
142
0.0
142
0.0
142
1.0
142
0.0
142
0.0
142
0.0
142
0.0
142
1.0
179
     0
144
0.0208333333333333
144
0.0
144
0.0
144
0.0
144
0.0
144
0.0208333333333333
144
0.0
144
0.0
144
0.0
144
0.0
144
1.0
144
0.0
144
0.0
144
0.0
144
0.0
144
1.0
147
0.0208333333333333
147
0.0
147
0.0
147
0.0
147
0.0
147
0.0208333333333333
147
0.0
147
0.0
147
0.0
147
0.0
147
1.0
147
0.0
147
0.0
147
0.0
147
0.0
147
1.0
  0
MATERIAL
  5
1A7C5
102
{ACAD_XDICTIONARY
360
1A7C6
102
}
102
{ACAD_REACTORS
330
1A7B4
102
}
330
1A7B4
100
AcDbMaterial
  1
Global
 72
     0
 43
0.0208333333333333
 43
0.0
 43
0.0
 43
0.0
 43
0.0
 43
0.0208333333333333
 43
0.0
 43
0.0
 43
0.0
 43
0.0
 43
1.0
 43
0.0
 43
0.0
 43
0.0
 43
0.0
 43
1.0
 77
     0
 47
0.0208333333333333
 47
0.0
 47
0.0
 47
0.0
 47
0.0
 47
0.0208333333333333
 47
0.0
 47
0.0
 47
0.0
 47
0.0
 47
1.0
 47
0.0
 47
0.0
 47
0.0
 47
0.0
 47
1.0
171
     0
 49
0.0208333333333333
 49
0.0
 49
0.0
 49
0.0
 49
0.0
 49
0.0208333333333333
 49
0.0
 49
0.0
 49
0.0
 49
0.0
 49
1.0
 49
0.0
 49
0.0
 49
0.0
 49
0.0
 49
1.0
175
     0
142
0.0208333333333333
142
0.0
142
0.0
142
0.0
142
0.0
142
0.0208333333333333
142
0.0
142
0.0
142
0.0
142
0.0
142
1.0
142
0.0
142
0.0
142
0.0
142
0.0
142
1.0
179
     0
144
0.0208333333333333
144
0.0
144
0.0
144
0.0
144
0.0
144
0.0208333333333333
144
0.0
144
0.0
144
0.0
144
0.0
144
1.0
144
0.0
144
0.0
144
0.0
144
0.0
144
1.0
147
0.0208333333333333
147
0.0
147
0.0
147
0.0
147
0.0
147
0.0208333333333333
147
0.0
147
0.0
147
0.0
147
0.0
147
1.0
147
0.0
147
0.0
147
0.0
147
0.0
147
1.0
  0
MLEADERSTYLE
  5
1A812
102
{ACAD_REACTORS
330
1A811
102
}
330
1A811
100
AcDbMLeaderStyle
170
     2
171
     1
172
     0
 90
        2
 40
0.0
 41
0.0
173
     1
 91
-1056964608
340
1A806
 92
       -2
290
     1
 42
0.09
291
     1
 43
0.36
  3
Standard
 44
0.18
300

342
1A801
174
     1
178
     6
175
     1
176
     0
 93
-1056964608
 45
0.18
292
     0
297
     0
 46
0.18
 94
-1056964608
 47
1.0
 49
1.0
140
1.0
293
     1
141
0.0
294
     1
177
     0
142
1.0
295
     0
296
     0
143
0.125
1001
ACAD_MLEADERVER
1070
     2
  0
MLINESTYLE
  5
1A80B
102
{ACAD_REACTORS
330
1A80A
102
}
330
1A80A
100
AcDbMlineStyle
  2
STANDARD
 70
     0
  3

 62
   256
 51
90.0
 52
90.0
 71
     2
 49
0.5
 62
   256
  6
BYLAYER
 49
-0.5
 62
   256
  6
BYLAYER
  0
ACDBPLACEHOLDER
  5
1A7B3
102
{ACAD_REACTORS
330
1A7B2
102
}
330
1A7B2
  0
SCALE
  5
1A7DF
102
{ACAD_REACTORS
330
1A7DE
102
}
330
1A7DE
100
AcDbScale
 70
     0
300
1:1
140
1.0
141
1.0
290
     1
  0
SCALE
  5
1A7E0
102
{ACAD_REACTORS
330
1A7DE
102
}
330
1A7DE
100
AcDbScale
 70
     0
300
1:2
140
1.0
141
2.0
290
     0
  0
SCALE
  5
1A7E1
102
{ACAD_REACTORS
330
1A7DE
102
}
330
1A7DE
100
AcDbScale
 70
     0
300
1:4
140
1.0
141
4.0
290
     0
  0
SCALE
  5
1A7E2
102
{ACAD_REACTORS
330
1A7DE
102
}
330
1A7DE
100
AcDbScale
 70
     0
300
1:5
140
1.0
141
5.0
290
     0
  0
SCALE
  5
1A7E3
102
{ACAD_REACTORS
330
1A7DE
102
}
330
1A7DE
100
AcDbScale
 70
     0
300
1:8
140
1.0
141
8.0
290
     0
  0
SCALE
  5
1A7E4
102
{ACAD_REACTORS
330
1A7DE
102
}
330
1A7DE
100
AcDbScale
 70
     0
300
1:10
140
1.0
141
10.0
290
     0
  0
SCALE
  5
1A7E5
102
{ACAD_REACTORS
330
1A7DE
102
}
330
1A7DE
100
AcDbScale
 70
     0
300
1:16
140
1.0
141
16.0
290
     0
  0
SCALE
  5
1A7E6
102
{ACAD_REACTORS
330
1A7DE
102
}
330
1A7DE
100
AcDbScale
 70
     0
300
1:20
140
1.0
141
20.0
290
     0
  0
SCALE
  5
1A7E7
102
{ACAD_REACTORS
330
1A7DE
102
}
330
1A7DE
100
AcDbScale
 70
     0
300
1:30
140
1.0
141
30.0
290
     0
  0
SCALE
  5
1A7E8
102
{ACAD_REACTORS
330
1A7DE
102
}
330
1A7DE
100
AcDbScale
 70
     0
300
1:40
140
1.0
141
40.0
290
     0
  0
SCALE
  5
1A7E9
102
{ACAD_REACTORS
330
1A7DE
102
}
330
1A7DE
100
AcDbScale
 70
     0
300
1:50
140
1.0
141
50.0
290
     0
  0
SCALE
  5
1A7EA
102
{ACAD_REACTORS
330
1A7DE
102
}
330
1A7DE
100
AcDbScale
 70
     0
300
1:100
140
1.0
141
100.0
290
     0
  0
SCALE
  5
1A7EB
102
{ACAD_REACTORS
330
1A7DE
102
}
330
1A7DE
100
AcDbScale
 70
     0
300
2:1
140
2.0
141
1.0
290
     0
  0
SCALE
  5
1A7EC
102
{ACAD_REACTORS
330
1A7DE
102
}
330
1A7DE
100
AcDbScale
 70
     0
300
4:1
140
4.0
141
1.0
290
     0
  0
SCALE
  5
1A7ED
102
{ACAD_REACTORS
330
1A7DE
102
}
330
1A7DE
100
AcDbScale
 70
     0
300
8:1
140
8.0
141
1.0
290
     0
  0
SCALE
  5
1A7EE
102
{ACAD_REACTORS
330
1A7DE
102
}
330
1A7DE
100
AcDbScale
 70
     0
300
10:1
140
10.0
141
1.0
290
     0
  0
SCALE
  5
1A7EF
102
{ACAD_REACTORS
330
1A7DE
102
}
330
1A7DE
100
AcDbScale
 70
     0
300
100:1
140
100.0
141
1.0
290
     0
  0
SCALE
  5
1A7F0
102
{ACAD_REACTORS
330
1A7DE
102
}
330
1A7DE
100
AcDbScale
 70
     0
300
1/128" = 1'-0"
140
0.0078125
141
12.0
290
     0
  0
SCALE
  5
1A7F1
102
{ACAD_REACTORS
330
1A7DE
102
}
330
1A7DE
100
AcDbScale
 70
     0
300
1/64" = 1'-0"
140
0.015625
141
12.0
290
     0
  0
SCALE
  5
1A7F2
102
{ACAD_REACTORS
330
1A7DE
102
}
330
1A7DE
100
AcDbScale
 70
     0
300
1/32" = 1'-0"
140
0.03125
141
12.0
290
     0
  0
SCALE
  5
1A7F3
102
{ACAD_REACTORS
330
1A7DE
102
}
330
1A7DE
100
AcDbScale
 70
     0
300
1/16" = 1'-0"
140
0.0625
141
12.0
290
     0
  0
SCALE
  5
1A7F4
102
{ACAD_REACTORS
330
1A7DE
102
}
330
1A7DE
100
AcDbScale
 70
     0
300
3/32" = 1'-0"
140
0.09375
141
12.0
290
     0
  0
SCALE
  5
1A7F5
102
{ACAD_REACTORS
330
1A7DE
102
}
330
1A7DE
100
AcDbScale
 70
     0
300
1/8" = 1'-0"
140
0.125
141
12.0
290
     0
  0
SCALE
  5
1A7F6
102
{ACAD_REACTORS
330
1A7DE
102
}
330
1A7DE
100
AcDbScale
 70
     0
300
3/16" = 1'-0"
140
0.1875
141
12.0
290
     0
  0
SCALE
  5
1A7F7
102
{ACAD_REACTORS
330
1A7DE
102
}
330
1A7DE
100
AcDbScale
 70
     0
300
1/4" = 1'-0"
140
0.25
141
12.0
290
     0
  0
SCALE
  5
1A7F8
102
{ACAD_REACTORS
330
1A7DE
102
}
330
1A7DE
100
AcDbScale
 70
     0
300
3/8" = 1'-0"
140
0.375
141
12.0
290
     0
  0
SCALE
  5
1A7F9
102
{ACAD_REACTORS
330
1A7DE
102
}
330
1A7DE
100
AcDbScale
 70
     0
300
1/2" = 1'-0"
140
0.5
141
12.0
290
     0
  0
SCALE
  5
1A7FA
102
{ACAD_REACTORS
330
1A7DE
102
}
330
1A7DE
100
AcDbScale
 70
     0
300
3/4" = 1'-0"
140
0.75
141
12.0
290
     0
  0
SCALE
  5
1A7FB
102
{ACAD_REACTORS
330
1A7DE
102
}
330
1A7DE
100
AcDbScale
 70
     0
300
1" = 1'-0"
140
1.0
141
12.0
290
     0
  0
SCALE
  5
1A7FC
102
{ACAD_REACTORS
330
1A7DE
102
}
330
1A7DE
100
AcDbScale
 70
     0
300
1-1/2" = 1'-0"
140
1.5
141
12.0
290
     0
  0
SCALE
  5
1A7FD
102
{ACAD_REACTORS
330
1A7DE
102
}
330
1A7DE
100
AcDbScale
 70
     0
300
3" = 1'-0"
140
3.0
141
12.0
290
     0
  0
SCALE
  5
1A7FE
102
{ACAD_REACTORS
330
1A7DE
102
}
330
1A7DE
100
AcDbScale
 70
     0
300
6" = 1'-0"
140
6.0
141
12.0
290
     0
  0
SCALE
  5
1A7FF
102
{ACAD_REACTORS
330
1A7DE
102
}
330
1A7DE
100
AcDbScale
 70
     0
300
1'-0" = 1'-0"
140
12.0
141
12.0
290
     0
  0
TABLESTYLE
  5
1A810
102
{ACAD_XDICTIONARY
360
1AA1F
102
}
102
{ACAD_REACTORS
330
1A80F
102
}
330
1A80F
100
AcDbTableStyle
  3
Standard
 70
     0
 71
     0
 40
0.06
 41
0.06
280
     0
281
     0
  7
STANDARD
140
0.18
170
     2
 62
     0
 63
     7
283
     0
 90
      512
 91
        0
  1

274
    -2
284
     1
 64
     0
275
    -2
285
     1
 65
     0
276
    -2
286
     1
 66
     0
277
    -2
287
     1
 67
     0
278
    -2
288
     1
 68
     0
279
    -2
289
     1
 69
     0
  7
STANDARD
140
0.25
170
     5
 62
     0
 63
     7
283
     0
 90
      512
 91
        0
  1

274
    -2
284
     1
 64
     0
275
    -2
285
     1
 65
     0
276
    -2
286
     1
 66
     0
277
    -2
287
     1
 67
     0
278
    -2
288
     1
 68
     0
279
    -2
289
     1
 69
     0
  7
STANDARD
140
0.18
170
     5
 62
     0
 63
     7
283
     0
 90
      512
 91
        0
  1

274
    -2
284
     1
 64
     0
275
    -2
285
     1
 65
     0
276
    -2
286
     1
 66
     0
277
    -2
287
     1
 67
     0
278
    -2
288
     1
 68
     0
279
    -2
289
     1
 69
     0
  0
VISUALSTYLE
  5
1A7D3
102
{ACAD_REACTORS
330
1A7CD
102
}
330
1A7CD
100
AcDbVisualStyle
  2
2dWireframe
 70
     4
 71
     0
 72
     2
 73
     0
 90
        0
 40
-0.6
 41
-30.0
 62
     5
 63
     7
421
 16777215
 74
     1
 91
        4
 64
     7
 65
   257
 75
     1
175
     1
 42
1.0
 92
        0
 66
   257
 43
1.0
 76
     1
 77
     6
 78
     2
 67
     7
 79
     5
170
     0
171
     0
290
     0
174
     0
 93
        1
 44
0.0
173
     0
291
     0
 45
0.0
  0
VISUALSTYLE
  5
1A7D5
102
{ACAD_REACTORS
330
1A7CD
102
}
330
1A7CD
100
AcDbVisualStyle
  2
3D Hidden
 70
     6
 71
     1
 72
     2
 73
     2
 90
        0
 40
-0.6
 41
-30.0
 62
     5
 63
     7
421
 16777215
 74
     2
 91
        2
 64
     7
 65
   257
 75
     2
175
     1
 42
40.0
 92
        0
 66
   257
 43
1.0
 76
     1
 77
     6
 78
     2
 67
     7
 79
     3
170
     0
171
     0
290
     0
174
     0
 93
        1
 44
0.0
173
     0
291
     0
 45
0.0
  0
VISUALSTYLE
  5
1A7D4
102
{ACAD_REACTORS
330
1A7CD
102
}
330
1A7CD
100
AcDbVisualStyle
  2
3dWireframe
 70
     5
 71
     0
 72
     2
 73
     0
 90
        0
 40
-0.6
 41
-30.0
 62
     5
 63
     7
421
 16777215
 74
     1
 91
        4
 64
     7
 65
   257
 75
     1
175
     1
 42
1.0
 92
        0
 66
   257
 43
1.0
 76
     1
 77
     6
 78
     2
 67
     7
 79
     5
170
     0
171
     0
290
     0
174
     0
 93
        1
 44
0.0
173
     0
291
     0
 45
0.0
  0
VISUALSTYLE
  5
1A7D2
102
{ACAD_REACTORS
330
1A7CD
102
}
330
1A7CD
100
AcDbVisualStyle
  2
Basic
 70
     7
 71
     1
 72
     0
 73
     1
 90
        0
 40
-0.6
 41
-30.0
 62
     5
 63
     7
421
 16777215
 74
     0
 91
        4
 64
     7
 65
   257
 75
     1
175
     1
 42
1.0
 92
        8
 66
     7
 43
1.0
 76
     1
 77
     6
 78
     2
 67
     7
 79
     5
170
     0
171
     0
290
     0
174
     0
 93
        1
 44
0.0
173
     0
291
     1
 45
0.0
  0
VISUALSTYLE
  5
1A7D9
102
{ACAD_REACTORS
330
1A7CD
102
}
330
1A7CD
100
AcDbVisualStyle
  2
Brighten
 70
    12
 71
     2
 72
     2
 73
     0
 90
        0
 40
-0.6
 41
-30.0
 62
     5
 63
     7
421
 16777215
 74
     1
 91
        4
 64
     7
 65
   257
 75
     1
175
     1
 42
1.0
 92
        8
 66
     7
 43
1.0
 76
     1
 77
     6
 78
     2
 67
     7
 79
     5
170
     0
171
     0
290
     0
174
     0
 93
        1
 44
50.0
173
     0
291
     1
 45
0.0
  0
VISUALSTYLE
  5
1A7DD
102
{ACAD_REACTORS
330
1A7CD
102
}
330
1A7CD
100
AcDbVisualStyle
  2
ColorChange
 70
    16
 71
     2
 72
     2
 73
     3
 90
        0
 40
-0.6
 41
-30.0
 62
     5
 63
     8
421
  8421504
 74
     1
 91
        4
 64
     7
 65
   257
 75
     1
175
     1
 42
1.0
 92
        8
 66
     8
424
  8421504
 43
1.0
 76
     1
 77
     6
 78
     2
 67
     7
 79
     5
170
     0
171
     0
290
     0
174
     0
 93
        1
 44
0.0
173
     0
291
     1
 45
0.0
  0
VISUALSTYLE
  5
1A7D6
102
{ACAD_REACTORS
330
1A7CD
102
}
330
1A7CD
100
AcDbVisualStyle
  2
Conceptual
 70
     9
 71
     3
 72
     2
 73
     0
 90
        0
 40
-0.6
 41
-30.0
 62
     5
 63
     7
421
 16777215
 74
     2
 91
        2
 64
     7
 65
   257
 75
     1
175
     1
 42
40.0
 92
        8
 66
     7
 43
1.0
 76
     1
 77
     6
 78
     2
 67
     7
 79
     3
170
     0
171
     0
290
     0
174
     0
 93
        1
 44
0.0
173
     0
291
     0
 45
0.0
  0
VISUALSTYLE
  5
1A7D8
102
{ACAD_REACTORS
330
1A7CD
102
}
330
1A7CD
100
AcDbVisualStyle
  2
Dim
 70
    11
 71
     2
 72
     2
 73
     0
 90
        0
 40
-0.6
 41
-30.0
 62
     5
 63
     7
421
 16777215
 74
     1
 91
        4
 64
     7
 65
   257
 75
     1
175
     1
 42
1.0
 92
        8
 66
     7
 43
1.0
 76
     1
 77
     6
 78
     2
 67
     7
 79
     5
170
     0
171
     0
290
     0
174
     0
 93
        1
 44
-50.0
173
     0
291
     1
 45
0.0
  0
VISUALSTYLE
  5
1A7DC
102
{ACAD_REACTORS
330
1A7CD
102
}
330
1A7CD
100
AcDbVisualStyle
  2
Facepattern
 70
    15
 71
     2
 72
     2
 73
     0
 90
        0
 40
-0.6
 41
-30.0
 62
     5
 63
     7
421
 16777215
 74
     1
 91
        4
 64
     7
 65
   257
 75
     1
175
     1
 42
1.0
 92
        8
 66
     7
 43
1.0
 76
     1
 77
     6
 78
     2
 67
     7
 79
     5
170
     0
171
     0
290
     0
174
     0
 93
        1
 44
0.0
173
     0
291
     1
 45
0.0
  0
VISUALSTYLE
  5
1A7CE
102
{ACAD_REACTORS
330
1A7CD
102
}
330
1A7CD
100
AcDbVisualStyle
  2
Flat
 70
     0
 71
     2
 72
     1
 73
     1
 90
        2
 40
-0.6
 41
30.0
 62
     5
 63
     7
421
 16777215
 74
     0
 91
        4
 64
     7
 65
   257
 75
     1
175
     1
 42
1.0
 92
        8
 66
     7
 43
1.0
 76
     1
 77
     6
 78
     2
 67
     7
 79
     5
170
     0
171
     0
290
     0
174
     0
 93
       13
 44
0.0
173
     0
291
     1
 45
0.0
  0
VISUALSTYLE
  5
1A7CF
102
{ACAD_REACTORS
330
1A7CD
102
}
330
1A7CD
100
AcDbVisualStyle
  2
FlatWithEdges
 70
     1
 71
     2
 72
     1
 73
     1
 90
        2
 40
-0.6
 41
30.0
 62
     5
 63
     7
421
 16777215
 74
     1
 91
        4
 64
     7
 65
   257
 75
     1
175
     1
 42
1.0
 92
        0
 66
   257
 43
1.0
 76
     1
 77
     6
 78
     2
 67
     7
 79
     5
170
     0
171
     0
290
     0
174
     0
 93
       13
 44
0.0
173
     0
291
     1
 45
0.0
  0
VISUALSTYLE
  5
1A7D0
102
{ACAD_REACTORS
330
1A7CD
102
}
330
1A7CD
100
AcDbVisualStyle
  2
Gouraud
 70
     2
 71
     2
 72
     2
 73
     1
 90
        2
 40
-0.6
 41
30.0
 62
     5
 63
     7
421
 16777215
 74
     0
 91
        4
 64
     7
 65
   257
 75
     1
175
     1
 42
1.0
 92
        0
 66
     7
 43
1.0
 76
     1
 77
     6
 78
     2
 67
     7
 79
     5
170
     0
171
     0
290
     0
174
     0
 93
       13
 44
0.0
173
     0
291
     1
 45
0.0
  0
VISUALSTYLE
  5
1A7D1
102
{ACAD_REACTORS
330
1A7CD
102
}
330
1A7CD
100
AcDbVisualStyle
  2
GouraudWithEdges
 70
     3
 71
     2
 72
     2
 73
     1
 90
        2
 40
-0.6
 41
30.0
 62
     5
 63
     7
421
 16777215
 74
     1
 91
        4
 64
     7
 65
   257
 75
     1
175
     1
 42
1.0
 92
        0
 66
   257
 43
1.0
 76
     1
 77
     6
 78
     2
 67
     7
 79
     5
170
     0
171
     0
290
     0
174
     0
 93
       13
 44
0.0
173
     0
291
     1
 45
0.0
  0
VISUALSTYLE
  5
1A7DB
102
{ACAD_REACTORS
330
1A7CD
102
}
330
1A7CD
100
AcDbVisualStyle
  2
Linepattern
 70
    14
 71
     2
 72
     2
 73
     0
 90
        0
 40
-0.6
 41
-30.0
 62
     5
 63
     7
421
 16777215
 74
     1
 91
        4
 64
     7
 65
   257
 75
     7
175
     7
 42
1.0
 92
        8
 66
     7
 43
1.0
 76
     1
 77
     6
 78
     2
 67
     7
 79
     5
170
     0
171
     0
290
     0
174
     0
 93
        1
 44
0.0
173
     0
291
     1
 45
0.0
  0
VISUALSTYLE
  5
1A7D7
102
{ACAD_REACTORS
330
1A7CD
102
}
330
1A7CD
100
AcDbVisualStyle
  2
Realistic
 70
     8
 71
     2
 72
     2
 73
     0
 90
        0
 40
-0.6
 41
-30.0
 62
     5
 63
     7
421
 16777215
 74
     1
 91
        0
 64
     7
 65
   257
 75
     1
175
     1
 42
1.0
 92
        8
 66
     8
424
  7895160
 43
1.0
 76
     1
 77
     6
 78
     2
 67
     7
 79
     5
170
     0
171
     0
290
     0
174
     0
 93
       13
 44
0.0
173
     0
291
     0
 45
0.0
  0
VISUALSTYLE
  5
1A7DA
102
{ACAD_REACTORS
330
1A7CD
102
}
330
1A7CD
100
AcDbVisualStyle
  2
Thicken
 70
    13
 71
     2
 72
     2
 73
     0
 90
        0
 40
-0.6
 41
-30.0
 62
     5
 63
     7
421
 16777215
 74
     1
 91
        4
 64
     7
 65
   257
 75
     1
175
     1
 42
1.0
 92
       12
 66
     7
 43
1.0
 76
     1
 77
     6
 78
     2
 67
     7
 79
     5
170
     0
171
     0
290
     0
174
     0
 93
        1
 44
0.0
173
     0
291
     1
 45
0.0
  0
DICTIONARYVAR
  5
1AA1B
102
{ACAD_REACTORS
330
1AA17
102
}
330
1AA17
100
DictionaryVariables
280
     0
  1
1:1
  0
DICTIONARYVAR
  5
1AA19
102
{ACAD_REACTORS
330
1AA17
102
}
330
1AA17
100
DictionaryVariables
280
     0
  1
STANDARD
  0
DICTIONARYVAR
  5
1AA18
102
{ACAD_REACTORS
330
1AA17
102
}
330
1AA17
100
DictionaryVariables
280
     0
  1
STANDARD
  0
DICTIONARYVAR
  5
1AA1D
102
{ACAD_REACTORS
330
1AA17
102
}
330
1AA17
100
DictionaryVariables
280
     0
  1
1
  0
DICTIONARYVAR
  5
1AA1E
102
{ACAD_REACTORS
330
1AA17
102
}
330
1AA17
100
DictionaryVariables
280
     0
  1
15
  0
DICTIONARYVAR
  5
1AA1C
102
{ACAD_REACTORS
330
1AA17
102
}
330
1AA17
100
DictionaryVariables
280
     0
  1
0
  0
DICTIONARYVAR
  5
1AA1A
102
{ACAD_REACTORS
330
1AA17
102
}
330
1AA17
100
DictionaryVariables
280
     0
  1
0
  0
DICTIONARY
  5
1A8BB
102
{ACAD_REACTORS
330
1A8B0
102
}
330
1A8B0
100
AcDbDictionary
281
     1
  0
DICTIONARY
  5
1A7BE
330
1A7BD
100
AcDbDictionary
280
     1
281
     1
  3
BUMPTILE
360
1A7C0
  3
DIFFUSETILE
360
1A7BF
  3
OPACITYTILE
360
1A7C3
  3
REFLECTIONTILE
360
1A7C2
  3
REFRACTIONTILE
360
1A7C4
  3
SPECULARTILE
360
1A7C1
  0
DICTIONARY
  5
1A7B6
330
1A7B5
100
AcDbDictionary
280
     1
281
     1
  3
BUMPTILE
360
1A7B8
  3
DIFFUSETILE
360
1A7B7
  3
OPACITYTILE
360
1A7BB
  3
REFLECTIONTILE
360
1A7BA
  3
REFRACTIONTILE
360
1A7BC
  3
SPECULARTILE
360
1A7B9
  0
DICTIONARY
  5
1A7C6
330
1A7C5
100
AcDbDictionary
280
     1
281
     1
  3
BUMPTILE
360
1A7C8
  3
DIFFUSETILE
360
1A7C7
  3
OPACITYTILE
360
1A7CB
  3
REFLECTIONTILE
360
1A7CA
  3
REFRACTIONTILE
360
1A7CC
  3
SPECULARTILE
360
1A7C9
  0
DICTIONARY
  5
1AA1F
330
1A810
100
AcDbDictionary
280
     1
281
     1
  3
ACAD_ROUNDTRIP_2008_TABLESTYLE_CELLSTYLEMAP
360
1AA20
  0
XRECORD
  5
1A7C0
102
{ACAD_REACTORS
330
1A7BE
102
}
330
1A7BE
100
AcDbXrecord
280
     1
270
     1
271
     1
  0
XRECORD
  5
1A7BF
102
{ACAD_REACTORS
330
1A7BE
102
}
330
1A7BE
100
AcDbXrecord
280
     1
270
     1
271
     1
  0
XRECORD
  5
1A7C3
102
{ACAD_REACTORS
330
1A7BE
102
}
330
1A7BE
100
AcDbXrecord
280
     1
270
     1
271
     1
  0
XRECORD
  5
1A7C2
102
{ACAD_REACTORS
330
1A7BE
102
}
330
1A7BE
100
AcDbXrecord
280
     1
270
     1
271
     1
  0
XRECORD
  5
1A7C4
102
{ACAD_REACTORS
330
1A7BE
102
}
330
1A7BE
100
AcDbXrecord
280
     1
270
     1
271
     1
  0
XRECORD
  5
1A7C1
102
{ACAD_REACTORS
330
1A7BE
102
}
330
1A7BE
100
AcDbXrecord
280
     1
270
     1
271
     1
  0
XRECORD
  5
1A7B8
102
{ACAD_REACTORS
330
1A7B6
102
}
330
1A7B6
100
AcDbXrecord
280
     1
270
     1
271
     1
  0
XRECORD
  5
1A7B7
102
{ACAD_REACTORS
330
1A7B6
102
}
330
1A7B6
100
AcDbXrecord
280
     1
270
     1
271
     1
  0
XRECORD
  5
1A7BB
102
{ACAD_REACTORS
330
1A7B6
102
}
330
1A7B6
100
AcDbXrecord
280
     1
270
     1
271
     1
  0
XRECORD
  5
1A7BA
102
{ACAD_REACTORS
330
1A7B6
102
}
330
1A7B6
100
AcDbXrecord
280
     1
270
     1
271
     1
  0
XRECORD
  5
1A7BC
102
{ACAD_REACTORS
330
1A7B6
102
}
330
1A7B6
100
AcDbXrecord
280
     1
270
     1
271
     1
  0
XRECORD
  5
1A7B9
102
{ACAD_REACTORS
330
1A7B6
102
}
330
1A7B6
100
AcDbXrecord
280
     1
270
     1
271
     1
  0
XRECORD
  5
1A7C8
102
{ACAD_REACTORS
330
1A7C6
102
}
330
1A7C6
100
AcDbXrecord
280
     1
270
     1
271
     1
  0
XRECORD
  5
1A7C7
102
{ACAD_REACTORS
330
1A7C6
102
}
330
1A7C6
100
AcDbXrecord
280
     1
270
     1
271
     1
  0
XRECORD
  5
1A7CB
102
{ACAD_REACTORS
330
1A7C6
102
}
330
1A7C6
100
AcDbXrecord
280
     1
270
     1
271
     1
  0
XRECORD
  5
1A7CA
102
{ACAD_REACTORS
330
1A7C6
102
}
330
1A7C6
100
AcDbXrecord
280
     1
270
     1
271
     1
  0
XRECORD
  5
1A7CC
102
{ACAD_REACTORS
330
1A7C6
102
}
330
1A7C6
100
AcDbXrecord
280
     1
270
     1
271
     1
  0
XRECORD
  5
1A7C9
102
{ACAD_REACTORS
330
1A7C6
102
}
330
1A7C6
100
AcDbXrecord
280
     1
270
     1
271
     1
  0
CELLSTYLEMAP
  5
1AA20
102
{ACAD_REACTORS
330
1AA1F
102
}
330
1AA1F
100
AcDbCellStyleMap
 90
        3
300
CELLSTYLE
  1
TABLEFORMAT_BEGIN
 90
        5
170
     1
 91
        0
 92
    32768
 62
   257
 93
        1
300
CONTENTFORMAT
  1
CONTENTFORMAT_BEGIN
 90
        0
 91
        0
 92
      512
 93
        0
300

 40
0.0
140
1.0
 94
        5
 62
     0
340
1A801
144
0.25
309
CONTENTFORMAT_END
171
     0
 94
        0
309
TABLEFORMAT_END
  1
CELLSTYLE_BEGIN
 90
        1
 91
        1
300
_TITLE
309
CELLSTYLE_END
300
CELLSTYLE
  1
TABLEFORMAT_BEGIN
 90
        5
170
     1
 91
        0
 92
        0
 62
   257
 93
        1
300
CONTENTFORMAT
  1
CONTENTFORMAT_BEGIN
 90
        0
 91
        0
 92
      512
 93
        0
300

 40
0.0
140
1.0
 94
        5
 62
     0
340
1A801
144
0.18
309
CONTENTFORMAT_END
171
     0
 94
        0
309
TABLEFORMAT_END
  1
CELLSTYLE_BEGIN
 90
        2
 91
        1
300
_HEADER
309
CELLSTYLE_END
300
CELLSTYLE
  1
TABLEFORMAT_BEGIN
 90
        5
170
     1
 91
        0
 92
        0
 62
   257
 93
        1
300
CONTENTFORMAT
  1
CONTENTFORMAT_BEGIN
 90
        0
 91
        0
 92
      512
 93
        0
300

 40
0.0
140
1.0
 94
        2
 62
     0
340
1A801
144
0.18
309
CONTENTFORMAT_END
171
     0
 94
        0
309
TABLEFORMAT_END
  1
CELLSTYLE_BEGIN
 90
        3
 91
        2
300
_DATA
309
CELLSTYLE_END
  0
ENDSEC
  0
EOF
