  0
SECTION
  2
HEADER
  9
$ACADVER
  1
AC1018
  9
$ACADMAINTVER
 70
   104
  9
$DWGCODEPAGE
  3
ANSI_1252
  9
$LASTSAVEDBY
  1
mstaweczny
  9
$INSBASE
 10
0.0
 20
0.0
 30
0.0
  9
$EXTMIN
 10
27199.58293248101
 20
23804.05929493972
 30
0.0
  9
$EXTMAX
 10
29066.75746548411
 20
24994.31963843341
 30
0.000000000001
  9
$LIMMIN
 10
0.0
 20
0.0
  9
$LIMMAX
 10
420.0
 20
297.0
  9
$ORTHOMODE
 70
     0
  9
$REGENMODE
 70
     1
  9
$FILLMODE
 70
     1
  9
$QTEXTMODE
 70
     0
  9
$MIRRTEXT
 70
     0
  9
$LTSCALE
 40
1.0
  9
$ATTMODE
 70
     1
  9
$TEXTSIZE
 40
2.5
  9
$TRACEWID
 40
1.0
  9
$TEXTSTYLE
  7
STANDARD
  9
$CLAYER
  8
0
  9
$CELTYPE
  6
ByLayer
  9
$CECOLOR
 62
   256
  9
$CELTSCALE
 40
1.0
  9
$DISPSILH
 70
     0
  9
$DIMSCALE
 40
1.0
  9
$DIMASZ
 40
0.12
  9
$DIMEXO
 40
0.05
  9
$DIMDLI
 40
0.5
  9
$DIMRND
 40
0.0
  9
$DIMDLE
 40
0.0
  9
$DIMEXE
 40
0.1
  9
$DIMTP
 40
0.1
  9
$DIMTM
 40
0.1
  9
$DIMTXT
 40
0.12
  9
$DIMCEN
 40
0.0
  9
$DIMTSZ
 40
0.0
  9
$DIMTOL
 70
     0
  9
$DIMLIM
 70
     0
  9
$DIMTIH
 70
     1
  9
$DIMTOH
 70
     1
  9
$DIMSE1
 70
     0
  9
$DIMSE2
 70
     0
  9
$DIMTAD
 70
     0
  9
$DIMZIN
 70
     7
  9
$DIMBLK
  1

  9
$DIMASO
 70
     1
  9
$DIMSHO
 70
     1
  9
$DIMPOST
  1

  9
$DIMAPOST
  1
mm
  9
$DIMALT
 70
     0
  9
$DIMALTD
 70
     2
  9
$DIMALTF
 40
25.4
  9
$DIMLFAC
 40
1.0
  9
$DIMTOFL
 70
     0
  9
$DIMTVP
 40
0.0
  9
$DIMTIX
 70
     0
  9
$DIMSOXD
 70
     0
  9
$DIMSAH
 70
     0
  9
$DIMBLK1
  1

  9
$DIMBLK2
  1

  9
$DIMSTYLE
  2
AM_ANSI
  9
$DIMCLRD
 70
   256
  9
$DIMCLRE
 70
   256
  9
$DIMCLRT
 70
   140
  9
$DIMTFAC
 40
0.71
  9
$DIMGAP
 40
0.06
  9
$DIMJUST
 70
     0
  9
$DIMSD1
 70
     0
  9
$DIMSD2
 70
     0
  9
$DIMTOLJ
 70
     1
  9
$DIMTZIN
 70
     7
  9
$DIMALTZ
 70
     0
  9
$DIMALTTZ
 70
     0
  9
$DIMUPT
 70
     0
  9
$DIMDEC
 70
     4
  9
$DIMTDEC
 70
     4
  9
$DIMALTU
 70
     2
  9
$DIMALTTD
 70
     4
  9
$DIMTXSTY
  7
STANDARD
  9
$DIMAUNIT
 70
     0
  9
$DIMADEC
 70
     0
  9
$DIMALTRND
 40
0.0
  9
$DIMAZIN
 70
     2
  9
$DIMDSEP
 70
    46
  9
$DIMATFIT
 70
     3
  9
$DIMFRAC
 70
     0
  9
$DIMLDRBLK
  1

  9
$DIMLUNIT
 70
     2
  9
$DIMLWD
 70
    -1
  9
$DIMLWE
 70
    -1
  9
$DIMTMOVE
 70
     0
  9
$LUNITS
 70
     2
  9
$LUPREC
 70
     2
  9
$SKETCHINC
 40
1.0
  9
$FILLETRAD
 40
2.5
  9
$AUNITS
 70
     0
  9
$AUPREC
 70
     0
  9
$MENU
  1
.
  9
$ELEVATION
 40
0.0
  9
$PELEVATION
 40
0.0
  9
$THICKNESS
 40
0.0
  9
$LIMCHECK
 70
     0
  9
$CHAMFERA
 40
2.5
  9
$CHAMFERB
 40
2.5
  9
$CHAMFERC
 40
0.0
  9
$CHAMFERD
 40
0.0
  9
$SKPOLY
 70
     0
  9
$TDCREATE
 40
2455251.642918206
  9
$TDUCREATE
 40
2455251.642918206
  9
$TDUPDATE
 40
2458493.662663368
  9
$TDUUPDATE
 40
2458493.662663368
  9
$TDINDWG
 40
0.0341063079
  9
$TDUSRTIMER
 40
0.0341062153
  9
$USRTIMER
 70
     1
  9
$ANGBASE
 50
0.0
  9
$ANGDIR
 70
     0
  9
$PDMODE
 70
     0
  9
$PDSIZE
 40
0.0
  9
$PLINEWID
 40
0.0
  9
$SPLFRAME
 70
     0
  9
$SPLINETYPE
 70
     6
  9
$SPLINESEGS
 70
     8
  9
$HANDSEED
  5
4A93F
  9
$SURFTAB1
 70
     6
  9
$SURFTAB2
 70
     6
  9
$SURFTYPE
 70
     6
  9
$SURFU
 70
     6
  9
$SURFV
 70
     6
  9
$UCSBASE
  2

  9
$UCSNAME
  2

  9
$UCSORG
 10
0.0
 20
0.0
 30
0.0
  9
$UCSXDIR
 10
1.0
 20
0.0
 30
0.0
  9
$UCSYDIR
 10
0.0
 20
1.0
 30
0.0
  9
$UCSORTHOREF
  2

  9
$UCSORTHOVIEW
 70
     0
  9
$UCSORGTOP
 10
0.0
 20
0.0
 30
0.0
  9
$UCSORGBOTTOM
 10
0.0
 20
0.0
 30
0.0
  9
$UCSORGLEFT
 10
0.0
 20
0.0
 30
0.0
  9
$UCSORGRIGHT
 10
0.0
 20
0.0
 30
0.0
  9
$UCSORGFRONT
 10
0.0
 20
0.0
 30
0.0
  9
$UCSORGBACK
 10
0.0
 20
0.0
 30
0.0
  9
$PUCSBASE
  2

  9
$PUCSNAME
  2

  9
$PUCSORG
 10
0.0
 20
0.0
 30
0.0
  9
$PUCSXDIR
 10
1.0
 20
0.0
 30
0.0
  9
$PUCSYDIR
 10
0.0
 20
1.0
 30
0.0
  9
$PUCSORTHOREF
  2

  9
$PUCSORTHOVIEW
 70
     0
  9
$PUCSORGTOP
 10
0.0
 20
0.0
 30
0.0
  9
$PUCSORGBOTTOM
 10
0.0
 20
0.0
 30
0.0
  9
$PUCSORGLEFT
 10
0.0
 20
0.0
 30
0.0
  9
$PUCSORGRIGHT
 10
0.0
 20
0.0
 30
0.0
  9
$PUCSORGFRONT
 10
0.0
 20
0.0
 30
0.0
  9
$PUCSORGBACK
 10
0.0
 20
0.0
 30
0.0
  9
$USERI1
 70
     0
  9
$USERI2
 70
     0
  9
$USERI3
 70
     0
  9
$USERI4
 70
     0
  9
$USERI5
 70
     0
  9
$USERR1
 40
0.0
  9
$USERR2
 40
0.0
  9
$USERR3
 40
0.0
  9
$USERR4
 40
0.0
  9
$USERR5
 40
0.0
  9
$WORLDVIEW
 70
     1
  9
$SHADEDGE
 70
     3
  9
$SHADEDIF
 70
    70
  9
$TILEMODE
 70
     1
  9
$MAXACTVP
 70
    64
  9
$PINSBASE
 10
0.0
 20
0.0
 30
0.0
  9
$PLIMCHECK
 70
     0
  9
$PEXTMIN
 10
1.000000000000000E+20
 20
1.000000000000000E+20
 30
1.000000000000000E+20
  9
$PEXTMAX
 10
-1.000000000000000E+20
 20
-1.000000000000000E+20
 30
-1.000000000000000E+20
  9
$PLIMMIN
 10
0.0
 20
0.0
  9
$PLIMMAX
 10
420.0
 20
297.0
  9
$UNITMODE
 70
     0
  9
$VISRETAIN
 70
     1
  9
$PLINEGEN
 70
     0
  9
$PSLTSCALE
 70
     1
  9
$TREEDEPTH
 70
  3020
  9
$CMLSTYLE
  2
Standard
  9
$CMLJUST
 70
     0
  9
$CMLSCALE
 40
1.0
  9
$PROXYGRAPHICS
 70
     1
  9
$MEASUREMENT
 70
     0
  9
$CELWEIGHT
370
    -1
  9
$ENDCAPS
280
     0
  9
$JOINSTYLE
280
     0
  9
$LWDISPLAY
290
     0
  9
$INSUNITS
 70
     0
  9
$HYPERLINKBASE
  1

  9
$STYLESHEET
  1

  9
$XEDIT
290
     1
  9
$CEPSNTYPE
380
     0
  9
$PSTYLEMODE
290
     1
  9
$FINGERPRINTGUID
  2
{38E07038-D91F-44CB-A890-0DDBB3892DD1}
  9
$VERSIONGUID
  2
{D72FA7DE-6127-418A-BB74-A99F82E3D91D}
  9
$EXTNAMES
290
     1
  9
$PSVPSCALE
 40
0.0
  9
$OLESTARTUP
290
     0
  9
$SORTENTS
280
   127
  9
$INDEXCTL
280
     0
  9
$HIDETEXT
280
     0
  9
$XCLIPFRAME
290
     0
  9
$HALOGAP
280
     0
  9
$OBSCOLOR
 70
   257
  9
$OBSLTYPE
280
     0
  9
$INTERSECTIONDISPLAY
280
     0
  9
$INTERSECTIONCOLOR
 70
   257
  9
$DIMASSOC
280
     1
  9
$PROJECTNAME
  1

  0
ENDSEC
  0
SECTION
  2
CLASSES
  0
CLASS
  1
ACDBDICTIONARYWDFLT
  2
AcDbDictionaryWithDefault
  3
ObjectDBX Classes
 90
        0
 91
        1
280
     0
281
     0
  0
CLASS
  1
MATERIAL
  2
AcDbMaterial
  3
ObjectDBX Classes
 90
     1153
 91
        3
280
     0
281
     0
  0
CLASS
  1
VISUALSTYLE
  2
AcDbVisualStyle
  3
ObjectDBX Classes
 90
     4095
 91
       16
280
     0
281
     0
  0
CLASS
  1
SCALE
  2
AcDbScale
  3
ObjectDBX Classes
 90
     1153
 91
       33
280
     0
281
     0
  0
CLASS
  1
TABLESTYLE
  2
AcDbTableStyle
  3
ObjectDBX Classes
 90
     4095
 91
        1
280
     0
281
     0
  0
CLASS
  1
MLEADERSTYLE
  2
AcDbMLeaderStyle
  3
ACDB_MLEADERSTYLE_CLASS
 90
     4095
 91
        1
280
     0
281
     0
  0
CLASS
  1
EXACXREFPANELOBJECT
  2
ExAcXREFPanelObject
  3
EXAC_ESW
 90
     1025
 91
        2
280
     0
281
     0
  0
CLASS
  1
NPOCOLLECTION
  2
AcDbImpNonPersistentObjectsCollection
  3
ObjectDBX Classes
 90
     1153
 91
        1
280
     0
281
     0
  0
CLASS
  1
DIMASSOC
  2
AcDbDimAssoc
  3
"AcDbDimAssoc|Product Desc:     AcDim ARX App For Dimension|Company:          Autodesk, Inc.|WEB Address:      www.autodesk.com"
 90
        0
 91
        7
280
     0
281
     0
  0
CLASS
  1
SORTENTSTABLE
  2
AcDbSortentsTable
  3
ObjectDBX Classes
 90
        0
 91
        0
280
     0
281
     0
  0
CLASS
  1
DICTIONARYVAR
  2
AcDbDictionaryVar
  3
ObjectDBX Classes
 90
        0
 91
       10
280
     0
281
     0
  0
CLASS
  1
CELLSTYLEMAP
  2
AcDbCellStyleMap
  3
ObjectDBX Classes
 90
     1152
 91
        2
280
     0
281
     0
  0
CLASS
  1
ACME_DOCUMENT
  2
AcMeDbDoc
  3
AcMeServices
 90
     1024
 91
        1
280
     0
281
     0
  0
CLASS
  1
ACMESCOPE
  2
AcMeScope
  3
AcMeServices
 90
     1024
 91
        1
280
     0
281
     0
  0
CLASS
  1
ACMECOMMANDHISTORY
  2
AcMeCommandHistory
  3
AcMeServices
 90
     1024
 91
        1
280
     0
281
     0
  0
CLASS
  1
ACIMSYSVARMAN
  2
AcImSysVarManager
  3
AcMeServices
 90
     1024
 91
        6
280
     0
281
     0
  0
CLASS
  1
ACIMINTSYSVAR
  2
AcImIntSysVar
  3
AcMeServices
 90
     1024
 91
       27
280
     0
281
     0
  0
CLASS
  1
ACMEDRAWINGMAN
  2
AcMeDrawingMan
  3
AcMeServices
 90
     1024
 91
        1
280
     0
281
     0
  0
CLASS
  1
ACMEVIEW
  2
AcMeView
  3
AcMeServices
 90
     1024
 91
        1
280
     0
281
     0
  0
CLASS
  1
ACDBENTITYCACHE
  2
AcMeEntityCache
  3
AcMeServices
 90
     1024
 91
        1
280
     0
281
     0
  0
CLASS
  1
GSMANAGER
  2
AcMeGSManager
  3
AcMeServices
 90
     1024
 91
        1
280
     0
281
     0
  0
CLASS
  1
AMDTINTERNALREACTOR
  2
AmdtInternalReactor
  3
AcMeServices
 90
     1024
 91
        2
280
     0
281
     0
  0
CLASS
  1
ACMESTATEMGR
  2
AcMeStateMgr
  3
AcMeServices
 90
     1024
 91
        1
280
     0
281
     0
  0
CLASS
  1
ACGREFMASTER
  2
AcGrefMaster
  3
AcAttribServices
 90
     1024
 91
        1
280
     0
281
     0
  0
CLASS
  1
AM_DRAWING_MGR
  2
AcDmDwgMgr
  3
AcMechDwgViewMgmt
 90
     1024
 91
        1
280
     0
281
     0
  0
CLASS
  1
AM_DWG_DOCUMENT
  2
AcDmDwgDocument
  3
AcMechDwgViewMgmt
 90
     1024
 91
        1
280
     0
281
     0
  0
CLASS
  1
AM_DWG_SHEET
  2
AcDmSheet
  3
AcMechDwgViewMgmt
 90
     1024
 91
        1
280
     0
281
     0
  0
CLASS
  1
AM_VIEWDIMPARMAP
  2
AcDmViewDimParMap
  3
AcMechDwgViewMgmt
 90
     1024
 91
        1
280
     0
281
     0
  0
CLASS
  1
ACIMREALSYSVAR
  2
AcImRealSysVar
  3
AcMeServices
 90
     1024
 91
        1
280
     0
281
     0
  0
CLASS
  1
AM_DWGMGR_NAME
  2
AcDmDwgMgrName
  3
AcMechDwgViewMgmt
 90
     1024
 91
        1
280
     0
281
     0
  0
CLASS
  1
ACME_DATABASE
  2
AcMeDbDatabase
  3
AcMeServices
 90
     1024
 91
        1
280
     0
281
     0
  0
CLASS
  1
ACRFINSADJUSTERMGR
  2
AcRfInsAdjusterMgr
  3
AcMeServices
 90
     1024
 91
        1
280
     0
281
     0
  0
CLASS
  1
ACGREFACADMASTER
  2
AcGrefacadMaster
  3
AcGrefServices
 90
     1024
 91
        1
280
     0
281
     0
  0
CLASS
  1
AMDTMENUSTATEMGR
  2
AmdtMenuStateMgr
  3
McadcomServices
 90
     1024
 91
        1
280
     0
281
     0
  0
CLASS
  1
AMDTMCOMMENUSTATE
  2
AmdtMcomMenuState
  3
McadcomServices
 90
     1024
 91
        1
280
     0
281
     0
  0
CLASS
  1
AMIMASTER
  2
AmiMaster
  3
AmiServices
 90
     1024
 91
        1
280
     0
281
     0
  0
CLASS
  1
AMGSETTINGSOBJ
  2
AmgSettingsObj
  3
"AcadM|Product Description: AutoCAD Mechanical|Company: Autodesk, Inc."
 90
     1024
 91
        2
280
     0
281
     0
  0
CLASS
  1
MAPIAMMOUDLE
  2
MApiAmModule
  3
MApiAmServices
 90
     1024
 91
        1
280
     0
281
     0
  0
CLASS
  1
ACIMSTRSYSVAR
  2
AcImStrSysVar
  3
AcMeServices
 90
     1024
 91
        6
280
     0
281
     0
  0
CLASS
  1
AMDTADMENUSTATE
  2
AmdtAdMenuState
  3
DesignerServices
 90
     1024
 91
        1
280
     0
281
     0
  0
CLASS
  1
ADAPPL
  2
AcAdAppl
  3
DesignerServices
 90
     1024
 91
        1
280
     0
281
     0
  0
CLASS
  1
DEPMGR
  2
AcAdDepMgr
  3
DesignerServices
 90
     1024
 91
        1
280
     0
281
     0
  0
CLASS
  1
PARAMMGR
  2
AcAdParamMgr
  3
DesignerServices
 90
     1024
 91
        1
280
     0
281
     0
  0
CLASS
  1
PARAMSCOPE
  2
AcAdParamScope
  3
DesignerServices
 90
     1024
 91
        1
280
     0
281
     0
  0
CLASS
  1
NAMEDAPPL
  2
AcAdNamedAppl
  3
DesignerServices
 90
     1024
 91
        1
280
     0
281
     0
  0
CLASS
  1
AMDTDMMENUSTATE
  2
AmdtDmMenuState
  3
AcMechDwgViewMgmt
 90
     1024
 91
        1
280
     0
281
     0
  0
CLASS
  1
AMDTAMMENUSTATE
  2
AmdtAmMenuState
  3
DesignerAssemblies
 90
     1024
 91
        1
280
     0
281
     0
  0
CLASS
  1
ACAMPROJECT
  2
AcAmProject
  3
DesignerAssemblies
 90
     1024
 91
        1
280
     0
281
     0
  0
CLASS
  1
ACAMGRCOMPDEF
  2
AcAmGrCompDef
  3
DesignerAssemblies
 90
     1024
 91
        1
280
     0
281
     0
  0
CLASS
  1
ACCMCONTEXT
  2
AcCmContext
  3
DesignerAssemblies
 90
     1024
 91
        1
280
     0
281
     0
  0
CLASS
  1
ACAMCOMPDEF
  2
AcAmCompDef
  3
DesignerAssemblies
 90
     1024
 91
        1
280
     0
281
     0
  0
CLASS
  1
ACAMCOMPDEFMGR
  2
AcAmCompDefMgr
  3
DesignerAssemblies
 90
     1024
 91
        1
280
     0
281
     0
  0
CLASS
  1
AMCONTEXTMGR
  2
AcAmContextMgr
  3
DesignerAssemblies
 90
     1024
 91
        1
280
     0
281
     0
  0
CLASS
  1
ACAMCONTEXTMODELER
  2
AcAmContextModeler
  3
DesignerAssemblies
 90
     1024
 91
        1
280
     0
281
     0
  0
CLASS
  1
ACMDATADICTIONARY
  2
AcmDataDictionary
  3
"AcmSymBB|Product Description: AutoCAD Mechanical|Company: Autodesk, Inc."
 90
     1024
 91
        1
280
     0
281
     0
  0
CLASS
  1
CATALOGSTATE
  2
AcAmCatalogState
  3
DesignerAssemblies
 90
     1024
 91
        1
280
     0
281
     0
  0
CLASS
  1
ACAMGRCOMPDEFSET
  2
AcAmGrCompDefSet
  3
DesignerAssemblies
 90
     1024
 91
        1
280
     0
281
     0
  0
CLASS
  1
AMDTBROWSERDBTAB
  2
AmdtBrowserDbTab
  3
McadcomServices
 90
     1024
 91
        1
280
     0
281
     0
  0
CLASS
  1
CBROWSERAPPOBJECT
  2
CBrowserAppObject
  3
McadcomServices
 90
     1024
 91
        3
280
     0
281
     0
  0
CLASS
  1
DM_PLACEHOLDER
  2
AcDmSelsetPlaceholder
  3
AcMechDwgViewMgmt
 90
     1024
 91
        1
280
     0
281
     0
  0
CLASS
  1
ACMSTANDARDANSI
  2
AcmStandardANSI
  3
"Amdt_StdImp|Product Description: AutoCAD Mechanical|Company: Autodesk, Inc."
 90
     1024
 91
        1
280
     0
281
     0
  0
CLASS
  1
ACMSURFSTANDARDANSI
  2
AcmSurfTextStdANSI
  3
"Amdt_StdImp|Product Description: AutoCAD Mechanical|Company: Autodesk, Inc."
 90
     1024
 91
        1
280
     0
281
     0
  0
CLASS
  1
ACMFCFSTANDARDANSI
  2
AcmFCFStdANSI
  3
"Amdt_StdImp|Product Description: AutoCAD Mechanical|Company: Autodesk, Inc."
 90
     1024
 91
        1
280
     0
281
     0
  0
CLASS
  1
ACMWELDSTANDARDANSI
  2
AcmWeldingStdANSI
  3
"Amdt_StdImp|Product Description: AutoCAD Mechanical|Company: Autodesk, Inc."
 90
     1024
 91
        1
280
     0
281
     0
  0
CLASS
  1
ACMIDSTANDARDANSI
  2
AcmIdStdANSI
  3
"Amdt_StdImp|Product Description: AutoCAD Mechanical|Company: Autodesk, Inc."
 90
     1024
 91
        1
280
     0
281
     0
  0
CLASS
  1
ACMDATUMSTANDARDANSI
  2
AcmDatumStdANSI
  3
"Amdt_StdImp|Product Description: AutoCAD Mechanical|Company: Autodesk, Inc."
 90
     1024
 91
        1
280
     0
281
     0
  0
CLASS
  1
ACMBOMSTANDARDANSI
  2
AcmBOMStdANSI
  3
"Amdt_StdImp|Product Description: AutoCAD Mechanical|Company: Autodesk, Inc."
 90
     1024
 91
        1
280
     0
281
     0
  0
CLASS
  1
ACMDETAILSTANDARDANSI
  2
AmdtDetailSymStdANSI
  3
"Amdt_StdImp|Product Description: AutoCAD Mechanical|Company: Autodesk, Inc."
 90
     1024
 91
        1
280
     0
281
     0
  0
CLASS
  1
ACMSECTIONSTANDARDANSI
  2
AmdtSectionSymStdANSI
  3
"Amdt_StdImp|Product Description: AutoCAD Mechanical|Company: Autodesk, Inc."
 90
     1024
 91
        1
280
     0
281
     0
  0
CLASS
  1
ACMCENTERLINESTANDARDANSI
  2
AmdtCenterLineStdANSI
  3
"Amdt_StdImp|Product Description: AutoCAD Mechanical|Company: Autodesk, Inc."
 90
     1024
 91
        1
280
     0
281
     0
  0
CLASS
  1
ACMTHREADLINESTANDARDANSI
  2
AmdtThreadLineStdANSI
  3
"Amdt_StdImp|Product Description: AutoCAD Mechanical|Company: Autodesk, Inc."
 90
     1024
 91
        1
280
     0
281
     0
  0
CLASS
  1
ACMNOTESTANDARDANSI
  2
AmdtNoteStdANSI
  3
"Amdt_StdImp|Product Description: AutoCAD Mechanical|Company: Autodesk, Inc."
 90
     1024
 91
        1
280
     0
281
     0
  0
CLASS
  1
ACMTAPERSTANDARDANSI
  2
AcmTaperStdANSI
  3
"Amdt_StdImp|Product Description: AutoCAD Mechanical|Company: Autodesk, Inc."
 90
     1024
 91
        1
280
     0
281
     0
  0
CLASS
  1
ACMANOOTATIONVIEWSTANDARDANSI
  2
AmdtAnViewStdANSI
  3
"Amdt_StdImp|Product Description: AutoCAD Mechanical|Company: Autodesk, Inc."
 90
     1024
 91
        1
280
     0
281
     0
  0
CLASS
  1
ACAMGLAYSTD
  2
AcAmgLayStd
  3
"AmgLay|Product Description: AutoCAD Mechanical|Company: Autodesk, Inc."
 90
     1024
 91
        1
280
     0
281
     0
  0
CLASS
  1
ACAMGDIMSTD
  2
AcAmgDimStd
  3
"AmgDim|Product Description: AutoCAD Mechanical|Company: Autodesk, Inc."
 90
     1024
 91
        1
280
     0
281
     0
  0
CLASS
  1
AMGOBJPROPCFG
  2
AmgObjPropCfg
  3
"AmgLay|Product Description: AutoCAD Mechanical|Company: Autodesk, Inc."
 90
     1025
 91
        1
280
     0
281
     0
  0
CLASS
  1
ACAMGHOLECHARTSTDANSI
  2
AcAmgHoleChartStdANSI
  3
AmgDim|Product Description: AutoCAD Mechanical|Company: Autodesk, Inc.
 90
     1024
 91
        1
280
     0
281
     0
  0
CLASS
  1
ACAMGTITLESTD
  2
AcAmgTitleStd
  3
"AmgTitle|Product Description: AutoCAD Mechanical|Company: Autodesk, Inc."
 90
     4095
 91
        1
280
     0
281
     0
  0
CLASS
  1
AMDTNOTETEMPLATEDB
  2
AmdtNoteTemplateDB
  3
AcmSymBB|Product Description: AutoCAD Mechanical|Company: Autodesk, Inc.
 90
     1024
 91
        6
280
     0
281
     0
  0
CLASS
  1
ACAMGFILTERDAT
  2
AcAmgFilterDat
  3
"AcadM|Product Description: AutoCAD Mechanical|Company: Autodesk, Inc."
 90
     1024
 91
        6
280
     0
281
     0
  0
ENDSEC
  0
SECTION
  2
TABLES
  0
TABLE
  2
VPORT
  5
4A623
330
0
100
AcDbSymbolTable
 70
     1
  0
VPORT
  5
4A693
330
4A623
100
AcDbSymbolTableRecord
100
AcDbViewportTableRecord
  2
*ACTIVE
 70
     0
 10
0.0
 20
0.0
 11
1.0
 21
1.0
 12
28595.54768273546
 22
23869.86787652516
 13
0.0
 23
0.0
 14
2.5
 24
2.5
 15
10.0
 25
10.0
 16
0.0
 26
0.0
 36
1.0
 17
0.0
 27
0.0
 37
0.0
 40
1976.106313423552
 41
1.607277289836888
 42
50.0
 43
0.0
 44
0.0
 50
0.0
 51
0.0
 71
     0
 72
  1000
 73
     1
 74
     3
 75
     0
 76
     0
 77
     0
 78
     0
281
     0
 65
     0
110
0.0
120
0.0
130
0.0
111
1.0
121
0.0
131
0.0
112
0.0
122
1.0
132
0.0
 79
     0
146
0.0
  0
ENDTAB
  0
TABLE
  2
LTYPE
  5
4A620
330
0
100
AcDbSymbolTable
 70
    17
  0
LTYPE
  5
4A67D
330
4A620
100
AcDbSymbolTableRecord
100
AcDbLinetypeTableRecord
  2
ByBlock
 70
     0
  3

 72
    65
 73
     0
 40
0.0
  0
LTYPE
  5
4A67E
330
4A620
100
AcDbSymbolTableRecord
100
AcDbLinetypeTableRecord
  2
ByLayer
 70
     0
  3

 72
    65
 73
     0
 40
0.0
  0
LTYPE
  5
4A67F
330
4A620
100
AcDbSymbolTableRecord
100
AcDbLinetypeTableRecord
  2
CONTINUOUS
 70
     0
  3
Solid line
 72
    65
 73
     0
 40
0.0
  0
LTYPE
  5
4A694
330
4A620
100
AcDbSymbolTableRecord
100
AcDbLinetypeTableRecord
  2
DASHED2
 70
     0
  3
Dashed (.5x) _ _ _ _ _ _ _ _ _ _ _ _ _ _ _ _ _
 72
    65
 73
     2
 40
9.524999999999996
 49
6.349999999999997
 74
     0
 49
-3.174999999999998
 74
     0
  0
LTYPE
  5
4A8B5
330
4A620
100
AcDbSymbolTableRecord
100
AcDbLinetypeTableRecord
  2
HIDDEN
 70
     0
  3
Hidden __ __ __ __ __ __ __ __ __ __ __ __ __ _
 72
    65
 73
     2
 40
0.375
 49
0.25
 74
     0
 49
-0.125
 74
     0
  0
LTYPE
  5
4A8B6
330
4A620
100
AcDbSymbolTableRecord
100
AcDbLinetypeTableRecord
  2
PHANTOM2
 70
     0
  3
Phantom (.5x) ___ _ _ ___ _ _ ___ _ _ ___ _ _
 72
    65
 73
     6
 40
1.25
 49
0.625
 74
     0
 49
-0.125
 74
     0
 49
0.125
 74
     0
 49
-0.125
 74
     0
 49
0.125
 74
     0
 49
-0.125
 74
     0
  0
LTYPE
  5
4A8B7
330
4A620
100
AcDbSymbolTableRecord
100
AcDbLinetypeTableRecord
  2
CENTER
 70
     0
  3
Center ____ _ ____ _ ____ _ ____ _ ____ _ ____
 72
    65
 73
     4
 40
2.0
 49
1.25
 74
     0
 49
-0.25
 74
     0
 49
0.25
 74
     0
 49
-0.25
 74
     0
  0
LTYPE
  5
4A8FB
330
4A620
100
AcDbSymbolTableRecord
100
AcDbLinetypeTableRecord
  2
AM_ISO02W050
 70
     0
  3
__ __ __ __ __ __ __ __ __ __ __ __ __ __ __
 72
    65
 73
     2
 40
7.5
 49
6.0
 74
     0
 49
-1.5
 74
     0
  0
LTYPE
  5
4A8FC
330
4A620
100
AcDbSymbolTableRecord
100
AcDbLinetypeTableRecord
  2
AM_ISO08W050
 70
     0
  3
____ . ____ . ____ . ____ . ____ . ____ . ____
 72
    65
 73
     4
 40
18.0
 49
12.0
 74
     0
 49
-1.5
 74
     0
 49
3.0
 74
     0
 49
-1.5
 74
     0
  0
LTYPE
  5
4A8FD
330
4A620
100
AcDbSymbolTableRecord
100
AcDbLinetypeTableRecord
  2
AM_ISO09W050
 70
     0
  3
_____ . . _____ . . _____ . . ____ .. ____
 72
    65
 73
     6
 40
22.5
 49
12.0
 74
     0
 49
-1.5
 74
     0
 49
3.0
 74
     0
 49
-1.5
 74
     0
 49
3.0
 74
     0
 49
-1.5
 74
     0
  0
LTYPE
  5
4A8FE
330
4A620
100
AcDbSymbolTableRecord
100
AcDbLinetypeTableRecord
  2
Amconstr
 70
     0
  3
_______________________
 72
    65
 73
     2
 40
9999.0
 49
9999.0
 74
     0
 49
0.0
 74
     0
  0
LTYPE
  5
4A8FF
330
4A620
100
AcDbSymbolTableRecord
100
AcDbLinetypeTableRecord
  2
AM_ISO08W050x2
 70
     0
  3
__ . __ . __ . __ . __ . __
 72
    65
 73
     4
 40
9.0
 49
6.0
 74
     0
 49
-0.75
 74
     0
 49
1.5
 74
     0
 49
-0.75
 74
     0
  0
LTYPE
  5
4A900
330
4A620
100
AcDbSymbolTableRecord
100
AcDbLinetypeTableRecord
  2
AM_ISO02W050x2
 70
     0
  3
 _ _ _ _ _ _ _ _ _ _ _ _
 72
    65
 73
     2
 40
3.75
 49
3.0
 74
     0
 49
-0.75
 74
     0
  0
LTYPE
  5
4A903
330
4A620
100
AcDbSymbolTableRecord
100
AcDbLinetypeTableRecord
  2
Amzigzag
 70
     0
  3
/\/-/\/-/\/-/\/-/\/-/\/
 72
    65
 73
     2
 40
11.0001
 49
0.0001
 74
     4
 75
   136
340
4A902
 46
0.04
 50
0.0
 44
0.0
 45
0.0
 49
-11.0
 74
     0
  0
LTYPE
  5
4A904
330
4A620
100
AcDbSymbolTableRecord
100
AcDbLinetypeTableRecord
  2
CENTER2
 70
     0
  3
Center (.5x) ___ _ ___ _ ___ _ ___ _ ___ _ ___
 72
    65
 73
     4
 40
1.125
 49
0.75
 74
     0
 49
-0.125
 74
     0
 49
0.125
 74
     0
 49
-0.125
 74
     0
  0
LTYPE
  5
4A905
330
4A620
100
AcDbSymbolTableRecord
100
AcDbLinetypeTableRecord
  2
HIDDEN2
 70
     0
  3
Hidden (.5x) _ _ _ _ _ _ _ _ _ _ _ _ _ _ _ _ _
 72
    65
 73
     2
 40
0.1875
 49
0.125
 74
     0
 49
-0.0625
 74
     0
  0
LTYPE
  5
4A906
330
4A620
100
AcDbSymbolTableRecord
100
AcDbLinetypeTableRecord
  2
Amzigzag2
 70
     0
  3
/\/-/\/-/\/-/\/-/\/-/\/
 72
    65
 73
     2
 40
0.4401
 49
0.0001
 74
     4
 75
   136
340
4A902
 46
0.0016
 50
0.0
 44
0.0
 45
0.0
 49
-0.4400000000000001
 74
     0
  0
LTYPE
  5
4A914
330
4A620
100
AcDbSymbolTableRecord
100
AcDbLinetypeTableRecord
  2
ACANSTGB
 70
     0
  3
__ . . __ . .
 72
    65
 73
     6
 40
0.35433070866
 49
0.15748031496
 74
     0
 49
-0.03937007874
 74
     0
 49
0.03937007874
 74
     0
 49
-0.03937007874
 74
     0
 49
0.03937007874
 74
     0
 49
-0.03937007874
 74
     0
  0
LTYPE
  5
4A915
330
4A620
100
AcDbSymbolTableRecord
100
AcDbLinetypeTableRecord
  2
ACANSTGL
 70
     0
  3
_ _ _ _ _
 72
    65
 73
     2
 40
0.11811023622
 49
0.07874015748
 74
     0
 49
-0.03937007874
 74
     0
  0
ENDTAB
  0
TABLE
  2
LAYER
  5
4A61D
102
{ACAD_XDICTIONARY
360
4A72E
102
}
330
0
100
AcDbSymbolTable
 70
     8
  0
LAYER
  5
4A677
102
{ACAD_XDICTIONARY
360
4A865
102
}
330
4A61D
100
AcDbSymbolTableRecord
100
AcDbLayerTableRecord
  2
0
 70
     0
 62
     7
  6
CONTINUOUS
370
    -3
390
4A62A
  0
LAYER
  5
4A695
102
{ACAD_XDICTIONARY
360
4A867
102
}
330
4A61D
100
AcDbSymbolTableRecord
100
AcDbLayerTableRecord
  2
LAYER1
 70
     0
 62
     1
  6
CONTINUOUS
370
    -3
390
4A62A
  0
LAYER
  5
4A696
330
4A61D
100
AcDbSymbolTableRecord
100
AcDbLayerTableRecord
  2
DEFPOINTS
 70
     0
 62
     7
  6
CONTINUOUS
290
     0
370
    -3
390
4A62A
  0
LAYER
  5
4A697
102
{ACAD_XDICTIONARY
360
4A869
102
}
330
4A61D
100
AcDbSymbolTableRecord
100
AcDbLayerTableRecord
  2
DIMS_SPECS
 70
     0
 62
    41
  6
CONTINUOUS
370
    -3
390
4A62A
  0
LAYER
  5
4A698
102
{ACAD_XDICTIONARY
360
4A86B
102
}
330
4A61D
100
AcDbSymbolTableRecord
100
AcDbLayerTableRecord
  2
CUTOUT
 70
     0
 62
    60
  6
CONTINUOUS
370
    -3
390
4A62A
  0
LAYER
  5
4A723
102
{ACAD_XDICTIONARY
360
4A86D
102
}
330
4A61D
100
AcDbSymbolTableRecord
100
AcDbLayerTableRecord
  2
DIMS SPECS
 70
     0
 62
    41
  6
CONTINUOUS
370
    35
390
4A62A
  0
LAYER
  5
4A724
102
{ACAD_XDICTIONARY
360
4A86F
102
}
330
4A61D
100
AcDbSymbolTableRecord
100
AcDbLayerTableRecord
  2
sink_specs
 70
     0
 62
   254
  6
CONTINUOUS
370
    35
390
4A62A
1001
ACAECLAYERSTANDARD
1000

1000

  0
LAYER
  5
4A725
102
{ACAD_XDICTIONARY
360
4A871
102
}
330
4A61D
100
AcDbSymbolTableRecord
100
AcDbLayerTableRecord
  2
sink_brouchure
 70
     0
 62
   124
  6
CONTINUOUS
370
    50
390
4A62A
1001
ACAECLAYERSTANDARD
1000

1000

  0
ENDTAB
  0
TABLE
  2
STYLE
  5
4A61E
330
0
100
AcDbSymbolTable
 70
     8
  0
STYLE
  5
4A678
330
4A61E
100
AcDbSymbolTableRecord
100
AcDbTextStyleTableRecord
  2
STANDARD
 70
     0
 40
0.0
 41
1.0
 50
0.0
 71
     0
 42
2.5
  3
ISOCP.SHX
  4

  0
STYLE
  5
4A67C
330
4A61E
100
AcDbSymbolTableRecord
100
AcDbTextStyleTableRecord
  2
Annotative
 70
     0
 40
0.0
 41
1.0
 50
0.0
 71
     0
 42
0.2
  3
txt
  4

1001
ACADANNOTATIVE
1000
AnnotativeData
1002
{
1070
     1
1070
     1
1002
}
  0
STYLE
  5
4A699
330
4A61E
100
AcDbSymbolTableRecord
100
AcDbTextStyleTableRecord
  2
ACISOTS
 70
     0
 40
1.0
 41
1.0
 50
0.0
 71
     0
 42
2.5
  3
isocp.shx
  4

  0
STYLE
  5
4A69A
330
4A61E
100
AcDbSymbolTableRecord
100
AcDbTextStyleTableRecord
  2
ABODE-ISO
 70
     0
 40
17.0
 41
0.9
 50
0.0
 71
     0
 42
0.2
  3
txt
  4

  0
STYLE
  5
4A726
330
4A61E
100
AcDbSymbolTableRecord
100
AcDbTextStyleTableRecord
  2
SLDTEXTSTYLE0
 70
     0
 40
0.0
 41
0.75
 50
0.0
 71
     0
 42
0.2
  3
TXT
  4

  0
STYLE
  5
4A902
330
4A61E
100
AcDbSymbolTableRecord
100
AcDbTextStyleTableRecord
  2

 70
     1
 40
0.0
 41
1.0
 50
0.0
 71
     0
 42
2.5
  3
genltshp.shx
  4

  0
STYLE
  5
4A912
330
4A61E
100
AcDbSymbolTableRecord
100
AcDbTextStyleTableRecord
  2
ACANSTS
 70
     0
 40
1.0
 41
1.0
 50
0.0
 71
     0
 42
2.5
  3
romans.shx
  4

  0
STYLE
  5
4A913
330
4A61E
100
AcDbSymbolTableRecord
100
AcDbTextStyleTableRecord
  2
ACANSGDT
 70
     0
 40
0.0
 41
1.0
 50
0.0
 71
     0
 42
2.5
  3
amgdt.shx
  4

  0
ENDTAB
  0
TABLE
  2
VIEW
  5
4A621
330
0
100
AcDbSymbolTable
 70
     0
  0
ENDTAB
  0
TABLE
  2
UCS
  5
4A622
330
0
100
AcDbSymbolTable
 70
     0
  0
ENDTAB
  0
TABLE
  2
APPID
  5
4A624
330
0
100
AcDbSymbolTable
 70
    26
  0
APPID
  5
4A679
330
4A624
100
AcDbSymbolTableRecord
100
AcDbRegAppTableRecord
  2
ACAD
 70
     0
  0
APPID
  5
4A680
330
4A624
100
AcDbSymbolTableRecord
100
AcDbRegAppTableRecord
  2
ACADANNOTATIVE
 70
     0
  0
APPID
  5
4A68A
330
4A624
100
AcDbSymbolTableRecord
100
AcDbRegAppTableRecord
  2
ACAD_MLEADERVER
 70
     0
  0
APPID
  5
4A69B
330
4A624
100
AcDbSymbolTableRecord
100
AcDbRegAppTableRecord
  2
MCAD_NO_VIS
 70
     0
  0
APPID
  5
4A69C
330
4A624
100
AcDbSymbolTableRecord
100
AcDbRegAppTableRecord
  2
ACAD_TEMP_GRAPHIC
 70
     0
  0
APPID
  5
4A69D
330
4A624
100
AcDbSymbolTableRecord
100
AcDbRegAppTableRecord
  2
AD_DRAW
 70
     0
  0
APPID
  5
4A69E
330
4A624
100
AcDbSymbolTableRecord
100
AcDbRegAppTableRecord
  2
ACATTRIBSERVICES
 70
     0
  0
APPID
  5
4A69F
330
4A624
100
AcDbSymbolTableRecord
100
AcDbRegAppTableRecord
  2
DESIGNERASSEMBLIES
 70
     0
  0
APPID
  5
4A6A0
330
4A624
100
AcDbSymbolTableRecord
100
AcDbRegAppTableRecord
  2
ACADM_DIM_EDIT
 70
     0
  0
APPID
  5
4A6A1
330
4A624
100
AcDbSymbolTableRecord
100
AcDbRegAppTableRecord
  2
AMDT_DM_ADJ
 70
     0
  0
APPID
  5
4A6A2
330
4A624
100
AcDbSymbolTableRecord
100
AcDbRegAppTableRecord
  2
ACAD_DSTYLE_DIMJOGGED_JOGA
 70
     0
  0
APPID
  5
4A6A3
330
4A624
100
AcDbSymbolTableRecord
100
AcDbRegAppTableRecord
  2
ACAECLAYERSTANDARD
 70
     0
  0
APPID
  5
4A6A4
330
4A624
100
AcDbSymbolTableRecord
100
AcDbRegAppTableRecord
  2
ACAD_PSEXT
 70
     0
  0
APPID
  5
4A6A5
330
4A624
100
AcDbSymbolTableRecord
100
AcDbRegAppTableRecord
  2
ACAD_DSTYLE_DIMJAG
 70
     0
  0
APPID
  5
4A6A6
330
4A624
100
AcDbSymbolTableRecord
100
AcDbRegAppTableRecord
  2
ACAD_DSTYLE_DIMTALN
 70
     0
  0
APPID
  5
4A6A7
330
4A624
100
AcDbSymbolTableRecord
100
AcDbRegAppTableRecord
  2
GENIUS_GENODEF_13
 70
     0
  0
APPID
  5
4A6A8
330
4A624
100
AcDbSymbolTableRecord
100
AcDbRegAppTableRecord
  2
ACAD_DSTYLE_DIMINSPECT
 70
     0
  0
APPID
  5
4A6A9
330
4A624
100
AcDbSymbolTableRecord
100
AcDbRegAppTableRecord
  2
GENIUS_GENREC_14
 70
     0
  0
APPID
  5
4A6AA
330
4A624
100
AcDbSymbolTableRecord
100
AcDbRegAppTableRecord
  2
GENIUS_GENOBJ-N-REC_13
 70
     0
  0
APPID
  5
4A6AB
330
4A624
100
AcDbSymbolTableRecord
100
AcDbRegAppTableRecord
  2
ACAD_DSTYLE_DIMRADIAL_EXTENSION
 70
     0
  0
APPID
  5
4A6AC
330
4A624
100
AcDbSymbolTableRecord
100
AcDbRegAppTableRecord
  2
ACAD_DSTYLE_DIMBREAK
 70
     0
  0
APPID
  5
4A6CF
330
4A624
100
AcDbSymbolTableRecord
100
AcDbRegAppTableRecord
  2
ACAD_EXEMPT_FROM_CAD_STANDARDS
 70
     0
  0
APPID
  5
4A939
330
4A624
100
AcDbSymbolTableRecord
100
AcDbRegAppTableRecord
  2
ACAD_DSTYLE_DIMARC_LENGTH_SYMBOL
 70
     0
  0
APPID
  5
4A93A
330
4A624
100
AcDbSymbolTableRecord
100
AcDbRegAppTableRecord
  2
ACAD_DSTYLE_DIM_LINETYPE
 70
     0
  0
APPID
  5
4A93B
330
4A624
100
AcDbSymbolTableRecord
100
AcDbRegAppTableRecord
  2
ACAD_DSTYLE_DIM_EXT1_LINETYPE
 70
     0
  0
APPID
  5
4A93C
330
4A624
100
AcDbSymbolTableRecord
100
AcDbRegAppTableRecord
  2
ACAD_DSTYLE_DIM_EXT2_LINETYPE
 70
     0
  0
ENDTAB
  0
TABLE
  2
DIMSTYLE
  5
4A625
330
0
100
AcDbSymbolTable
 70
    16
100
AcDbDimStyleTable
 71
     1
340
4A8F9
  0
DIMSTYLE
105
4A67A
330
4A625
100
AcDbSymbolTableRecord
100
AcDbDimStyleTableRecord
  2
STANDARD
 70
     0
271
     2
272
     2
279
     2
284
     8
285
     8
286
     8
340
4A678
  0
DIMSTYLE
105
4A67B
330
4A625
100
AcDbSymbolTableRecord
100
AcDbDimStyleTableRecord
  2
Annotative
 70
     0
340
4A678
1001
ACADANNOTATIVE
1000
AnnotativeData
1002
{
1070
     1
1070
     1
1002
}
  0
DIMSTYLE
105
4A6AD
330
4A625
100
AcDbSymbolTableRecord
100
AcDbDimStyleTableRecord
  2
AM_ISO
 70
     0
  4
"
 41
3.5
 42
1.0
 43
10.0
 44
1.0
 47
0.1
 48
0.1
 73
     0
 74
     0
 77
     1
 78
     8
140
3.5
141
0.0
143
0.0393701
146
0.71
147
1.5
172
     1
176
   256
177
   256
178
     2
271
     2
272
     2
279
     2
284
     8
285
     8
286
     8
340
4A678
  0
DIMSTYLE
105
4A727
330
4A625
100
AcDbSymbolTableRecord
100
AcDbDimStyleTableRecord
  2
ISO-25
 70
     0
 41
2.5
 42
0.625
 43
3.75
 44
1.25
 73
     0
 74
     0
 77
     1
 78
     8
140
2.5
141
2.5
143
0.03937007874016
147
0.625
171
     3
172
     1
271
     2
272
     2
274
     3
278
    44
283
     0
284
     8
340
4A678
  0
DIMSTYLE
105
4A728
330
4A625
100
AcDbSymbolTableRecord
100
AcDbDimStyleTableRecord
  2
abode-iso
 70
     0
 40
10.0
 41
1.25
 42
1.5
 43
6.0
 44
0.0
 45
0.00000001
 46
10.0
 77
     1
 78
    12
 79
     3
140
17.0
143
0.03937
147
0.75
171
     3
172
     1
176
   256
177
   256
178
   256
271
     0
272
     0
274
     3
340
4A69A
342
4A6B4
371
    25
372
    25
1001
ACAD_DSTYLE_DIMJAG
1070
   388
1040
1.5
1001
ACAD_DSTYLE_DIMTALN
1070
   392
1070
     0
  0
DIMSTYLE
105
4A729
102
{ACAD_REACTORS
330
4A782
330
4A79B
102
}
330
4A625
100
AcDbSymbolTableRecord
100
AcDbDimStyleTableRecord
  2
abode-iso$4
 70
     0
 40
10.0
 41
1.25
 42
1.5
 43
6.0
 44
0.0
 45
0.00000001
 46
10.0
 77
     1
 78
    12
 79
     3
140
17.0
143
0.03937
147
0.75
171
     3
172
     1
176
   256
177
   256
178
   256
271
     0
272
     0
274
     3
340
4A69A
342
4A6B4
371
    25
372
    25
1001
ACAD_DSTYLE_DIMBREAK
1070
   391
1040
3.75
1001
ACAD_DSTYLE_DIMJAG
1070
   388
1040
1.5
1001
ACAD_DSTYLE_DIMTALN
1070
   392
1070
     0
  0
DIMSTYLE
105
4A72A
102
{ACAD_REACTORS
330
4A77B
330
4A77E
330
4A78F
330
4A792
330
4A795
102
}
330
4A625
100
AcDbSymbolTableRecord
100
AcDbDimStyleTableRecord
  2
abode-iso$0
 70
     0
 40
10.0
 41
1.25
 42
1.5
 43
6.0
 44
0.0
 45
0.00000001
 46
10.0
 77
     1
 78
    12
 79
     3
140
17.0
143
0.03937
147
0.75
171
     3
172
     1
176
   256
177
   256
178
   256
271
     0
272
     0
274
     3
340
4A69A
342
4A6B4
371
    25
372
    25
1001
ACAD_DSTYLE_DIMJAG
1070
   388
1040
1.5
1001
ACAD_DSTYLE_DIMTALN
1070
   392
1070
     0
  0
DIMSTYLE
105
4A72B
330
4A625
100
AcDbSymbolTableRecord
100
AcDbDimStyleTableRecord
  2
SLDDIMSTYLE0
 70
     0
 41
3.301999999999998
 44
0.0
 45
0.000000001
 73
     0
 77
     1
 78
    12
140
3.5
144
8.0
147
0.875
173
     1
271
     2
272
     2
284
    12
340
4A726
  0
DIMSTYLE
105
4A72C
330
4A625
100
AcDbSymbolTableRecord
100
AcDbDimStyleTableRecord
  2
SLDDIMSTYLE1
 70
     0
 41
3.301999999999998
 44
0.0
 45
0.000000001
 73
     0
 77
     1
 78
    12
140
3.5
144
8.0
147
0.875
173
     1
271
     2
272
     2
284
    12
340
4A726
  0
DIMSTYLE
105
4A72D
330
4A625
100
AcDbSymbolTableRecord
100
AcDbDimStyleTableRecord
  2
SLDDIMSTYLE3
 70
     0
 41
3.301999999999998
 44
0.0
 45
0.000000001
 73
     0
 77
     1
 78
    12
140
3.5
144
8.0
147
0.875
173
     1
271
     2
272
     2
284
    12
340
4A726
  0
DIMSTYLE
105
4A8F9
102
{ACAD_REACTORS
330
4A8E9
102
}
330
4A625
100
AcDbSymbolTableRecord
100
AcDbDimStyleTableRecord
  2
AM_ANSI
 70
     0
  4
mm
 41
0.12
 42
0.05
 43
0.5
 44
0.1
 47
0.1
 48
0.1
 78
     7
 79
     2
140
0.12
141
0.0
146
0.71
147
0.06
176
   256
177
   256
178
   140
274
     4
284
     7
340
4A678
371
    -1
372
    -1
1001
ACAD_DSTYLE_DIMARC_LENGTH_SYMBOL
1070
   379
1070
     1
1001
ACAD_DSTYLE_DIM_LINETYPE
1070
   380
1005
4A67D
1001
ACAD_DSTYLE_DIM_EXT1_LINETYPE
1070
   381
1005
4A67D
1001
ACAD_DSTYLE_DIM_EXT2_LINETYPE
1070
   382
1005
4A67D
  0
DIMSTYLE
105
4A907
330
4A625
100
AcDbSymbolTableRecord
100
AcDbDimStyleTableRecord
  2
AM_ANSI$3
 70
     0
  4
mm
 41
0.12
 42
0.05
 43
0.5
 44
0.1
 47
0.1
 48
0.1
 78
     7
 79
     2
140
0.12
141
0.0
146
0.71
147
0.06
176
   256
177
   256
178
   140
274
     4
284
     7
288
     1
289
     0
340
4A678
371
    -1
372
    -1
1001
ACAD_DSTYLE_DIMARC_LENGTH_SYMBOL
1070
   379
1070
     1
1001
ACAD_DSTYLE_DIM_LINETYPE
1070
   380
1005
4A67D
1001
ACAD_DSTYLE_DIM_EXT1_LINETYPE
1070
   381
1005
4A67D
1001
ACAD_DSTYLE_DIM_EXT2_LINETYPE
1070
   382
1005
4A67D
  0
DIMSTYLE
105
4A908
330
4A625
100
AcDbSymbolTableRecord
100
AcDbDimStyleTableRecord
  2
AM_ANSI$4
 70
     0
  4
mm
 41
0.12
 42
0.05
 43
0.5
 44
0.1
 47
0.1
 48
0.1
 78
     7
 79
     2
140
0.12
141
0.0
146
0.71
147
0.06
176
   256
177
   256
178
   140
274
     4
284
     7
340
4A678
371
    -1
372
    -1
1001
ACAD_DSTYLE_DIMARC_LENGTH_SYMBOL
1070
   379
1070
     1
1001
ACAD_DSTYLE_DIM_LINETYPE
1070
   380
1005
4A67D
1001
ACAD_DSTYLE_DIM_EXT1_LINETYPE
1070
   381
1005
4A67D
1001
ACAD_DSTYLE_DIM_EXT2_LINETYPE
1070
   382
1005
4A67D
  0
DIMSTYLE
105
4A909
330
4A625
100
AcDbSymbolTableRecord
100
AcDbDimStyleTableRecord
  2
AM_ANSI$7
 70
     0
  4
mm
 41
0.12
 42
0.05
 43
0.5
 44
0.1
 47
0.1
 48
0.1
 78
     7
 79
     2
140
0.12
141
0.0
146
0.71
147
0.06
176
   256
177
   256
178
   140
274
     4
284
     7
340
4A678
371
    -1
372
    -1
1001
ACAD_DSTYLE_DIMARC_LENGTH_SYMBOL
1070
   379
1070
     1
1001
ACAD_DSTYLE_DIM_LINETYPE
1070
   380
1005
4A67D
1001
ACAD_DSTYLE_DIM_EXT1_LINETYPE
1070
   381
1005
4A67D
1001
ACAD_DSTYLE_DIM_EXT2_LINETYPE
1070
   382
1005
4A67D
  0
DIMSTYLE
105
4A90A
330
4A625
100
AcDbSymbolTableRecord
100
AcDbDimStyleTableRecord
  2
AM_ANSI$SF
 70
     0
  4
mm
 41
0.12
 42
0.05
 43
0.5
 44
0.1
 47
0.1
 48
0.1
 75
     1
 76
     1
 78
     7
 79
     2
140
0.12
141
0.0
146
0.71
147
0.06
176
   256
177
   256
178
   140
274
     4
284
     7
340
4A678
371
    -1
372
    -1
1001
ACAD_DSTYLE_DIMARC_LENGTH_SYMBOL
1070
   379
1070
     1
1001
ACAD_DSTYLE_DIM_LINETYPE
1070
   380
1005
4A67D
1001
ACAD_DSTYLE_DIM_EXT1_LINETYPE
1070
   381
1005
4A67D
1001
ACAD_DSTYLE_DIM_EXT2_LINETYPE
1070
   382
1005
4A67D
  0
DIMSTYLE
105
4A90F
330
4A625
100
AcDbSymbolTableRecord
100
AcDbDimStyleTableRecord
  2
AM_ANSI$SH
 70
     0
  4
mm
 41
0.12
 42
0.05
 43
0.5
 44
0.1
 47
0.1
 48
0.1
 75
     1
 76
     1
 78
     7
 79
     2
140
0.12
141
0.0
146
0.71
147
0.06
173
     1
176
   256
177
   256
178
   140
274
     4
284
     7
340
4A678
343
4A90B
371
    -1
372
    -1
1001
ACAD_DSTYLE_DIMARC_LENGTH_SYMBOL
1070
   379
1070
     1
1001
ACAD_DSTYLE_DIM_LINETYPE
1070
   380
1005
4A67D
1001
ACAD_DSTYLE_DIM_EXT1_LINETYPE
1070
   381
1005
4A67D
1001
ACAD_DSTYLE_DIM_EXT2_LINETYPE
1070
   382
1005
4A67D
  0
ENDTAB
  0
TABLE
  2
BLOCK_RECORD
  5
4A61C
330
0
100
AcDbSymbolTable
 70
    30
  0
BLOCK_RECORD
  5
4A68F
330
4A61C
100
AcDbSymbolTableRecord
100
AcDbBlockTableRecord
  2
*Model_Space
340
4A692
  0
BLOCK_RECORD
  5
4A68B
330
4A61C
100
AcDbSymbolTableRecord
100
AcDbBlockTableRecord
  2
*Paper_Space
340
4A68E
  0
BLOCK_RECORD
  5
4A6B0
330
4A61C
100
AcDbSymbolTableRecord
100
AcDbBlockTableRecord
  2
$MODEL_SPACE
340
0
  0
BLOCK_RECORD
  5
4A6B2
330
4A61C
100
AcDbSymbolTableRecord
100
AcDbBlockTableRecord
  2
$PAPER_SPACE
340
0
  0
BLOCK_RECORD
  5
4A6B4
330
4A61C
100
AcDbSymbolTableRecord
100
AcDbBlockTableRecord
  2
FILLED-1
340
0
102
{BLKREFS
331
46C51
331
46C52
331
46C5E
331
46C68
331
46C69
331
46C74
331
46C75
331
4A6D6
331
4A6D7
331
4A6E3
331
4A6E4
331
4A6F0
331
4A6F9
331
4A6FA
331
4A706
331
4A707
331
4A712
331
4A713
331
4A71F
331
4A81D
331
4A81E
331
4A827
331
4A828
331
4A837
331
4A838
331
4A841
331
4A842
331
4A84A
331
4A84B
331
4A85B
331
4A862
102
}
  0
BLOCK_RECORD
  5
4A6B6
330
4A61C
100
AcDbSymbolTableRecord
100
AcDbBlockTableRecord
  2
*D3
340
0
  0
BLOCK_RECORD
  5
4A6B8
330
4A61C
100
AcDbSymbolTableRecord
100
AcDbBlockTableRecord
  2
*U4
340
0
102
{BLKREFS
331
46C53
102
}
  0
BLOCK_RECORD
  5
4A6BA
330
4A61C
100
AcDbSymbolTableRecord
100
AcDbBlockTableRecord
  2
*D5
340
0
  0
BLOCK_RECORD
  5
4A6BC
330
4A61C
100
AcDbSymbolTableRecord
100
AcDbBlockTableRecord
  2
*U6
340
0
102
{BLKREFS
331
46C5C
102
}
  0
BLOCK_RECORD
  5
4A6BE
330
4A61C
100
AcDbSymbolTableRecord
100
AcDbBlockTableRecord
  2
*D7
340
0
  0
BLOCK_RECORD
  5
4A6C0
330
4A61C
100
AcDbSymbolTableRecord
100
AcDbBlockTableRecord
  2
*U8
340
0
102
{BLKREFS
331
46C6A
102
}
  0
BLOCK_RECORD
  5
4A6C2
330
4A61C
100
AcDbSymbolTableRecord
100
AcDbBlockTableRecord
  2
*D9
340
0
  0
BLOCK_RECORD
  5
4A6C4
330
4A61C
100
AcDbSymbolTableRecord
100
AcDbBlockTableRecord
  2
*U10
340
0
102
{BLKREFS
331
46C76
102
}
  0
BLOCK_RECORD
  5
4A6C6
330
4A61C
100
AcDbSymbolTableRecord
100
AcDbBlockTableRecord
  2
*U11
340
0
  0
BLOCK_RECORD
  5
4A6C8
330
4A61C
100
AcDbSymbolTableRecord
100
AcDbBlockTableRecord
  2
*U12
340
0
  0
BLOCK_RECORD
  5
4A6CA
330
4A61C
100
AcDbSymbolTableRecord
100
AcDbBlockTableRecord
  2
*U13
340
0
102
{BLKREFS
331
46C49
102
}
  0
BLOCK_RECORD
  5
4A6D1
330
4A61C
100
AcDbSymbolTableRecord
100
AcDbBlockTableRecord
  2
*D14
340
0
  0
BLOCK_RECORD
  5
4A6DD
330
4A61C
100
AcDbSymbolTableRecord
100
AcDbBlockTableRecord
  2
*D15
340
0
  0
BLOCK_RECORD
  5
4A6EA
330
4A61C
100
AcDbSymbolTableRecord
100
AcDbBlockTableRecord
  2
*D16
340
0
  0
BLOCK_RECORD
  5
4A6F4
330
4A61C
100
AcDbSymbolTableRecord
100
AcDbBlockTableRecord
  2
*D17
340
0
  0
BLOCK_RECORD
  5
4A700
330
4A61C
100
AcDbSymbolTableRecord
100
AcDbBlockTableRecord
  2
*D18
340
0
  0
BLOCK_RECORD
  5
4A70D
330
4A61C
100
AcDbSymbolTableRecord
100
AcDbBlockTableRecord
  2
*D19
340
0
  0
BLOCK_RECORD
  5
4A719
330
4A61C
100
AcDbSymbolTableRecord
100
AcDbBlockTableRecord
  2
*D20
340
0
  0
BLOCK_RECORD
  5
4A79E
330
4A61C
100
AcDbSymbolTableRecord
100
AcDbBlockTableRecord
  2
*D21
340
0
  0
BLOCK_RECORD
  5
4A7AA
330
4A61C
100
AcDbSymbolTableRecord
100
AcDbBlockTableRecord
  2
*D22
340
0
  0
BLOCK_RECORD
  5
4A7B7
330
4A61C
100
AcDbSymbolTableRecord
100
AcDbBlockTableRecord
  2
*D23
340
0
  0
BLOCK_RECORD
  5
4A7C1
330
4A61C
100
AcDbSymbolTableRecord
100
AcDbBlockTableRecord
  2
*D24
340
0
  0
BLOCK_RECORD
  5
4A7CD
330
4A61C
100
AcDbSymbolTableRecord
100
AcDbBlockTableRecord
  2
*D25
340
0
  0
BLOCK_RECORD
  5
4A7DA
330
4A61C
100
AcDbSymbolTableRecord
100
AcDbBlockTableRecord
  2
*D26
340
0
  0
BLOCK_RECORD
  5
4A7E6
330
4A61C
100
AcDbSymbolTableRecord
100
AcDbBlockTableRecord
  2
*D27
340
0
  0
BLOCK_RECORD
  5
4A90B
330
4A61C
100
AcDbSymbolTableRecord
100
AcDbBlockTableRecord
  2
GENAXEH
340
0
  0
ENDTAB
  0
ENDSEC
  0
SECTION
  2
BLOCKS
  0
BLOCK
  5
4A690
330
4A68F
100
AcDbEntity
  8
0
100
AcDbBlockBegin
  2
*Model_Space
 70
     0
 10
0.0
 20
0.0
 30
0.0
  3
*Model_Space
  1

  0
ENDBLK
  5
4A691
330
4A68F
100
AcDbEntity
  8
0
100
AcDbBlockEnd
  0
BLOCK
  5
4A68C
330
4A68B
100
AcDbEntity
 67
     1
  8
0
100
AcDbBlockBegin
  2
*Paper_Space
 70
     0
 10
0.0
 20
0.0
 30
0.0
  3
*Paper_Space
  1

  0
ENDBLK
  5
4A68D
330
4A68B
100
AcDbEntity
 67
     1
  8
0
100
AcDbBlockEnd
  0
BLOCK
  5
4A6B1
330
4A6B0
100
AcDbEntity
  8
0
100
AcDbBlockBegin
  2
$MODEL_SPACE
 70
     0
 10
0.0
 20
0.0
 30
0.0
  3
$MODEL_SPACE
  1

  0
ENDBLK
  5
498D8
330
4A6B0
100
AcDbEntity
  8
0
100
AcDbBlockEnd
  0
BLOCK
  5
4A6B3
330
4A6B2
100
AcDbEntity
  8
0
100
AcDbBlockBegin
  2
$PAPER_SPACE
 70
     0
 10
0.0
 20
0.0
 30
0.0
  3
$PAPER_SPACE
  1

  0
ENDBLK
  5
498D4
330
4A6B2
100
AcDbEntity
  8
0
100
AcDbBlockEnd
  0
BLOCK
  5
4A6B5
330
4A6B4
100
AcDbEntity
  8
0
100
AcDbBlockBegin
  2
FILLED-1
 70
     0
 10
0.0
 20
0.0
 30
0.0
  3
FILLED-1
  1

  0
LINE
  5
13A
330
4A6B4
100
AcDbEntity
  8
0
 62
     0
100
AcDbLine
 10
-1.0
 20
0.0
 30
0.0
 11
0.0
 21
0.0
 31
0.0
  0
LWPOLYLINE
  5
13B
330
4A6B4
100
AcDbEntity
  8
0
 62
     0
100
AcDbPolyline
 90
        4
 70
   128
 43
0.0
 10
-1.0
 20
-0.3333333333333333
 10
0.0
 20
0.0
 10
-1.0
 20
0.3333333333333333
 10
-1.0
 20
-0.3333333333333333
  0
SOLID
  5
141
330
4A6B4
100
AcDbEntity
  8
0
 62
     0
100
AcDbTrace
 10
-1.0
 20
-0.3333333333333333
 30
0.0
 11
0.0
 21
0.0
 31
0.0
 12
-1.0
 22
0.3333333333333333
 32
0.0
 13
-1.0
 23
-0.3333333333333333
 33
0.0
  0
LINE
  5
142
330
4A6B4
100
AcDbEntity
  8
0
 62
     0
100
AcDbLine
 10
-1.0
 20
-0.3333333333333333
 30
0.0
 11
0.0
 21
0.0
 31
0.0
  0
LINE
  5
143
330
4A6B4
100
AcDbEntity
  8
0
 62
     0
100
AcDbLine
 10
0.0
 20
0.0
 30
0.0
 11
-1.0
 21
0.3333333333333333
 31
0.0
  0
LINE
  5
144
330
4A6B4
100
AcDbEntity
  8
0
 62
     0
100
AcDbLine
 10
-1.0
 20
0.3333333333333333
 30
0.0
 11
-1.0
 21
-0.3333333333333333
 31
0.0
  0
ENDBLK
  5
145
330
4A6B4
100
AcDbEntity
  8
0
100
AcDbBlockEnd
  0
BLOCK
  5
4A6B7
330
4A6B6
100
AcDbEntity
  8
0
100
AcDbBlockBegin
  2
*D3
 70
     1
 10
0.0
 20
0.0
 30
0.0
  3
*D3
  1

  0
LINE
  5
46C4E
330
4A6B6
100
AcDbEntity
  8
DIMS_SPECS
100
AcDbLine
 10
27697.50966347372
 20
23868.95820333854
 30
0.0
 11
27697.50966347372
 21
23779.56217227326
 31
0.0
  0
LINE
  5
46C4F
330
4A6B6
100
AcDbEntity
  8
DIMS_SPECS
100
AcDbLine
 10
28658.50966347372
 20
23868.95820333854
 30
0.0
 11
28658.50966347372
 21
23779.56217227326
 31
0.0
  0
LINE
  5
46C50
330
4A6B6
100
AcDbEntity
  8
DIMS_SPECS
100
AcDbLine
 10
27710.00966347372
 20
23779.56217227326
 30
0.0
 11
28646.00966347372
 21
23779.56217227326
 31
0.0
  0
INSERT
  5
46C51
330
4A6B6
100
AcDbEntity
  8
DIMS_SPECS
100
AcDbBlockReference
  2
FILLED-1
 10
27697.50966347372
 20
23779.56217227326
 30
0.0
 41
12.5
 42
12.5
 43
12.5
 50
180.0
  0
INSERT
  5
46C52
330
4A6B6
100
AcDbEntity
  8
DIMS_SPECS
100
AcDbBlockReference
  2
FILLED-1
 10
28658.50966347372
 20
23779.56217227326
 30
0.0
 41
12.5
 42
12.5
 43
12.5
  0
INSERT
  5
46C53
330
4A6B6
100
AcDbEntity
  8
0
100
AcDbBlockReference
  2
*U4
 10
0.0
 20
0.0
 30
0.0
  0
POINT
  5
46C54
330
4A6B6
100
AcDbEntity
  8
DEFPOINTS
 62
     0
100
AcDbPoint
 10
27697.50966347372
 20
23883.95820333854
 30
0.0
  0
POINT
  5
46C55
330
4A6B6
100
AcDbEntity
  8
DEFPOINTS
 62
     0
100
AcDbPoint
 10
28658.50966347372
 20
23883.95820333854
 30
0.0
  0
POINT
  5
46C56
330
4A6B6
100
AcDbEntity
  8
DEFPOINTS
 62
     0
100
AcDbPoint
 10
28658.50966347372
 20
23779.56217227326
 30
0.0
  0
ENDBLK
  5
46C4D
330
4A6B6
100
AcDbEntity
  8
0
100
AcDbBlockEnd
  0
BLOCK
  5
4A6B9
330
4A6B8
100
AcDbEntity
  8
0
100
AcDbBlockBegin
  2
*U4
 70
     1
 10
0.0
 20
0.0
 30
0.0
  3
*U4
  1

  0
TEXT
  5
496D0
330
4A6B8
100
AcDbEntity
  8
DIMS_SPECS
100
AcDbText
 10
28154.71041126434
 20
23787.70357268115
 30
0.0
 40
17.0
  1
961
 41
0.9
  7
ABODE-ISO
100
AcDbText
  0
ENDBLK
  5
496D2
330
4A6B8
100
AcDbEntity
  8
0
100
AcDbBlockEnd
  0
BLOCK
  5
4A6BB
330
4A6BA
100
AcDbEntity
  8
0
100
AcDbBlockBegin
  2
*D5
 70
     1
 10
0.0
 20
0.0
 30
0.0
  3
*D5
  1

  0
LINE
  5
46C5A
330
4A6BA
100
AcDbEntity
  8
DIMS_SPECS
100
AcDbLine
 10
28743.65619706137
 20
23817.54140504033
 30
0.0
 11
28702.24865117421
 21
23817.54140504033
 31
0.0
  0
LINE
  5
46C5B
330
4A6BA
100
AcDbEntity
  8
DIMS_SPECS
100
AcDbLine
 10
28702.24865117421
 20
23817.54140504033
 30
0.0
 11
28661.19506323108
 21
23866.68991078979
 31
0.0
  0
INSERT
  5
46C5C
330
4A6BA
100
AcDbEntity
  8
0
100
AcDbBlockReference
  2
*U6
 10
0.0
 20
0.0
 30
0.0
  0
LINE
  5
46C5D
330
4A6BA
100
AcDbEntity
  8
DIMS_SPECS
100
AcDbLine
 10
28646.77091429777
 20
23883.95820333857
 30
0.0
 11
28653.18164715703
 21
23876.28340665021
 31
0.0
  0
INSERT
  5
46C5E
330
4A6BA
100
AcDbEntity
  8
DIMS_SPECS
100
AcDbBlockReference
  2
FILLED-1
 10
28653.18164715703
 20
23876.28340665021
 30
0.0
 41
12.5
 42
12.5
 43
12.5
 50
129.8718983619246
  0
POINT
  5
46C5F
330
4A6BA
100
AcDbEntity
  8
DEFPOINTS
 62
     0
100
AcDbPoint
 10
28653.18164715703
 20
23876.28340665021
 30
0.0
  0
POINT
  5
46C60
330
4A6BA
100
AcDbEntity
  8
DEFPOINTS
 62
     0
100
AcDbPoint
 10
28646.77091429777
 20
23883.95820333857
 30
0.0
  0
ENDBLK
  5
46C59
330
4A6BA
100
AcDbEntity
  8
0
100
AcDbBlockEnd
  0
BLOCK
  5
4A6BD
330
4A6BC
100
AcDbEntity
  8
0
100
AcDbBlockBegin
  2
*U6
 70
     1
 10
0.0
 20
0.0
 30
0.0
  3
*U6
  1

  0
TEXT
  5
496D4
330
4A6BC
100
AcDbEntity
  8
DIMS_SPECS
100
AcDbText
 10
28707.80364777516
 20
23825.6828054482
 30
0.0
 40
17.0
  1
R10
 41
0.9
  7
ABODE-ISO
100
AcDbText
  0
ENDBLK
  5
496D6
330
4A6BC
100
AcDbEntity
  8
0
100
AcDbBlockEnd
  0
BLOCK
  5
4A6BF
330
4A6BE
100
AcDbEntity
  8
0
100
AcDbBlockBegin
  2
*D7
 70
     1
 10
0.0
 20
0.0
 30
0.0
  3
*D7
  1

  0
LINE
  5
46C64
330
4A6BE
100
AcDbEntity
  8
DIMS_SPECS
100
AcDbLine
 10
28661.77091429772
 20
23873.95820333854
 30
0.0
 11
28693.74868833494
 21
23873.95820333854
 31
0.0
  0
LINE
  5
46C65
330
4A6BE
100
AcDbEntity
  8
DIMS_SPECS
100
AcDbLine
 10
28661.77091429772
 20
24364.95820333854
 30
0.0
 11
28693.74868833494
 21
24364.95820333854
 31
0.0
  0
LINE
  5
46C66
330
4A6BE
100
AcDbEntity
  8
DIMS_SPECS
100
AcDbLine
 10
28693.74868833494
 20
23886.45820333854
 30
0.0
 11
28693.74868833494
 21
24095.5306030666
 31
0.0
  0
LINE
  5
46C67
330
4A6BE
100
AcDbEntity
  8
DIMS_SPECS
100
AcDbLine
 10
28693.74868833494
 20
24352.45820333854
 30
0.0
 11
28693.74868833494
 21
24128.38580361045
 31
0.0
  0
INSERT
  5
46C68
330
4A6BE
100
AcDbEntity
  8
DIMS_SPECS
100
AcDbBlockReference
  2
FILLED-1
 10
28693.74868833494
 20
23873.95820333854
 30
0.0
 41
12.5
 42
12.5
 43
12.5
 50
270.0
  0
INSERT
  5
46C69
330
4A6BE
100
AcDbEntity
  8
DIMS_SPECS
100
AcDbBlockReference
  2
FILLED-1
 10
28693.74868833494
 20
24364.95820333854
 30
0.0
 41
12.5
 42
12.5
 43
12.5
 50
90.0
  0
INSERT
  5
46C6A
330
4A6BE
100
AcDbEntity
  8
0
100
AcDbBlockReference
  2
*U8
 10
0.0
 20
0.0
 30
0.0
  0
POINT
  5
46C6B
330
4A6BE
100
AcDbEntity
  8
DEFPOINTS
 62
     0
100
AcDbPoint
 10
28646.77091429772
 20
23873.95820333854
 30
0.0
  0
POINT
  5
46C6C
330
4A6BE
100
AcDbEntity
  8
DEFPOINTS
 62
     0
100
AcDbPoint
 10
28646.77091429772
 20
24364.95820333854
 30
0.0
  0
POINT
  5
46C6D
330
4A6BE
100
AcDbEntity
  8
DEFPOINTS
 62
     0
100
AcDbPoint
 10
28693.74868833494
 20
24364.95820333854
 30
0.0
  0
ENDBLK
  5
46C63
330
4A6BE
100
AcDbEntity
  8
0
100
AcDbBlockEnd
  0
BLOCK
  5
4A6C1
330
4A6C0
100
AcDbEntity
  8
0
100
AcDbBlockBegin
  2
*U8
 70
     1
 10
0.0
 20
0.0
 30
0.0
  3
*U8
  1

  0
TEXT
  5
496D8
330
4A6C0
100
AcDbEntity
  8
DIMS_SPECS
100
AcDbText
 10
28678.19906223024
 20
24103.6720034745
 30
0.0
 40
17.0
  1
491
 41
0.9
  7
ABODE-ISO
100
AcDbText
  0
ENDBLK
  5
496DA
330
4A6C0
100
AcDbEntity
  8
0
100
AcDbBlockEnd
  0
BLOCK
  5
4A6C3
330
4A6C2
100
AcDbEntity
  8
0
100
AcDbBlockBegin
  2
*D9
 70
     1
 10
0.0
 20
0.0
 30
0.0
  3
*D9
  1

  0
LINE
  5
46C71
330
4A6C2
100
AcDbEntity
  8
DIMS_SPECS
100
AcDbLine
 10
27697.50966347372
 20
23868.95820333854
 30
0.0
 11
27697.50966347372
 21
23826.59369289194
 31
0.0
  0
LINE
  5
46C72
330
4A6C2
100
AcDbEntity
  8
DIMS_SPECS
100
AcDbLine
 10
28142.50966347374
 20
23858.95820333854
 30
0.0
 11
28142.50966347374
 21
23826.59369289194
 31
0.0
  0
LINE
  5
46C73
330
4A6C2
100
AcDbEntity
  8
DIMS_SPECS
100
AcDbLine
 10
27710.00966347372
 20
23826.59369289194
 30
0.0
 11
28130.00966347375
 21
23826.59369289194
 31
0.0
  0
INSERT
  5
46C74
330
4A6C2
100
AcDbEntity
  8
DIMS_SPECS
100
AcDbBlockReference
  2
FILLED-1
 10
27697.50966347372
 20
23826.59369289194
 30
0.0
 41
12.5
 42
12.5
 43
12.5
 50
180.0
  0
INSERT
  5
46C75
330
4A6C2
100
AcDbEntity
  8
DIMS_SPECS
100
AcDbBlockReference
  2
FILLED-1
 10
28142.50966347374
 20
23826.59369289194
 30
0.0
 41
12.5
 42
12.5
 43
12.5
  0
INSERT
  5
46C76
330
4A6C2
100
AcDbEntity
  8
0
100
AcDbBlockReference
  2
*U10
 10
0.0
 20
0.0
 30
0.0
  0
POINT
  5
46C77
330
4A6C2
100
AcDbEntity
  8
DEFPOINTS
 62
     0
100
AcDbPoint
 10
27697.50966347372
 20
23883.95820333854
 30
0.0
  0
POINT
  5
46C78
330
4A6C2
100
AcDbEntity
  8
DEFPOINTS
 62
     0
100
AcDbPoint
 10
28142.50966347374
 20
23873.95820333854
 30
0.0
  0
POINT
  5
46C79
330
4A6C2
100
AcDbEntity
  8
DEFPOINTS
 62
     0
100
AcDbPoint
 10
28142.50966347374
 20
23826.59369289194
 30
0.0
  0
ENDBLK
  5
46C70
330
4A6C2
100
AcDbEntity
  8
0
100
AcDbBlockEnd
  0
BLOCK
  5
4A6C5
330
4A6C4
100
AcDbEntity
  8
0
100
AcDbBlockBegin
  2
*U10
 70
     1
 10
0.0
 20
0.0
 30
0.0
  3
*U10
  1

  0
TEXT
  5
496DC
330
4A6C4
100
AcDbEntity
  8
DIMS_SPECS
100
AcDbText
 10
27902.49943233845
 20
23834.73509329983
 30
0.0
 40
17.0
  1
445
 41
0.9
  7
ABODE-ISO
100
AcDbText
  0
ENDBLK
  5
496DE
330
4A6C4
100
AcDbEntity
  8
0
100
AcDbBlockEnd
  0
BLOCK
  5
4A6C7
330
4A6C6
100
AcDbEntity
  8
0
100
AcDbBlockBegin
  2
*U11
 70
     1
 10
0.0
 20
0.0
 30
0.0
  3
*U11
  1

  0
TEXT
  5
496A4
330
4A6C6
100
AcDbEntity
  8
CUTOUT
100
AcDbText
 10
27997.34157707748
 20
24169.80436654411
 30
0.0
 40
40.0
  1
BOWL(S),
100
AcDbText
  0
TEXT
  5
496A5
330
4A6C6
100
AcDbEntity
  8
CUTOUT
100
AcDbText
 10
27937.34157707748
 20
24103.13769987745
 30
0.0
 40
40.0
  1
OVERFLOW,
100
AcDbText
  0
TEXT
  5
496A6
330
4A6C6
100
AcDbEntity
  8
CUTOUT
100
AcDbText
 10
27963.34157707748
 20
24036.47103321078
 30
0.0
 40
40.0
  1
TAP AREA
100
AcDbText
  0
ENDBLK
  5
496A8
330
4A6C6
100
AcDbEntity
  8
0
100
AcDbBlockEnd
  0
BLOCK
  5
4A6C9
330
4A6C8
100
AcDbEntity
  8
0
100
AcDbBlockBegin
  2
*U12
 70
     1
 10
0.0
 20
0.0
 30
0.0
  3
*U12
  1

  0
TEXT
  5
496B3
330
4A6C8
100
AcDbEntity
  8
CUTOUT
100
AcDbText
 10
27986.57776733651
 20
24383.62587610703
 30
0.0
 40
40.0
  1
INSET CUT OUT
100
AcDbText
  0
ENDBLK
  5
496B5
330
4A6C8
100
AcDbEntity
  8
0
100
AcDbBlockEnd
  0
BLOCK
  5
4A6CB
330
4A6CA
100
AcDbEntity
  8
0
100
AcDbBlockBegin
  2
*U13
 70
     1
 10
0.0
 20
0.0
 30
0.0
  3
*U13
  1

  0
TEXT
  5
496B7
330
4A6CA
100
AcDbEntity
  8
0
 62
     1
100
AcDbText
 10
27216.85780347565
 20
24224.0366160831
 30
0.0
 40
8.0
  1
All details are provided in good faith and
  7
ACISOTS
100
AcDbText
  0
TEXT
  5
496B8
330
4A6CA
100
AcDbEntity
  8
0
 62
     1
100
AcDbText
 10
27198.40980347565
 20
24210.70328274976
 30
0.0
 40
8.0
  1
within
  7
ACISOTS
100
AcDbText
  0
TEXT
  5
496B9
330
4A6CA
100
AcDbEntity
  8
0
 62
     1
100
AcDbText
 10
27234.38080347565
 20
24197.36994941644
 30
0.0
 40
8.0
  1
the tolerances of the manufacturing process.
  7
ACISOTS
100
AcDbText
  0
TEXT
  5
496BA
330
4A6CA
100
AcDbEntity
  8
0
 62
     1
100
AcDbText
 10
27199.71460347565
 20
24184.03661608311
 30
0.0
 40
8.0
  1
Note: the dimensions on ceramic fireclay
  7
ACISOTS
100
AcDbText
  0
TEXT
  5
496BB
330
4A6CA
100
AcDbEntity
  8
0
 62
     1
100
AcDbText
 10
27198.40980347565
 20
24170.70328274978
 30
0.0
 40
8.0
  1
products
  7
ACISOTS
100
AcDbText
  0
TEXT
  5
496BC
330
4A6CA
100
AcDbEntity
  8
0
 62
     1
100
AcDbText
 10
27201.23840347565
 20
24157.36994941644
 30
0.0
 40
8.0
  1
are subject to wider tolerances due to the
  7
ACISOTS
100
AcDbText
  0
TEXT
  5
496BD
330
4A6CA
100
AcDbEntity
  8
0
 62
     1
100
AcDbText
 10
27198.40980347565
 20
24144.03661608311
 30
0.0
 40
8.0
  1
nature
  7
ACISOTS
100
AcDbText
  0
TEXT
  5
496BE
330
4A6CA
100
AcDbEntity
  8
0
 62
     1
100
AcDbText
 10
27222.95280347565
 20
24130.70328274978
 30
0.0
 40
8.0
  1
of this natural material and the firing
  7
ACISOTS
100
AcDbText
  0
TEXT
  5
496BF
330
4A6CA
100
AcDbEntity
  8
0
 62
     1
100
AcDbText
 10
27198.40980347565
 20
24117.36994941645
 30
0.0
 40
8.0
  1
process.
  7
ACISOTS
100
AcDbText
  0
TEXT
  5
496C0
330
4A6CA
100
AcDbEntity
  8
0
 62
     1
100
AcDbText
 10
27227.90480347565
 20
24090.70328274978
 30
0.0
 40
8.0
  1
We recommend that a test cutout is made in
  7
ACISOTS
100
AcDbText
  0
TEXT
  5
496C1
330
4A6CA
100
AcDbEntity
  8
0
 62
     1
100
AcDbText
 10
27203.52410347565
 20
24077.36994941645
 30
0.0
 40
8.0
  1
scrap timber and checked against the actual
  7
ACISOTS
100
AcDbText
  0
TEXT
  5
496C2
330
4A6CA
100
AcDbEntity
  8
0
 62
     1
100
AcDbText
 10
27198.40980347565
 20
24064.03661608312
 30
0.0
 40
8.0
  1
sink
  7
ACISOTS
100
AcDbText
  0
TEXT
  5
496C3
330
4A6CA
100
AcDbEntity
  8
0
 62
     1
100
AcDbText
 10
27254.57180347565
 20
24050.70328274979
 30
0.0
 40
8.0
  1
supplied before committing to cutting
  7
ACISOTS
100
AcDbText
  0
TEXT
  5
496C4
330
4A6CA
100
AcDbEntity
  8
0
 62
     1
100
AcDbText
 10
27198.40980347565
 20
24037.36994941645
 30
0.0
 40
8.0
  1
the
  7
ACISOTS
100
AcDbText
  0
TEXT
  5
496C5
330
4A6CA
100
AcDbEntity
  8
0
 62
     1
100
AcDbText
 10
27445.04980347565
 20
24024.03661608312
 30
0.0
 40
8.0
  1
worksurface.
  7
ACISOTS
100
AcDbText
  0
TEXT
  5
496C6
330
4A6CA
100
AcDbEntity
  8
0
 62
     1
100
AcDbText
 10
27225.23880347565
 20
23997.36994941646
 30
0.0
 40
8.0
  1
Abode can not accept liability for problems
  7
ACISOTS
100
AcDbText
  0
TEXT
  5
496C7
330
4A6CA
100
AcDbEntity
  8
0
 62
     1
100
AcDbText
 10
27198.40980347565
 20
23984.03661608313
 30
0.0
 40
8.0
  1
or
  7
ACISOTS
100
AcDbText
  0
TEXT
  5
496C8
330
4A6CA
100
AcDbEntity
  8
0
 62
     1
100
AcDbText
 10
27229.42880347565
 20
23970.70328274979
 30
0.0
 40
8.0
  1
costs incurred by failure to follow this advise,
  7
ACISOTS
100
AcDbText
  0
TEXT
  5
496C9
330
4A6CA
100
AcDbEntity
  8
0
 62
     1
100
AcDbText
 10
27222.19080347565
 20
23957.36994941646
 30
0.0
 40
8.0
  1
dimensions weights & measures are subject
  7
ACISOTS
100
AcDbText
  0
TEXT
  5
496CA
330
4A6CA
100
AcDbEntity
  8
0
 62
     1
100
AcDbText
 10
27198.40980347565
 20
23944.03661608313
 30
0.0
 40
8.0
  1
to
  7
ACISOTS
100
AcDbText
  0
TEXT
  5
496CB
330
4A6CA
100
AcDbEntity
  8
0
 62
     1
100
AcDbText
 10
27205.42880347565
 20
23930.7032827498
 30
0.0
 40
8.0
  1
change without prior notice. Errors and omissions
  7
ACISOTS
100
AcDbText
  0
TEXT
  5
496CC
330
4A6CA
100
AcDbEntity
  8
0
 62
     1
100
AcDbText
 10
27465.99980347565
 20
23917.36994941647
 30
0.0
 40
8.0
  1
excepted
  7
ACISOTS
100
AcDbText
  0
ENDBLK
  5
496CE
330
4A6CA
100
AcDbEntity
  8
0
100
AcDbBlockEnd
  0
BLOCK
  5
4A6D2
330
4A6D1
100
AcDbEntity
  8
0
100
AcDbBlockBegin
  2
*D14
 70
     1
 10
0.0
 20
0.0
 30
0.0
  3
*D14
  1

  0
LINE
  5
4A6D3
330
4A6D1
100
AcDbEntity
  8
DIMS SPECS
370
    25
100
AcDbLine
 10
201332.8401786975
 20
846.881204769153
 30
0.0
 11
201332.8401786975
 21
794.6898412078922
 31
0.0
  0
LINE
  5
4A6D4
330
4A6D1
100
AcDbEntity
  8
DIMS SPECS
370
    25
100
AcDbLine
 10
201836.3173319164
 20
846.881204769153
 30
0.0
 11
201836.3173319164
 21
794.6898412078922
 31
0.0
  0
LINE
  5
4A6D5
330
4A6D1
100
AcDbEntity
  8
DIMS SPECS
370
    25
100
AcDbLine
 10
201345.3401786975
 20
794.6898412078922
 30
0.0
 11
201823.8173319164
 21
794.6898412078922
 31
0.0
  0
INSERT
  5
4A6D6
330
4A6D1
100
AcDbEntity
  8
DIMS SPECS
370
    25
100
AcDbBlockReference
  2
FILLED-1
 10
201332.8401786975
 20
794.6898412078922
 30
0.0
 41
12.5
 42
12.5
 43
12.5
 50
180.0
  0
INSERT
  5
4A6D7
330
4A6D1
100
AcDbEntity
  8
DIMS SPECS
370
    25
100
AcDbBlockReference
  2
FILLED-1
 10
201836.3173319164
 20
794.6898412078922
 30
0.0
 41
12.5
 42
12.5
 43
12.5
  0
MTEXT
  5
4A6D8
330
4A6D1
100
AcDbEntity
  8
DIMS SPECS
100
AcDbMText
 10
201584.5787553069
 20
811.117441479816
 30
0.0
 40
17.0
 41
0.0
 71
     5
 72
     1
  1
\A1;506
  7
ABODE-ISO
 73
     1
 44
1.0
  0
POINT
  5
4A6D9
330
4A6D1
100
AcDbEntity
  8
DEFPOINTS
 62
     0
100
AcDbPoint
 10
201332.8401786975
 20
861.881204769153
 30
0.0
  0
POINT
  5
4A6DA
330
4A6D1
100
AcDbEntity
  8
DEFPOINTS
 62
     0
100
AcDbPoint
 10
201836.3173319164
 20
861.881204769153
 30
0.0
  0
POINT
  5
4A6DB
330
4A6D1
100
AcDbEntity
  8
DEFPOINTS
 62
     0
100
AcDbPoint
 10
201836.3173319164
 20
794.6898412078922
 30
0.0
  0
ENDBLK
  5
4A6DC
330
4A6D1
100
AcDbEntity
  8
0
100
AcDbBlockEnd
  0
BLOCK
  5
4A6DE
330
4A6DD
100
AcDbEntity
  8
0
100
AcDbBlockBegin
  2
*D15
 70
     1
 10
0.0
 20
0.0
 30
0.0
  3
*D15
  1

  0
LINE
  5
4A6DF
330
4A6DD
100
AcDbEntity
  8
DIMS SPECS
370
    25
100
AcDbLine
 10
201834.4827689753
 20
1248.523773019223
 30
0.0
 11
201890.3747593038
 21
1248.523773019223
 31
0.0
  0
LINE
  5
4A6E0
330
4A6DD
100
AcDbEntity
  8
DIMS SPECS
370
    25
100
AcDbLine
 10
201834.4827689753
 20
845.0466480181161
 30
0.0
 11
201890.3747593038
 21
845.0466480181161
 31
0.0
  0
LINE
  5
4A6E1
330
4A6DD
100
AcDbEntity
  8
DIMS SPECS
370
    25
100
AcDbLine
 10
201890.3747593038
 20
1236.023773019223
 30
0.0
 11
201890.3747593038
 21
1063.212810790593
 31
0.0
  0
LINE
  5
4A6E2
330
4A6DD
100
AcDbEntity
  8
DIMS SPECS
370
    25
100
AcDbLine
 10
201890.3747593038
 20
857.5466480181161
 30
0.0
 11
201890.3747593038
 21
1030.357610246745
 31
0.0
  0
INSERT
  5
4A6E3
330
4A6DD
100
AcDbEntity
  8
DIMS SPECS
370
    25
100
AcDbBlockReference
  2
FILLED-1
 10
201890.3747593038
 20
1248.523773019223
 30
0.0
 41
12.5
 42
12.5
 43
12.5
 50
90.0
  0
INSERT
  5
4A6E4
330
4A6DD
100
AcDbEntity
  8
DIMS SPECS
370
    25
100
AcDbBlockReference
  2
FILLED-1
 10
201890.3747593038
 20
845.0466480181161
 30
0.0
 41
12.5
 42
12.5
 43
12.5
 50
270.0
  0
MTEXT
  5
4A6E5
330
4A6DD
100
AcDbEntity
  8
DIMS SPECS
100
AcDbMText
 10
201890.3747593038
 20
1046.785210518702
 30
0.0
 40
17.0
 41
0.0
 71
     5
 72
     1
  1
\A1;406
  7
ABODE-ISO
 73
     1
 44
1.0
  0
POINT
  5
4A6E6
330
4A6DD
100
AcDbEntity
  8
DEFPOINTS
 62
     0
100
AcDbPoint
 10
201819.4827689753
 20
1248.523773019223
 30
0.0
  0
POINT
  5
4A6E7
330
4A6DD
100
AcDbEntity
  8
DEFPOINTS
 62
     0
100
AcDbPoint
 10
201819.4827689753
 20
845.0466480181161
 30
0.0
  0
POINT
  5
4A6E8
330
4A6DD
100
AcDbEntity
  8
DEFPOINTS
 62
     0
100
AcDbPoint
 10
201890.3747593038
 20
845.0466480181161
 30
0.0
  0
ENDBLK
  5
4A6E9
330
4A6DD
100
AcDbEntity
  8
0
100
AcDbBlockEnd
  0
BLOCK
  5
4A6EB
330
4A6EA
100
AcDbEntity
  8
0
100
AcDbBlockBegin
  2
*D16
 70
     1
 10
0.0
 20
0.0
 30
0.0
  3
*D16
  1

  0
LINE
  5
4A6EC
330
4A6EA
100
AcDbEntity
  8
DIMS SPECS
370
    25
100
AcDbLine
 10
201919.4592375733
 20
802.4501648762816
 30
0.0
 11
201877.9372797211
 21
802.4501648762962
 31
0.0
  0
LINE
  5
4A6ED
330
4A6EA
100
AcDbEntity
  8
DIMS SPECS
370
    25
100
AcDbLine
 10
201877.9372797211
 20
802.4501648762962
 30
0.0
 11
201840.0726470019
 21
840.9479628461992
 31
0.0
  0
MTEXT
  5
4A6EE
330
4A6EA
100
AcDbEntity
  8
DIMS SPECS
100
AcDbMText
 10
201902.4482586475
 20
818.6639650122581
 30
0.0
 40
17.0
 41
0.0
 71
     5
 72
     1
  1
\A1;R17
  7
ABODE-ISO
 73
     1
 44
1.0
  0
LINE
  5
4A6EF
330
4A6EA
100
AcDbEntity
  8
DIMS SPECS
370
    25
100
AcDbLine
 10
201819.5388354207
 20
861.8251369539791
 30
0.0
 11
201831.3074014497
 21
849.8597791822978
 31
0.0
  0
INSERT
  5
4A6F0
330
4A6EA
100
AcDbEntity
  8
DIMS SPECS
370
    25
100
AcDbBlockReference
  2
FILLED-1
 10
201831.3074014497
 20
849.8597791822978
 30
0.0
 41
12.5
 42
12.5
 43
12.5
 50
134.5249383114128
  0
POINT
  5
4A6F1
330
4A6EA
100
AcDbEntity
  8
DEFPOINTS
 62
     0
100
AcDbPoint
 10
201831.3074014497
 20
849.8597791822978
 30
0.0
  0
POINT
  5
4A6F2
330
4A6EA
100
AcDbEntity
  8
DEFPOINTS
 62
     0
100
AcDbPoint
 10
201819.5388354207
 20
861.8251369539791
 30
0.0
  0
ENDBLK
  5
4A6F3
330
4A6EA
100
AcDbEntity
  8
0
100
AcDbBlockEnd
  0
BLOCK
  5
4A6F5
330
4A6F4
100
AcDbEntity
  8
0
100
AcDbBlockBegin
  2
*D17
 70
     1
 10
0.0
 20
0.0
 30
0.0
  3
*D17
  1

  0
LINE
  5
4A6F6
330
4A6F4
100
AcDbEntity
  8
DIMS SPECS
370
    25
100
AcDbLine
 10
202027.6421771519
 20
1052.142262123938
 30
0.0
 11
202027.6421771519
 21
800.2835027410764
 31
0.0
  0
LINE
  5
4A6F7
330
4A6F4
100
AcDbEntity
  8
DIMS SPECS
370
    25
100
AcDbLine
 10
202537.6421771519
 20
1052.046640702692
 30
0.0
 11
202537.6421771519
 21
800.2835027410764
 31
0.0
  0
LINE
  5
4A6F8
330
4A6F4
100
AcDbEntity
  8
DIMS SPECS
370
    25
100
AcDbLine
 10
202040.142177152
 20
800.2835027410764
 30
0.0
 11
202525.1421771519
 21
800.2835027410764
 31
0.0
  0
INSERT
  5
4A6F9
330
4A6F4
100
AcDbEntity
  8
DIMS SPECS
370
    25
100
AcDbBlockReference
  2
FILLED-1
 10
202027.6421771519
 20
800.2835027410764
 30
0.0
 41
12.5
 42
12.5
 43
12.5
 50
180.0
  0
INSERT
  5
4A6FA
330
4A6F4
100
AcDbEntity
  8
DIMS SPECS
370
    25
100
AcDbBlockReference
  2
FILLED-1
 10
202537.6421771519
 20
800.2835027410764
 30
0.0
 41
12.5
 42
12.5
 43
12.5
  0
MTEXT
  5
4A6FB
330
4A6F4
100
AcDbEntity
  8
DIMS SPECS
100
AcDbMText
 10
202282.6421771519
 20
816.7111030130001
 30
0.0
 40
17.0
 41
0.0
 71
     5
 72
     1
  1
\A1;510
  7
ABODE-ISO
 73
     1
 44
1.0
  0
POINT
  5
4A6FC
330
4A6F4
100
AcDbEntity
  8
DEFPOINTS
 62
     0
100
AcDbPoint
 10
202027.6421771519
 20
1067.142262123938
 30
0.0
  0
POINT
  5
4A6FD
330
4A6F4
100
AcDbEntity
  8
DEFPOINTS
 62
     0
100
AcDbPoint
 10
202537.6421771519
 20
1067.046640702692
 30
0.0
  0
POINT
  5
4A6FE
330
4A6F4
100
AcDbEntity
  8
DEFPOINTS
 62
     0
100
AcDbPoint
 10
202537.6421771519
 20
800.2835027410764
 30
0.0
  0
ENDBLK
  5
4A6FF
330
4A6F4
100
AcDbEntity
  8
0
100
AcDbBlockEnd
  0
BLOCK
  5
4A701
330
4A700
100
AcDbEntity
  8
0
100
AcDbBlockBegin
  2
*D18
 70
     1
 10
0.0
 20
0.0
 30
0.0
  3
*D18
  1

  0
LINE
  5
4A702
330
4A700
100
AcDbEntity
  8
DIMS SPECS
370
    25
100
AcDbLine
 10
202297.642177152
 20
845.0466407026906
 30
0.0
 11
202603.6071427643
 21
845.0466407026905
 31
0.0
  0
LINE
  5
4A703
330
4A700
100
AcDbEntity
  8
DIMS SPECS
370
    25
100
AcDbLine
 10
202297.6421771521
 20
1289.04664070269
 30
0.0
 11
202603.6071427643
 21
1289.04664070269
 31
0.0
  0
LINE
  5
4A704
330
4A700
100
AcDbEntity
  8
DIMS SPECS
370
    25
100
AcDbLine
 10
202603.6071427643
 20
857.5466407026905
 30
0.0
 11
202603.6071427643
 21
1050.832840566728
 31
0.0
  0
LINE
  5
4A705
330
4A700
100
AcDbEntity
  8
DIMS SPECS
370
    25
100
AcDbLine
 10
202603.6071427643
 20
1276.54664070269
 30
0.0
 11
202603.6071427643
 21
1083.260440838652
 31
0.0
  0
INSERT
  5
4A706
330
4A700
100
AcDbEntity
  8
DIMS SPECS
370
    25
100
AcDbBlockReference
  2
FILLED-1
 10
202603.6071427643
 20
845.0466407026905
 30
0.0
 41
12.5
 42
12.5
 43
12.5
 50
270.0
  0
INSERT
  5
4A707
330
4A700
100
AcDbEntity
  8
DIMS SPECS
370
    25
100
AcDbBlockReference
  2
FILLED-1
 10
202603.6071427643
 20
1289.04664070269
 30
0.0
 41
12.5
 42
12.5
 43
12.5
 50
90.0
  0
MTEXT
  5
4A708
330
4A700
100
AcDbEntity
  8
DIMS SPECS
100
AcDbMText
 10
202603.6071427643
 20
1067.046640702723
 30
0.0
 40
17.0
 41
0.0
 71
     5
 72
     1
  1
\A1;444
  7
ABODE-ISO
 73
     1
 44
1.0
  0
POINT
  5
4A709
330
4A700
100
AcDbEntity
  8
DEFPOINTS
 62
     0
100
AcDbPoint
 10
202282.642177152
 20
845.0466407026906
 30
0.0
  0
POINT
  5
4A70A
330
4A700
100
AcDbEntity
  8
DEFPOINTS
 62
     0
100
AcDbPoint
 10
202282.6421771521
 20
1289.04664070269
 30
0.0
  0
POINT
  5
4A70B
330
4A700
100
AcDbEntity
  8
DEFPOINTS
 62
     0
100
AcDbPoint
 10
202603.6071427643
 20
1289.04664070269
 30
0.0
  0
ENDBLK
  5
4A70C
330
4A700
100
AcDbEntity
  8
0
100
AcDbBlockEnd
  0
BLOCK
  5
4A70E
330
4A70D
100
AcDbEntity
  8
0
100
AcDbBlockBegin
  2
*D19
 70
     1
 10
0.0
 20
0.0
 30
0.0
  3
*D19
  1

  0
LINE
  5
4A70F
330
4A70D
100
AcDbEntity
  8
DIMS SPECS
370
    25
100
AcDbLine
 10
202010.6421771522
 20
1052.046640702698
 30
0.0
 11
202010.6421771522
 21
742.1601006144482
 31
0.0
  0
LINE
  5
4A710
330
4A70D
100
AcDbEntity
  8
DIMS SPECS
370
    25
100
AcDbLine
 10
202554.6421771519
 20
1052.046640702689
 30
0.0
 11
202554.6421771519
 21
742.1601006144482
 31
0.0
  0
LINE
  5
4A711
330
4A70D
100
AcDbEntity
  8
DIMS SPECS
370
    25
100
AcDbLine
 10
202023.1421771522
 20
742.1601006144482
 30
0.0
 11
202542.142177152
 21
742.1601006144482
 31
0.0
  0
INSERT
  5
4A712
330
4A70D
100
AcDbEntity
  8
DIMS SPECS
370
    25
100
AcDbBlockReference
  2
FILLED-1
 10
202010.6421771522
 20
742.1601006144482
 30
0.0
 41
12.5
 42
12.5
 43
12.5
 50
180.0
  0
INSERT
  5
4A713
330
4A70D
100
AcDbEntity
  8
DIMS SPECS
370
    25
100
AcDbBlockReference
  2
FILLED-1
 10
202554.6421771519
 20
742.1601006144482
 30
0.0
 41
12.5
 42
12.5
 43
12.5
  0
MTEXT
  5
4A714
330
4A70D
100
AcDbEntity
  8
DIMS SPECS
100
AcDbMText
 10
202282.6421771521
 20
758.5877008863722
 30
0.0
 40
17.0
 41
0.0
 71
     5
 72
     1
  1
\A1;544
  7
ABODE-ISO
 73
     1
 44
1.0
  0
POINT
  5
4A715
330
4A70D
100
AcDbEntity
  8
DEFPOINTS
 62
     0
100
AcDbPoint
 10
202010.6421771522
 20
1067.046640702698
 30
0.0
  0
POINT
  5
4A716
330
4A70D
100
AcDbEntity
  8
DEFPOINTS
 62
     0
100
AcDbPoint
 10
202554.6421771519
 20
1067.046640702689
 30
0.0
  0
POINT
  5
4A717
330
4A70D
100
AcDbEntity
  8
DEFPOINTS
 62
     0
100
AcDbPoint
 10
202554.6421771519
 20
742.1601006144482
 30
0.0
  0
ENDBLK
  5
4A718
330
4A70D
100
AcDbEntity
  8
0
100
AcDbBlockEnd
  0
BLOCK
  5
4A71A
330
4A719
100
AcDbEntity
  8
0
100
AcDbBlockBegin
  2
*D20
 70
     1
 10
0.0
 20
0.0
 30
0.0
  3
*D20
  1

  0
LINE
  5
4A71B
330
4A719
100
AcDbEntity
  8
DIMS SPECS
370
    25
100
AcDbLine
 10
202663.0207582537
 20
769.3358006259512
 30
0.0
 11
202621.7068221559
 21
769.3358006259223
 31
0.0
  0
LINE
  5
4A71C
330
4A719
100
AcDbEntity
  8
DIMS SPECS
370
    25
100
AcDbLine
 10
202621.7068221559
 20
769.3358006259223
 30
0.0
 11
202555.8831725756
 21
841.5494618054363
 31
0.0
  0
MTEXT
  5
4A71D
330
4A719
100
AcDbEntity
  8
DIMS SPECS
100
AcDbMText
 10
202646.1137902048
 20
785.5496007618987
 30
0.0
 40
17.0
 41
0.0
 71
     5
 72
     1
  1
\A1;R22
  7
ABODE-ISO
 73
     1
 44
1.0
  0
LINE
  5
4A71E
330
4A719
100
AcDbEntity
  8
DIMS SPECS
370
    25
100
AcDbLine
 10
202532.6421771518
 20
867.0466407025815
 30
0.0
 11
202547.4625220597
 21
850.7875701015001
 31
0.0
  0
INSERT
  5
4A71F
330
4A719
100
AcDbEntity
  8
DIMS SPECS
370
    25
100
AcDbBlockReference
  2
FILLED-1
 10
202547.4625220597
 20
850.7875701015001
 30
0.0
 41
12.5
 42
12.5
 43
12.5
 50
132.3495607503894
  0
POINT
  5
4A720
330
4A719
100
AcDbEntity
  8
DEFPOINTS
 62
     0
100
AcDbPoint
 10
202547.4625220597
 20
850.7875701015001
 30
0.0
  0
POINT
  5
4A721
330
4A719
100
AcDbEntity
  8
DEFPOINTS
 62
     0
100
AcDbPoint
 10
202532.6421771518
 20
867.0466407025815
 30
0.0
  0
ENDBLK
  5
4A722
330
4A719
100
AcDbEntity
  8
0
100
AcDbBlockEnd
  0
BLOCK
  5
4A79F
330
4A79E
100
AcDbEntity
  8
0
100
AcDbBlockBegin
  2
*D21
 70
     1
 10
0.0
 20
0.0
 30
0.0
  3
*D21
  1

  0
LINE
  5
4A81A
330
4A79E
100
AcDbEntity
  8
DIMS SPECS
370
    25
100
AcDbLine
 10
27729.59082202568
 20
23912.94706576109
 30
0.0
 11
27729.59082202568
 21
23860.75570219983
 31
0.0
  0
LINE
  5
4A81B
330
4A79E
100
AcDbEntity
  8
DIMS SPECS
370
    25
100
AcDbLine
 10
28233.06797524462
 20
23912.94706576109
 30
0.0
 11
28233.06797524462
 21
23860.75570219983
 31
0.0
  0
LINE
  5
4A81C
330
4A79E
100
AcDbEntity
  8
DIMS SPECS
370
    25
100
AcDbLine
 10
27742.09082202568
 20
23860.75570219983
 30
0.0
 11
28220.56797524462
 21
23860.75570219983
 31
0.0
  0
INSERT
  5
4A81D
330
4A79E
100
AcDbEntity
  8
DIMS SPECS
370
    25
100
AcDbBlockReference
  2
FILLED-1
 10
27729.59082202568
 20
23860.75570219983
 30
0.0
 41
12.5
 42
12.5
 43
12.5
 50
180.0
  0
INSERT
  5
4A81E
330
4A79E
100
AcDbEntity
  8
DIMS SPECS
370
    25
100
AcDbBlockReference
  2
FILLED-1
 10
28233.06797524462
 20
23860.75570219983
 30
0.0
 41
12.5
 42
12.5
 43
12.5
  0
MTEXT
  5
4A81F
330
4A79E
100
AcDbEntity
  8
DIMS SPECS
100
AcDbMText
 10
27981.32939863515
 20
23876.75570219983
 30
0.0
 40
17.0
 41
0.0
 71
     5
 72
     1
  1
\A1;506
  7
ABODE-ISO
 73
     1
 44
1.0
  0
POINT
  5
4A820
330
4A79E
100
AcDbEntity
  8
DEFPOINTS
 62
     0
100
AcDbPoint
 10
27729.59082202568
 20
23927.94706576109
 30
0.0
  0
POINT
  5
4A821
330
4A79E
100
AcDbEntity
  8
DEFPOINTS
 62
     0
100
AcDbPoint
 10
28233.06797524462
 20
23927.94706576109
 30
0.0
  0
POINT
  5
4A822
330
4A79E
100
AcDbEntity
  8
DEFPOINTS
 62
     0
100
AcDbPoint
 10
28233.06797524462
 20
23860.75570219983
 30
0.0
  0
ENDBLK
  5
4A7A0
330
4A79E
100
AcDbEntity
  8
0
100
AcDbBlockEnd
  0
BLOCK
  5
4A7AB
330
4A7AA
100
AcDbEntity
  8
0
100
AcDbBlockBegin
  2
*D22
 70
     1
 10
0.0
 20
0.0
 30
0.0
  3
*D22
  1

  0
LINE
  5
4A823
330
4A7AA
100
AcDbEntity
  8
DIMS SPECS
370
    25
100
AcDbLine
 10
28231.23341230351
 20
24314.58963401116
 30
0.0
 11
28287.12540263202
 21
24314.58963401116
 31
0.0
  0
LINE
  5
4A824
330
4A7AA
100
AcDbEntity
  8
DIMS SPECS
370
    25
100
AcDbLine
 10
28231.23341230351
 20
23911.11250901005
 30
0.0
 11
28287.12540263202
 21
23911.11250901005
 31
0.0
  0
LINE
  5
4A825
330
4A7AA
100
AcDbEntity
  8
DIMS SPECS
370
    25
100
AcDbLine
 10
28287.12540263202
 20
24302.08963401116
 30
0.0
 11
28287.12540263202
 21
24128.8510715106
 31
0.0
  0
LINE
  5
4A826
330
4A7AA
100
AcDbEntity
  8
DIMS SPECS
370
    25
100
AcDbLine
 10
28287.12540263202
 20
23923.61250901005
 30
0.0
 11
28287.12540263202
 21
24096.8510715106
 31
0.0
  0
INSERT
  5
4A827
330
4A7AA
100
AcDbEntity
  8
DIMS SPECS
370
    25
100
AcDbBlockReference
  2
FILLED-1
 10
28287.12540263202
 20
24314.58963401116
 30
0.0
 41
12.5
 42
12.5
 43
12.5
 50
90.0
  0
INSERT
  5
4A828
330
4A7AA
100
AcDbEntity
  8
DIMS SPECS
370
    25
100
AcDbBlockReference
  2
FILLED-1
 10
28287.12540263202
 20
23911.11250901005
 30
0.0
 41
12.5
 42
12.5
 43
12.5
 50
270.0
  0
MTEXT
  5
4A829
330
4A7AA
100
AcDbEntity
  8
DIMS SPECS
100
AcDbMText
 10
28287.12540263202
 20
24112.85107151061
 30
0.0
 40
17.0
 41
0.0
 71
     5
 72
     1
  1
\A1;406
  7
ABODE-ISO
 73
     1
 44
1.0
  0
POINT
  5
4A82A
330
4A7AA
100
AcDbEntity
  8
DEFPOINTS
 62
     0
100
AcDbPoint
 10
28216.23341230351
 20
24314.58963401116
 30
0.0
  0
POINT
  5
4A82B
330
4A7AA
100
AcDbEntity
  8
DEFPOINTS
 62
     0
100
AcDbPoint
 10
28216.23341230351
 20
23911.11250901005
 30
0.0
  0
POINT
  5
4A82C
330
4A7AA
100
AcDbEntity
  8
DEFPOINTS
 62
     0
100
AcDbPoint
 10
28287.12540263202
 20
23911.11250901005
 30
0.0
  0
ENDBLK
  5
4A7AC
330
4A7AA
100
AcDbEntity
  8
0
100
AcDbBlockEnd
  0
BLOCK
  5
4A7B8
330
4A7B7
100
AcDbEntity
  8
0
100
AcDbBlockBegin
  2
*D23
 70
     1
 10
0.0
 20
0.0
 30
0.0
  3
*D23
  1

  0
LINE
  5
4A857
330
4A7B7
100
AcDbEntity
  8
DIMS SPECS
370
    25
100
AcDbLine
 10
28317.88792304936
 20
23868.51602586821
 30
0.0
 11
28274.68792304936
 21
23868.51602586821
 31
0.0
  0
LINE
  5
4A858
330
4A7B7
100
AcDbEntity
  8
DIMS SPECS
370
    25
100
AcDbLine
 10
28274.68792304936
 20
23868.51602586821
 30
0.0
 11
28236.82329033013
 21
23907.01382383812
 31
0.0
  0
MTEXT
  5
4A859
330
4A7B7
100
AcDbEntity
  8
DIMS SPECS
100
AcDbMText
 10
28300.03792304936
 20
23884.51602586821
 30
0.0
 40
17.0
 41
0.0
 71
     5
 72
     1
  1
\A1;R17
  7
ABODE-ISO
 73
     1
 44
1.0
  0
LINE
  5
4A85A
330
4A7B7
100
AcDbEntity
  8
DIMS SPECS
370
    25
100
AcDbLine
 10
28216.28947874891
 20
23927.89099794591
 30
0.0
 11
28228.05804477788
 21
23915.92564017424
 31
0.0
  0
INSERT
  5
4A85B
330
4A7B7
100
AcDbEntity
  8
DIMS SPECS
370
    25
100
AcDbBlockReference
  2
FILLED-1
 10
28228.05804477788
 20
23915.92564017424
 30
0.0
 41
12.5
 42
12.5
 43
12.5
 50
134.5249383114401
  0
POINT
  5
4A85C
330
4A7B7
100
AcDbEntity
  8
DEFPOINTS
 62
     0
100
AcDbPoint
 10
28228.05804477788
 20
23915.92564017424
 30
0.0
  0
POINT
  5
4A85D
330
4A7B7
100
AcDbEntity
  8
DEFPOINTS
 62
     0
100
AcDbPoint
 10
28216.28947874891
 20
23927.89099794591
 30
0.0
  0
ENDBLK
  5
4A7B9
330
4A7B7
100
AcDbEntity
  8
0
100
AcDbBlockEnd
  0
BLOCK
  5
4A7C2
330
4A7C1
100
AcDbEntity
  8
0
100
AcDbBlockBegin
  2
*D24
 70
     1
 10
0.0
 20
0.0
 30
0.0
  3
*D24
  1

  0
LINE
  5
4A834
330
4A7C1
100
AcDbEntity
  8
DIMS SPECS
370
    25
100
AcDbLine
 10
28424.39282048013
 20
24118.20812311587
 30
0.0
 11
28424.39282048013
 21
23866.34936373301
 31
0.0
  0
LINE
  5
4A835
330
4A7C1
100
AcDbEntity
  8
DIMS SPECS
370
    25
100
AcDbLine
 10
28934.39282048014
 20
24118.11250169463
 30
0.0
 11
28934.39282048014
 21
23866.34936373301
 31
0.0
  0
LINE
  5
4A836
330
4A7C1
100
AcDbEntity
  8
DIMS SPECS
370
    25
100
AcDbLine
 10
28436.89282048014
 20
23866.34936373301
 30
0.0
 11
28921.89282048013
 21
23866.34936373301
 31
0.0
  0
INSERT
  5
4A837
330
4A7C1
100
AcDbEntity
  8
DIMS SPECS
370
    25
100
AcDbBlockReference
  2
FILLED-1
 10
28424.39282048013
 20
23866.34936373301
 30
0.0
 41
12.5
 42
12.5
 43
12.5
 50
180.0
  0
INSERT
  5
4A838
330
4A7C1
100
AcDbEntity
  8
DIMS SPECS
370
    25
100
AcDbBlockReference
  2
FILLED-1
 10
28934.39282048014
 20
23866.34936373301
 30
0.0
 41
12.5
 42
12.5
 43
12.5
  0
MTEXT
  5
4A839
330
4A7C1
100
AcDbEntity
  8
DIMS SPECS
100
AcDbMText
 10
28679.39282048014
 20
23882.34936373301
 30
0.0
 40
17.0
 41
0.0
 71
     5
 72
     1
  1
\A1;510
  7
ABODE-ISO
 73
     1
 44
1.0
  0
POINT
  5
4A83A
330
4A7C1
100
AcDbEntity
  8
DEFPOINTS
 62
     0
100
AcDbPoint
 10
28424.39282048013
 20
24133.20812311587
 30
0.0
  0
POINT
  5
4A83B
330
4A7C1
100
AcDbEntity
  8
DEFPOINTS
 62
     0
100
AcDbPoint
 10
28934.39282048014
 20
24133.11250169463
 30
0.0
  0
POINT
  5
4A83C
330
4A7C1
100
AcDbEntity
  8
DEFPOINTS
 62
     0
100
AcDbPoint
 10
28934.39282048014
 20
23866.34936373301
 30
0.0
  0
ENDBLK
  5
4A7C3
330
4A7C1
100
AcDbEntity
  8
0
100
AcDbBlockEnd
  0
BLOCK
  5
4A7CE
330
4A7CD
100
AcDbEntity
  8
0
100
AcDbBlockBegin
  2
*D25
 70
     1
 10
0.0
 20
0.0
 30
0.0
  3
*D25
  1

  0
LINE
  5
4A83D
330
4A7CD
100
AcDbEntity
  8
DIMS SPECS
370
    25
100
AcDbLine
 10
28694.39282048022
 20
23911.11250169462
 30
0.0
 11
29000.3577860925
 21
23911.11250169462
 31
0.0
  0
LINE
  5
4A83E
330
4A7CD
100
AcDbEntity
  8
DIMS SPECS
370
    25
100
AcDbLine
 10
28694.39282048031
 20
24355.11250169462
 30
0.0
 11
29000.3577860925
 21
24355.11250169462
 31
0.0
  0
LINE
  5
4A83F
330
4A7CD
100
AcDbEntity
  8
DIMS SPECS
370
    25
100
AcDbLine
 10
29000.3577860925
 20
23923.61250169463
 30
0.0
 11
29000.3577860925
 21
24117.11250169465
 31
0.0
  0
LINE
  5
4A840
330
4A7CD
100
AcDbEntity
  8
DIMS SPECS
370
    25
100
AcDbLine
 10
29000.3577860925
 20
24342.61250169463
 30
0.0
 11
29000.3577860925
 21
24149.11250169465
 31
0.0
  0
INSERT
  5
4A841
330
4A7CD
100
AcDbEntity
  8
DIMS SPECS
370
    25
100
AcDbBlockReference
  2
FILLED-1
 10
29000.3577860925
 20
23911.11250169462
 30
0.0
 41
12.5
 42
12.5
 43
12.5
 50
270.0
  0
INSERT
  5
4A842
330
4A7CD
100
AcDbEntity
  8
DIMS SPECS
370
    25
100
AcDbBlockReference
  2
FILLED-1
 10
29000.3577860925
 20
24355.11250169462
 30
0.0
 41
12.5
 42
12.5
 43
12.5
 50
90.0
  0
MTEXT
  5
4A843
330
4A7CD
100
AcDbEntity
  8
DIMS SPECS
100
AcDbMText
 10
29000.3577860925
 20
24133.11250169466
 30
0.0
 40
17.0
 41
0.0
 71
     5
 72
     1
  1
\A1;444
  7
ABODE-ISO
 73
     1
 44
1.0
  0
POINT
  5
4A844
330
4A7CD
100
AcDbEntity
  8
DEFPOINTS
 62
     0
100
AcDbPoint
 10
28679.39282048022
 20
23911.11250169462
 30
0.0
  0
POINT
  5
4A845
330
4A7CD
100
AcDbEntity
  8
DEFPOINTS
 62
     0
100
AcDbPoint
 10
28679.39282048031
 20
24355.11250169462
 30
0.0
  0
POINT
  5
4A846
330
4A7CD
100
AcDbEntity
  8
DEFPOINTS
 62
     0
100
AcDbPoint
 10
29000.3577860925
 20
24355.11250169462
 30
0.0
  0
ENDBLK
  5
4A7CF
330
4A7CD
100
AcDbEntity
  8
0
100
AcDbBlockEnd
  0
BLOCK
  5
4A7DB
330
4A7DA
100
AcDbEntity
  8
0
100
AcDbBlockBegin
  2
*D26
 70
     1
 10
0.0
 20
0.0
 30
0.0
  3
*D26
  1

  0
LINE
  5
4A847
330
4A7DA
100
AcDbEntity
  8
DIMS SPECS
370
    25
100
AcDbLine
 10
28407.39282048037
 20
24118.11250169463
 30
0.0
 11
28407.39282048037
 21
23808.22596160638
 31
0.0
  0
LINE
  5
4A848
330
4A7DA
100
AcDbEntity
  8
DIMS SPECS
370
    25
100
AcDbLine
 10
28951.39282048014
 20
24118.11250169463
 30
0.0
 11
28951.39282048014
 21
23808.22596160638
 31
0.0
  0
LINE
  5
4A849
330
4A7DA
100
AcDbEntity
  8
DIMS SPECS
370
    25
100
AcDbLine
 10
28419.89282048037
 20
23808.22596160638
 30
0.0
 11
28938.89282048013
 21
23808.22596160638
 31
0.0
  0
INSERT
  5
4A84A
330
4A7DA
100
AcDbEntity
  8
DIMS SPECS
370
    25
100
AcDbBlockReference
  2
FILLED-1
 10
28407.39282048037
 20
23808.22596160638
 30
0.0
 41
12.5
 42
12.5
 43
12.5
 50
180.0
  0
INSERT
  5
4A84B
330
4A7DA
100
AcDbEntity
  8
DIMS SPECS
370
    25
100
AcDbBlockReference
  2
FILLED-1
 10
28951.39282048014
 20
23808.22596160638
 30
0.0
 41
12.5
 42
12.5
 43
12.5
  0
MTEXT
  5
4A84C
330
4A7DA
100
AcDbEntity
  8
DIMS SPECS
100
AcDbMText
 10
28679.39282048022
 20
23824.22596160638
 30
0.0
 40
17.0
 41
0.0
 71
     5
 72
     1
  1
\A1;544
  7
ABODE-ISO
 73
     1
 44
1.0
  0
POINT
  5
4A84D
330
4A7DA
100
AcDbEntity
  8
DEFPOINTS
 62
     0
100
AcDbPoint
 10
28407.39282048037
 20
24133.11250169463
 30
0.0
  0
POINT
  5
4A84E
330
4A7DA
100
AcDbEntity
  8
DEFPOINTS
 62
     0
100
AcDbPoint
 10
28951.39282048014
 20
24133.11250169463
 30
0.0
  0
POINT
  5
4A84F
330
4A7DA
100
AcDbEntity
  8
DEFPOINTS
 62
     0
100
AcDbPoint
 10
28951.39282048014
 20
23808.22596160638
 30
0.0
  0
ENDBLK
  5
4A7DC
330
4A7DA
100
AcDbEntity
  8
0
100
AcDbBlockEnd
  0
BLOCK
  5
4A7E7
330
4A7E6
100
AcDbEntity
  8
0
100
AcDbBlockBegin
  2
*D27
 70
     1
 10
0.0
 20
0.0
 30
0.0
  3
*D27
  1

  0
LINE
  5
4A85E
330
4A7E6
100
AcDbEntity
  8
DIMS SPECS
370
    25
100
AcDbLine
 10
29066.7574654841
 20
23835.40166161798
 30
0.0
 11
29018.45746548403
 21
23835.40166161798
 31
0.0
  0
LINE
  5
4A85F
330
4A7E6
100
AcDbEntity
  8
DIMS SPECS
370
    25
100
AcDbLine
 10
29018.45746548403
 20
23835.40166161798
 30
0.0
 11
28952.63381590393
 21
23907.61532279748
 31
0.0
  0
MTEXT
  5
4A860
330
4A7E6
100
AcDbEntity
  8
DIMS SPECS
100
AcDbMText
 10
29046.35746548411
 20
23851.40166161798
 30
0.0
 40
17.0
 41
0.0
 71
     5
 72
     1
  1
\A1;R22
  7
ABODE-ISO
 73
     1
 44
1.0
  0
LINE
  5
4A861
330
4A7E6
100
AcDbEntity
  8
DIMS SPECS
370
    25
100
AcDbLine
 10
28929.39282048015
 20
23933.11250169463
 30
0.0
 11
28944.21316538807
 21
23916.85343109354
 31
0.0
  0
INSERT
  5
4A862
330
4A7E6
100
AcDbEntity
  8
DIMS SPECS
370
    25
100
AcDbBlockReference
  2
FILLED-1
 10
28944.21316538807
 20
23916.85343109354
 30
0.0
 41
12.5
 42
12.5
 43
12.5
 50
132.3495607503435
  0
POINT
  5
4A863
330
4A7E6
100
AcDbEntity
  8
DEFPOINTS
 62
     0
100
AcDbPoint
 10
28944.21316538807
 20
23916.85343109354
 30
0.0
  0
POINT
  5
4A864
330
4A7E6
100
AcDbEntity
  8
DEFPOINTS
 62
     0
100
AcDbPoint
 10
28929.39282048015
 20
23933.11250169463
 30
0.0
  0
ENDBLK
  5
4A7E8
330
4A7E6
100
AcDbEntity
  8
0
100
AcDbBlockEnd
  0
BLOCK
  5
4A90D
330
4A90B
100
AcDbEntity
  8
0
100
AcDbBlockBegin
  2
GENAXEH
 70
     0
 10
0.0
 20
0.0
 30
0.0
  3
GENAXEH
  1

  0
LINE
  5
4A90C
330
4A90B
100
AcDbEntity
  8
0
100
AcDbLine
 10
-1.0
 20
0.0
 30
0.0
 11
1.0
 21
0.0
 31
0.0
  0
ENDBLK
  5
4A90E
330
4A90B
100
AcDbEntity
  8
0
100
AcDbBlockEnd
  0
ENDSEC
  0
SECTION
  2
ENTITIES
  0
TEXT
  5
46C38
330
4A68F
100
AcDbEntity
  8
LAYER1
100
AcDbText
 10
27842.47310966858
 20
24851.81826505856
 30
0.0
 40
150.0
  1
AW3128
100
AcDbText
  0
INSERT
  5
46C49
330
4A68F
100
AcDbEntity
  8
0
100
AcDbBlockReference
  2
*U13
 10
0.0
 20
0.0
 30
0.0
  0
TEXT
  5
46C4A
330
4A68F
100
AcDbEntity
  8
LAYER1
100
AcDbText
 10
27290.41072649939
 20
23962.54225930285
 30
0.0
 40
30.0
  1
file version 1
100
AcDbText
  0
ELLIPSE
  5
4A76A
330
4A68F
100
AcDbEntity
  8
CUTOUT
100
AcDbEllipse
 10
27746.75789505256
 20
24297.4225729052
 30
0.0
 11
-12.25594726765448
 21
12.25594726765448
 31
0.0
210
0.0
220
0.0
230
0.9999999999999998
 40
0.9808148484639946
 41
5.507472325450621
 42
7.058898288908557
  0
LINE
  5
4A76B
330
4A68F
100
AcDbEntity
  8
CUTOUT
100
AcDbLine
 10
28056.57135476034
 20
24314.58963401116
 30
0.0
 11
28216.23341230351
 21
24314.58963401116
 31
0.0
  0
LINE
  5
4A76C
330
4A68F
100
AcDbEntity
  8
CUTOUT
100
AcDbLine
 10
28056.57135476034
 20
23911.11250901005
 30
0.0
 11
28011.08743299964
 21
23911.11250901005
 31
0.0
  0
LINE
  5
4A76D
102
{ACAD_REACTORS
330
4A780
102
}
330
4A68F
100
AcDbEntity
  8
CUTOUT
100
AcDbLine
 10
28216.23341230351
 20
23911.11250901005
 30
0.0
 11
28056.57135476034
 21
23911.11250901005
 31
0.0
  0
ELLIPSE
  5
4A76E
330
4A68F
100
AcDbEntity
  8
CUTOUT
100
AcDbEllipse
 10
27746.75789505256
 20
23928.27957011602
 30
0.0
 11
-12.25594726765445
 21
-12.25594726765449
 31
0.0
210
0.0
220
0.0
230
1.0
 40
0.9808148484639978
 41
5.507472325450619
 42
7.058898288908557
  0
LINE
  5
4A76F
102
{ACAD_REACTORS
330
4A77D
102
}
330
4A68F
100
AcDbEntity
  8
CUTOUT
100
AcDbLine
 10
27729.59082202568
 20
23927.94706576109
 30
0.0
 11
27729.59082202568
 21
24297.75507726012
 31
0.0
  0
LINE
  5
4A770
330
4A68F
100
AcDbEntity
  8
CUTOUT
100
AcDbLine
 10
28011.08743299964
 20
23911.11250901005
 30
0.0
 11
27746.42537877675
 21
23911.11250901005
 31
0.0
  0
LINE
  5
4A771
330
4A68F
100
AcDbEntity
  8
CUTOUT
100
AcDbLine
 10
28233.06796905458
 20
24297.75507726012
 30
0.0
 11
28233.06796905458
 21
23927.94706576109
 31
0.0
  0
ELLIPSE
  5
4A772
330
4A68F
100
AcDbEntity
  8
CUTOUT
100
AcDbEllipse
 10
28215.90089602782
 20
24297.4225729052
 30
0.0
 11
-12.25594726765449
 21
-12.25594726765434
 31
0.0
210
0.0
220
0.0
230
1.0
 40
0.9808148484640019
 41
2.36587967186083
 42
3.917305635318781
  0
LINE
  5
4A773
330
4A68F
100
AcDbEntity
  8
CUTOUT
100
AcDbLine
 10
28011.08743299964
 20
24314.58963401116
 30
0.0
 11
28056.57135476034
 21
24314.58963401116
 31
0.0
  0
LINE
  5
4A774
330
4A68F
100
AcDbEntity
  8
CUTOUT
100
AcDbLine
 10
27746.42537877675
 20
24314.58963401116
 30
0.0
 11
28011.08743299964
 21
24314.58963401116
 31
0.0
  0
LINE
  5
4A775
330
4A68F
100
AcDbEntity
  8
CUTOUT
100
AcDbLine
 10
27729.59082639906
 20
24297.75507726012
 30
0.0
 11
27729.59082663116
 21
23927.94705855784
 31
0.0
  0
LINE
  5
4A776
102
{ACAD_REACTORS
330
4A77D
102
}
330
4A68F
100
AcDbEntity
  8
CUTOUT
100
AcDbLine
 10
28233.06797524462
 20
24297.75507726012
 30
0.0
 11
28233.06797524462
 21
23927.94706576109
 31
0.0
  0
LINE
  5
4A777
102
{ACAD_REACTORS
330
4A780
102
}
330
4A68F
100
AcDbEntity
  8
CUTOUT
100
AcDbLine
 10
27746.4253834944
 20
24314.58964132659
 30
0.0
 11
28216.23341230351
 21
24314.58963401116
 31
0.0
  0
LINE
  5
4A778
330
4A68F
100
AcDbEntity
  8
CUTOUT
100
AcDbLine
 10
27746.4253834944
 20
23911.11250169462
 30
0.0
 11
28216.23340758598
 21
23911.11250169462
 31
0.0
  0
MTEXT
  5
4A779
102
{ACAD_XDICTIONARY
360
4A92A
102
}
330
4A68F
100
AcDbEntity
  8
CUTOUT
100
AcDbMText
 10
28259.79836608226
 20
24396.66490103233
 30
0.000000000001
 40
40.0
 41
559.4757407245923
 71
     3
 72
     5
  1
UNDERMOUNT CUT OUT
 73
     1
 44
1.0
  0
DIMENSION
  5
4A77B
102
{ACAD_XDICTIONARY
360
4A77C
102
}
102
{ACAD_REACTORS
330
4A77D
102
}
330
4A68F
100
AcDbEntity
  8
DIMS SPECS
100
AcDbDimension
  2
*D21
 10
28233.06797524462
 20
23860.75570219983
 30
0.0
 11
27981.32939863515
 21
23876.75570219983
 31
0.0
 70
    32
  1
506
 71
     5
 42
503.4771532189333
  3
abode-iso$0
100
AcDbAlignedDimension
 13
27729.59082202568
 23
23927.94706576109
 33
0.0
 14
28233.06797524462
 24
23927.94706576109
 34
0.0
100
AcDbRotatedDimension
  0
DIMENSION
  5
4A77E
102
{ACAD_XDICTIONARY
360
4A77F
102
}
102
{ACAD_REACTORS
330
4A780
102
}
330
4A68F
100
AcDbEntity
  8
DIMS SPECS
100
AcDbDimension
  2
*D22
 10
28287.12540263202
 20
23911.11250901005
 30
0.0
 11
28287.12540263202
 21
24112.85107151061
 31
0.0
 70
    32
  1
406
 71
     5
 42
403.4771250011072
  3
abode-iso$0
100
AcDbAlignedDimension
 13
28216.23341230351
 23
24314.58963401116
 33
0.0
 14
28216.23341230351
 24
23911.11250901005
 34
0.0
 50
90.0
100
AcDbRotatedDimension
  0
ARC
  5
4A781
102
{ACAD_REACTORS
330
4A784
102
}
330
4A68F
100
AcDbEntity
  8
CUTOUT
100
AcDbCircle
 10
28216.28947874891
 20
23927.89099794591
 30
0.0
 40
16.78299535200576
100
AcDbArc
 50
268.6732916774979
 51
1.326672292598574
  0
DIMENSION
  5
4A782
102
{ACAD_XDICTIONARY
360
4A783
102
}
102
{ACAD_REACTORS
330
4A784
102
}
330
4A68F
100
AcDbEntity
  8
DIMS SPECS
100
AcDbDimension
  2
*D23
 10
28216.28947874891
 20
23927.89099794591
 30
0.0
 11
28300.03792304936
 21
23868.51602586821
 31
0.0
 70
   164
 71
     5
 42
16.78299535192127
  3
abode-iso$4
100
AcDbRadialDimension
 15
28228.05804477788
 25
23915.92564017424
 35
0.0
 40
0.0
1001
ACAD_DSTYLE_DIMRADIAL_EXTENSION
1070
   387
1070
     1
1070
   388
1040
4.689233551943416
1070
   390
1040
0.0231547996008267
  0
LINE
  5
4A785
102
{ACAD_REACTORS
330
4A794
102
}
330
4A68F
100
AcDbEntity
  8
CUTOUT
100
AcDbLine
 10
28429.39282048044
 20
24355.11250169462
 30
0.0
 11
28929.39282048015
 21
24355.11250169462
 31
0.0
  0
ARC
  5
4A786
330
4A68F
100
AcDbEntity
  8
CUTOUT
100
AcDbCircle
 10
28929.39282048015
 20
24333.11250169463
 30
0.0
 40
22.0
100
AcDbArc
 50
0.0
 51
90.0
  0
ARC
  5
4A787
330
4A68F
100
AcDbEntity
  8
CUTOUT
100
AcDbCircle
 10
28429.39282048044
 20
24333.11250169463
 30
0.0
 40
22.0
100
AcDbArc
 50
90.0
 51
180.0
  0
LINE
  5
4A788
102
{ACAD_REACTORS
330
4A797
102
}
330
4A68F
100
AcDbEntity
  8
CUTOUT
100
AcDbLine
 10
28951.39282048015
 20
24333.11250169463
 30
0.0
 11
28951.39282048015
 21
23933.11250169463
 31
0.0
  0
ARC
  5
4A789
102
{ACAD_REACTORS
330
4A79D
102
}
330
4A68F
100
AcDbEntity
  8
CUTOUT
100
AcDbCircle
 10
28929.39282048015
 20
23933.11250169463
 30
0.0
 40
22.0
100
AcDbArc
 50
270.0
 51
0.0
  0
LINE
  5
4A78A
102
{ACAD_REACTORS
330
4A791
102
}
330
4A68F
100
AcDbEntity
  8
CUTOUT
  6
DASHED2
 48
5.0
100
AcDbLine
 10
28934.39282048015
 20
24354.53678698026
 30
0.0
 11
28934.39282048015
 21
23911.688216409
 31
0.0
  0
LINE
  5
4A78B
102
{ACAD_REACTORS
330
4A794
102
}
330
4A68F
100
AcDbEntity
  8
CUTOUT
100
AcDbLine
 10
28929.39282048015
 20
23911.11250169462
 30
0.0
 11
28429.3928204803
 21
23911.11250169462
 31
0.0
  0
ARC
  5
4A78C
330
4A68F
100
AcDbEntity
  8
CUTOUT
100
AcDbCircle
 10
28429.3928204803
 20
23933.11250169463
 30
0.0
 40
22.0
100
AcDbArc
 50
180.0
 51
270.0
  0
LINE
  5
4A78D
102
{ACAD_REACTORS
330
4A797
102
}
330
4A68F
100
AcDbEntity
  8
CUTOUT
100
AcDbLine
 10
28407.3928204803
 20
23933.11250169463
 30
0.0
 11
28407.39282048044
 21
24333.11250169463
 31
0.0
  0
LINE
  5
4A78E
102
{ACAD_REACTORS
330
4A791
102
}
330
4A68F
100
AcDbEntity
  8
CUTOUT
  6
DASHED2
 48
5.0
100
AcDbLine
 10
28424.39282048015
 20
23911.68821640904
 30
0.0
 11
28424.39282048012
 21
24354.72802982271
 31
0.0
  0
DIMENSION
  5
4A78F
102
{ACAD_XDICTIONARY
360
4A790
102
}
102
{ACAD_REACTORS
330
4A791
102
}
330
4A68F
100
AcDbEntity
  8
DIMS SPECS
100
AcDbDimension
  2
*D24
 10
28934.39282048014
 20
23866.34936373301
 30
0.0
 11
28679.39282048014
 21
23866.34936373301
 31
0.0
 70
   160
 71
     5
 42
510.0
  3
abode-iso$0
100
AcDbAlignedDimension
 13
28424.39282048013
 23
24133.20812311587
 33
0.0
 14
28934.39282048014
 24
24133.11250169463
 34
0.0
100
AcDbRotatedDimension
  0
DIMENSION
  5
4A792
102
{ACAD_XDICTIONARY
360
4A793
102
}
102
{ACAD_REACTORS
330
4A794
102
}
330
4A68F
100
AcDbEntity
  8
DIMS SPECS
100
AcDbDimension
  2
*D25
 10
29000.3577860925
 20
24355.11250169462
 30
0.0
 11
29000.3577860925
 21
24133.11250169466
 31
0.0
 70
   160
 71
     5
 42
444.0
  3
abode-iso$0
100
AcDbAlignedDimension
 13
28679.39282048022
 23
23911.11250169462
 33
0.0
 14
28679.39282048031
 24
24355.11250169462
 34
0.0
 50
90.0
100
AcDbRotatedDimension
  0
DIMENSION
  5
4A795
102
{ACAD_XDICTIONARY
360
4A796
102
}
102
{ACAD_REACTORS
330
4A797
102
}
330
4A68F
100
AcDbEntity
  8
DIMS SPECS
100
AcDbDimension
  2
*D26
 10
28951.39282048014
 20
23808.22596160638
 30
0.0
 11
28679.39282048022
 21
23808.22596160638
 31
0.0
 70
   160
 71
     5
 42
543.9999999997671
  3
abode-iso$0
100
AcDbAlignedDimension
 13
28407.39282048037
 23
24133.11250169463
 33
0.0
 14
28951.39282048014
 24
24133.11250169463
 34
0.0
100
AcDbRotatedDimension
  0
MTEXT
  5
4A798
102
{ACAD_XDICTIONARY
360
4A92C
102
}
330
4A68F
100
AcDbEntity
  8
CUTOUT
100
AcDbMText
 10
28421.4227972834
 20
24448.66826995995
 30
0.0
 40
40.0
 41
559.4757407245923
 71
     1
 72
     5
  1
\pi107.74;INSET CUT OUT
 73
     1
 44
1.0
  0
MTEXT
  5
4A799
102
{ACAD_XDICTIONARY
360
4A92E
102
}
330
4A68F
100
AcDbEntity
  8
CUTOUT
  6
DASHED2
 48
5.0
100
AcDbMText
 10
28411.20776720149
 20
24233.94720688619
 30
0.0
 40
40.0
 41
559.4757407245923
 71
     1
 72
     5
  1
\pi178.74;BOWL(S), \P\pi148.74;OVERFLOW,\P\pi161.74;TAP AREA
 73
     1
 44
1.0
  0
LWPOLYLINE
  5
4A79A
330
4A68F
100
AcDbEntity
  8
CUTOUT
  6
DASHED2
 48
5.0
100
AcDbPolyline
 90
        8
 70
     1
 43
0.0
 10
28815.81954681933
 20
24245.93256848047
 10
28562.65927279646
 20
24245.93256848047
 42
0.4142135623730951
 10
28542.65927279647
 20
24225.93256848046
 10
28542.65927279647
 20
24057.97461374759
 42
0.4142135623730951
 10
28562.65927279646
 20
24037.97461374759
 10
28815.81954681933
 20
24037.97461374759
 42
0.4142135623730951
 10
28835.81954681933
 20
24057.97461374759
 10
28835.81954681933
 20
24225.93256848046
 42
0.4142135623730951
1001
GENIUS_GENREC_14
1002
{
1000
PYDIR
1011
28835.81954681933
1021
24037.97461374759
1031
0.0
1002
}
1002
{
1000
PXDIR
1011
28542.65927279647
1021
24245.93256848047
1031
0.0
1002
}
1002
{
1000
PORI
1011
28835.81954681933
1021
24245.93256848047
1031
0.0
1002
}
1002
{
1000
PINS
1011
28835.81954681933
1021
24245.93256848047
1031
0.0
1002
}
1002
{
1000
PINS2
1011
28542.65927279647
1021
24037.97461374759
1031
0.0
1002
}
1002
{
1000
C
1070
     1
1002
}
1001
GENIUS_GENOBJ-N-REC_13
1002
{
1000
OWNER
1000
GEN
1002
}
1001
GENIUS_GENODEF_13
1002
{
1000
HIER
1070
     0
1002
}
1002
{
1000
MANEDIT
1070
     0
1002
}
1002
{
1000
NOSEL
1070
     0
1002
}
1002
{
1000
BEHIND
1070
     0
1002
}
1002
{
1000
OTHER
1070
     0
1002
}
1002
{
1000
REACTOR
1002
}
  0
DIMENSION
  5
4A79B
102
{ACAD_XDICTIONARY
360
4A79C
102
}
102
{ACAD_REACTORS
330
4A79D
102
}
330
4A68F
100
AcDbEntity
  8
DIMS SPECS
100
AcDbDimension
  2
*D27
 10
28929.39282048015
 20
23933.11250169463
 30
0.0
 11
29046.35746548411
 21
23835.40166161798
 31
0.0
 70
   164
 71
     5
 42
22.00000000002183
  3
abode-iso$4
100
AcDbRadialDimension
 15
28944.21316538807
 25
23916.85343109354
 35
0.0
 40
0.0
1001
ACAD_DSTYLE_DIMRADIAL_EXTENSION
1070
   387
1070
     1
1070
   388
1040
4.712388980384688
1070
   390
1040
0.0
  0
ENDSEC
  0
SECTION
  2
OBJECTS
  0
DICTIONARY
  5
4A627
330
0
100
AcDbDictionary
281
     1
  3
ACAD_2007HEADERVARS_RT
350
4A930
  3
ACAD_COLOR
350
4A685
  3
ACAD_GROUP
350
4A628
  3
ACAD_LAYOUT
350
4A684
  3
ACAD_MATERIAL
350
4A62B
  3
ACAD_MLEADERSTYLE
350
4A688
  3
ACAD_MLINESTYLE
350
4A681
  3
ACAD_PLOTSETTINGS
350
4A683
  3
ACAD_PLOTSTYLENAME
350
4A629
  3
ACAD_SCALELIST
350
4A655
  3
ACAD_TABLESTYLE
350
4A686
  3
ACAD_VISUALSTYLE
350
4A644
  3
ACDB_RECOMPOSE_DATA
350
4A883
  3
AcDbVariableDictionary
350
4A873
  3
AcmDictionary
350
4A8DF
  3
AcmSystemVariableManager
350
4A93D
  3
AMG
350
4A8BF
  3
AMGSNAPSETTINGS
350
4A91F
  0
DICTIONARY
  5
4A72E
330
4A61D
100
AcDbDictionary
280
     1
281
     1
  3
ACAD_LAYERSTATES
360
4A72F
  0
DICTIONARY
  5
4A865
330
4A677
100
AcDbDictionary
280
     1
281
     1
  3
ADSK_XREC_LAYER_RECONCILED
360
4A866
  0
DICTIONARY
  5
4A867
330
4A695
100
AcDbDictionary
280
     1
281
     1
  3
ADSK_XREC_LAYER_RECONCILED
360
4A868
  0
DICTIONARY
  5
4A869
330
4A697
100
AcDbDictionary
280
     1
281
     1
  3
ADSK_XREC_LAYER_RECONCILED
360
4A86A
  0
DICTIONARY
  5
4A86B
330
4A698
100
AcDbDictionary
280
     1
281
     1
  3
ADSK_XREC_LAYER_RECONCILED
360
4A86C
  0
DICTIONARY
  5
4A86D
330
4A723
100
AcDbDictionary
280
     1
281
     1
  3
ADSK_XREC_LAYER_RECONCILED
360
4A86E
  0
DICTIONARY
  5
4A86F
330
4A724
100
AcDbDictionary
280
     1
281
     1
  3
ADSK_XREC_LAYER_RECONCILED
360
4A870
  0
DICTIONARY
  5
4A871
330
4A725
100
AcDbDictionary
280
     1
281
     1
  3
ADSK_XREC_LAYER_RECONCILED
360
4A872
  0
DICTIONARY
  5
4A92A
330
4A779
100
AcDbDictionary
280
     1
281
     1
  3
ACAD_MTEXT_2008_RT
360
4A92B
  0
DICTIONARY
  5
4A77C
330
4A77B
100
AcDbDictionary
280
     1
281
     1
  3
ACAD_DIMASSOC
360
4A77D
  0
DICTIONARY
  5
4A77F
330
4A77E
100
AcDbDictionary
280
     1
281
     1
  3
ACAD_DIMASSOC
360
4A780
  0
DICTIONARY
  5
4A783
330
4A782
100
AcDbDictionary
280
     1
281
     1
  3
ACAD_DIMASSOC
360
4A784
  0
DICTIONARY
  5
4A790
330
4A78F
100
AcDbDictionary
280
     1
281
     1
  3
ACAD_DIMASSOC
360
4A791
  0
DICTIONARY
  5
4A793
330
4A792
100
AcDbDictionary
280
     1
281
     1
  3
ACAD_DIMASSOC
360
4A794
  0
DICTIONARY
  5
4A796
330
4A795
100
AcDbDictionary
280
     1
281
     1
  3
ACAD_DIMASSOC
360
4A797
  0
DICTIONARY
  5
4A92C
330
4A798
100
AcDbDictionary
280
     1
281
     1
  3
ACAD_MTEXT_2008_RT
360
4A92D
  0
DICTIONARY
  5
4A92E
330
4A799
100
AcDbDictionary
280
     1
281
     1
  3
ACAD_MTEXT_2008_RT
360
4A92F
  0
DICTIONARY
  5
4A79C
330
4A79B
100
AcDbDictionary
280
     1
281
     1
  3
ACAD_DIMASSOC
360
4A79D
  0
DICTIONARY
  5
4A930
102
{ACAD_REACTORS
330
4A627
102
}
330
4A627
100
AcDbDictionary
281
     1
  3
DIMARCSYM
350
4A931
  3
DIMLTEX1
350
4A933
  3
DIMLTEX2
350
4A934
  3
DIMLTYPE
350
4A932
  0
DICTIONARY
  5
4A685
102
{ACAD_REACTORS
330
4A627
102
}
330
4A627
100
AcDbDictionary
281
     1
  0
DICTIONARY
  5
4A628
102
{ACAD_REACTORS
330
4A627
102
}
330
4A627
100
AcDbDictionary
281
     1
  0
DICTIONARY
  5
4A684
102
{ACAD_REACTORS
330
4A627
102
}
330
4A627
100
AcDbDictionary
281
     1
  3
Layout1
350
4A68E
  3
Model
350
4A692
  0
DICTIONARY
  5
4A62B
102
{ACAD_REACTORS
330
4A627
102
}
330
4A627
100
AcDbDictionary
281
     1
  3
ByBlock
350
4A634
  3
ByLayer
350
4A62C
  3
Global
350
4A63C
  0
DICTIONARY
  5
4A688
102
{ACAD_REACTORS
330
4A627
102
}
330
4A627
100
AcDbDictionary
281
     1
  3
Standard
350
4A689
  0
DICTIONARY
  5
4A681
102
{ACAD_REACTORS
330
4A627
102
}
330
4A627
100
AcDbDictionary
281
     1
  3
Standard
350
4A682
  0
DICTIONARY
  5
4A683
102
{ACAD_REACTORS
330
4A627
102
}
330
4A627
100
AcDbDictionary
281
     1
  0
ACDBDICTIONARYWDFLT
  5
4A629
102
{ACAD_REACTORS
330
4A627
102
}
330
4A627
100
AcDbDictionary
281
     1
  3
Normal
350
4A62A
100
AcDbDictionaryWithDefault
340
4A62A
  0
DICTIONARY
  5
4A655
102
{ACAD_REACTORS
330
4A627
102
}
330
4A627
100
AcDbDictionary
281
     1
  3
A0
350
4A656
  3
A1
350
4A657
  3
A2
350
4A658
  3
A3
350
4A659
  3
A4
350
4A65A
  3
A5
350
4A65B
  3
A6
350
4A65C
  3
A7
350
4A65D
  3
A8
350
4A65E
  3
A9
350
4A65F
  3
B0
350
4A660
  3
B1
350
4A661
  3
B2
350
4A662
  3
B3
350
4A663
  3
B4
350
4A664
  3
B5
350
4A665
  3
B6
350
4A666
  3
B7
350
4A667
  3
B8
350
4A668
  3
B9
350
4A669
  3
C0
350
4A66A
  3
C1
350
4A66B
  3
C2
350
4A66C
  3
C3
350
4A66D
  3
C4
350
4A66E
  3
C5
350
4A66F
  3
C6
350
4A670
  3
C7
350
4A671
  3
C8
350
4A672
  3
C9
350
4A673
  3
D0
350
4A674
  3
D1
350
4A675
  3
D2
350
4A676
  0
DICTIONARY
  5
4A686
102
{ACAD_REACTORS
330
4A627
102
}
330
4A627
100
AcDbDictionary
281
     1
  3
Standard
350
4A687
  0
DICTIONARY
  5
4A644
102
{ACAD_REACTORS
330
4A627
102
}
330
4A627
100
AcDbDictionary
281
     1
  3
2dWireframe
350
4A64A
  3
3D Hidden
350
4A64C
  3
3dWireframe
350
4A64B
  3
Basic
350
4A649
  3
Brighten
350
4A650
  3
ColorChange
350
4A654
  3
Conceptual
350
4A64D
  3
Dim
350
4A64F
  3
Facepattern
350
4A653
  3
Flat
350
4A645
  3
FlatWithEdges
350
4A646
  3
Gouraud
350
4A647
  3
GouraudWithEdges
350
4A648
  3
Linepattern
350
4A652
  3
Realistic
350
4A64E
  3
Thicken
350
4A651
  0
XRECORD
  5
4A883
102
{ACAD_REACTORS
330
4A627
102
}
330
4A627
100
AcDbXrecord
280
     1
 90
        1
330
4A687
330
4A779
330
4A798
330
4A799
  0
DICTIONARY
  5
4A873
102
{ACAD_REACTORS
330
4A627
102
}
330
4A627
100
AcDbDictionary
281
     1
  3
CANNOSCALE
350
4A877
  3
CMLEADERSTYLE
350
4A875
  3
CTABLESTYLE
350
4A874
  3
LAYEREVAL
350
4A879
  3
LAYERNOTIFY
350
4A87A
  3
LIGHTINGUNITS
350
4A878
  3
LOFTANG1
350
4A926
  3
LOFTANG2
350
4A927
  3
LONGITUDE
350
4A928
  3
MSLTSCALE
350
4A876
  0
DICTIONARY
  5
4A8DF
102
{ACAD_REACTORS
330
4A627
102
}
330
4A627
100
AcDbDictionary
281
     1
  3
AcmStdDictionary
350
4A8E8
  0
DICTIONARY
  5
4A8BF
102
{ACAD_REACTORS
330
4A627
102
}
330
4A627
100
AcDbDictionary
281
     1
  0
DICTIONARY
  5
4A91F
102
{ACAD_REACTORS
330
4A627
102
}
330
4A627
100
AcDbDictionary
281
     1
  0
DICTIONARY
  5
4A72F
102
{ACAD_REACTORS
330
4A72E
102
}
330
4A72E
100
AcDbDictionary
281
     1
  0
XRECORD
  5
4A866
102
{ACAD_REACTORS
330
4A865
102
}
330
4A865
100
AcDbXrecord
280
     1
290
     1
  0
XRECORD
  5
4A868
102
{ACAD_REACTORS
330
4A867
102
}
330
4A867
100
AcDbXrecord
280
     1
290
     1
  0
XRECORD
  5
4A86A
102
{ACAD_REACTORS
330
4A869
102
}
330
4A869
100
AcDbXrecord
280
     1
290
     1
  0
XRECORD
  5
4A86C
102
{ACAD_REACTORS
330
4A86B
102
}
330
4A86B
100
AcDbXrecord
280
     1
290
     1
  0
XRECORD
  5
4A86E
102
{ACAD_REACTORS
330
4A86D
102
}
330
4A86D
100
AcDbXrecord
280
     1
290
     1
  0
XRECORD
  5
4A870
102
{ACAD_REACTORS
330
4A86F
102
}
330
4A86F
100
AcDbXrecord
280
     1
290
     1
  0
XRECORD
  5
4A872
102
{ACAD_REACTORS
330
4A871
102
}
330
4A871
100
AcDbXrecord
280
     1
290
     1
  0
XRECORD
  5
4A92B
102
{ACAD_REACTORS
330
4A92A
102
}
330
4A92A
100
AcDbXrecord
280
     1
 40
12506.0
  1
\pxqc;UNDERMOUNT CUT OUT
  0
DIMASSOC
  5
4A77D
102
{ACAD_REACTORS
330
4A77C
102
}
330
4A77C
100
AcDbDimAssoc
330
4A77B
 90
        3
 70
     0
 71
     0
  1
AcDbOsnapPointRef
 72
    13
331
4A76F
 73
     2
 91
        0
 40
0.0
 10
0.0
 20
0.0
 30
2.000000000000000E+50
 75
     0
  1
AcDbOsnapPointRef
 72
     1
331
4A776
 73
     2
 91
        0
 40
1.0
 10
0.0
 20
0.0
 30
2.000000000000000E+50
 75
     0
  0
DIMASSOC
  5
4A780
102
{ACAD_REACTORS
330
4A77F
102
}
330
4A77F
100
AcDbDimAssoc
330
4A77E
 90
        3
 70
     0
 71
     0
  1
AcDbOsnapPointRef
 72
     1
331
4A777
 73
     2
 91
        0
 40
1.0
 10
0.0
 20
0.0
 30
2.000000000000000E+50
 75
     0
  1
AcDbOsnapPointRef
 72
    13
331
4A76D
 73
     2
 91
        0
 40
0.0
 10
0.0
 20
0.0
 30
2.000000000000000E+50
 75
     0
  0
DIMASSOC
  5
4A784
102
{ACAD_REACTORS
330
4A783
102
}
330
4A783
100
AcDbDimAssoc
330
4A782
 90
        2
 70
     0
 71
     0
  1
AcDbOsnapPointRef
 72
     3
331
4A781
 73
     2
 91
        0
 40
0.0
 10
0.0
 20
0.0
 30
0.0
 75
     0
  0
DIMASSOC
  5
4A791
102
{ACAD_REACTORS
330
4A790
102
}
330
4A790
100
AcDbDimAssoc
330
4A78F
 90
        3
 70
     0
 71
     0
  1
AcDbOsnapPointRef
 72
     2
331
4A78E
 73
     2
 91
        0
 40
0.5
 10
0.0
 20
0.0
 30
0.0
 75
     0
  1
AcDbOsnapPointRef
 72
     2
331
4A78A
 73
     2
 91
        0
 40
0.5
 10
0.0
 20
0.0
 30
0.0
 75
     0
  0
DIMASSOC
  5
4A794
102
{ACAD_REACTORS
330
4A793
102
}
330
4A793
100
AcDbDimAssoc
330
4A792
 90
        3
 70
     0
 71
     0
  1
AcDbOsnapPointRef
 72
     2
331
4A78B
 73
     2
 91
        0
 40
0.5
 10
0.0
 20
0.0
 30
0.0
 75
     0
  1
AcDbOsnapPointRef
 72
     2
331
4A785
 73
     2
 91
        0
 40
0.500000000000029
 10
0.0
 20
0.0
 30
0.0
 75
     0
  0
DIMASSOC
  5
4A797
102
{ACAD_REACTORS
330
4A796
102
}
330
4A796
100
AcDbDimAssoc
330
4A795
 90
        3
 70
     0
 71
     0
  1
AcDbOsnapPointRef
 72
     2
331
4A78D
 73
     2
 91
        0
 40
0.5
 10
0.0
 20
0.0
 30
0.0
 75
     0
  1
AcDbOsnapPointRef
 72
     2
331
4A788
 73
     2
 91
        0
 40
0.5
 10
0.0
 20
0.0
 30
0.0
 75
     0
  0
XRECORD
  5
4A92D
102
{ACAD_REACTORS
330
4A92C
102
}
330
4A92C
100
AcDbXrecord
280
     1
 40
19139.0
  1
\pxqc;INSET CUT OUT
  0
XRECORD
  5
4A92F
102
{ACAD_REACTORS
330
4A92E
102
}
330
4A92E
100
AcDbXrecord
280
     1
 40
125417.0
  1
\pxqc;BOWL(S), \POVERFLOW,\PTAP AREA
  0
DIMASSOC
  5
4A79D
102
{ACAD_REACTORS
330
4A79C
102
}
330
4A79C
100
AcDbDimAssoc
330
4A79B
 90
        2
 70
     0
 71
     0
  1
AcDbOsnapPointRef
 72
     3
331
4A789
 73
     2
 91
        0
 40
0.0
 10
0.0
 20
0.0
 30
0.0
 75
     0
  0
XRECORD
  5
4A931
102
{ACAD_REACTORS
330
4A930
102
}
330
4A930
100
AcDbXrecord
280
     1
 70
     1
  0
XRECORD
  5
4A933
102
{ACAD_REACTORS
330
4A930
102
}
330
4A930
100
AcDbXrecord
280
     1
340
4A67D
  0
XRECORD
  5
4A934
102
{ACAD_REACTORS
330
4A930
102
}
330
4A930
100
AcDbXrecord
280
     1
340
4A67D
  0
XRECORD
  5
4A932
102
{ACAD_REACTORS
330
4A930
102
}
330
4A930
100
AcDbXrecord
280
     1
340
4A67D
  0
LAYOUT
  5
4A68E
102
{ACAD_REACTORS
330
4A684
102
}
330
4A684
100
AcDbPlotSettings
  1

  2
\\ABODESERVER\upstairs
  4

  6

 40
0.0
 41
0.0
 42
0.0
 43
0.0
 44
0.0
 45
0.0
 46
0.0
 47
0.0
 48
0.0
 49
0.0
140
0.0
141
0.0
142
1.0
143
1.0
 70
   688
 72
     0
 73
     0
 74
     5
  7

 75
    16
147
1.0
 76
     0
 77
     2
 78
   300
148
0.0
149
0.0
100
AcDbLayout
  1
Layout1
 70
     1
 71
     1
 10
0.0
 20
0.0
 11
420.0
 21
297.0
 12
0.0
 22
0.0
 32
0.0
 14
1.000000000000000E+20
 24
1.000000000000000E+20
 34
1.000000000000000E+20
 15
-1.000000000000000E+20
 25
-1.000000000000000E+20
 35
-1.000000000000000E+20
146
0.0
 13
0.0
 23
0.0
 33
0.0
 16
1.0
 26
0.0
 36
0.0
 17
0.0
 27
1.0
 37
0.0
 76
     0
330
4A68B
  0
LAYOUT
  5
4A692
102
{ACAD_REACTORS
330
4A684
102
}
330
4A684
100
AcDbPlotSettings
  1

  2
\\ABODESERVER\upstairs
  4

  6

 40
0.0
 41
0.0
 42
0.0
 43
0.0
 44
0.0
 45
0.0
 46
0.0
 47
0.0
 48
0.0
 49
0.0
140
0.0
141
0.0
142
1.0
143
1.0
 70
  1712
 72
     0
 73
     0
 74
     0
  7

 75
     0
147
1.0
 76
     0
 77
     2
 78
   300
148
0.0
149
0.0
100
AcDbLayout
  1
Model
 70
     1
 71
     0
 10
0.0
 20
0.0
 11
12.0
 21
9.0
 12
0.0
 22
0.0
 32
0.0
 14
0.0
 24
0.0
 34
0.0
 15
0.0
 25
0.0
 35
0.0
146
0.0
 13
0.0
 23
0.0
 33
0.0
 16
1.0
 26
0.0
 36
0.0
 17
0.0
 27
1.0
 37
0.0
 76
     0
330
4A68F
331
4A693
  0
MATERIAL
  5
4A634
102
{ACAD_XDICTIONARY
360
4A635
102
}
102
{ACAD_REACTORS
330
4A62B
102
}
330
4A62B
100
AcDbMaterial
  1
ByBlock
 72
     0
 43
0.0208333333333333
 43
0.0
 43
0.0
 43
0.0
 43
0.0
 43
0.0208333333333333
 43
0.0
 43
0.0
 43
0.0
 43
0.0
 43
1.0
 43
0.0
 43
0.0
 43
0.0
 43
0.0
 43
1.0
 77
     0
 47
0.0208333333333333
 47
0.0
 47
0.0
 47
0.0
 47
0.0
 47
0.0208333333333333
 47
0.0
 47
0.0
 47
0.0
 47
0.0
 47
1.0
 47
0.0
 47
0.0
 47
0.0
 47
0.0
 47
1.0
171
     0
 49
0.0208333333333333
 49
0.0
 49
0.0
 49
0.0
 49
0.0
 49
0.0208333333333333
 49
0.0
 49
0.0
 49
0.0
 49
0.0
 49
1.0
 49
0.0
 49
0.0
 49
0.0
 49
0.0
 49
1.0
175
     0
142
0.0208333333333333
142
0.0
142
0.0
142
0.0
142
0.0
142
0.0208333333333333
142
0.0
142
0.0
142
0.0
142
0.0
142
1.0
142
0.0
142
0.0
142
0.0
142
0.0
142
1.0
179
     0
144
0.0208333333333333
144
0.0
144
0.0
144
0.0
144
0.0
144
0.0208333333333333
144
0.0
144
0.0
144
0.0
144
0.0
144
1.0
144
0.0
144
0.0
144
0.0
144
0.0
144
1.0
147
0.0208333333333333
147
0.0
147
0.0
147
0.0
147
0.0
147
0.0208333333333333
147
0.0
147
0.0
147
0.0
147
0.0
147
1.0
147
0.0
147
0.0
147
0.0
147
0.0
147
1.0
  0
MATERIAL
  5
4A62C
102
{ACAD_XDICTIONARY
360
4A62D
102
}
102
{ACAD_REACTORS
330
4A62B
102
}
330
4A62B
100
AcDbMaterial
  1
ByLayer
 72
     0
 43
0.0208333333333333
 43
0.0
 43
0.0
 43
0.0
 43
0.0
 43
0.0208333333333333
 43
0.0
 43
0.0
 43
0.0
 43
0.0
 43
1.0
 43
0.0
 43
0.0
 43
0.0
 43
0.0
 43
1.0
 77
     0
 47
0.0208333333333333
 47
0.0
 47
0.0
 47
0.0
 47
0.0
 47
0.0208333333333333
 47
0.0
 47
0.0
 47
0.0
 47
0.0
 47
1.0
 47
0.0
 47
0.0
 47
0.0
 47
0.0
 47
1.0
171
     0
 49
0.0208333333333333
 49
0.0
 49
0.0
 49
0.0
 49
0.0
 49
0.0208333333333333
 49
0.0
 49
0.0
 49
0.0
 49
0.0
 49
1.0
 49
0.0
 49
0.0
 49
0.0
 49
0.0
 49
1.0
175
     0
142
0.0208333333333333
142
0.0
142
0.0
142
0.0
142
0.0
142
0.0208333333333333
142
0.0
142
0.0
142
0.0
142
0.0
142
1.0
142
0.0
142
0.0
142
0.0
142
0.0
142
1.0
179
     0
144
0.0208333333333333
144
0.0
144
0.0
144
0.0
144
0.0
144
0.0208333333333333
144
0.0
144
0.0
144
0.0
144
0.0
144
1.0
144
0.0
144
0.0
144
0.0
144
0.0
144
1.0
147
0.0208333333333333
147
0.0
147
0.0
147
0.0
147
0.0
147
0.0208333333333333
147
0.0
147
0.0
147
0.0
147
0.0
147
1.0
147
0.0
147
0.0
147
0.0
147
0.0
147
1.0
  0
MATERIAL
  5
4A63C
102
{ACAD_XDICTIONARY
360
4A63D
102
}
102
{ACAD_REACTORS
330
4A62B
102
}
330
4A62B
100
AcDbMaterial
  1
Global
 72
     0
 43
0.0208333333333333
 43
0.0
 43
0.0
 43
0.0
 43
0.0
 43
0.0208333333333333
 43
0.0
 43
0.0
 43
0.0
 43
0.0
 43
1.0
 43
0.0
 43
0.0
 43
0.0
 43
0.0
 43
1.0
 77
     0
 47
0.0208333333333333
 47
0.0
 47
0.0
 47
0.0
 47
0.0
 47
0.0208333333333333
 47
0.0
 47
0.0
 47
0.0
 47
0.0
 47
1.0
 47
0.0
 47
0.0
 47
0.0
 47
0.0
 47
1.0
171
     0
 49
0.0208333333333333
 49
0.0
 49
0.0
 49
0.0
 49
0.0
 49
0.0208333333333333
 49
0.0
 49
0.0
 49
0.0
 49
0.0
 49
1.0
 49
0.0
 49
0.0
 49
0.0
 49
0.0
 49
1.0
175
     0
142
0.0208333333333333
142
0.0
142
0.0
142
0.0
142
0.0
142
0.0208333333333333
142
0.0
142
0.0
142
0.0
142
0.0
142
1.0
142
0.0
142
0.0
142
0.0
142
0.0
142
1.0
179
     0
144
0.0208333333333333
144
0.0
144
0.0
144
0.0
144
0.0
144
0.0208333333333333
144
0.0
144
0.0
144
0.0
144
0.0
144
1.0
144
0.0
144
0.0
144
0.0
144
0.0
144
1.0
147
0.0208333333333333
147
0.0
147
0.0
147
0.0
147
0.0
147
0.0208333333333333
147
0.0
147
0.0
147
0.0
147
0.0
147
1.0
147
0.0
147
0.0
147
0.0
147
0.0
147
1.0
  0
MLEADERSTYLE
  5
4A689
102
{ACAD_REACTORS
330
4A688
102
}
330
4A688
100
AcDbMLeaderStyle
170
     2
171
     1
172
     0
 90
        2
 40
0.0
 41
0.0
173
     1
 91
-1056964608
340
4A67D
 92
       -2
290
     1
 42
0.09
291
     1
 43
0.36
  3
Standard
 44
0.18
300

342
4A678
174
     1
178
     6
175
     1
176
     0
 93
-1056964608
 45
0.18
292
     0
297
     0
 46
0.18
 94
-1056964608
 47
1.0
 49
1.0
140
1.0
293
     1
141
0.0
294
     1
177
     0
142
1.0
295
     0
296
     0
143
0.125
1001
ACAD_MLEADERVER
1070
     2
  0
MLINESTYLE
  5
4A682
102
{ACAD_REACTORS
330
4A681
102
}
330
4A681
100
AcDbMlineStyle
  2
STANDARD
 70
     0
  3

 62
   256
 51
90.0
 52
90.0
 71
     2
 49
0.5
 62
   256
  6
BYLAYER
 49
-0.5
 62
   256
  6
BYLAYER
  0
ACDBPLACEHOLDER
  5
4A62A
102
{ACAD_REACTORS
330
4A629
102
}
330
4A629
  0
SCALE
  5
4A656
102
{ACAD_REACTORS
330
4A655
102
}
330
4A655
100
AcDbScale
 70
     0
300
1:1
140
1.0
141
1.0
290
     1
  0
SCALE
  5
4A657
102
{ACAD_REACTORS
330
4A655
102
}
330
4A655
100
AcDbScale
 70
     0
300
1:2
140
1.0
141
2.0
290
     0
  0
SCALE
  5
4A658
102
{ACAD_REACTORS
330
4A655
102
}
330
4A655
100
AcDbScale
 70
     0
300
1:4
140
1.0
141
4.0
290
     0
  0
SCALE
  5
4A659
102
{ACAD_REACTORS
330
4A655
102
}
330
4A655
100
AcDbScale
 70
     0
300
1:5
140
1.0
141
5.0
290
     0
  0
SCALE
  5
4A65A
102
{ACAD_REACTORS
330
4A655
102
}
330
4A655
100
AcDbScale
 70
     0
300
1:8
140
1.0
141
8.0
290
     0
  0
SCALE
  5
4A65B
102
{ACAD_REACTORS
330
4A655
102
}
330
4A655
100
AcDbScale
 70
     0
300
1:10
140
1.0
141
10.0
290
     0
  0
SCALE
  5
4A65C
102
{ACAD_REACTORS
330
4A655
102
}
330
4A655
100
AcDbScale
 70
     0
300
1:16
140
1.0
141
16.0
290
     0
  0
SCALE
  5
4A65D
102
{ACAD_REACTORS
330
4A655
102
}
330
4A655
100
AcDbScale
 70
     0
300
1:20
140
1.0
141
20.0
290
     0
  0
SCALE
  5
4A65E
102
{ACAD_REACTORS
330
4A655
102
}
330
4A655
100
AcDbScale
 70
     0
300
1:30
140
1.0
141
30.0
290
     0
  0
SCALE
  5
4A65F
102
{ACAD_REACTORS
330
4A655
102
}
330
4A655
100
AcDbScale
 70
     0
300
1:40
140
1.0
141
40.0
290
     0
  0
SCALE
  5
4A660
102
{ACAD_REACTORS
330
4A655
102
}
330
4A655
100
AcDbScale
 70
     0
300
1:50
140
1.0
141
50.0
290
     0
  0
SCALE
  5
4A661
102
{ACAD_REACTORS
330
4A655
102
}
330
4A655
100
AcDbScale
 70
     0
300
1:100
140
1.0
141
100.0
290
     0
  0
SCALE
  5
4A662
102
{ACAD_REACTORS
330
4A655
102
}
330
4A655
100
AcDbScale
 70
     0
300
2:1
140
2.0
141
1.0
290
     0
  0
SCALE
  5
4A663
102
{ACAD_REACTORS
330
4A655
102
}
330
4A655
100
AcDbScale
 70
     0
300
4:1
140
4.0
141
1.0
290
     0
  0
SCALE
  5
4A664
102
{ACAD_REACTORS
330
4A655
102
}
330
4A655
100
AcDbScale
 70
     0
300
8:1
140
8.0
141
1.0
290
     0
  0
SCALE
  5
4A665
102
{ACAD_REACTORS
330
4A655
102
}
330
4A655
100
AcDbScale
 70
     0
300
10:1
140
10.0
141
1.0
290
     0
  0
SCALE
  5
4A666
102
{ACAD_REACTORS
330
4A655
102
}
330
4A655
100
AcDbScale
 70
     0
300
100:1
140
100.0
141
1.0
290
     0
  0
SCALE
  5
4A667
102
{ACAD_REACTORS
330
4A655
102
}
330
4A655
100
AcDbScale
 70
     0
300
1/128" = 1'-0"
140
0.0078125
141
12.0
290
     0
  0
SCALE
  5
4A668
102
{ACAD_REACTORS
330
4A655
102
}
330
4A655
100
AcDbScale
 70
     0
300
1/64" = 1'-0"
140
0.015625
141
12.0
290
     0
  0
SCALE
  5
4A669
102
{ACAD_REACTORS
330
4A655
102
}
330
4A655
100
AcDbScale
 70
     0
300
1/32" = 1'-0"
140
0.03125
141
12.0
290
     0
  0
SCALE
  5
4A66A
102
{ACAD_REACTORS
330
4A655
102
}
330
4A655
100
AcDbScale
 70
     0
300
1/16" = 1'-0"
140
0.0625
141
12.0
290
     0
  0
SCALE
  5
4A66B
102
{ACAD_REACTORS
330
4A655
102
}
330
4A655
100
AcDbScale
 70
     0
300
3/32" = 1'-0"
140
0.09375
141
12.0
290
     0
  0
SCALE
  5
4A66C
102
{ACAD_REACTORS
330
4A655
102
}
330
4A655
100
AcDbScale
 70
     0
300
1/8" = 1'-0"
140
0.125
141
12.0
290
     0
  0
SCALE
  5
4A66D
102
{ACAD_REACTORS
330
4A655
102
}
330
4A655
100
AcDbScale
 70
     0
300
3/16" = 1'-0"
140
0.1875
141
12.0
290
     0
  0
SCALE
  5
4A66E
102
{ACAD_REACTORS
330
4A655
102
}
330
4A655
100
AcDbScale
 70
     0
300
1/4" = 1'-0"
140
0.25
141
12.0
290
     0
  0
SCALE
  5
4A66F
102
{ACAD_REACTORS
330
4A655
102
}
330
4A655
100
AcDbScale
 70
     0
300
3/8" = 1'-0"
140
0.375
141
12.0
290
     0
  0
SCALE
  5
4A670
102
{ACAD_REACTORS
330
4A655
102
}
330
4A655
100
AcDbScale
 70
     0
300
1/2" = 1'-0"
140
0.5
141
12.0
290
     0
  0
SCALE
  5
4A671
102
{ACAD_REACTORS
330
4A655
102
}
330
4A655
100
AcDbScale
 70
     0
300
3/4" = 1'-0"
140
0.75
141
12.0
290
     0
  0
SCALE
  5
4A672
102
{ACAD_REACTORS
330
4A655
102
}
330
4A655
100
AcDbScale
 70
     0
300
1" = 1'-0"
140
1.0
141
12.0
290
     0
  0
SCALE
  5
4A673
102
{ACAD_REACTORS
330
4A655
102
}
330
4A655
100
AcDbScale
 70
     0
300
1-1/2" = 1'-0"
140
1.5
141
12.0
290
     0
  0
SCALE
  5
4A674
102
{ACAD_REACTORS
330
4A655
102
}
330
4A655
100
AcDbScale
 70
     0
300
3" = 1'-0"
140
3.0
141
12.0
290
     0
  0
SCALE
  5
4A675
102
{ACAD_REACTORS
330
4A655
102
}
330
4A655
100
AcDbScale
 70
     0
300
6" = 1'-0"
140
6.0
141
12.0
290
     0
  0
SCALE
  5
4A676
102
{ACAD_REACTORS
330
4A655
102
}
330
4A655
100
AcDbScale
 70
     0
300
1'-0" = 1'-0"
140
12.0
141
12.0
290
     0
  0
TABLESTYLE
  5
4A687
102
{ACAD_XDICTIONARY
360
4A87B
102
}
102
{ACAD_REACTORS
330
4A686
102
}
330
4A686
100
AcDbTableStyle
  3
Standard
 70
     0
 71
     0
 40
0.06
 41
0.06
280
     0
281
     0
  7
STANDARD
140
0.18
170
     2
 62
     0
 63
     7
283
     0
274
    -2
284
     1
 64
     0
275
    -2
285
     1
 65
     0
276
    -2
286
     1
 66
     0
277
    -2
287
     1
 67
     0
278
    -2
288
     1
 68
     0
279
    -2
289
     1
 69
     0
  7
STANDARD
140
0.25
170
     5
 62
     0
 63
     7
283
     0
274
    -2
284
     1
 64
     0
275
    -2
285
     1
 65
     0
276
    -2
286
     1
 66
     0
277
    -2
287
     1
 67
     0
278
    -2
288
     1
 68
     0
279
    -2
289
     1
 69
     0
  7
STANDARD
140
0.18
170
     5
 62
     0
 63
     7
283
     0
274
    -2
284
     1
 64
     0
275
    -2
285
     1
 65
     0
276
    -2
286
     1
 66
     0
277
    -2
287
     1
 67
     0
278
    -2
288
     1
 68
     0
279
    -2
289
     1
 69
     0
  0
VISUALSTYLE
  5
4A64A
102
{ACAD_REACTORS
330
4A644
102
}
330
4A644
100
AcDbVisualStyle
  2
2dWireframe
 70
     4
 71
     0
 72
     2
 73
     0
 90
        0
 40
-0.6
 41
-30.0
 62
     5
 63
     7
421
 16777215
 74
     1
 91
        4
 64
     7
 65
   257
 75
     1
175
     1
 42
1.0
 92
        0
 66
   257
 43
1.0
 76
     1
 77
     6
 78
     2
 67
     7
 79
     5
170
     0
171
     0
290
     0
174
     0
 93
        1
 44
0.0
173
     0
291
     0
 45
0.0
1001
ACAD
1000
AcDbSavedByObjectVersion
1070
     0
  0
VISUALSTYLE
  5
4A64C
102
{ACAD_REACTORS
330
4A644
102
}
330
4A644
100
AcDbVisualStyle
  2
3D Hidden
 70
     6
 71
     1
 72
     2
 73
     2
 90
        0
 40
-0.6
 41
-30.0
 62
     5
 63
     7
421
 16777215
 74
     2
 91
        2
 64
     7
 65
   257
 75
     2
175
     1
 42
40.0
 92
        0
 66
   257
 43
1.0
 76
     1
 77
     6
 78
     2
 67
     7
 79
     3
170
     0
171
     0
290
     0
174
     0
 93
        1
 44
0.0
173
     0
291
     0
 45
0.0
1001
ACAD
1000
AcDbSavedByObjectVersion
1070
     0
  0
VISUALSTYLE
  5
4A64B
102
{ACAD_REACTORS
330
4A644
102
}
330
4A644
100
AcDbVisualStyle
  2
3dWireframe
 70
     5
 71
     0
 72
     2
 73
     0
 90
        0
 40
-0.6
 41
-30.0
 62
     5
 63
     7
421
 16777215
 74
     1
 91
        4
 64
     7
 65
   257
 75
     1
175
     1
 42
1.0
 92
        0
 66
   257
 43
1.0
 76
     1
 77
     6
 78
     2
 67
     7
 79
     5
170
     0
171
     0
290
     0
174
     0
 93
        1
 44
0.0
173
     0
291
     0
 45
0.0
1001
ACAD
1000
AcDbSavedByObjectVersion
1070
     0
  0
VISUALSTYLE
  5
4A649
102
{ACAD_REACTORS
330
4A644
102
}
330
4A644
100
AcDbVisualStyle
  2
Basic
 70
     7
 71
     1
 72
     0
 73
     1
 90
        0
 40
-0.6
 41
-30.0
 62
     5
 63
     7
421
 16777215
 74
     0
 91
        4
 64
     7
 65
   257
 75
     1
175
     1
 42
1.0
 92
        8
 66
     7
 43
1.0
 76
     1
 77
     6
 78
     2
 67
     7
 79
     5
170
     0
171
     0
290
     0
174
     0
 93
        1
 44
0.0
173
     0
291
     1
 45
0.0
1001
ACAD
1000
AcDbSavedByObjectVersion
1070
     0
  0
VISUALSTYLE
  5
4A650
102
{ACAD_REACTORS
330
4A644
102
}
330
4A644
100
AcDbVisualStyle
  2
Brighten
 70
    12
 71
     2
 72
     2
 73
     0
 90
        0
 40
-0.6
 41
-30.0
 62
     5
 63
     7
421
 16777215
 74
     1
 91
        4
 64
     7
 65
   257
 75
     1
175
     1
 42
1.0
 92
        8
 66
     7
 43
1.0
 76
     1
 77
     6
 78
     2
 67
     7
 79
     5
170
     0
171
     0
290
     0
174
     0
 93
        1
 44
50.0
173
     0
291
     1
 45
0.0
1001
ACAD
1000
AcDbSavedByObjectVersion
1070
     0
  0
VISUALSTYLE
  5
4A654
102
{ACAD_REACTORS
330
4A644
102
}
330
4A644
100
AcDbVisualStyle
  2
ColorChange
 70
    16
 71
     2
 72
     2
 73
     3
 90
        0
 40
-0.6
 41
-30.0
 62
     5
 63
     8
421
  8421504
 74
     1
 91
        4
 64
     7
 65
   257
 75
     1
175
     1
 42
1.0
 92
        8
 66
     8
424
  8421504
 43
1.0
 76
     1
 77
     6
 78
     2
 67
     7
 79
     5
170
     0
171
     0
290
     0
174
     0
 93
        1
 44
0.0
173
     0
291
     1
 45
0.0
1001
ACAD
1000
AcDbSavedByObjectVersion
1070
     0
  0
VISUALSTYLE
  5
4A64D
102
{ACAD_REACTORS
330
4A644
102
}
330
4A644
100
AcDbVisualStyle
  2
Conceptual
 70
     9
 71
     3
 72
     2
 73
     0
 90
        0
 40
-0.6
 41
-30.0
 62
     5
 63
     7
421
 16777215
 74
     2
 91
        2
 64
     7
 65
   257
 75
     1
175
     1
 42
40.0
 92
        8
 66
     7
 43
1.0
 76
     1
 77
     6
 78
     2
 67
     7
 79
     3
170
     0
171
     0
290
     0
174
     0
 93
        1
 44
0.0
173
     0
291
     0
 45
0.0
1001
ACAD
1000
AcDbSavedByObjectVersion
1070
     0
  0
VISUALSTYLE
  5
4A64F
102
{ACAD_REACTORS
330
4A644
102
}
330
4A644
100
AcDbVisualStyle
  2
Dim
 70
    11
 71
     2
 72
     2
 73
     0
 90
        0
 40
-0.6
 41
-30.0
 62
     5
 63
     7
421
 16777215
 74
     1
 91
        4
 64
     7
 65
   257
 75
     1
175
     1
 42
1.0
 92
        8
 66
     7
 43
1.0
 76
     1
 77
     6
 78
     2
 67
     7
 79
     5
170
     0
171
     0
290
     0
174
     0
 93
        1
 44
-50.0
173
     0
291
     1
 45
0.0
1001
ACAD
1000
AcDbSavedByObjectVersion
1070
     0
  0
VISUALSTYLE
  5
4A653
102
{ACAD_REACTORS
330
4A644
102
}
330
4A644
100
AcDbVisualStyle
  2
Facepattern
 70
    15
 71
     2
 72
     2
 73
     0
 90
        0
 40
-0.6
 41
-30.0
 62
     5
 63
     7
421
 16777215
 74
     1
 91
        4
 64
     7
 65
   257
 75
     1
175
     1
 42
1.0
 92
        8
 66
     7
 43
1.0
 76
     1
 77
     6
 78
     2
 67
     7
 79
     5
170
     0
171
     0
290
     0
174
     0
 93
        1
 44
0.0
173
     0
291
     1
 45
0.0
1001
ACAD
1000
AcDbSavedByObjectVersion
1070
     0
  0
VISUALSTYLE
  5
4A645
102
{ACAD_REACTORS
330
4A644
102
}
330
4A644
100
AcDbVisualStyle
  2
Flat
 70
     0
 71
     2
 72
     1
 73
     1
 90
        2
 40
-0.6
 41
30.0
 62
     5
 63
     7
421
 16777215
 74
     0
 91
        4
 64
     7
 65
   257
 75
     1
175
     1
 42
1.0
 92
        8
 66
     7
 43
1.0
 76
     1
 77
     6
 78
     2
 67
     7
 79
     5
170
     0
171
     0
290
     0
174
     0
 93
       13
 44
0.0
173
     0
291
     1
 45
0.0
1001
ACAD
1000
AcDbSavedByObjectVersion
1070
     0
  0
VISUALSTYLE
  5
4A646
102
{ACAD_REACTORS
330
4A644
102
}
330
4A644
100
AcDbVisualStyle
  2
FlatWithEdges
 70
     1
 71
     2
 72
     1
 73
     1
 90
        2
 40
-0.6
 41
30.0
 62
     5
 63
     7
421
 16777215
 74
     1
 91
        4
 64
     7
 65
   257
 75
     1
175
     1
 42
1.0
 92
        0
 66
   257
 43
1.0
 76
     1
 77
     6
 78
     2
 67
     7
 79
     5
170
     0
171
     0
290
     0
174
     0
 93
       13
 44
0.0
173
     0
291
     1
 45
0.0
1001
ACAD
1000
AcDbSavedByObjectVersion
1070
     0
  0
VISUALSTYLE
  5
4A647
102
{ACAD_REACTORS
330
4A644
102
}
330
4A644
100
AcDbVisualStyle
  2
Gouraud
 70
     2
 71
     2
 72
     2
 73
     1
 90
        2
 40
-0.6
 41
30.0
 62
     5
 63
     7
421
 16777215
 74
     0
 91
        4
 64
     7
 65
   257
 75
     1
175
     1
 42
1.0
 92
        0
 66
     7
 43
1.0
 76
     1
 77
     6
 78
     2
 67
     7
 79
     5
170
     0
171
     0
290
     0
174
     0
 93
       13
 44
0.0
173
     0
291
     1
 45
0.0
1001
ACAD
1000
AcDbSavedByObjectVersion
1070
     0
  0
VISUALSTYLE
  5
4A648
102
{ACAD_REACTORS
330
4A644
102
}
330
4A644
100
AcDbVisualStyle
  2
GouraudWithEdges
 70
     3
 71
     2
 72
     2
 73
     1
 90
        2
 40
-0.6
 41
30.0
 62
     5
 63
     7
421
 16777215
 74
     1
 91
        4
 64
     7
 65
   257
 75
     1
175
     1
 42
1.0
 92
        0
 66
   257
 43
1.0
 76
     1
 77
     6
 78
     2
 67
     7
 79
     5
170
     0
171
     0
290
     0
174
     0
 93
       13
 44
0.0
173
     0
291
     1
 45
0.0
1001
ACAD
1000
AcDbSavedByObjectVersion
1070
     0
  0
VISUALSTYLE
  5
4A652
102
{ACAD_REACTORS
330
4A644
102
}
330
4A644
100
AcDbVisualStyle
  2
Linepattern
 70
    14
 71
     2
 72
     2
 73
     0
 90
        0
 40
-0.6
 41
-30.0
 62
     5
 63
     7
421
 16777215
 74
     1
 91
        4
 64
     7
 65
   257
 75
     7
175
     7
 42
1.0
 92
        8
 66
     7
 43
1.0
 76
     1
 77
     6
 78
     2
 67
     7
 79
     5
170
     0
171
     0
290
     0
174
     0
 93
        1
 44
0.0
173
     0
291
     1
 45
0.0
1001
ACAD
1000
AcDbSavedByObjectVersion
1070
     0
  0
VISUALSTYLE
  5
4A64E
102
{ACAD_REACTORS
330
4A644
102
}
330
4A644
100
AcDbVisualStyle
  2
Realistic
 70
     8
 71
     2
 72
     2
 73
     0
 90
        0
 40
-0.6
 41
-30.0
 62
     5
 63
     7
421
 16777215
 74
     1
 91
        0
 64
     7
 65
   257
 75
     1
175
     1
 42
1.0
 92
        8
 66
     8
424
  7895160
 43
1.0
 76
     1
 77
     6
 78
     2
 67
     7
 79
     5
170
     0
171
     0
290
     0
174
     0
 93
       13
 44
0.0
173
     0
291
     0
 45
0.0
1001
ACAD
1000
AcDbSavedByObjectVersion
1070
     0
  0
VISUALSTYLE
  5
4A651
102
{ACAD_REACTORS
330
4A644
102
}
330
4A644
100
AcDbVisualStyle
  2
Thicken
 70
    13
 71
     2
 72
     2
 73
     0
 90
        0
 40
-0.6
 41
-30.0
 62
     5
 63
     7
421
 16777215
 74
     1
 91
        4
 64
     7
 65
   257
 75
     1
175
     1
 42
1.0
 92
       12
 66
     7
 43
1.0
 76
     1
 77
     6
 78
     2
 67
     7
 79
     5
170
     0
171
     0
290
     0
174
     0
 93
        1
 44
0.0
173
     0
291
     1
 45
0.0
1001
ACAD
1000
AcDbSavedByObjectVersion
1070
     0
  0
DICTIONARYVAR
  5
4A877
102
{ACAD_REACTORS
330
4A873
102
}
330
4A873
100
DictionaryVariables
280
     0
  1
1:1
  0
DICTIONARYVAR
  5
4A875
102
{ACAD_REACTORS
330
4A873
102
}
330
4A873
100
DictionaryVariables
280
     0
  1
STANDARD
  0
DICTIONARYVAR
  5
4A874
102
{ACAD_REACTORS
330
4A873
102
}
330
4A873
100
DictionaryVariables
280
     0
  1
STANDARD
  0
DICTIONARYVAR
  5
4A879
102
{ACAD_REACTORS
330
4A873
102
}
330
4A873
100
DictionaryVariables
280
     0
  1
1
  0
DICTIONARYVAR
  5
4A87A
102
{ACAD_REACTORS
330
4A873
102
}
330
4A873
100
DictionaryVariables
280
     0
  1
15
  0
DICTIONARYVAR
  5
4A878
102
{ACAD_REACTORS
330
4A873
102
}
330
4A873
100
DictionaryVariables
280
     0
  1
0
  0
DICTIONARYVAR
  5
4A926
102
{ACAD_REACTORS
330
4A873
102
}
330
4A873
100
DictionaryVariables
280
     0
  1
1.570796
  0
DICTIONARYVAR
  5
4A927
102
{ACAD_REACTORS
330
4A873
102
}
330
4A873
100
DictionaryVariables
280
     0
  1
1.570796
  0
DICTIONARYVAR
  5
4A928
102
{ACAD_REACTORS
330
4A873
102
}
330
4A873
100
DictionaryVariables
280
     0
  1
-122.394000
  0
DICTIONARYVAR
  5
4A876
102
{ACAD_REACTORS
330
4A873
102
}
330
4A873
100
DictionaryVariables
280
     0
  1
0
  0
DICTIONARY
  5
4A8E8
102
{ACAD_REACTORS
330
4A8DF
102
}
330
4A8DF
100
AcDbDictionary
281
     1
  0
DICTIONARY
  5
4A635
330
4A634
100
AcDbDictionary
280
     1
281
     1
  3
ACAD_XREC_ROUNDTRIP
360
4A936
  3
BUMPTILE
360
4A637
  3
DIFFUSETILE
360
4A636
  3
OPACITYTILE
360
4A63A
  3
REFLECTIONTILE
360
4A639
  3
REFRACTIONTILE
360
4A63B
  3
SPECULARTILE
360
4A638
  0
DICTIONARY
  5
4A62D
330
4A62C
100
AcDbDictionary
280
     1
281
     1
  3
ACAD_XREC_ROUNDTRIP
360
4A935
  3
BUMPTILE
360
4A62F
  3
DIFFUSETILE
360
4A62E
  3
OPACITYTILE
360
4A632
  3
REFLECTIONTILE
360
4A631
  3
REFRACTIONTILE
360
4A633
  3
SPECULARTILE
360
4A630
  0
DICTIONARY
  5
4A63D
330
4A63C
100
AcDbDictionary
280
     1
281
     1
  3
ACAD_XREC_ROUNDTRIP
360
4A937
  3
BUMPTILE
360
4A63F
  3
DIFFUSETILE
360
4A63E
  3
OPACITYTILE
360
4A642
  3
REFLECTIONTILE
360
4A641
  3
REFRACTIONTILE
360
4A643
  3
SPECULARTILE
360
4A640
  0
DICTIONARY
  5
4A87B
330
4A687
100
AcDbDictionary
280
     1
281
     1
  3
ACAD_ROUNDTRIP_2008_TABLESTYLE_CELLSTYLEMAP
360
4A929
  3
ACAD_XREC_ROUNDTRIP
360
4A938
  0
XRECORD
  5
4A936
102
{ACAD_REACTORS
330
4A635
102
}
330
4A635
100
AcDbXrecord
280
     1
102
MATERIAL
148
0.0
149
0.0
149
0.0
 93
        0
 94
      127
282
     0
 72
     0
 77
     0
171
     0
175
     0
179
     0
273
     0
  0
XRECORD
  5
4A637
102
{ACAD_REACTORS
330
4A635
102
}
330
4A635
100
AcDbXrecord
280
     1
270
     1
271
     1
  0
XRECORD
  5
4A636
102
{ACAD_REACTORS
330
4A635
102
}
330
4A635
100
AcDbXrecord
280
     1
270
     1
271
     1
  0
XRECORD
  5
4A63A
102
{ACAD_REACTORS
330
4A635
102
}
330
4A635
100
AcDbXrecord
280
     1
270
     1
271
     1
  0
XRECORD
  5
4A639
102
{ACAD_REACTORS
330
4A635
102
}
330
4A635
100
AcDbXrecord
280
     1
270
     1
271
     1
  0
XRECORD
  5
4A63B
102
{ACAD_REACTORS
330
4A635
102
}
330
4A635
100
AcDbXrecord
280
     1
270
     1
271
     1
  0
XRECORD
  5
4A638
102
{ACAD_REACTORS
330
4A635
102
}
330
4A635
100
AcDbXrecord
280
     1
270
     1
271
     1
  0
XRECORD
  5
4A935
102
{ACAD_REACTORS
330
4A62D
102
}
330
4A62D
100
AcDbXrecord
280
     1
102
MATERIAL
148
0.0
149
0.0
149
0.0
 93
        0
 94
      127
282
     0
 72
     0
 77
     0
171
     0
175
     0
179
     0
273
     0
  0
XRECORD
  5
4A62F
102
{ACAD_REACTORS
330
4A62D
102
}
330
4A62D
100
AcDbXrecord
280
     1
270
     1
271
     1
  0
XRECORD
  5
4A62E
102
{ACAD_REACTORS
330
4A62D
102
}
330
4A62D
100
AcDbXrecord
280
     1
270
     1
271
     1
  0
XRECORD
  5
4A632
102
{ACAD_REACTORS
330
4A62D
102
}
330
4A62D
100
AcDbXrecord
280
     1
270
     1
271
     1
  0
XRECORD
  5
4A631
102
{ACAD_REACTORS
330
4A62D
102
}
330
4A62D
100
AcDbXrecord
280
     1
270
     1
271
     1
  0
XRECORD
  5
4A633
102
{ACAD_REACTORS
330
4A62D
102
}
330
4A62D
100
AcDbXrecord
280
     1
270
     1
271
     1
  0
XRECORD
  5
4A630
102
{ACAD_REACTORS
330
4A62D
102
}
330
4A62D
100
AcDbXrecord
280
     1
270
     1
271
     1
  0
XRECORD
  5
4A937
102
{ACAD_REACTORS
330
4A63D
102
}
330
4A63D
100
AcDbXrecord
280
     1
102
MATERIAL
148
0.0
149
0.0
149
0.0
 93
        0
 94
      127
282
     0
 72
     0
 77
     0
171
     0
175
     0
179
     0
273
     0
  0
XRECORD
  5
4A63F
102
{ACAD_REACTORS
330
4A63D
102
}
330
4A63D
100
AcDbXrecord
280
     1
270
     1
271
     1
  0
XRECORD
  5
4A63E
102
{ACAD_REACTORS
330
4A63D
102
}
330
4A63D
100
AcDbXrecord
280
     1
270
     1
271
     1
  0
XRECORD
  5
4A642
102
{ACAD_REACTORS
330
4A63D
102
}
330
4A63D
100
AcDbXrecord
280
     1
270
     1
271
     1
  0
XRECORD
  5
4A641
102
{ACAD_REACTORS
330
4A63D
102
}
330
4A63D
100
AcDbXrecord
280
     1
270
     1
271
     1
  0
XRECORD
  5
4A643
102
{ACAD_REACTORS
330
4A63D
102
}
330
4A63D
100
AcDbXrecord
280
     1
270
     1
271
     1
  0
XRECORD
  5
4A640
102
{ACAD_REACTORS
330
4A63D
102
}
330
4A63D
100
AcDbXrecord
280
     1
270
     1
271
     1
  0
CELLSTYLEMAP
  5
4A929
102
{ACAD_REACTORS
330
4A87B
102
}
330
4A87B
100
AcDbCellStyleMap
 90
        3
300
CELLSTYLE
  1
TABLEFORMAT_BEGIN
 90
        5
170
     1
 91
        0
 92
    32768
 62
   257
 93
        1
300
CONTENTFORMAT
  1
CONTENTFORMAT_BEGIN
 90
        0
 91
        0
 92
      512
 93
        0
300

 40
0.0
140
1.0
 94
        5
 62
     0
340
4A678
144
0.25
309
CONTENTFORMAT_END
171
     1
301
MARGIN
  1
CELLMARGIN_BEGIN
 40
0.06
 40
0.06
 40
0.06
 40
0.06
 40
0.18
 40
0.18
309
CELLMARGIN_END
 94
        6
 95
        1
302
GRIDFORMAT
  1
GRIDFORMAT_BEGIN
 90
        0
 91
        1
 62
     0
 92
       -2
340
0
 93
        0
 40
0.045
309
GRIDFORMAT_END
 95
        2
302
GRIDFORMAT
  1
GRIDFORMAT_BEGIN
 90
        0
 91
        1
 62
     0
 92
       -2
340
0
 93
        0
 40
0.045
309
GRIDFORMAT_END
 95
        4
302
GRIDFORMAT
  1
GRIDFORMAT_BEGIN
 90
        0
 91
        1
 62
     0
 92
       -2
340
0
 93
        0
 40
0.045
309
GRIDFORMAT_END
 95
        8
302
GRIDFORMAT
  1
GRIDFORMAT_BEGIN
 90
        0
 91
        1
 62
     0
 92
       -2
340
0
 93
        0
 40
0.045
309
GRIDFORMAT_END
 95
       16
302
GRIDFORMAT
  1
GRIDFORMAT_BEGIN
 90
        0
 91
        1
 62
     0
 92
       -2
340
0
 93
        0
 40
0.045
309
GRIDFORMAT_END
 95
       32
302
GRIDFORMAT
  1
GRIDFORMAT_BEGIN
 90
        0
 91
        1
 62
     0
 92
       -2
340
0
 93
        0
 40
0.045
309
GRIDFORMAT_END
309
TABLEFORMAT_END
  1
CELLSTYLE_BEGIN
 90
        1
 91
        1
300
_TITLE
309
CELLSTYLE_END
300
CELLSTYLE
  1
TABLEFORMAT_BEGIN
 90
        5
170
     1
 91
        0
 92
        0
 62
   257
 93
        1
300
CONTENTFORMAT
  1
CONTENTFORMAT_BEGIN
 90
        0
 91
        0
 92
      512
 93
        0
300

 40
0.0
140
1.0
 94
        5
 62
     0
340
4A678
144
0.18
309
CONTENTFORMAT_END
171
     1
301
MARGIN
  1
CELLMARGIN_BEGIN
 40
0.06
 40
0.06
 40
0.06
 40
0.06
 40
0.18
 40
0.18
309
CELLMARGIN_END
 94
        6
 95
        1
302
GRIDFORMAT
  1
GRIDFORMAT_BEGIN
 90
        0
 91
        1
 62
     0
 92
       -2
340
0
 93
        0
 40
0.045
309
GRIDFORMAT_END
 95
        2
302
GRIDFORMAT
  1
GRIDFORMAT_BEGIN
 90
        0
 91
        1
 62
     0
 92
       -2
340
0
 93
        0
 40
0.045
309
GRIDFORMAT_END
 95
        4
302
GRIDFORMAT
  1
GRIDFORMAT_BEGIN
 90
        0
 91
        1
 62
     0
 92
       -2
340
0
 93
        0
 40
0.045
309
GRIDFORMAT_END
 95
        8
302
GRIDFORMAT
  1
GRIDFORMAT_BEGIN
 90
        0
 91
        1
 62
     0
 92
       -2
340
0
 93
        0
 40
0.045
309
GRIDFORMAT_END
 95
       16
302
GRIDFORMAT
  1
GRIDFORMAT_BEGIN
 90
        0
 91
        1
 62
     0
 92
       -2
340
0
 93
        0
 40
0.045
309
GRIDFORMAT_END
 95
       32
302
GRIDFORMAT
  1
GRIDFORMAT_BEGIN
 90
        0
 91
        1
 62
     0
 92
       -2
340
0
 93
        0
 40
0.045
309
GRIDFORMAT_END
309
TABLEFORMAT_END
  1
CELLSTYLE_BEGIN
 90
        2
 91
        1
300
_HEADER
309
CELLSTYLE_END
300
CELLSTYLE
  1
TABLEFORMAT_BEGIN
 90
        5
170
     1
 91
        0
 92
        0
 62
   257
 93
        1
300
CONTENTFORMAT
  1
CONTENTFORMAT_BEGIN
 90
        0
 91
        0
 92
      512
 93
        0
300

 40
0.0
140
1.0
 94
        2
 62
     0
340
4A678
144
0.18
309
CONTENTFORMAT_END
171
     1
301
MARGIN
  1
CELLMARGIN_BEGIN
 40
0.06
 40
0.06
 40
0.06
 40
0.06
 40
0.18
 40
0.18
309
CELLMARGIN_END
 94
        6
 95
        1
302
GRIDFORMAT
  1
GRIDFORMAT_BEGIN
 90
        0
 91
        1
 62
     0
 92
       -2
340
0
 93
        0
 40
0.045
309
GRIDFORMAT_END
 95
        2
302
GRIDFORMAT
  1
GRIDFORMAT_BEGIN
 90
        0
 91
        1
 62
     0
 92
       -2
340
0
 93
        0
 40
0.045
309
GRIDFORMAT_END
 95
        4
302
GRIDFORMAT
  1
GRIDFORMAT_BEGIN
 90
        0
 91
        1
 62
     0
 92
       -2
340
0
 93
        0
 40
0.045
309
GRIDFORMAT_END
 95
        8
302
GRIDFORMAT
  1
GRIDFORMAT_BEGIN
 90
        0
 91
        1
 62
     0
 92
       -2
340
0
 93
        0
 40
0.045
309
GRIDFORMAT_END
 95
       16
302
GRIDFORMAT
  1
GRIDFORMAT_BEGIN
 90
        0
 91
        1
 62
     0
 92
       -2
340
0
 93
        0
 40
0.045
309
GRIDFORMAT_END
 95
       32
302
GRIDFORMAT
  1
GRIDFORMAT_BEGIN
 90
        0
 91
        1
 62
     0
 92
       -2
340
0
 93
        0
 40
0.045
309
GRIDFORMAT_END
309
TABLEFORMAT_END
  1
CELLSTYLE_BEGIN
 90
        3
 91
        2
300
_DATA
309
CELLSTYLE_END
  0
XRECORD
  5
4A938
102
{ACAD_REACTORS
330
4A87B
102
}
330
4A87B
100
AcDbXrecord
280
     1
102
ACAD_ROUNDTRIP_PRE2007_TABLESTYLE
 90
      512
 91
        0
  1

 92
      512
 93
        0
  2

 94
      512
 95
        0
  3

  0
ENDSEC
  0
EOF
