  0
SECTION
  2
HEADER
  9
$ACADVER
  1
AC1021
  9
$ACADMAINTVER
 70
    50
  9
$DWGCODEPAGE
  3
ANSI_1252
  9
$LASTSAVEDBY
  1
Mark
  9
$INSBASE
 10
0.0
 20
0.0
 30
0.0
  9
$EXTMIN
 10
29050.77647794923
 20
25457.02330750355
 30
0.0
  9
$EXTMAX
 10
30401.5160477082
 20
26676.34198875162
 30
0.0
  9
$LIMMIN
 10
0.0
 20
0.0
  9
$LIMMAX
 10
420.0
 20
297.0
  9
$ORTHOMODE
 70
     0
  9
$REGENMODE
 70
     1
  9
$FILLMODE
 70
     1
  9
$QTEXTMODE
 70
     0
  9
$MIRRTEXT
 70
     0
  9
$LTSCALE
 40
1.0
  9
$ATTMODE
 70
     1
  9
$TEXTSIZE
 40
2.5
  9
$TRACEWID
 40
1.0
  9
$TEXTSTYLE
  7
STANDARD
  9
$CLAYER
  8
0
  9
$CELTYPE
  6
ByLayer
  9
$CECOLOR
 62
   256
  9
$CELTSCALE
 40
1.0
  9
$DISPSILH
 70
     0
  9
$DIMSCALE
 40
1.0
  9
$DIMASZ
 40
3.5
  9
$DIMEXO
 40
1.0
  9
$DIMDLI
 40
10.0
  9
$DIMRND
 40
0.0
  9
$DIMDLE
 40
0.0
  9
$DIMEXE
 40
1.0
  9
$DIMTP
 40
0.1
  9
$DIMTM
 40
0.1
  9
$DIMTXT
 40
3.5
  9
$DIMCEN
 40
0.0
  9
$DIMTSZ
 40
0.0
  9
$DIMTOL
 70
     0
  9
$DIMLIM
 70
     0
  9
$DIMTIH
 70
     0
  9
$DIMTOH
 70
     0
  9
$DIMSE1
 70
     0
  9
$DIMSE2
 70
     0
  9
$DIMTAD
 70
     1
  9
$DIMZIN
 70
     8
  9
$DIMBLK
  1

  9
$DIMASO
 70
     1
  9
$DIMSHO
 70
     1
  9
$DIMPOST
  1

  9
$DIMAPOST
  1
"
  9
$DIMALT
 70
     0
  9
$DIMALTD
 70
     2
  9
$DIMALTF
 40
0.0393701
  9
$DIMLFAC
 40
1.0
  9
$DIMTOFL
 70
     1
  9
$DIMTVP
 40
0.0
  9
$DIMTIX
 70
     0
  9
$DIMSOXD
 70
     0
  9
$DIMSAH
 70
     0
  9
$DIMBLK1
  1

  9
$DIMBLK2
  1

  9
$DIMSTYLE
  2
AM_ISO
  9
$DIMCLRD
 70
   256
  9
$DIMCLRE
 70
   256
  9
$DIMCLRT
 70
     2
  9
$DIMTFAC
 40
0.71
  9
$DIMGAP
 40
1.5
  9
$DIMJUST
 70
     0
  9
$DIMSD1
 70
     0
  9
$DIMSD2
 70
     0
  9
$DIMTOLJ
 70
     1
  9
$DIMTZIN
 70
     0
  9
$DIMALTZ
 70
     0
  9
$DIMALTTZ
 70
     0
  9
$DIMUPT
 70
     0
  9
$DIMDEC
 70
     4
  9
$DIMTDEC
 70
     4
  9
$DIMALTU
 70
     2
  9
$DIMALTTD
 70
     2
  9
$DIMTXSTY
  7
STANDARD
  9
$DIMAUNIT
 70
     0
  9
$DIMADEC
 70
     0
  9
$DIMALTRND
 40
0.0
  9
$DIMAZIN
 70
     0
  9
$DIMDSEP
 70
    46
  9
$DIMATFIT
 70
     3
  9
$DIMFRAC
 70
     0
  9
$DIMLDRBLK
  1

  9
$DIMLUNIT
 70
     2
  9
$DIMLWD
 70
    -2
  9
$DIMLWE
 70
    -2
  9
$DIMTMOVE
 70
     0
  9
$DIMFXL
 40
1.0
  9
$DIMFXLON
 70
     0
  9
$DIMJOGANG
 40
0.7853981633974483
  9
$DIMTFILL
 70
     0
  9
$DIMTFILLCLR
 70
     0
  9
$DIMARCSYM
 70
     0
  9
$DIMLTYPE
  6

  9
$DIMLTEX1
  6

  9
$DIMLTEX2
  6

  9
$LUNITS
 70
     2
  9
$LUPREC
 70
     2
  9
$SKETCHINC
 40
1.0
  9
$FILLETRAD
 40
2.5
  9
$AUNITS
 70
     0
  9
$AUPREC
 70
     0
  9
$MENU
  1
.
  9
$ELEVATION
 40
0.0
  9
$PELEVATION
 40
0.0
  9
$THICKNESS
 40
0.0
  9
$LIMCHECK
 70
     0
  9
$CHAMFERA
 40
2.5
  9
$CHAMFERB
 40
2.5
  9
$CHAMFERC
 40
0.0
  9
$CHAMFERD
 40
0.0
  9
$SKPOLY
 70
     0
  9
$TDCREATE
 40
2455251.642918206
  9
$TDUCREATE
 40
2455251.642918206
  9
$TDUPDATE
 40
2456707.439164745
  9
$TDUUPDATE
 40
2456707.439164745
  9
$TDINDWG
 40
0.0553187153
  9
$TDUSRTIMER
 40
0.0553180208
  9
$USRTIMER
 70
     1
  9
$ANGBASE
 50
0.0
  9
$ANGDIR
 70
     0
  9
$PDMODE
 70
     0
  9
$PDSIZE
 40
0.0
  9
$PLINEWID
 40
0.0
  9
$SPLFRAME
 70
     0
  9
$SPLINETYPE
 70
     6
  9
$SPLINESEGS
 70
     8
  9
$HANDSEED
  5
53318
  9
$SURFTAB1
 70
     6
  9
$SURFTAB2
 70
     6
  9
$SURFTYPE
 70
     6
  9
$SURFU
 70
     6
  9
$SURFV
 70
     6
  9
$UCSBASE
  2

  9
$UCSNAME
  2

  9
$UCSORG
 10
0.0
 20
0.0
 30
0.0
  9
$UCSXDIR
 10
1.0
 20
0.0
 30
0.0
  9
$UCSYDIR
 10
0.0
 20
1.0
 30
0.0
  9
$UCSORTHOREF
  2

  9
$UCSORTHOVIEW
 70
     0
  9
$UCSORGTOP
 10
0.0
 20
0.0
 30
0.0
  9
$UCSORGBOTTOM
 10
0.0
 20
0.0
 30
0.0
  9
$UCSORGLEFT
 10
0.0
 20
0.0
 30
0.0
  9
$UCSORGRIGHT
 10
0.0
 20
0.0
 30
0.0
  9
$UCSORGFRONT
 10
0.0
 20
0.0
 30
0.0
  9
$UCSORGBACK
 10
0.0
 20
0.0
 30
0.0
  9
$PUCSBASE
  2

  9
$PUCSNAME
  2

  9
$PUCSORG
 10
0.0
 20
0.0
 30
0.0
  9
$PUCSXDIR
 10
1.0
 20
0.0
 30
0.0
  9
$PUCSYDIR
 10
0.0
 20
1.0
 30
0.0
  9
$PUCSORTHOREF
  2

  9
$PUCSORTHOVIEW
 70
     0
  9
$PUCSORGTOP
 10
0.0
 20
0.0
 30
0.0
  9
$PUCSORGBOTTOM
 10
0.0
 20
0.0
 30
0.0
  9
$PUCSORGLEFT
 10
0.0
 20
0.0
 30
0.0
  9
$PUCSORGRIGHT
 10
0.0
 20
0.0
 30
0.0
  9
$PUCSORGFRONT
 10
0.0
 20
0.0
 30
0.0
  9
$PUCSORGBACK
 10
0.0
 20
0.0
 30
0.0
  9
$USERI1
 70
     0
  9
$USERI2
 70
     0
  9
$USERI3
 70
     0
  9
$USERI4
 70
     0
  9
$USERI5
 70
     0
  9
$USERR1
 40
0.0
  9
$USERR2
 40
0.0
  9
$USERR3
 40
0.0
  9
$USERR4
 40
0.0
  9
$USERR5
 40
0.0
  9
$WORLDVIEW
 70
     1
  9
$SHADEDGE
 70
     3
  9
$SHADEDIF
 70
    70
  9
$TILEMODE
 70
     1
  9
$MAXACTVP
 70
    64
  9
$PINSBASE
 10
0.0
 20
0.0
 30
0.0
  9
$PLIMCHECK
 70
     0
  9
$PEXTMIN
 10
1.000000000000000E+20
 20
1.000000000000000E+20
 30
1.000000000000000E+20
  9
$PEXTMAX
 10
-1.000000000000000E+20
 20
-1.000000000000000E+20
 30
-1.000000000000000E+20
  9
$PLIMMIN
 10
0.0
 20
0.0
  9
$PLIMMAX
 10
420.0
 20
297.0
  9
$UNITMODE
 70
     0
  9
$VISRETAIN
 70
     1
  9
$PLINEGEN
 70
     0
  9
$PSLTSCALE
 70
     1
  9
$TREEDEPTH
 70
  3020
  9
$CMLSTYLE
  2
Standard
  9
$CMLJUST
 70
     0
  9
$CMLSCALE
 40
1.0
  9
$PROXYGRAPHICS
 70
     1
  9
$MEASUREMENT
 70
     0
  9
$CELWEIGHT
370
    -1
  9
$ENDCAPS
280
     0
  9
$JOINSTYLE
280
     0
  9
$LWDISPLAY
290
     0
  9
$INSUNITS
 70
     0
  9
$HYPERLINKBASE
  1

  9
$STYLESHEET
  1

  9
$XEDIT
290
     1
  9
$CEPSNTYPE
380
     0
  9
$PSTYLEMODE
290
     1
  9
$FINGERPRINTGUID
  2
{7CA7D69D-36B4-42EF-92E2-8442B4B9647F}
  9
$VERSIONGUID
  2
{9F553079-82E6-47B4-A25D-5F3BDA6EA5F1}
  9
$EXTNAMES
290
     1
  9
$PSVPSCALE
 40
0.0
  9
$OLESTARTUP
290
     0
  9
$SORTENTS
280
   127
  9
$INDEXCTL
280
     0
  9
$HIDETEXT
280
     0
  9
$XCLIPFRAME
290
     0
  9
$HALOGAP
280
     0
  9
$OBSCOLOR
 70
   257
  9
$OBSLTYPE
280
     0
  9
$INTERSECTIONDISPLAY
280
     0
  9
$INTERSECTIONCOLOR
 70
   257
  9
$DIMASSOC
280
     1
  9
$PROJECTNAME
  1

  9
$CAMERADISPLAY
290
     0
  9
$LENSLENGTH
 40
50.0
  9
$CAMERAHEIGHT
 40
0.0
  9
$STEPSPERSEC
 40
2.0
  9
$STEPSIZE
 40
6.0
  9
$3DDWFPREC
 40
2.0
  9
$PSOLWIDTH
 40
0.25
  9
$PSOLHEIGHT
 40
4.0
  9
$LOFTANG1
 40
1.570796326794896
  9
$LOFTANG2
 40
1.570796326794896
  9
$LOFTMAG1
 40
0.0
  9
$LOFTMAG2
 40
0.0
  9
$LOFTPARAM
 70
     7
  9
$LOFTNORMALS
280
     1
  9
$LATITUDE
 40
37.795
  9
$LONGITUDE
 40
-122.394
  9
$NORTHDIRECTION
 40
0.0
  9
$TIMEZONE
 70
 -8000
  9
$LIGHTGLYPHDISPLAY
280
     1
  9
$TILEMODELIGHTSYNCH
280
     1
  9
$CMATERIAL
347
52BB5
  9
$SOLIDHIST
280
     1
  9
$SHOWHIST
280
     1
  9
$DWFFRAME
280
     2
  9
$DGNFRAME
280
     0
  9
$REALWORLDSCALE
290
     1
  9
$INTERFERECOLOR
 62
     1
  9
$INTERFEREOBJVS
345
52BD7
  9
$INTERFEREVPVS
346
52BD4
  9
$CSHADOW
280
     0
  9
$SHADOWPLANELOCATION
 40
0.0
  0
ENDSEC
  0
SECTION
  2
CLASSES
  0
CLASS
  1
ACDBDICTIONARYWDFLT
  2
AcDbDictionaryWithDefault
  3
ObjectDBX Classes
 90
        0
 91
        1
280
     0
281
     0
  0
CLASS
  1
MATERIAL
  2
AcDbMaterial
  3
ObjectDBX Classes
 90
     1153
 91
        3
280
     0
281
     0
  0
CLASS
  1
VISUALSTYLE
  2
AcDbVisualStyle
  3
ObjectDBX Classes
 90
     4095
 91
       16
280
     0
281
     0
  0
CLASS
  1
SCALE
  2
AcDbScale
  3
ObjectDBX Classes
 90
     1153
 91
       33
280
     0
281
     0
  0
CLASS
  1
TABLESTYLE
  2
AcDbTableStyle
  3
ObjectDBX Classes
 90
     4095
 91
        1
280
     0
281
     0
  0
CLASS
  1
MLEADERSTYLE
  2
AcDbMLeaderStyle
  3
ACDB_MLEADERSTYLE_CLASS
 90
     4095
 91
        1
280
     0
281
     0
  0
CLASS
  1
EXACXREFPANELOBJECT
  2
ExAcXREFPanelObject
  3
EXAC_ESW
 90
     1025
 91
        1
280
     0
281
     0
  0
CLASS
  1
NPOCOLLECTION
  2
AcDbImpNonPersistentObjectsCollection
  3
ObjectDBX Classes
 90
     1153
 91
        1
280
     0
281
     0
  0
CLASS
  1
DIMASSOC
  2
AcDbDimAssoc
  3
"AcDbDimAssoc|Product Desc:     AcDim ARX App For Dimension|Company:          Autodesk, Inc.|WEB Address:      www.autodesk.com"
 90
        0
 91
       10
280
     0
281
     0
  0
CLASS
  1
SORTENTSTABLE
  2
AcDbSortentsTable
  3
ObjectDBX Classes
 90
        0
 91
        1
280
     0
281
     0
  0
CLASS
  1
DICTIONARYVAR
  2
AcDbDictionaryVar
  3
ObjectDBX Classes
 90
        0
 91
        7
280
     0
281
     0
  0
CLASS
  1
CELLSTYLEMAP
  2
AcDbCellStyleMap
  3
ObjectDBX Classes
 90
     1152
 91
        2
280
     0
281
     0
  0
ENDSEC
  0
SECTION
  2
TABLES
  0
TABLE
  2
VPORT
  5
52BAC
330
0
100
AcDbSymbolTable
 70
     1
  0
VPORT
  5
52C1C
330
52BAC
100
AcDbSymbolTableRecord
100
AcDbViewportTableRecord
  2
*ACTIVE
 70
     0
 10
0.0
 20
0.0
 11
1.0
 21
1.0
 12
30131.20103685791
 22
26076.86989893299
 13
0.0
 23
0.0
 14
2.5
 24
2.5
 15
10.0
 25
10.0
 16
0.0
 26
0.0
 36
1.0
 17
0.0
 27
0.0
 37
0.0
 40
1842.226282421085
 41
1.4496
 42
50.0
 43
0.0
 44
0.0
 50
0.0
 51
0.0
 71
     0
 72
  1000
 73
     1
 74
     3
 75
     0
 76
     0
 77
     0
 78
     0
281
     0
 65
     1
110
0.0
120
0.0
130
0.0
111
1.0
121
0.0
131
0.0
112
0.0
122
1.0
132
0.0
 79
     0
146
0.0
348
52BD3
 60
     3
 61
     5
292
     1
282
     0
141
0.0
142
0.0
 63
   250
421
  3355443
  0
ENDTAB
  0
TABLE
  2
LTYPE
  5
52BA9
330
0
100
AcDbSymbolTable
 70
     3
  0
LTYPE
  5
52C06
330
52BA9
100
AcDbSymbolTableRecord
100
AcDbLinetypeTableRecord
  2
ByBlock
 70
     0
  3

 72
    65
 73
     0
 40
0.0
  0
LTYPE
  5
52C07
330
52BA9
100
AcDbSymbolTableRecord
100
AcDbLinetypeTableRecord
  2
ByLayer
 70
     0
  3

 72
    65
 73
     0
 40
0.0
  0
LTYPE
  5
52C08
330
52BA9
100
AcDbSymbolTableRecord
100
AcDbLinetypeTableRecord
  2
CONTINUOUS
 70
     0
  3
Solid line
 72
    65
 73
     0
 40
0.0
  0
LTYPE
  5
52C1D
330
52BA9
100
AcDbSymbolTableRecord
100
AcDbLinetypeTableRecord
  2
DASHED2
 70
     0
  3
Dashed (.5x) _ _ _ _ _ _ _ _ _ _ _ _ _ _ _ _ _
 72
    65
 73
     2
 40
9.524999999999996
 49
6.349999999999997
 74
     0
 49
-3.174999999999998
 74
     0
  0
ENDTAB
  0
TABLE
  2
LAYER
  5
52BA6
102
{ACAD_XDICTIONARY
360
52CA6
102
}
330
0
100
AcDbSymbolTable
 70
     8
  0
LAYER
  5
52C00
102
{ACAD_XDICTIONARY
360
52DA2
102
}
330
52BA6
100
AcDbSymbolTableRecord
100
AcDbLayerTableRecord
  2
0
 70
     0
 62
     7
  6
CONTINUOUS
370
    -3
390
52BB3
347
52BC5
  0
LAYER
  5
52C1E
102
{ACAD_XDICTIONARY
360
52DA4
102
}
330
52BA6
100
AcDbSymbolTableRecord
100
AcDbLayerTableRecord
  2
LAYER1
 70
     0
 62
     1
  6
CONTINUOUS
370
    -3
390
52BB3
347
52BC5
  0
LAYER
  5
52C1F
330
52BA6
100
AcDbSymbolTableRecord
100
AcDbLayerTableRecord
  2
DEFPOINTS
 70
     0
 62
     7
  6
CONTINUOUS
290
     0
370
    -3
390
52BB3
347
52BC5
  0
LAYER
  5
52C20
102
{ACAD_XDICTIONARY
360
52DA6
102
}
330
52BA6
100
AcDbSymbolTableRecord
100
AcDbLayerTableRecord
  2
DIMS_SPECS
 70
     0
 62
    41
  6
CONTINUOUS
370
    -3
390
52BB3
347
52BC5
  0
LAYER
  5
52C21
102
{ACAD_XDICTIONARY
360
52DA8
102
}
330
52BA6
100
AcDbSymbolTableRecord
100
AcDbLayerTableRecord
  2
CUTOUT
 70
     0
 62
    60
  6
CONTINUOUS
370
    -3
390
52BB3
347
52BC5
  0
LAYER
  5
52C22
102
{ACAD_XDICTIONARY
360
52DAA
102
}
330
52BA6
100
AcDbSymbolTableRecord
100
AcDbLayerTableRecord
  2
SINK_SPECS
 70
     0
 62
   254
  6
CONTINUOUS
370
    -3
390
52BB3
347
52BC5
  0
LAYER
  5
52C9C
102
{ACAD_XDICTIONARY
360
52DAC
102
}
330
52BA6
100
AcDbSymbolTableRecord
100
AcDbLayerTableRecord
  2
DIMS SPECS
 70
     0
 62
    41
  6
CONTINUOUS
370
    35
390
52BB3
347
52BC5
  0
LAYER
  5
52C9D
102
{ACAD_XDICTIONARY
360
52DAE
102
}
330
52BA6
100
AcDbSymbolTableRecord
100
AcDbLayerTableRecord
  2
sink_brouchure
 70
     0
 62
   124
  6
CONTINUOUS
370
    50
390
52BB3
347
52BC5
1001
ACAECLAYERSTANDARD
1000

1000

  0
ENDTAB
  0
TABLE
  2
STYLE
  5
52BA7
330
0
100
AcDbSymbolTable
 70
     5
  0
STYLE
  5
52C01
330
52BA7
100
AcDbSymbolTableRecord
100
AcDbTextStyleTableRecord
  2
STANDARD
 70
     0
 40
0.0
 41
1.0
 50
0.0
 71
     0
 42
2.5
  3
ISOCP.SHX
  4

  0
STYLE
  5
52C05
330
52BA7
100
AcDbSymbolTableRecord
100
AcDbTextStyleTableRecord
  2
Annotative
 70
     0
 40
0.0
 41
1.0
 50
0.0
 71
     0
 42
0.2
  3
txt
  4

1001
ACADANNOTATIVE
1000
AnnotativeData
1002
{
1070
     1
1070
     1
1002
}
  0
STYLE
  5
52C23
330
52BA7
100
AcDbSymbolTableRecord
100
AcDbTextStyleTableRecord
  2
ACISOTS
 70
     0
 40
1.0
 41
1.0
 50
0.0
 71
     0
 42
2.5
  3
isocp.shx
  4

  0
STYLE
  5
52C24
330
52BA7
100
AcDbSymbolTableRecord
100
AcDbTextStyleTableRecord
  2
ABODE-ISO
 70
     0
 40
17.0
 41
0.9
 50
0.0
 71
     0
 42
0.2
  3
txt
  4

  0
STYLE
  5
52C9E
330
52BA7
100
AcDbSymbolTableRecord
100
AcDbTextStyleTableRecord
  2
SLDTEXTSTYLE0
 70
     0
 40
0.0
 41
0.75
 50
0.0
 71
     0
 42
0.2
  3
TXT
  4

  0
ENDTAB
  0
TABLE
  2
VIEW
  5
52BAA
330
0
100
AcDbSymbolTable
 70
     0
  0
ENDTAB
  0
TABLE
  2
UCS
  5
52BAB
330
0
100
AcDbSymbolTable
 70
     0
  0
ENDTAB
  0
TABLE
  2
APPID
  5
52BAD
330
0
100
AcDbSymbolTable
 70
    22
  0
APPID
  5
52C02
330
52BAD
100
AcDbSymbolTableRecord
100
AcDbRegAppTableRecord
  2
ACAD
 70
     0
  0
APPID
  5
52C09
330
52BAD
100
AcDbSymbolTableRecord
100
AcDbRegAppTableRecord
  2
ACADANNOTATIVE
 70
     0
  0
APPID
  5
52C13
330
52BAD
100
AcDbSymbolTableRecord
100
AcDbRegAppTableRecord
  2
ACAD_MLEADERVER
 70
     0
  0
APPID
  5
52C25
330
52BAD
100
AcDbSymbolTableRecord
100
AcDbRegAppTableRecord
  2
MCAD_NO_VIS
 70
     0
  0
APPID
  5
52C26
330
52BAD
100
AcDbSymbolTableRecord
100
AcDbRegAppTableRecord
  2
ACAD_TEMP_GRAPHIC
 70
     0
  0
APPID
  5
52C27
330
52BAD
100
AcDbSymbolTableRecord
100
AcDbRegAppTableRecord
  2
AD_DRAW
 70
     0
  0
APPID
  5
52C28
330
52BAD
100
AcDbSymbolTableRecord
100
AcDbRegAppTableRecord
  2
ACATTRIBSERVICES
 70
     0
  0
APPID
  5
52C29
330
52BAD
100
AcDbSymbolTableRecord
100
AcDbRegAppTableRecord
  2
DESIGNERASSEMBLIES
 70
     0
  0
APPID
  5
52C2A
330
52BAD
100
AcDbSymbolTableRecord
100
AcDbRegAppTableRecord
  2
ACADM_DIM_EDIT
 70
     0
  0
APPID
  5
52C2B
330
52BAD
100
AcDbSymbolTableRecord
100
AcDbRegAppTableRecord
  2
AMDT_DM_ADJ
 70
     0
  0
APPID
  5
52C2C
330
52BAD
100
AcDbSymbolTableRecord
100
AcDbRegAppTableRecord
  2
ACAD_DSTYLE_DIMJOGGED_JOGA
 70
     0
  0
APPID
  5
52C2D
330
52BAD
100
AcDbSymbolTableRecord
100
AcDbRegAppTableRecord
  2
ACAECLAYERSTANDARD
 70
     0
  0
APPID
  5
52C2E
330
52BAD
100
AcDbSymbolTableRecord
100
AcDbRegAppTableRecord
  2
ACAD_PSEXT
 70
     0
  0
APPID
  5
52C2F
330
52BAD
100
AcDbSymbolTableRecord
100
AcDbRegAppTableRecord
  2
ACAD_DSTYLE_DIMJAG
 70
     0
  0
APPID
  5
52C30
330
52BAD
100
AcDbSymbolTableRecord
100
AcDbRegAppTableRecord
  2
ACAD_DSTYLE_DIMTALN
 70
     0
  0
APPID
  5
52C31
330
52BAD
100
AcDbSymbolTableRecord
100
AcDbRegAppTableRecord
  2
GENIUS_GENODEF_13
 70
     0
  0
APPID
  5
52C32
330
52BAD
100
AcDbSymbolTableRecord
100
AcDbRegAppTableRecord
  2
ACAD_DSTYLE_DIMINSPECT
 70
     0
  0
APPID
  5
52C33
330
52BAD
100
AcDbSymbolTableRecord
100
AcDbRegAppTableRecord
  2
GENIUS_GENREC_14
 70
     0
  0
APPID
  5
52C34
330
52BAD
100
AcDbSymbolTableRecord
100
AcDbRegAppTableRecord
  2
GENIUS_GENOBJ-N-REC_13
 70
     0
  0
APPID
  5
52C35
330
52BAD
100
AcDbSymbolTableRecord
100
AcDbRegAppTableRecord
  2
ACAD_DSTYLE_DIMRADIAL_EXTENSION
 70
     0
  0
APPID
  5
52C36
330
52BAD
100
AcDbSymbolTableRecord
100
AcDbRegAppTableRecord
  2
ACAD_DSTYLE_DIMBREAK
 70
     0
  0
APPID
  5
52C5D
330
52BAD
100
AcDbSymbolTableRecord
100
AcDbRegAppTableRecord
  2
ACAD_EXEMPT_FROM_CAD_STANDARDS
 70
     0
  0
ENDTAB
  0
TABLE
  2
DIMSTYLE
  5
52BAE
330
0
100
AcDbSymbolTable
 70
    10
100
AcDbDimStyleTable
 71
     1
340
52C37
  0
DIMSTYLE
105
52C03
330
52BAE
100
AcDbSymbolTableRecord
100
AcDbDimStyleTableRecord
  2
STANDARD
 70
     0
271
     2
272
     2
279
     2
284
     8
285
     8
286
     8
340
52C01
  0
DIMSTYLE
105
52C04
330
52BAE
100
AcDbSymbolTableRecord
100
AcDbDimStyleTableRecord
  2
Annotative
 70
     0
340
52C01
1001
ACADANNOTATIVE
1000
AnnotativeData
1002
{
1070
     1
1070
     1
1002
}
  0
DIMSTYLE
105
52C37
330
52BAE
100
AcDbSymbolTableRecord
100
AcDbDimStyleTableRecord
  2
AM_ISO
 70
     0
  4
"
 41
3.5
 42
1.0
 43
10.0
 44
1.0
 47
0.1
 48
0.1
 73
     0
 74
     0
 77
     1
 78
     8
140
3.5
141
0.0
143
0.0393701
146
0.71
147
1.5
172
     1
176
   256
177
   256
178
     2
271
     2
272
     2
279
     2
284
     8
285
     8
286
     8
340
52C01
  0
DIMSTYLE
105
52C9F
330
52BAE
100
AcDbSymbolTableRecord
100
AcDbDimStyleTableRecord
  2
ISO-25
 70
     0
 41
2.5
 42
0.625
 43
3.75
 44
1.25
 73
     0
 74
     0
 77
     1
 78
     8
140
2.5
141
2.5
143
0.03937007874016
147
0.625
171
     3
172
     1
271
     2
272
     2
274
     3
278
    44
283
     0
284
     8
340
52C01
  0
DIMSTYLE
105
52CA0
330
52BAE
100
AcDbSymbolTableRecord
100
AcDbDimStyleTableRecord
  2
abode-iso
 70
     0
 40
10.0
 41
1.25
 42
1.5
 43
6.0
 44
0.0
 45
0.00000001
 46
10.0
 77
     1
 78
    12
 79
     3
140
17.0
143
0.03937
147
0.75
171
     3
172
     1
176
   256
177
   256
178
   256
271
     0
272
     0
274
     3
340
52C24
342
52C3E
371
    25
372
    25
1001
ACAD_DSTYLE_DIMJAG
1070
   388
1040
1.5
1001
ACAD_DSTYLE_DIMTALN
1070
   392
1070
     0
  0
DIMSTYLE
105
52CA1
102
{ACAD_REACTORS
330
5323E
330
531A6
330
531A7
330
531BD
102
}
330
52BAE
100
AcDbSymbolTableRecord
100
AcDbDimStyleTableRecord
  2
abode-iso$4
 70
     0
 40
10.0
 41
1.25
 42
1.5
 43
6.0
 44
0.0
 45
0.00000001
 46
10.0
 77
     1
 78
    12
 79
     3
140
17.0
143
0.03937
147
0.75
171
     3
172
     1
176
   256
177
   256
178
   256
271
     0
272
     0
274
     3
340
52C24
342
52C3E
371
    25
372
    25
1001
ACAD_DSTYLE_DIMBREAK
1070
   391
1040
3.75
1001
ACAD_DSTYLE_DIMJAG
1070
   388
1040
1.5
1001
ACAD_DSTYLE_DIMTALN
1070
   392
1070
     0
  0
DIMSTYLE
105
52CA2
102
{ACAD_REACTORS
330
5323F
330
53240
330
53246
330
5323B
330
53198
330
531A8
330
531AB
330
531AE
330
531B1
330
531B4
330
531BB
330
531BC
330
531C2
330
531C5
330
531C8
330
531D1
102
}
330
52BAE
100
AcDbSymbolTableRecord
100
AcDbDimStyleTableRecord
  2
abode-iso$0
 70
     0
 40
10.0
 41
1.25
 42
1.5
 43
6.0
 44
0.0
 45
0.00000001
 46
10.0
 77
     1
 78
    12
 79
     3
140
17.0
143
0.03937
147
0.75
171
     3
172
     1
176
   256
177
   256
178
   256
271
     0
272
     0
274
     3
340
52C24
342
52C3E
371
    25
372
    25
1001
ACAD_DSTYLE_DIMJAG
1070
   388
1040
1.5
1001
ACAD_DSTYLE_DIMTALN
1070
   392
1070
     0
  0
DIMSTYLE
105
52CA3
330
52BAE
100
AcDbSymbolTableRecord
100
AcDbDimStyleTableRecord
  2
SLDDIMSTYLE0
 70
     0
 41
3.301999999999998
 44
0.0
 45
0.000000001
 73
     0
 77
     1
 78
    12
140
3.5
144
8.0
147
0.875
173
     1
271
     2
272
     2
284
    12
340
52C9E
  0
DIMSTYLE
105
52CA4
330
52BAE
100
AcDbSymbolTableRecord
100
AcDbDimStyleTableRecord
  2
SLDDIMSTYLE1
 70
     0
 41
3.301999999999998
 44
0.0
 45
0.000000001
 73
     0
 77
     1
 78
    12
140
3.5
144
8.0
147
0.875
173
     1
271
     2
272
     2
284
    12
340
52C9E
  0
DIMSTYLE
105
52CA5
330
52BAE
100
AcDbSymbolTableRecord
100
AcDbDimStyleTableRecord
  2
SLDDIMSTYLE3
 70
     0
 41
3.301999999999998
 44
0.0
 45
0.000000001
 73
     0
 77
     1
 78
    12
140
3.5
144
8.0
147
0.875
173
     1
271
     2
272
     2
284
    12
340
52C9E
  0
ENDTAB
  0
TABLE
  2
BLOCK_RECORD
  5
52BA5
330
0
100
AcDbSymbolTable
 70
    82
  0
BLOCK_RECORD
  5
52C18
330
52BA5
100
AcDbSymbolTableRecord
100
AcDbBlockTableRecord
  2
*Model_Space
340
52C1B
 70
     0
280
     1
281
     0
  0
BLOCK_RECORD
  5
52C14
330
52BA5
100
AcDbSymbolTableRecord
100
AcDbBlockTableRecord
  2
*Paper_Space
340
52C17
 70
     0
280
     1
281
     0
  0
BLOCK_RECORD
  5
52C3A
330
52BA5
100
AcDbSymbolTableRecord
100
AcDbBlockTableRecord
  2
$MODEL_SPACE
340
0
 70
     0
280
     1
281
     0
  0
BLOCK_RECORD
  5
52C3C
330
52BA5
100
AcDbSymbolTableRecord
100
AcDbBlockTableRecord
  2
$PAPER_SPACE
340
0
 70
     0
280
     1
281
     0
  0
BLOCK_RECORD
  5
52C3E
330
52BA5
100
AcDbSymbolTableRecord
100
AcDbBlockTableRecord
  2
FILLED-1
340
0
102
{BLKREFS
331
4EFF2
331
4EFF3
331
4EFFE
331
4EFFF
331
4F00B
331
4F016
331
4F017
331
4F022
331
4F023
331
52C65
331
52C66
331
52C71
331
52C72
331
52C7E
331
52C89
331
52C8A
331
52C95
331
52C96
331
52D70
331
52D71
331
52D7A
331
52D7B
331
52D83
331
52D84
331
52D95
331
52D96
331
52D9F
331
52DD9
331
52DDA
331
52DE7
331
52DE8
331
52DF3
331
52DF4
331
52E00
331
52E01
331
52E0D
331
52EA0
331
52EA1
331
52EA9
331
52EAA
331
52EB3
331
52EBB
331
52EBC
331
52EC4
331
52EC5
331
52EF7
331
52F01
331
52F02
331
52F0D
331
52F0E
331
52F19
331
52F1A
331
52F27
331
52F28
331
52F33
331
52F34
331
52F41
331
52F42
331
52F4D
331
52F4E
331
52F5A
331
52F5B
331
52F67
331
53006
331
53010
331
53011
331
5301C
331
5301D
331
53028
331
53029
331
53036
331
53037
331
53074
331
53075
331
5307D
331
5307E
331
53087
331
5308F
331
53090
331
53098
331
53099
331
5315C
331
5315D
331
5316A
331
5316B
331
53177
331
53178
331
53184
331
530EB
331
530EC
331
530D7
331
530E1
331
530F8
331
530F9
331
53104
331
53105
331
53110
331
53111
331
5311E
331
5311F
331
5312A
331
5312B
331
53136
331
53137
331
53144
331
53145
331
53150
331
53151
331
531E6
331
531E7
331
531DC
331
531F2
331
531F3
331
531FE
331
531FF
331
5320C
331
5320D
331
532A3
331
532A4
331
532AD
331
532B3
331
532B4
331
532BC
331
532BD
331
532C7
331
532C8
102
}
 70
     0
280
     1
281
     0
  0
BLOCK_RECORD
  5
52C40
330
52BA5
100
AcDbSymbolTableRecord
100
AcDbBlockTableRecord
  2
*D3
340
0
 70
     0
280
     1
281
     0
  0
BLOCK_RECORD
  5
52C42
330
52BA5
100
AcDbSymbolTableRecord
100
AcDbBlockTableRecord
  2
*U4
340
0
102
{BLKREFS
331
4EFF4
102
}
 70
     0
280
     1
281
     0
  0
BLOCK_RECORD
  5
52C44
330
52BA5
100
AcDbSymbolTableRecord
100
AcDbBlockTableRecord
  2
*D5
340
0
 70
     0
280
     1
281
     0
  0
BLOCK_RECORD
  5
52C46
330
52BA5
100
AcDbSymbolTableRecord
100
AcDbBlockTableRecord
  2
*U6
340
0
102
{BLKREFS
331
4F000
102
}
 70
     0
280
     1
281
     0
  0
BLOCK_RECORD
  5
52C48
330
52BA5
100
AcDbSymbolTableRecord
100
AcDbBlockTableRecord
  2
*D7
340
0
 70
     0
280
     1
281
     0
  0
BLOCK_RECORD
  5
52C4A
330
52BA5
100
AcDbSymbolTableRecord
100
AcDbBlockTableRecord
  2
*U8
340
0
102
{BLKREFS
331
4F009
102
}
 70
     0
280
     1
281
     0
  0
BLOCK_RECORD
  5
52C4C
330
52BA5
100
AcDbSymbolTableRecord
100
AcDbBlockTableRecord
  2
*D9
340
0
 70
     0
280
     1
281
     0
  0
BLOCK_RECORD
  5
52C4E
330
52BA5
100
AcDbSymbolTableRecord
100
AcDbBlockTableRecord
  2
*U10
340
0
102
{BLKREFS
331
4F018
102
}
 70
     0
280
     1
281
     0
  0
BLOCK_RECORD
  5
52C50
330
52BA5
100
AcDbSymbolTableRecord
100
AcDbBlockTableRecord
  2
*D11
340
0
 70
     0
280
     1
281
     0
  0
BLOCK_RECORD
  5
52C52
330
52BA5
100
AcDbSymbolTableRecord
100
AcDbBlockTableRecord
  2
*U12
340
0
102
{BLKREFS
331
4F024
102
}
 70
     0
280
     1
281
     0
  0
BLOCK_RECORD
  5
52C54
330
52BA5
100
AcDbSymbolTableRecord
100
AcDbBlockTableRecord
  2
*U13
340
0
 70
     0
280
     1
281
     0
  0
BLOCK_RECORD
  5
52C56
330
52BA5
100
AcDbSymbolTableRecord
100
AcDbBlockTableRecord
  2
*U14
340
0
 70
     0
280
     1
281
     0
  0
BLOCK_RECORD
  5
52C58
330
52BA5
100
AcDbSymbolTableRecord
100
AcDbBlockTableRecord
  2
*U15
340
0
102
{BLKREFS
331
4EFE9
102
}
 70
     0
280
     1
281
     0
  0
BLOCK_RECORD
  5
52C5F
330
52BA5
100
AcDbSymbolTableRecord
100
AcDbBlockTableRecord
  2
*D16
340
0
 70
     0
280
     1
281
     0
  0
BLOCK_RECORD
  5
52C6C
330
52BA5
100
AcDbSymbolTableRecord
100
AcDbBlockTableRecord
  2
*D17
340
0
 70
     0
280
     1
281
     0
  0
BLOCK_RECORD
  5
52C78
330
52BA5
100
AcDbSymbolTableRecord
100
AcDbBlockTableRecord
  2
*D18
340
0
 70
     0
280
     1
281
     0
  0
BLOCK_RECORD
  5
52C82
330
52BA5
100
AcDbSymbolTableRecord
100
AcDbBlockTableRecord
  2
*D19
340
0
 70
     0
280
     1
281
     0
  0
BLOCK_RECORD
  5
52C90
330
52BA5
100
AcDbSymbolTableRecord
100
AcDbBlockTableRecord
  2
*D20
340
0
 70
     0
280
     1
281
     0
  0
BLOCK_RECORD
  5
52CE0
330
52BA5
100
AcDbSymbolTableRecord
100
AcDbBlockTableRecord
  2
*D21
340
0
 70
     0
280
     1
281
     0
  0
BLOCK_RECORD
  5
52CEC
330
52BA5
100
AcDbSymbolTableRecord
100
AcDbBlockTableRecord
  2
*D22
340
0
 70
     0
280
     1
281
     0
  0
BLOCK_RECORD
  5
52D03
330
52BA5
100
AcDbSymbolTableRecord
100
AcDbBlockTableRecord
  2
*D23
340
0
 70
     0
280
     1
281
     0
  0
BLOCK_RECORD
  5
52D10
330
52BA5
100
AcDbSymbolTableRecord
100
AcDbBlockTableRecord
  2
*D24
340
0
 70
     0
280
     1
281
     0
  0
BLOCK_RECORD
  5
52D1C
330
52BA5
100
AcDbSymbolTableRecord
100
AcDbBlockTableRecord
  2
*D25
340
0
 70
     0
280
     1
281
     0
  0
BLOCK_RECORD
  5
52DD4
330
52BA5
100
AcDbSymbolTableRecord
100
AcDbBlockTableRecord
  2
*D26
340
0
 70
     0
280
     1
281
     0
  0
BLOCK_RECORD
  5
52DE0
330
52BA5
100
AcDbSymbolTableRecord
100
AcDbBlockTableRecord
  2
*D27
340
0
 70
     0
280
     1
281
     0
  0
BLOCK_RECORD
  5
52DEE
330
52BA5
100
AcDbSymbolTableRecord
100
AcDbBlockTableRecord
  2
*D28
340
0
 70
     0
280
     1
281
     0
  0
BLOCK_RECORD
  5
52DFA
330
52BA5
100
AcDbSymbolTableRecord
100
AcDbBlockTableRecord
  2
*D29
340
0
 70
     0
280
     1
281
     0
  0
BLOCK_RECORD
  5
52E07
330
52BA5
100
AcDbSymbolTableRecord
100
AcDbBlockTableRecord
  2
*D30
340
0
 70
     0
280
     1
281
     0
  0
BLOCK_RECORD
  5
52E45
330
52BA5
100
AcDbSymbolTableRecord
100
AcDbBlockTableRecord
  2
*D31
340
0
 70
     0
280
     1
281
     0
  0
BLOCK_RECORD
  5
52E52
330
52BA5
100
AcDbSymbolTableRecord
100
AcDbBlockTableRecord
  2
*D32
340
0
 70
     0
280
     1
281
     0
  0
BLOCK_RECORD
  5
52E5E
330
52BA5
100
AcDbSymbolTableRecord
100
AcDbBlockTableRecord
  2
*D33
340
0
 70
     0
280
     1
281
     0
  0
BLOCK_RECORD
  5
52E82
330
52BA5
100
AcDbSymbolTableRecord
100
AcDbBlockTableRecord
  2
*D34
340
0
 70
     0
280
     1
281
     0
  0
BLOCK_RECORD
  5
52E90
330
52BA5
100
AcDbSymbolTableRecord
100
AcDbBlockTableRecord
  2
*D35
340
0
 70
     0
280
     1
281
     0
  0
BLOCK_RECORD
  5
52EF1
330
52BA5
100
AcDbSymbolTableRecord
100
AcDbBlockTableRecord
  2
*D36
340
0
 70
     0
280
     1
281
     0
  0
BLOCK_RECORD
  5
52EFB
330
52BA5
100
AcDbSymbolTableRecord
100
AcDbBlockTableRecord
  2
*D37
340
0
 70
     0
280
     1
281
     0
  0
BLOCK_RECORD
  5
52F08
330
52BA5
100
AcDbSymbolTableRecord
100
AcDbBlockTableRecord
  2
*D38
340
0
 70
     0
280
     1
281
     0
  0
BLOCK_RECORD
  5
52F14
330
52BA5
100
AcDbSymbolTableRecord
100
AcDbBlockTableRecord
  2
*D39
340
0
 70
     0
280
     1
281
     0
  0
BLOCK_RECORD
  5
52F20
330
52BA5
100
AcDbSymbolTableRecord
100
AcDbBlockTableRecord
  2
*D40
340
0
 70
     0
280
     1
281
     0
  0
BLOCK_RECORD
  5
52F2E
330
52BA5
100
AcDbSymbolTableRecord
100
AcDbBlockTableRecord
  2
*D41
340
0
 70
     0
280
     1
281
     0
  0
BLOCK_RECORD
  5
52F3A
330
52BA5
100
AcDbSymbolTableRecord
100
AcDbBlockTableRecord
  2
*D42
340
0
 70
     0
280
     1
281
     0
  0
BLOCK_RECORD
  5
52F48
330
52BA5
100
AcDbSymbolTableRecord
100
AcDbBlockTableRecord
  2
*D43
340
0
 70
     0
280
     1
281
     0
  0
BLOCK_RECORD
  5
52F54
330
52BA5
100
AcDbSymbolTableRecord
100
AcDbBlockTableRecord
  2
*D44
340
0
 70
     0
280
     1
281
     0
  0
BLOCK_RECORD
  5
52F61
330
52BA5
100
AcDbSymbolTableRecord
100
AcDbBlockTableRecord
  2
*D45
340
0
 70
     0
280
     1
281
     0
  0
BLOCK_RECORD
  5
52FD5
330
52BA5
100
AcDbSymbolTableRecord
100
AcDbBlockTableRecord
  2
*D46
340
0
 70
     0
280
     1
281
     0
  0
BLOCK_RECORD
  5
52FDF
330
52BA5
100
AcDbSymbolTableRecord
100
AcDbBlockTableRecord
  2
*D47
340
0
 70
     0
280
     1
281
     0
  0
BLOCK_RECORD
  5
52FEC
330
52BA5
100
AcDbSymbolTableRecord
100
AcDbBlockTableRecord
  2
*D48
340
0
 70
     0
280
     1
281
     0
  0
BLOCK_RECORD
  5
52FF8
330
52BA5
100
AcDbSymbolTableRecord
100
AcDbBlockTableRecord
  2
*D49
340
0
 70
     0
280
     1
281
     0
  0
BLOCK_RECORD
  5
53009
330
52BA5
100
AcDbSymbolTableRecord
100
AcDbBlockTableRecord
  2
*D50
340
0
 70
     0
280
     1
281
     0
  0
BLOCK_RECORD
  5
53016
330
52BA5
100
AcDbSymbolTableRecord
100
AcDbBlockTableRecord
  2
*D51
340
0
 70
     0
280
     1
281
     0
  0
BLOCK_RECORD
  5
53022
330
52BA5
100
AcDbSymbolTableRecord
100
AcDbBlockTableRecord
  2
*D52
340
0
 70
     0
280
     1
281
     0
  0
BLOCK_RECORD
  5
5302E
330
52BA5
100
AcDbSymbolTableRecord
100
AcDbBlockTableRecord
  2
*D53
340
0
 70
     0
280
     1
281
     0
  0
BLOCK_RECORD
  5
53056
330
52BA5
100
AcDbSymbolTableRecord
100
AcDbBlockTableRecord
  2
*D54
340
0
 70
     0
280
     1
281
     0
  0
BLOCK_RECORD
  5
53064
330
52BA5
100
AcDbSymbolTableRecord
100
AcDbBlockTableRecord
  2
*D55
340
0
 70
     0
280
     1
281
     0
  0
BLOCK_RECORD
  5
530D1
330
52BA5
100
AcDbSymbolTableRecord
100
AcDbBlockTableRecord
  2
*D56
340
0
 70
     0
280
     1
281
     0
  0
BLOCK_RECORD
  5
530DB
330
52BA5
100
AcDbSymbolTableRecord
100
AcDbBlockTableRecord
  2
*D57
340
0
 70
     0
280
     1
281
     0
  0
BLOCK_RECORD
  5
530E5
330
52BA5
100
AcDbSymbolTableRecord
100
AcDbBlockTableRecord
  2
*D58
340
0
 70
     0
280
     1
281
     0
  0
BLOCK_RECORD
  5
530F2
330
52BA5
100
AcDbSymbolTableRecord
100
AcDbBlockTableRecord
  2
*D59
340
0
 70
     0
280
     1
281
     0
  0
BLOCK_RECORD
  5
530FF
330
52BA5
100
AcDbSymbolTableRecord
100
AcDbBlockTableRecord
  2
*D60
340
0
 70
     0
280
     1
281
     0
  0
BLOCK_RECORD
  5
5310B
330
52BA5
100
AcDbSymbolTableRecord
100
AcDbBlockTableRecord
  2
*D61
340
0
 70
     0
280
     1
281
     0
  0
BLOCK_RECORD
  5
53117
330
52BA5
100
AcDbSymbolTableRecord
100
AcDbBlockTableRecord
  2
*D62
340
0
 70
     0
280
     1
281
     0
  0
BLOCK_RECORD
  5
53125
330
52BA5
100
AcDbSymbolTableRecord
100
AcDbBlockTableRecord
  2
*D63
340
0
 70
     0
280
     1
281
     0
  0
BLOCK_RECORD
  5
53131
330
52BA5
100
AcDbSymbolTableRecord
100
AcDbBlockTableRecord
  2
*D64
340
0
 70
     0
280
     1
281
     0
  0
BLOCK_RECORD
  5
5313D
330
52BA5
100
AcDbSymbolTableRecord
100
AcDbBlockTableRecord
  2
*D65
340
0
 70
     0
280
     1
281
     0
  0
BLOCK_RECORD
  5
5314B
330
52BA5
100
AcDbSymbolTableRecord
100
AcDbBlockTableRecord
  2
*D66
340
0
 70
     0
280
     1
281
     0
  0
BLOCK_RECORD
  5
53157
330
52BA5
100
AcDbSymbolTableRecord
100
AcDbBlockTableRecord
  2
*D67
340
0
 70
     0
280
     1
281
     0
  0
BLOCK_RECORD
  5
53163
330
52BA5
100
AcDbSymbolTableRecord
100
AcDbBlockTableRecord
  2
*D68
340
0
 70
     0
280
     1
281
     0
  0
BLOCK_RECORD
  5
53171
330
52BA5
100
AcDbSymbolTableRecord
100
AcDbBlockTableRecord
  2
*D69
340
0
 70
     0
280
     1
281
     0
  0
BLOCK_RECORD
  5
5317E
330
52BA5
100
AcDbSymbolTableRecord
100
AcDbBlockTableRecord
  2
*D70
340
0
 70
     0
280
     1
281
     0
  0
BLOCK_RECORD
  5
53188
102
{ACAD_XDICTIONARY
360
531D2
102
}
330
52BA5
100
AcDbSymbolTableRecord
100
AcDbBlockTableRecord
  2
A$C5F5F1E98
340
0
 70
     4
280
     1
281
     0
  0
BLOCK_RECORD
  5
531D6
330
52BA5
100
AcDbSymbolTableRecord
100
AcDbBlockTableRecord
  2
*D72
340
0
 70
     0
280
     1
281
     0
  0
BLOCK_RECORD
  5
531E0
330
52BA5
100
AcDbSymbolTableRecord
100
AcDbBlockTableRecord
  2
*D73
340
0
 70
     0
280
     1
281
     0
  0
BLOCK_RECORD
  5
531ED
330
52BA5
100
AcDbSymbolTableRecord
100
AcDbBlockTableRecord
  2
*D74
340
0
 70
     0
280
     1
281
     0
  0
BLOCK_RECORD
  5
531F9
330
52BA5
100
AcDbSymbolTableRecord
100
AcDbBlockTableRecord
  2
*D75
340
0
 70
     0
280
     1
281
     0
  0
BLOCK_RECORD
  5
53205
330
52BA5
100
AcDbSymbolTableRecord
100
AcDbBlockTableRecord
  2
*D76
340
0
 70
     0
280
     1
281
     0
  0
BLOCK_RECORD
  5
53247
330
52BA5
100
AcDbSymbolTableRecord
100
AcDbBlockTableRecord
  2
*D77
340
0
 70
     0
280
     1
281
     0
  0
BLOCK_RECORD
  5
53251
330
52BA5
100
AcDbSymbolTableRecord
100
AcDbBlockTableRecord
  2
*D78
340
0
 70
     0
280
     1
281
     0
  0
BLOCK_RECORD
  5
5325D
330
52BA5
100
AcDbSymbolTableRecord
100
AcDbBlockTableRecord
  2
*D79
340
0
 70
     0
280
     1
281
     0
  0
BLOCK_RECORD
  5
5327B
330
52BA5
100
AcDbSymbolTableRecord
100
AcDbBlockTableRecord
  2
*D80
340
0
 70
     0
280
     1
281
     0
  0
BLOCK_RECORD
  5
53292
330
52BA5
100
AcDbSymbolTableRecord
100
AcDbBlockTableRecord
  2
*D81
340
0
 70
     0
280
     1
281
     0
  0
ENDTAB
  0
ENDSEC
  0
SECTION
  2
BLOCKS
  0
BLOCK
  5
52C19
330
52C18
100
AcDbEntity
  8
0
100
AcDbBlockBegin
  2
*Model_Space
 70
     0
 10
0.0
 20
0.0
 30
0.0
  3
*Model_Space
  1

  0
ENDBLK
  5
52C1A
330
52C18
100
AcDbEntity
  8
0
100
AcDbBlockEnd
  0
BLOCK
  5
52C15
330
52C14
100
AcDbEntity
 67
     1
  8
0
100
AcDbBlockBegin
  2
*Paper_Space
 70
     0
 10
0.0
 20
0.0
 30
0.0
  3
*Paper_Space
  1

  0
ENDBLK
  5
52C16
330
52C14
100
AcDbEntity
 67
     1
  8
0
100
AcDbBlockEnd
  0
BLOCK
  5
52C3B
330
52C3A
100
AcDbEntity
  8
0
100
AcDbBlockBegin
  2
$MODEL_SPACE
 70
     0
 10
0.0
 20
0.0
 30
0.0
  3
$MODEL_SPACE
  1

  0
ENDBLK
  5
51DB0
330
52C3A
100
AcDbEntity
  8
0
100
AcDbBlockEnd
  0
BLOCK
  5
52C3D
330
52C3C
100
AcDbEntity
  8
0
100
AcDbBlockBegin
  2
$PAPER_SPACE
 70
     0
 10
0.0
 20
0.0
 30
0.0
  3
$PAPER_SPACE
  1

  0
ENDBLK
  5
51DAC
330
52C3C
100
AcDbEntity
  8
0
100
AcDbBlockEnd
  0
BLOCK
  5
52C3F
330
52C3E
100
AcDbEntity
  8
0
100
AcDbBlockBegin
  2
FILLED-1
 70
     0
 10
0.0
 20
0.0
 30
0.0
  3
FILLED-1
  1

  0
LINE
  5
13A
330
52C3E
100
AcDbEntity
  8
0
 62
     0
100
AcDbLine
 10
-1.0
 20
0.0
 30
0.0
 11
0.0
 21
0.0
 31
0.0
  0
LWPOLYLINE
  5
13B
330
52C3E
100
AcDbEntity
  8
0
 62
     0
100
AcDbPolyline
 90
        4
 70
   128
 43
0.0
 10
-1.0
 20
-0.3333333333333333
 10
0.0
 20
0.0
 10
-1.0
 20
0.3333333333333333
 10
-1.0
 20
-0.3333333333333333
  0
SOLID
  5
141
330
52C3E
100
AcDbEntity
  8
0
 62
     0
100
AcDbTrace
 10
-1.0
 20
-0.3333333333333333
 30
0.0
 11
0.0
 21
0.0
 31
0.0
 12
-1.0
 22
0.3333333333333333
 32
0.0
 13
-1.0
 23
-0.3333333333333333
 33
0.0
  0
LINE
  5
142
330
52C3E
100
AcDbEntity
  8
0
 62
     0
100
AcDbLine
 10
-1.0
 20
-0.3333333333333333
 30
0.0
 11
0.0
 21
0.0
 31
0.0
  0
LINE
  5
143
330
52C3E
100
AcDbEntity
  8
0
 62
     0
100
AcDbLine
 10
0.0
 20
0.0
 30
0.0
 11
-1.0
 21
0.3333333333333333
 31
0.0
  0
LINE
  5
144
330
52C3E
100
AcDbEntity
  8
0
 62
     0
100
AcDbLine
 10
-1.0
 20
0.3333333333333333
 30
0.0
 11
-1.0
 21
-0.3333333333333333
 31
0.0
  0
ENDBLK
  5
145
330
52C3E
100
AcDbEntity
  8
0
100
AcDbBlockEnd
  0
BLOCK
  5
52C41
330
52C40
100
AcDbEntity
  8
0
100
AcDbBlockBegin
  2
*D3
 70
     1
 10
0.0
 20
0.0
 30
0.0
  3
*D3
  1

  0
LINE
  5
4EFEE
330
52C40
100
AcDbEntity
  8
DIMS_SPECS
100
AcDbLine
 10
30526.70320894188
 20
25623.11655125432
 30
0.0
 11
30578.20443553049
 21
25623.11655125432
 31
0.0
  0
LINE
  5
4EFEF
330
52C40
100
AcDbEntity
  8
DIMS_SPECS
100
AcDbLine
 10
30526.70320894188
 20
26093.11655125432
 30
0.0
 11
30578.20443553049
 21
26093.11655125432
 31
0.0
  0
LINE
  5
4EFF0
330
52C40
100
AcDbEntity
  8
DIMS_SPECS
100
AcDbLine
 10
30578.20443553049
 20
25635.61655125432
 30
0.0
 11
30578.20443553049
 21
25841.68895098239
 31
0.0
  0
LINE
  5
4EFF1
330
52C40
100
AcDbEntity
  8
DIMS_SPECS
100
AcDbLine
 10
30578.20443553049
 20
26080.61655125432
 30
0.0
 11
30578.20443553049
 21
25874.54415152624
 31
0.0
  0
INSERT
  5
4EFF2
330
52C40
100
AcDbEntity
  8
DIMS_SPECS
100
AcDbBlockReference
  2
FILLED-1
 10
30578.20443553049
 20
25623.11655125432
 30
0.0
 41
12.5
 42
12.5
 43
12.5
 50
270.0
  0
INSERT
  5
4EFF3
330
52C40
100
AcDbEntity
  8
DIMS_SPECS
100
AcDbBlockReference
  2
FILLED-1
 10
30578.20443553049
 20
26093.11655125432
 30
0.0
 41
12.5
 42
12.5
 43
12.5
 50
90.0
  0
INSERT
  5
4EFF4
330
52C40
100
AcDbEntity
  8
0
100
AcDbBlockReference
  2
*U4
 10
0.0
 20
0.0
 30
0.0
  0
POINT
  5
4EFF5
330
52C40
100
AcDbEntity
  8
DEFPOINTS
 62
     0
100
AcDbPoint
 10
30511.70320894188
 20
25623.11655125432
 30
0.0
  0
POINT
  5
4EFF6
330
52C40
100
AcDbEntity
  8
DEFPOINTS
 62
     0
100
AcDbPoint
 10
30511.70320894188
 20
26093.11655125432
 30
0.0
  0
POINT
  5
4EFF7
330
52C40
100
AcDbEntity
  8
DEFPOINTS
 62
     0
100
AcDbPoint
 10
30578.20443553049
 20
26093.11655125432
 30
0.0
  0
ENDBLK
  5
4EFED
330
52C40
100
AcDbEntity
  8
0
100
AcDbBlockEnd
  0
BLOCK
  5
52C43
330
52C42
100
AcDbEntity
  8
0
100
AcDbBlockBegin
  2
*U4
 70
     1
 10
0.0
 20
0.0
 30
0.0
  3
*U4
  1

  0
TEXT
  5
51BA4
330
52C42
100
AcDbEntity
  8
DIMS_SPECS
100
AcDbText
 10
30560.56939134286
 20
25849.8303513903
 30
0.0
 40
17.0
  1
470
 41
0.9
  7
ABODE-ISO
100
AcDbText
  0
ENDBLK
  5
51BA6
330
52C42
100
AcDbEntity
  8
0
100
AcDbBlockEnd
  0
BLOCK
  5
52C45
330
52C44
100
AcDbEntity
  8
0
100
AcDbBlockBegin
  2
*D5
 70
     1
 10
0.0
 20
0.0
 30
0.0
  3
*D5
  1

  0
LINE
  5
4EFFB
330
52C44
100
AcDbEntity
  8
DIMS_SPECS
100
AcDbLine
 10
29548.70320894188
 20
25613.11655125432
 30
0.0
 11
29548.70320894188
 21
25534.92357272871
 31
0.0
  0
LINE
  5
4EFFC
330
52C44
100
AcDbEntity
  8
DIMS_SPECS
100
AcDbLine
 10
30516.70320894188
 20
25613.11655125432
 30
0.0
 11
30516.70320894188
 21
25534.92357272871
 31
0.0
  0
LINE
  5
4EFFD
330
52C44
100
AcDbEntity
  8
DIMS_SPECS
100
AcDbLine
 10
29561.20320894187
 20
25534.92357272871
 30
0.0
 11
30504.20320894188
 21
25534.92357272871
 31
0.0
  0
INSERT
  5
4EFFE
330
52C44
100
AcDbEntity
  8
DIMS_SPECS
100
AcDbBlockReference
  2
FILLED-1
 10
29548.70320894188
 20
25534.92357272871
 30
0.0
 41
12.5
 42
12.5
 43
12.5
 50
180.0
  0
INSERT
  5
4EFFF
330
52C44
100
AcDbEntity
  8
DIMS_SPECS
100
AcDbBlockReference
  2
FILLED-1
 10
30516.70320894188
 20
25534.92357272871
 30
0.0
 41
12.5
 42
12.5
 43
12.5
  0
INSERT
  5
4F000
330
52C44
100
AcDbEntity
  8
0
100
AcDbBlockReference
  2
*U6
 10
0.0
 20
0.0
 30
0.0
  0
POINT
  5
4F001
330
52C44
100
AcDbEntity
  8
DEFPOINTS
 62
     0
100
AcDbPoint
 10
29548.70320894188
 20
25628.11655125432
 30
0.0
  0
POINT
  5
4F002
330
52C44
100
AcDbEntity
  8
DEFPOINTS
 62
     0
100
AcDbPoint
 10
30516.70320894188
 20
25628.11655125432
 30
0.0
  0
POINT
  5
4F003
330
52C44
100
AcDbEntity
  8
DEFPOINTS
 62
     0
100
AcDbPoint
 10
30516.70320894188
 20
25534.92357272871
 30
0.0
  0
ENDBLK
  5
4EFFA
330
52C44
100
AcDbEntity
  8
0
100
AcDbBlockEnd
  0
BLOCK
  5
52C47
330
52C46
100
AcDbEntity
  8
0
100
AcDbBlockBegin
  2
*U6
 70
     1
 10
0.0
 20
0.0
 30
0.0
  3
*U6
  1

  0
TEXT
  5
51BA8
330
52C46
100
AcDbEntity
  8
DIMS_SPECS
100
AcDbText
 10
30014.83934082495
 20
25543.0649731366
 30
0.0
 40
17.0
  1
968
 41
0.9
  7
ABODE-ISO
100
AcDbText
  0
ENDBLK
  5
51BAA
330
52C46
100
AcDbEntity
  8
0
100
AcDbBlockEnd
  0
BLOCK
  5
52C49
330
52C48
100
AcDbEntity
  8
0
100
AcDbBlockBegin
  2
*D7
 70
     1
 10
0.0
 20
0.0
 30
0.0
  3
*D7
  1

  0
LINE
  5
4F007
330
52C48
100
AcDbEntity
  8
DIMS_SPECS
100
AcDbLine
 10
30550.25223378154
 20
25588.48290932673
 30
0.0
 11
30537.75223378154
 21
25588.48290932674
 31
0.0
  0
LINE
  5
4F008
330
52C48
100
AcDbEntity
  8
DIMS_SPECS
100
AcDbLine
 10
30537.75223378154
 20
25588.48290932674
 30
0.0
 11
30521.31486823044
 21
25613.49239296346
 31
0.0
  0
INSERT
  5
4F009
330
52C48
100
AcDbEntity
  8
0
100
AcDbBlockReference
  2
*U8
 10
0.0
 20
0.0
 30
0.0
  0
LINE
  5
4F00A
330
52C48
100
AcDbEntity
  8
DIMS_SPECS
100
AcDbLine
 10
30511.70320894167
 20
25628.11655125432
 30
0.0
 11
30514.44939730989
 21
25623.93822031408
 31
0.0
  0
INSERT
  5
4F00B
330
52C48
100
AcDbEntity
  8
DIMS_SPECS
100
AcDbBlockReference
  2
FILLED-1
 10
30514.44939730989
 20
25623.93822031408
 30
0.0
 41
12.5
 42
12.5
 43
12.5
 50
123.3147299030218
  0
POINT
  5
4F00C
330
52C48
100
AcDbEntity
  8
DEFPOINTS
 62
     0
100
AcDbPoint
 10
30514.44939730989
 20
25623.93822031408
 30
0.0
  0
POINT
  5
4F00D
330
52C48
100
AcDbEntity
  8
DEFPOINTS
 62
     0
100
AcDbPoint
 10
30511.70320894167
 20
25628.11655125432
 30
0.0
  0
ENDBLK
  5
4F006
330
52C48
100
AcDbEntity
  8
0
100
AcDbBlockEnd
  0
BLOCK
  5
52C4B
330
52C4A
100
AcDbEntity
  8
0
100
AcDbBlockBegin
  2
*U8
 70
     1
 10
0.0
 20
0.0
 30
0.0
  3
*U8
  1

  0
TEXT
  5
51BAC
330
52C4A
100
AcDbEntity
  8
DIMS_SPECS
100
AcDbText
 10
30555.80723038249
 20
25580.1967094627
 30
0.0
 40
17.0
  1
R5
 41
0.9
  7
ABODE-ISO
100
AcDbText
  0
ENDBLK
  5
51BAE
330
52C4A
100
AcDbEntity
  8
0
100
AcDbBlockEnd
  0
BLOCK
  5
52C4D
330
52C4C
100
AcDbEntity
  8
0
100
AcDbBlockBegin
  2
*D9
 70
     1
 10
0.0
 20
0.0
 30
0.0
  3
*D9
  1

  0
LINE
  5
4F011
330
52C4C
100
AcDbEntity
  8
DIMS_SPECS
100
AcDbLine
 10
29548.70320894188
 20
25613.11655125432
 30
0.0
 11
29548.70320894188
 21
25576.56424115599
 31
0.0
  0
LINE
  5
4F012
330
52C4C
100
AcDbEntity
  8
DIMS_SPECS
100
AcDbLine
 10
29563.42511178917
 20
25608.11655125432
 30
0.0
 11
29563.42511178917
 21
25576.56424115599
 31
0.0
  0
LINE
  5
4F013
330
52C4C
100
AcDbEntity
  8
DIMS_SPECS
100
AcDbLine
 10
29536.20320894188
 20
25576.56424115599
 30
0.0
 11
29523.70320894188
 21
25576.56424115599
 31
0.0
  0
LINE
  5
4F014
330
52C4C
100
AcDbEntity
  8
DIMS_SPECS
100
AcDbLine
 10
29575.92511178916
 20
25576.56424115599
 30
0.0
 11
29623.07276644587
 21
25576.56424115599
 31
0.0
  0
LINE
  5
4F015
330
52C4C
100
AcDbEntity
  8
DIMS_SPECS
100
AcDbLine
 10
29548.70320894188
 20
25576.56424115599
 30
0.0
 11
29563.42511178917
 21
25576.56424115599
 31
0.0
  0
INSERT
  5
4F016
330
52C4C
100
AcDbEntity
  8
DIMS_SPECS
100
AcDbBlockReference
  2
FILLED-1
 10
29548.70320894188
 20
25576.56424115599
 30
0.0
 41
12.5
 42
12.5
 43
12.5
  0
INSERT
  5
4F017
330
52C4C
100
AcDbEntity
  8
DIMS_SPECS
100
AcDbBlockReference
  2
FILLED-1
 10
29563.42511178917
 20
25576.56424115599
 30
0.0
 41
12.5
 42
12.5
 43
12.5
 50
180.0
  0
INSERT
  5
4F018
330
52C4C
100
AcDbEntity
  8
0
100
AcDbBlockReference
  2
*U10
 10
0.0
 20
0.0
 30
0.0
  0
POINT
  5
4F019
330
52C4C
100
AcDbEntity
  8
DEFPOINTS
 62
     0
100
AcDbPoint
 10
29548.70320894188
 20
25628.11655125432
 30
0.0
  0
POINT
  5
4F01A
330
52C4C
100
AcDbEntity
  8
DEFPOINTS
 62
     0
100
AcDbPoint
 10
29563.42511178917
 20
25623.11655125432
 30
0.0
  0
POINT
  5
4F01B
330
52C4C
100
AcDbEntity
  8
DEFPOINTS
 62
     0
100
AcDbPoint
 10
29563.42511178917
 20
25576.56424115599
 30
0.0
  0
ENDBLK
  5
4F010
330
52C4C
100
AcDbEntity
  8
0
100
AcDbBlockEnd
  0
BLOCK
  5
52C4F
330
52C4E
100
AcDbEntity
  8
0
100
AcDbBlockBegin
  2
*U10
 70
     1
 10
0.0
 20
0.0
 30
0.0
  3
*U10
  1

  0
TEXT
  5
51BB0
330
52C4E
100
AcDbEntity
  8
DIMS_SPECS
100
AcDbText
 10
29592.89839526979
 20
25584.49184142792
 30
0.0
 40
17.0
  1
15
 41
0.9
  7
ABODE-ISO
100
AcDbText
  0
ENDBLK
  5
51BB2
330
52C4E
100
AcDbEntity
  8
0
100
AcDbBlockEnd
  0
BLOCK
  5
52C51
330
52C50
100
AcDbEntity
  8
0
100
AcDbBlockBegin
  2
*D11
 70
     1
 10
0.0
 20
0.0
 30
0.0
  3
*D11
  1

  0
LINE
  5
4F01F
330
52C50
100
AcDbEntity
  8
DIMS_SPECS
100
AcDbLine
 10
29563.42511178917
 20
25608.11655125432
 30
0.0
 11
29563.42511178917
 21
25576.56424115599
 31
0.0
  0
LINE
  5
4F020
330
52C50
100
AcDbEntity
  8
DIMS_SPECS
100
AcDbLine
 10
30095.20320894188
 20
25608.11655125432
 30
0.0
 11
30095.20320894188
 21
25576.56424115599
 31
0.0
  0
LINE
  5
4F021
330
52C50
100
AcDbEntity
  8
DIMS_SPECS
100
AcDbLine
 10
29575.92511178916
 20
25576.56424115599
 30
0.0
 11
30082.70320894188
 21
25576.56424115599
 31
0.0
  0
INSERT
  5
4F022
330
52C50
100
AcDbEntity
  8
DIMS_SPECS
100
AcDbBlockReference
  2
FILLED-1
 10
29563.42511178917
 20
25576.56424115599
 30
0.0
 41
12.5
 42
12.5
 43
12.5
 50
180.0
  0
INSERT
  5
4F023
330
52C50
100
AcDbEntity
  8
DIMS_SPECS
100
AcDbBlockReference
  2
FILLED-1
 10
30095.20320894188
 20
25576.56424115599
 30
0.0
 41
12.5
 42
12.5
 43
12.5
  0
INSERT
  5
4F024
330
52C50
100
AcDbEntity
  8
0
100
AcDbBlockReference
  2
*U12
 10
0.0
 20
0.0
 30
0.0
  0
POINT
  5
4F025
330
52C50
100
AcDbEntity
  8
DEFPOINTS
 62
     0
100
AcDbPoint
 10
29563.42511178917
 20
25623.11655125432
 30
0.0
  0
POINT
  5
4F026
330
52C50
100
AcDbEntity
  8
DEFPOINTS
 62
     0
100
AcDbPoint
 10
30095.20320894188
 20
25623.11655125432
 30
0.0
  0
POINT
  5
4F027
330
52C50
100
AcDbEntity
  8
DEFPOINTS
 62
     0
100
AcDbPoint
 10
30095.20320894188
 20
25576.56424115599
 30
0.0
  0
ENDBLK
  5
4F01E
330
52C50
100
AcDbEntity
  8
0
100
AcDbBlockEnd
  0
BLOCK
  5
52C53
330
52C52
100
AcDbEntity
  8
0
100
AcDbBlockBegin
  2
*U12
 70
     1
 10
0.0
 20
0.0
 30
0.0
  3
*U12
  1

  0
TEXT
  5
51BB4
330
52C52
100
AcDbEntity
  8
DIMS_SPECS
100
AcDbText
 10
29811.56470421325
 20
25584.70564156388
 30
0.0
 40
17.0
  1
532
 41
0.9
  7
ABODE-ISO
100
AcDbText
  0
ENDBLK
  5
51BB6
330
52C52
100
AcDbEntity
  8
0
100
AcDbBlockEnd
  0
BLOCK
  5
52C55
330
52C54
100
AcDbEntity
  8
0
100
AcDbBlockBegin
  2
*U13
 70
     1
 10
0.0
 20
0.0
 30
0.0
  3
*U13
  1

  0
TEXT
  5
51B78
330
52C54
100
AcDbEntity
  8
CUTOUT
100
AcDbText
 10
29858.66147590892
 20
26111.78422402281
 30
0.0
 40
40.0
  1
INSET CUT OUT
100
AcDbText
  0
ENDBLK
  5
51B7A
330
52C54
100
AcDbEntity
  8
0
100
AcDbBlockEnd
  0
BLOCK
  5
52C57
330
52C56
100
AcDbEntity
  8
0
100
AcDbBlockBegin
  2
*U14
 70
     1
 10
0.0
 20
0.0
 30
0.0
  3
*U14
  1

  0
TEXT
  5
51B7C
330
52C56
100
AcDbEntity
  8
CUTOUT
100
AcDbText
 10
29701.8135206693
 20
25905.61021911331
 30
0.0
 40
40.0
  1
BOWL(S),
100
AcDbText
  0
TEXT
  5
51B7D
330
52C56
100
AcDbEntity
  8
CUTOUT
100
AcDbText
 10
29671.8135206693
 20
25838.94355244665
 30
0.0
 40
40.0
  1
OVERFLOW,
100
AcDbText
  0
TEXT
  5
51B7E
330
52C56
100
AcDbEntity
  8
CUTOUT
100
AcDbText
 10
29684.8135206693
 20
25772.27688577997
 30
0.0
 40
40.0
  1
TAP AREA
100
AcDbText
  0
ENDBLK
  5
51B80
330
52C56
100
AcDbEntity
  8
0
100
AcDbBlockEnd
  0
BLOCK
  5
52C59
330
52C58
100
AcDbEntity
  8
0
100
AcDbBlockBegin
  2
*U15
 70
     1
 10
0.0
 20
0.0
 30
0.0
  3
*U15
  1

  0
TEXT
  5
51B8B
330
52C58
100
AcDbEntity
  8
0
 62
     1
100
AcDbText
 10
29068.05134894387
 20
25957.69496399888
 30
0.0
 40
8.0
  1
All details are provided in good faith and
  7
ACISOTS
100
AcDbText
  0
TEXT
  5
51B8C
330
52C58
100
AcDbEntity
  8
0
 62
     1
100
AcDbText
 10
29049.60334894387
 20
25944.36163066555
 30
0.0
 40
8.0
  1
within
  7
ACISOTS
100
AcDbText
  0
TEXT
  5
51B8D
330
52C58
100
AcDbEntity
  8
0
 62
     1
100
AcDbText
 10
29085.57434894387
 20
25931.02829733222
 30
0.0
 40
8.0
  1
the tolerances of the manufacturing process.
  7
ACISOTS
100
AcDbText
  0
TEXT
  5
51B8E
330
52C58
100
AcDbEntity
  8
0
 62
     1
100
AcDbText
 10
29050.90814894387
 20
25917.69496399888
 30
0.0
 40
8.0
  1
Note: the dimensions on ceramic fireclay
  7
ACISOTS
100
AcDbText
  0
TEXT
  5
51B8F
330
52C58
100
AcDbEntity
  8
0
 62
     1
100
AcDbText
 10
29049.60334894387
 20
25904.36163066556
 30
0.0
 40
8.0
  1
products
  7
ACISOTS
100
AcDbText
  0
TEXT
  5
51B90
330
52C58
100
AcDbEntity
  8
0
 62
     1
100
AcDbText
 10
29052.43194894387
 20
25891.02829733223
 30
0.0
 40
8.0
  1
are subject to wider tolerances due to the
  7
ACISOTS
100
AcDbText
  0
TEXT
  5
51B91
330
52C58
100
AcDbEntity
  8
0
 62
     1
100
AcDbText
 10
29049.60334894387
 20
25877.69496399888
 30
0.0
 40
8.0
  1
nature
  7
ACISOTS
100
AcDbText
  0
TEXT
  5
51B92
330
52C58
100
AcDbEntity
  8
0
 62
     1
100
AcDbText
 10
29074.14634894387
 20
25864.36163066556
 30
0.0
 40
8.0
  1
of this natural material and the firing
  7
ACISOTS
100
AcDbText
  0
TEXT
  5
51B93
330
52C58
100
AcDbEntity
  8
0
 62
     1
100
AcDbText
 10
29049.60334894387
 20
25851.02829733223
 30
0.0
 40
8.0
  1
process.
  7
ACISOTS
100
AcDbText
  0
TEXT
  5
51B94
330
52C58
100
AcDbEntity
  8
0
 62
     1
100
AcDbText
 10
29079.09834894386
 20
25824.36163066557
 30
0.0
 40
8.0
  1
We recommend that a test cutout is made in
  7
ACISOTS
100
AcDbText
  0
TEXT
  5
51B95
330
52C58
100
AcDbEntity
  8
0
 62
     1
100
AcDbText
 10
29054.71764894387
 20
25811.02829733223
 30
0.0
 40
8.0
  1
scrap timber and checked against the actual
  7
ACISOTS
100
AcDbText
  0
TEXT
  5
51B96
330
52C58
100
AcDbEntity
  8
0
 62
     1
100
AcDbText
 10
29049.60334894387
 20
25797.6949639989
 30
0.0
 40
8.0
  1
sink
  7
ACISOTS
100
AcDbText
  0
TEXT
  5
51B97
330
52C58
100
AcDbEntity
  8
0
 62
     1
100
AcDbText
 10
29105.76534894387
 20
25784.36163066557
 30
0.0
 40
8.0
  1
supplied before committing to cutting
  7
ACISOTS
100
AcDbText
  0
TEXT
  5
51B98
330
52C58
100
AcDbEntity
  8
0
 62
     1
100
AcDbText
 10
29049.60334894387
 20
25771.02829733223
 30
0.0
 40
8.0
  1
the
  7
ACISOTS
100
AcDbText
  0
TEXT
  5
51B99
330
52C58
100
AcDbEntity
  8
0
 62
     1
100
AcDbText
 10
29296.24334894387
 20
25757.6949639989
 30
0.0
 40
8.0
  1
worksurface.
  7
ACISOTS
100
AcDbText
  0
TEXT
  5
51B9A
330
52C58
100
AcDbEntity
  8
0
 62
     1
100
AcDbText
 10
29076.43234894387
 20
25731.02829733224
 30
0.0
 40
8.0
  1
Abode can not accept liability for problems
  7
ACISOTS
100
AcDbText
  0
TEXT
  5
51B9B
330
52C58
100
AcDbEntity
  8
0
 62
     1
100
AcDbText
 10
29049.60334894387
 20
25717.69496399891
 30
0.0
 40
8.0
  1
or
  7
ACISOTS
100
AcDbText
  0
TEXT
  5
51B9C
330
52C58
100
AcDbEntity
  8
0
 62
     1
100
AcDbText
 10
29080.62234894387
 20
25704.36163066557
 30
0.0
 40
8.0
  1
costs incurred by failure to follow this advise,
  7
ACISOTS
100
AcDbText
  0
TEXT
  5
51B9D
330
52C58
100
AcDbEntity
  8
0
 62
     1
100
AcDbText
 10
29073.38434894387
 20
25691.02829733224
 30
0.0
 40
8.0
  1
dimensions weights & measures are subject
  7
ACISOTS
100
AcDbText
  0
TEXT
  5
51B9E
330
52C58
100
AcDbEntity
  8
0
 62
     1
100
AcDbText
 10
29049.60334894387
 20
25677.69496399891
 30
0.0
 40
8.0
  1
to
  7
ACISOTS
100
AcDbText
  0
TEXT
  5
51B9F
330
52C58
100
AcDbEntity
  8
0
 62
     1
100
AcDbText
 10
29056.62234894387
 20
25664.36163066557
 30
0.0
 40
8.0
  1
change without prior notice. Errors and omissions
  7
ACISOTS
100
AcDbText
  0
TEXT
  5
51BA0
330
52C58
100
AcDbEntity
  8
0
 62
     1
100
AcDbText
 10
29317.19334894387
 20
25651.02829733225
 30
0.0
 40
8.0
  1
excepted
  7
ACISOTS
100
AcDbText
  0
ENDBLK
  5
51BA2
330
52C58
100
AcDbEntity
  8
0
100
AcDbBlockEnd
  0
BLOCK
  5
52C60
330
52C5F
100
AcDbEntity
  8
0
100
AcDbBlockBegin
  2
*D16
 70
     1
 10
0.0
 20
0.0
 30
0.0
  3
*D16
  1

  0
LINE
  5
52C61
330
52C5F
100
AcDbEntity
  8
DIMS SPECS
370
    25
100
AcDbLine
 10
207740.2431085797
 20
845.0466407026901
 30
0.0
 11
207818.2277886414
 21
845.0466407026901
 31
0.0
  0
LINE
  5
52C62
330
52C5F
100
AcDbEntity
  8
DIMS SPECS
370
    25
100
AcDbLine
 10
207740.2431085797
 20
1315.04664070269
 30
0.0
 11
207818.2277886414
 21
1315.04664070269
 31
0.0
  0
LINE
  5
52C63
330
52C5F
100
AcDbEntity
  8
DIMS SPECS
370
    25
100
AcDbLine
 10
207818.2277886414
 20
857.5466407026901
 30
0.0
 11
207818.2277886414
 21
1063.619040430766
 31
0.0
  0
LINE
  5
52C64
330
52C5F
100
AcDbEntity
  8
DIMS SPECS
370
    25
100
AcDbLine
 10
207818.2277886414
 20
1302.54664070269
 30
0.0
 11
207818.2277886414
 21
1096.474240974614
 31
0.0
  0
INSERT
  5
52C65
330
52C5F
100
AcDbEntity
  8
DIMS SPECS
370
    25
100
AcDbBlockReference
  2
FILLED-1
 10
207818.2277886414
 20
845.0466407026901
 30
0.0
 41
12.5
 42
12.5
 43
12.5
 50
270.0
  0
INSERT
  5
52C66
330
52C5F
100
AcDbEntity
  8
DIMS SPECS
370
    25
100
AcDbBlockReference
  2
FILLED-1
 10
207818.2277886414
 20
1315.04664070269
 30
0.0
 41
12.5
 42
12.5
 43
12.5
 50
90.0
  0
MTEXT
  5
52C67
330
52C5F
100
AcDbEntity
  8
DIMS SPECS
100
AcDbMText
 10
207818.2277886414
 20
1080.046640702724
 30
0.0
 40
17.0
 41
0.0
 46
0.0
 71
     5
 72
     1
  1
\A1;470
  7
ABODE-ISO
 73
     1
 44
1.0
  0
POINT
  5
52C68
330
52C5F
100
AcDbEntity
  8
DEFPOINTS
 62
     0
100
AcDbPoint
 10
207725.2431085796
 20
845.0466407026901
 30
0.0
  0
POINT
  5
52C69
330
52C5F
100
AcDbEntity
  8
DEFPOINTS
 62
     0
100
AcDbPoint
 10
207725.2431085796
 20
1315.04664070269
 30
0.0
  0
POINT
  5
52C6A
330
52C5F
100
AcDbEntity
  8
DEFPOINTS
 62
     0
100
AcDbPoint
 10
207818.2277886414
 20
1315.04664070269
 30
0.0
  0
ENDBLK
  5
52C6B
330
52C5F
100
AcDbEntity
  8
0
100
AcDbBlockEnd
  0
BLOCK
  5
52C6D
330
52C6C
100
AcDbEntity
  8
0
100
AcDbBlockBegin
  2
*D17
 70
     1
 10
0.0
 20
0.0
 30
0.0
  3
*D17
  1

  0
LINE
  5
52C6E
330
52C6C
100
AcDbEntity
  8
DIMS SPECS
370
    25
100
AcDbLine
 10
206983.2431085796
 20
840.0466407026902
 30
0.0
 11
206983.2431085796
 21
760.6683373254853
 31
0.0
  0
LINE
  5
52C6F
330
52C6C
100
AcDbEntity
  8
DIMS SPECS
370
    25
100
AcDbLine
 10
207735.2431085797
 20
840.0466407026902
 30
0.0
 11
207735.2431085797
 21
760.6683373254853
 31
0.0
  0
LINE
  5
52C70
330
52C6C
100
AcDbEntity
  8
DIMS SPECS
370
    25
100
AcDbLine
 10
206995.7431085796
 20
760.6683373254853
 30
0.0
 11
207722.7431085796
 21
760.6683373254853
 31
0.0
  0
INSERT
  5
52C71
330
52C6C
100
AcDbEntity
  8
DIMS SPECS
370
    25
100
AcDbBlockReference
  2
FILLED-1
 10
206983.2431085796
 20
760.6683373254853
 30
0.0
 41
12.5
 42
12.5
 43
12.5
 50
180.0
  0
INSERT
  5
52C72
330
52C6C
100
AcDbEntity
  8
DIMS SPECS
370
    25
100
AcDbBlockReference
  2
FILLED-1
 10
207735.2431085797
 20
760.6683373254853
 30
0.0
 41
12.5
 42
12.5
 43
12.5
  0
MTEXT
  5
52C73
330
52C6C
100
AcDbEntity
  8
DIMS SPECS
100
AcDbMText
 10
207359.2431085796
 20
777.0959375974094
 30
0.0
 40
17.0
 41
0.0
 46
0.0
 71
     5
 72
     1
  1
\A1;752
  7
ABODE-ISO
 73
     1
 44
1.0
  0
POINT
  5
52C74
330
52C6C
100
AcDbEntity
  8
DEFPOINTS
 62
     0
100
AcDbPoint
 10
206983.2431085796
 20
855.0466407026901
 30
0.0
  0
POINT
  5
52C75
330
52C6C
100
AcDbEntity
  8
DEFPOINTS
 62
     0
100
AcDbPoint
 10
207735.2431085797
 20
855.0466407026901
 30
0.0
  0
POINT
  5
52C76
330
52C6C
100
AcDbEntity
  8
DEFPOINTS
 62
     0
100
AcDbPoint
 10
207735.2431085797
 20
760.6683373254853
 30
0.0
  0
ENDBLK
  5
52C77
330
52C6C
100
AcDbEntity
  8
0
100
AcDbBlockEnd
  0
BLOCK
  5
52C79
330
52C78
100
AcDbEntity
  8
0
100
AcDbBlockBegin
  2
*D18
 70
     1
 10
0.0
 20
0.0
 30
0.0
  3
*D18
  1

  0
LINE
  5
52C7A
330
52C78
100
AcDbEntity
  8
DIMS SPECS
370
    25
100
AcDbLine
 10
207823.5303096043
 20
796.5939714111009
 30
0.0
 11
207782.1227637171
 21
796.5939714110718
 31
0.0
  0
LINE
  5
52C7B
330
52C78
100
AcDbEntity
  8
DIMS SPECS
370
    25
100
AcDbLine
 10
207782.1227637171
 20
796.5939714110718
 30
0.0
 11
207740.9345570612
 21
838.9212432019119
 31
0.0
  0
MTEXT
  5
52C7C
330
52C78
100
AcDbEntity
  8
DIMS SPECS
100
AcDbMText
 10
207806.5765366607
 20
813.0215716829811
 30
0.0
 40
17.0
 41
0.0
 46
0.0
 71
     5
 72
     1
  1
\A1;R10
  7
ABODE-ISO
 73
     1
 44
1.0
  0
LINE
  5
52C7D
330
52C78
100
AcDbEntity
  8
DIMS SPECS
370
    25
100
AcDbLine
 10
207725.2431085797
 20
855.0466407026831
 30
0.0
 11
207732.2170856826
 21
847.8797973689506
 31
0.0
  0
INSERT
  5
52C7E
330
52C78
100
AcDbEntity
  8
DIMS SPECS
370
    25
100
AcDbBlockReference
  2
FILLED-1
 10
207732.2170856826
 20
847.8797973689506
 30
0.0
 41
12.5
 42
12.5
 43
12.5
 50
134.2185930120052
  0
POINT
  5
52C7F
330
52C78
100
AcDbEntity
  8
DEFPOINTS
 62
     0
100
AcDbPoint
 10
207732.2170856826
 20
847.8797973689506
 30
0.0
  0
POINT
  5
52C80
330
52C78
100
AcDbEntity
  8
DEFPOINTS
 62
     0
100
AcDbPoint
 10
207725.2431085797
 20
855.0466407026831
 30
0.0
  0
ENDBLK
  5
52C81
330
52C78
100
AcDbEntity
  8
0
100
AcDbBlockEnd
  0
BLOCK
  5
52C83
330
52C82
100
AcDbEntity
  8
0
100
AcDbBlockBegin
  2
*D19
 70
     1
 10
0.0
 20
0.0
 30
0.0
  3
*D19
  1

  0
LINE
  5
52C84
330
52C82
100
AcDbEntity
  8
DIMS SPECS
370
    25
100
AcDbLine
 10
207000.2431085796
 20
830.0466407026906
 30
0.0
 11
207000.2431085796
 21
813.4856587821015
 31
0.0
  0
LINE
  5
52C85
330
52C82
100
AcDbEntity
  8
DIMS SPECS
370
    25
100
AcDbLine
 10
206983.2431085796
 20
840.0466407026902
 30
0.0
 11
206983.2431085796
 21
813.4856587821015
 31
0.0
  0
LINE
  5
52C86
330
52C82
100
AcDbEntity
  8
DIMS SPECS
370
    25
100
AcDbLine
 10
206970.7431085796
 20
813.4856587821015
 30
0.0
 11
206958.2431085796
 21
813.4856587821015
 31
0.0
  0
LINE
  5
52C87
330
52C82
100
AcDbEntity
  8
DIMS SPECS
370
    25
100
AcDbLine
 10
207012.7431085797
 20
813.4856587821015
 30
0.0
 11
207060.2548013057
 21
813.4856587821015
 31
0.0
  0
LINE
  5
52C88
330
52C82
100
AcDbEntity
  8
DIMS SPECS
370
    25
100
AcDbLine
 10
206983.2431085796
 20
813.4856587821015
 30
0.0
 11
207000.2431085796
 21
813.4856587821015
 31
0.0
  0
INSERT
  5
52C89
330
52C82
100
AcDbEntity
  8
DIMS SPECS
370
    25
100
AcDbBlockReference
  2
FILLED-1
 10
206983.2431085796
 20
813.4856587821015
 30
0.0
 41
12.5
 42
12.5
 43
12.5
  0
INSERT
  5
52C8A
330
52C82
100
AcDbEntity
  8
DIMS SPECS
370
    25
100
AcDbBlockReference
  2
FILLED-1
 10
207000.2431085796
 20
813.4856587821015
 30
0.0
 41
12.5
 42
12.5
 43
12.5
 50
180.0
  0
MTEXT
  5
52C8B
330
52C82
100
AcDbEntity
  8
DIMS SPECS
100
AcDbMText
 10
207042.7489549427
 20
829.6994589180632
 30
0.0
 40
17.0
 41
0.0
 46
0.0
 71
     5
 72
     1
  1
\A1;17
  7
ABODE-ISO
 73
     1
 44
1.0
  0
POINT
  5
52C8C
330
52C82
100
AcDbEntity
  8
DEFPOINTS
 62
     0
100
AcDbPoint
 10
207000.2431085796
 20
845.0466407026906
 30
0.0
  0
POINT
  5
52C8D
330
52C82
100
AcDbEntity
  8
DEFPOINTS
 62
     0
100
AcDbPoint
 10
206983.2431085796
 20
855.0466407026901
 30
0.0
  0
POINT
  5
52C8E
330
52C82
100
AcDbEntity
  8
DEFPOINTS
 62
     0
100
AcDbPoint
 10
206983.2431085796
 20
813.4856587821015
 30
0.0
  0
ENDBLK
  5
52C8F
330
52C82
100
AcDbEntity
  8
0
100
AcDbBlockEnd
  0
BLOCK
  5
52C91
330
52C90
100
AcDbEntity
  8
0
100
AcDbBlockBegin
  2
*D20
 70
     1
 10
0.0
 20
0.0
 30
0.0
  3
*D20
  1

  0
LINE
  5
52C92
330
52C90
100
AcDbEntity
  8
DIMS SPECS
370
    25
100
AcDbLine
 10
207000.2431085796
 20
830.0466407026906
 30
0.0
 11
207000.2431085796
 21
793.1645102313737
 31
0.0
  0
LINE
  5
52C93
330
52C90
100
AcDbEntity
  8
DIMS SPECS
370
    25
100
AcDbLine
 10
207410.2431085796
 20
830.0466407026906
 30
0.0
 11
207410.2431085796
 21
793.1645102313737
 31
0.0
  0
LINE
  5
52C94
330
52C90
100
AcDbEntity
  8
DIMS SPECS
370
    25
100
AcDbLine
 10
207012.7431085797
 20
793.1645102313737
 30
0.0
 11
207397.7431085797
 21
793.1645102313737
 31
0.0
  0
INSERT
  5
52C95
330
52C90
100
AcDbEntity
  8
DIMS SPECS
370
    25
100
AcDbBlockReference
  2
FILLED-1
 10
207000.2431085796
 20
793.1645102313737
 30
0.0
 41
12.5
 42
12.5
 43
12.5
 50
180.0
  0
INSERT
  5
52C96
330
52C90
100
AcDbEntity
  8
DIMS SPECS
370
    25
100
AcDbBlockReference
  2
FILLED-1
 10
207410.2431085796
 20
793.1645102313737
 30
0.0
 41
12.5
 42
12.5
 43
12.5
  0
MTEXT
  5
52C97
330
52C90
100
AcDbEntity
  8
DIMS SPECS
100
AcDbMText
 10
207211.2431085797
 20
809.5921105032976
 30
0.0
 40
17.0
 41
0.0
 46
0.0
 71
     5
 72
     1
  1
\A1;410
  7
ABODE-ISO
 73
     1
 44
1.0
  0
POINT
  5
52C98
330
52C90
100
AcDbEntity
  8
DEFPOINTS
 62
     0
100
AcDbPoint
 10
207000.2431085796
 20
845.0466407026906
 30
0.0
  0
POINT
  5
52C99
330
52C90
100
AcDbEntity
  8
DEFPOINTS
 62
     0
100
AcDbPoint
 10
207410.2431085796
 20
845.0466407026906
 30
0.0
  0
POINT
  5
52C9A
330
52C90
100
AcDbEntity
  8
DEFPOINTS
 62
     0
100
AcDbPoint
 10
207410.2431085796
 20
793.1645102313737
 30
0.0
  0
ENDBLK
  5
52C9B
330
52C90
100
AcDbEntity
  8
0
100
AcDbBlockEnd
  0
BLOCK
  5
52CE1
330
52CE0
100
AcDbEntity
  8
0
100
AcDbBlockBegin
  2
*D21
 70
     1
 10
0.0
 20
0.0
 30
0.0
  3
*D21
  1

  0
LINE
  5
52D6D
330
52CE0
100
AcDbEntity
  8
DIMS SPECS
370
    25
100
AcDbLine
 10
29520.0731125792
 20
25592.31960242349
 30
0.0
 11
29520.0731125792
 21
25555.43747195219
 31
0.0
  0
LINE
  5
52D6E
330
52CE0
100
AcDbEntity
  8
DIMS SPECS
370
    25
100
AcDbLine
 10
29930.0731125792
 20
25592.31960242349
 30
0.0
 11
29930.0731125792
 21
25555.43747195219
 31
0.0
  0
LINE
  5
52D6F
330
52CE0
100
AcDbEntity
  8
DIMS SPECS
370
    25
100
AcDbLine
 10
29532.5731125792
 20
25555.43747195219
 30
0.0
 11
29917.5731125792
 21
25555.43747195219
 31
0.0
  0
INSERT
  5
52D70
330
52CE0
100
AcDbEntity
  8
DIMS SPECS
370
    25
100
AcDbBlockReference
  2
FILLED-1
 10
29520.0731125792
 20
25555.43747195219
 30
0.0
 41
12.5
 42
12.5
 43
12.5
 50
180.0
  0
INSERT
  5
52D71
330
52CE0
100
AcDbEntity
  8
DIMS SPECS
370
    25
100
AcDbBlockReference
  2
FILLED-1
 10
29930.0731125792
 20
25555.43747195219
 30
0.0
 41
12.5
 42
12.5
 43
12.5
  0
MTEXT
  5
52D72
330
52CE0
100
AcDbEntity
  8
DIMS SPECS
100
AcDbMText
 10
29731.0731125792
 20
25571.43747195218
 30
0.0
 40
17.0
 41
0.0
 46
0.0
 71
     5
 72
     1
  1
\A1;410
  7
ABODE-ISO
 73
     1
 44
1.0
  0
POINT
  5
52D73
330
52CE0
100
AcDbEntity
  8
DEFPOINTS
 62
     0
100
AcDbPoint
 10
29520.0731125792
 20
25607.31960242349
 30
0.0
  0
POINT
  5
52D74
330
52CE0
100
AcDbEntity
  8
DEFPOINTS
 62
     0
100
AcDbPoint
 10
29930.0731125792
 20
25607.31960242349
 30
0.0
  0
POINT
  5
52D75
330
52CE0
100
AcDbEntity
  8
DEFPOINTS
 62
     0
100
AcDbPoint
 10
29930.0731125792
 20
25555.43747195219
 30
0.0
  0
ENDBLK
  5
52CE2
330
52CE0
100
AcDbEntity
  8
0
100
AcDbBlockEnd
  0
BLOCK
  5
52CED
330
52CEC
100
AcDbEntity
  8
0
100
AcDbBlockBegin
  2
*D22
 70
     1
 10
0.0
 20
0.0
 30
0.0
  3
*D22
  1

  0
LINE
  5
52D90
330
52CEC
100
AcDbEntity
  8
DIMS SPECS
370
    25
100
AcDbLine
 10
29520.0731125792
 20
25592.31960242349
 30
0.0
 11
29520.0731125792
 21
25575.75862050291
 31
0.0
  0
LINE
  5
52D91
330
52CEC
100
AcDbEntity
  8
DIMS SPECS
370
    25
100
AcDbLine
 10
29503.07311257917
 20
25602.3196024235
 30
0.0
 11
29503.07311257917
 21
25575.75862050291
 31
0.0
  0
LINE
  5
52D92
330
52CEC
100
AcDbEntity
  8
DIMS SPECS
370
    25
100
AcDbLine
 10
29490.57311257917
 20
25575.75862050291
 30
0.0
 11
29478.07311257917
 21
25575.75862050291
 31
0.0
  0
LINE
  5
52D93
330
52CEC
100
AcDbEntity
  8
DIMS SPECS
370
    25
100
AcDbLine
 10
29532.5731125792
 20
25575.75862050291
 30
0.0
 11
29580.4731125792
 21
25575.75862050291
 31
0.0
  0
LINE
  5
52D94
330
52CEC
100
AcDbEntity
  8
DIMS SPECS
370
    25
100
AcDbLine
 10
29503.07311257917
 20
25575.75862050291
 30
0.0
 11
29520.0731125792
 21
25575.75862050291
 31
0.0
  0
INSERT
  5
52D95
330
52CEC
100
AcDbEntity
  8
DIMS SPECS
370
    25
100
AcDbBlockReference
  2
FILLED-1
 10
29503.07311257917
 20
25575.75862050291
 30
0.0
 41
12.5
 42
12.5
 43
12.5
  0
INSERT
  5
52D96
330
52CEC
100
AcDbEntity
  8
DIMS SPECS
370
    25
100
AcDbBlockReference
  2
FILLED-1
 10
29520.0731125792
 20
25575.75862050291
 30
0.0
 41
12.5
 42
12.5
 43
12.5
 50
180.0
  0
MTEXT
  5
52D97
330
52CEC
100
AcDbEntity
  8
DIMS SPECS
100
AcDbMText
 10
29562.7731125792
 20
25591.7586205029
 30
0.0
 40
17.0
 41
0.0
 46
0.0
 71
     5
 72
     1
  1
\A1;17
  7
ABODE-ISO
 73
     1
 44
1.0
  0
POINT
  5
52D98
330
52CEC
100
AcDbEntity
  8
DEFPOINTS
 62
     0
100
AcDbPoint
 10
29520.0731125792
 20
25607.31960242349
 30
0.0
  0
POINT
  5
52D99
330
52CEC
100
AcDbEntity
  8
DEFPOINTS
 62
     0
100
AcDbPoint
 10
29503.07311257917
 20
25617.3196024235
 30
0.0
  0
POINT
  5
52D9A
330
52CEC
100
AcDbEntity
  8
DEFPOINTS
 62
     0
100
AcDbPoint
 10
29503.07311257917
 20
25575.75862050291
 30
0.0
  0
ENDBLK
  5
52CEE
330
52CEC
100
AcDbEntity
  8
0
100
AcDbBlockEnd
  0
BLOCK
  5
52D04
330
52D03
100
AcDbEntity
  8
0
100
AcDbBlockBegin
  2
*D23
 70
     1
 10
0.0
 20
0.0
 30
0.0
  3
*D23
  1

  0
LINE
  5
52D76
330
52D03
100
AcDbEntity
  8
DIMS SPECS
370
    25
100
AcDbLine
 10
30260.0731125792
 20
25607.31960242349
 30
0.0
 11
30338.05779264098
 21
25607.31960242349
 31
0.0
  0
LINE
  5
52D77
330
52D03
100
AcDbEntity
  8
DIMS SPECS
370
    25
100
AcDbLine
 10
30260.0731125792
 20
26077.31960242349
 30
0.0
 11
30338.05779264098
 21
26077.31960242349
 31
0.0
  0
LINE
  5
52D78
330
52D03
100
AcDbEntity
  8
DIMS SPECS
370
    25
100
AcDbLine
 10
30338.05779264098
 20
25619.81960242349
 30
0.0
 11
30338.05779264098
 21
25826.31960242349
 31
0.0
  0
LINE
  5
52D79
330
52D03
100
AcDbEntity
  8
DIMS SPECS
370
    25
100
AcDbLine
 10
30338.05779264098
 20
26064.81960242349
 30
0.0
 11
30338.05779264098
 21
25858.31960242349
 31
0.0
  0
INSERT
  5
52D7A
330
52D03
100
AcDbEntity
  8
DIMS SPECS
370
    25
100
AcDbBlockReference
  2
FILLED-1
 10
30338.05779264098
 20
25607.31960242349
 30
0.0
 41
12.5
 42
12.5
 43
12.5
 50
270.0
  0
INSERT
  5
52D7B
330
52D03
100
AcDbEntity
  8
DIMS SPECS
370
    25
100
AcDbBlockReference
  2
FILLED-1
 10
30338.05779264098
 20
26077.31960242349
 30
0.0
 41
12.5
 42
12.5
 43
12.5
 50
90.0
  0
MTEXT
  5
52D7C
330
52D03
100
AcDbEntity
  8
DIMS SPECS
100
AcDbMText
 10
30338.05779264097
 20
25842.3196024235
 30
0.0
 40
17.0
 41
0.0
 46
0.0
 71
     5
 72
     1
  1
\A1;470
  7
ABODE-ISO
 73
     1
 44
1.0
  0
POINT
  5
52D7D
330
52D03
100
AcDbEntity
  8
DEFPOINTS
 62
     0
100
AcDbPoint
 10
30245.0731125792
 20
25607.31960242349
 30
0.0
  0
POINT
  5
52D7E
330
52D03
100
AcDbEntity
  8
DEFPOINTS
 62
     0
100
AcDbPoint
 10
30245.0731125792
 20
26077.31960242349
 30
0.0
  0
POINT
  5
52D7F
330
52D03
100
AcDbEntity
  8
DEFPOINTS
 62
     0
100
AcDbPoint
 10
30338.05779264098
 20
26077.31960242349
 30
0.0
  0
ENDBLK
  5
52D05
330
52D03
100
AcDbEntity
  8
0
100
AcDbBlockEnd
  0
BLOCK
  5
52D11
330
52D10
100
AcDbEntity
  8
0
100
AcDbBlockBegin
  2
*D24
 70
     1
 10
0.0
 20
0.0
 30
0.0
  3
*D24
  1

  0
LINE
  5
52D80
330
52D10
100
AcDbEntity
  8
DIMS SPECS
370
    25
100
AcDbLine
 10
29503.07311257917
 20
25602.3196024235
 30
0.0
 11
29503.07311257917
 21
25522.94129904629
 31
0.0
  0
LINE
  5
52D81
330
52D10
100
AcDbEntity
  8
DIMS SPECS
370
    25
100
AcDbLine
 10
30255.0731125792
 20
25602.3196024235
 30
0.0
 11
30255.0731125792
 21
25522.94129904629
 31
0.0
  0
LINE
  5
52D82
330
52D10
100
AcDbEntity
  8
DIMS SPECS
370
    25
100
AcDbLine
 10
29515.57311257917
 20
25522.94129904629
 30
0.0
 11
30242.5731125792
 21
25522.94129904629
 31
0.0
  0
INSERT
  5
52D83
330
52D10
100
AcDbEntity
  8
DIMS SPECS
370
    25
100
AcDbBlockReference
  2
FILLED-1
 10
29503.07311257917
 20
25522.94129904629
 30
0.0
 41
12.5
 42
12.5
 43
12.5
 50
180.0
  0
INSERT
  5
52D84
330
52D10
100
AcDbEntity
  8
DIMS SPECS
370
    25
100
AcDbBlockReference
  2
FILLED-1
 10
30255.0731125792
 20
25522.94129904629
 30
0.0
 41
12.5
 42
12.5
 43
12.5
  0
MTEXT
  5
52D85
330
52D10
100
AcDbEntity
  8
DIMS SPECS
100
AcDbMText
 10
29879.0731125792
 20
25538.94129904629
 30
0.0
 40
17.0
 41
0.0
 46
0.0
 71
     5
 72
     1
  1
\A1;752
  7
ABODE-ISO
 73
     1
 44
1.0
  0
POINT
  5
52D86
330
52D10
100
AcDbEntity
  8
DEFPOINTS
 62
     0
100
AcDbPoint
 10
29503.07311257917
 20
25617.3196024235
 30
0.0
  0
POINT
  5
52D87
330
52D10
100
AcDbEntity
  8
DEFPOINTS
 62
     0
100
AcDbPoint
 10
30255.0731125792
 20
25617.3196024235
 30
0.0
  0
POINT
  5
52D88
330
52D10
100
AcDbEntity
  8
DEFPOINTS
 62
     0
100
AcDbPoint
 10
30255.0731125792
 20
25522.94129904629
 30
0.0
  0
ENDBLK
  5
52D12
330
52D10
100
AcDbEntity
  8
0
100
AcDbBlockEnd
  0
BLOCK
  5
52D1D
330
52D1C
100
AcDbEntity
  8
0
100
AcDbBlockBegin
  2
*D25
 70
     1
 10
0.0
 20
0.0
 30
0.0
  3
*D25
  1

  0
LINE
  5
52D9B
330
52D1C
100
AcDbEntity
  8
DIMS SPECS
370
    25
100
AcDbLine
 10
30342.98154066024
 20
25558.86693313184
 30
0.0
 11
30301.95276771653
 21
25558.86693313185
 31
0.0
  0
LINE
  5
52D9C
330
52D1C
100
AcDbEntity
  8
DIMS SPECS
370
    25
100
AcDbLine
 10
30301.95276771653
 20
25558.86693313185
 30
0.0
 11
30260.76456106071
 21
25601.19420492271
 31
0.0
  0
MTEXT
  5
52D9D
330
52D1C
100
AcDbEntity
  8
DIMS SPECS
100
AcDbMText
 10
30326.40654066024
 20
25574.86693313185
 30
0.0
 40
17.0
 41
0.0
 46
0.0
 71
     5
 72
     1
  1
\A1;R10
  7
ABODE-ISO
 73
     1
 44
1.0
  0
LINE
  5
52D9E
330
52D1C
100
AcDbEntity
  8
DIMS SPECS
370
    25
100
AcDbLine
 10
30245.0731125792
 20
25617.31960242349
 30
0.0
 11
30252.04708968215
 21
25610.15275908975
 31
0.0
  0
INSERT
  5
52D9F
330
52D1C
100
AcDbEntity
  8
DIMS SPECS
370
    25
100
AcDbBlockReference
  2
FILLED-1
 10
30252.04708968215
 20
25610.15275908975
 30
0.0
 41
12.5
 42
12.5
 43
12.5
 50
134.2185930119608
  0
POINT
  5
52DA0
330
52D1C
100
AcDbEntity
  8
DEFPOINTS
 62
     0
100
AcDbPoint
 10
30252.04708968215
 20
25610.15275908975
 30
0.0
  0
POINT
  5
52DA1
330
52D1C
100
AcDbEntity
  8
DEFPOINTS
 62
     0
100
AcDbPoint
 10
30245.0731125792
 20
25617.31960242349
 30
0.0
  0
ENDBLK
  5
52D1E
330
52D1C
100
AcDbEntity
  8
0
100
AcDbBlockEnd
  0
BLOCK
  5
52DD5
330
52DD4
100
AcDbEntity
  8
0
100
AcDbBlockBegin
  2
*D26
 70
     1
 10
0.0
 20
0.0
 30
0.0
  3
*D26
  1

  0
LINE
  5
52DD6
330
52DD4
100
AcDbEntity
  8
DIMS SPECS
370
    25
100
AcDbLine
 10
209051.4736897929
 20
840.0466407026906
 30
0.0
 11
209051.4736897929
 21
732.7406069667556
 31
0.0
  0
LINE
  5
52DD7
330
52DD4
100
AcDbEntity
  8
DIMS SPECS
370
    25
100
AcDbLine
 10
210021.473689793
 20
840.0466407026904
 30
0.0
 11
210021.473689793
 21
732.7406069667556
 31
0.0
  0
LINE
  5
52DD8
330
52DD4
100
AcDbEntity
  8
DIMS SPECS
370
    25
100
AcDbLine
 10
209063.973689793
 20
732.7406069667556
 30
0.0
 11
210008.9736897929
 21
732.7406069667556
 31
0.0
  0
INSERT
  5
52DD9
330
52DD4
100
AcDbEntity
  8
DIMS SPECS
370
    25
100
AcDbBlockReference
  2
FILLED-1
 10
209051.4736897929
 20
732.7406069667556
 30
0.0
 41
12.5
 42
12.5
 43
12.5
 50
180.0
  0
INSERT
  5
52DDA
330
52DD4
100
AcDbEntity
  8
DIMS SPECS
370
    25
100
AcDbBlockReference
  2
FILLED-1
 10
210021.473689793
 20
732.7406069667556
 30
0.0
 41
12.5
 42
12.5
 43
12.5
  0
MTEXT
  5
52DDB
330
52DD4
100
AcDbEntity
  8
DIMS SPECS
100
AcDbMText
 10
209536.4736897929
 20
749.1682072386797
 30
0.0
 40
17.0
 41
0.0
 46
0.0
 71
     5
 72
     1
  1
\A1;970
  7
ABODE-ISO
 73
     1
 44
1.0
  0
POINT
  5
52DDC
330
52DD4
100
AcDbEntity
  8
DEFPOINTS
 62
     0
100
AcDbPoint
 10
209051.4736897929
 20
855.0466407026904
 30
0.0
  0
POINT
  5
52DDD
330
52DD4
100
AcDbEntity
  8
DEFPOINTS
 62
     0
100
AcDbPoint
 10
210021.473689793
 20
855.0466407026904
 30
0.0
  0
POINT
  5
52DDE
330
52DD4
100
AcDbEntity
  8
DEFPOINTS
 62
     0
100
AcDbPoint
 10
210021.473689793
 20
732.7406069667556
 30
0.0
  0
ENDBLK
  5
52DDF
330
52DD4
100
AcDbEntity
  8
0
100
AcDbBlockEnd
  0
BLOCK
  5
52DE1
330
52DE0
100
AcDbEntity
  8
0
100
AcDbBlockBegin
  2
*D27
 70
     1
 10
0.0
 20
0.0
 30
0.0
  3
*D27
  1

  0
LINE
  5
52DE2
330
52DE0
100
AcDbEntity
  8
DIMS SPECS
370
    25
100
AcDbLine
 10
209051.4736897929
 20
840.0466407026906
 30
0.0
 11
209051.4736897929
 21
807.0136762179645
 31
0.0
  0
LINE
  5
52DE3
330
52DE0
100
AcDbEntity
  8
DIMS SPECS
370
    25
100
AcDbLine
 10
209066.473689793
 20
830.0466407026904
 30
0.0
 11
209066.473689793
 21
807.0136762179645
 31
0.0
  0
LINE
  5
52DE4
330
52DE0
100
AcDbEntity
  8
DIMS SPECS
370
    25
100
AcDbLine
 10
209038.9736897929
 20
807.0136762179645
 30
0.0
 11
209026.4736897929
 21
807.0136762179645
 31
0.0
  0
LINE
  5
52DE5
330
52DE0
100
AcDbEntity
  8
DIMS SPECS
370
    25
100
AcDbLine
 10
209078.973689793
 20
807.0136762179645
 30
0.0
 11
209126.1213444497
 21
807.0136762179645
 31
0.0
  0
LINE
  5
52DE6
330
52DE0
100
AcDbEntity
  8
DIMS SPECS
370
    25
100
AcDbLine
 10
209051.4736897929
 20
807.0136762179645
 30
0.0
 11
209066.473689793
 21
807.0136762179645
 31
0.0
  0
INSERT
  5
52DE7
330
52DE0
100
AcDbEntity
  8
DIMS SPECS
370
    25
100
AcDbBlockReference
  2
FILLED-1
 10
209051.4736897929
 20
807.0136762179645
 30
0.0
 41
12.5
 42
12.5
 43
12.5
  0
INSERT
  5
52DE8
330
52DE0
100
AcDbEntity
  8
DIMS SPECS
370
    25
100
AcDbBlockReference
  2
FILLED-1
 10
209066.473689793
 20
807.0136762179645
 30
0.0
 41
12.5
 42
12.5
 43
12.5
 50
180.0
  0
MTEXT
  5
52DE9
330
52DE0
100
AcDbEntity
  8
DIMS SPECS
100
AcDbMText
 10
209108.7975171213
 20
823.2274763539264
 30
0.0
 40
17.0
 41
0.0
 46
0.0
 71
     5
 72
     1
  1
\A1;15
  7
ABODE-ISO
 73
     1
 44
1.0
  0
POINT
  5
52DEA
330
52DE0
100
AcDbEntity
  8
DEFPOINTS
 62
     0
100
AcDbPoint
 10
209051.4736897929
 20
855.0466407026904
 30
0.0
  0
POINT
  5
52DEB
330
52DE0
100
AcDbEntity
  8
DEFPOINTS
 62
     0
100
AcDbPoint
 10
209066.473689793
 20
845.0466407026905
 30
0.0
  0
POINT
  5
52DEC
330
52DE0
100
AcDbEntity
  8
DEFPOINTS
 62
     0
100
AcDbPoint
 10
209066.473689793
 20
807.0136762179645
 30
0.0
  0
ENDBLK
  5
52DED
330
52DE0
100
AcDbEntity
  8
0
100
AcDbBlockEnd
  0
BLOCK
  5
52DEF
330
52DEE
100
AcDbEntity
  8
0
100
AcDbBlockBegin
  2
*D28
 70
     1
 10
0.0
 20
0.0
 30
0.0
  3
*D28
  1

  0
LINE
  5
52DF0
330
52DEE
100
AcDbEntity
  8
DIMS SPECS
370
    25
100
AcDbLine
 10
209066.473689793
 20
830.0466407026904
 30
0.0
 11
209066.473689793
 21
781.980246774954
 31
0.0
  0
LINE
  5
52DF1
330
52DEE
100
AcDbEntity
  8
DIMS SPECS
370
    25
100
AcDbLine
 10
209611.4736897929
 20
830.0466407026904
 30
0.0
 11
209611.4736897929
 21
781.980246774954
 31
0.0
  0
LINE
  5
52DF2
330
52DEE
100
AcDbEntity
  8
DIMS SPECS
370
    25
100
AcDbLine
 10
209078.973689793
 20
781.980246774954
 30
0.0
 11
209598.973689793
 21
781.980246774954
 31
0.0
  0
INSERT
  5
52DF3
330
52DEE
100
AcDbEntity
  8
DIMS SPECS
370
    25
100
AcDbBlockReference
  2
FILLED-1
 10
209066.473689793
 20
781.980246774954
 30
0.0
 41
12.5
 42
12.5
 43
12.5
 50
180.0
  0
INSERT
  5
52DF4
330
52DEE
100
AcDbEntity
  8
DIMS SPECS
370
    25
100
AcDbBlockReference
  2
FILLED-1
 10
209611.4736897929
 20
781.980246774954
 30
0.0
 41
12.5
 42
12.5
 43
12.5
  0
MTEXT
  5
52DF5
330
52DEE
100
AcDbEntity
  8
DIMS SPECS
100
AcDbMText
 10
209338.9736897929
 20
798.407847046878
 30
0.0
 40
17.0
 41
0.0
 46
0.0
 71
     5
 72
     1
  1
\A1;545
  7
ABODE-ISO
 73
     1
 44
1.0
  0
POINT
  5
52DF6
330
52DEE
100
AcDbEntity
  8
DEFPOINTS
 62
     0
100
AcDbPoint
 10
209066.473689793
 20
845.0466407026905
 30
0.0
  0
POINT
  5
52DF7
330
52DEE
100
AcDbEntity
  8
DEFPOINTS
 62
     0
100
AcDbPoint
 10
209611.4736897929
 20
845.0466407026905
 30
0.0
  0
POINT
  5
52DF8
330
52DEE
100
AcDbEntity
  8
DEFPOINTS
 62
     0
100
AcDbPoint
 10
209611.4736897929
 20
781.980246774954
 30
0.0
  0
ENDBLK
  5
52DF9
330
52DEE
100
AcDbEntity
  8
0
100
AcDbBlockEnd
  0
BLOCK
  5
52DFB
330
52DFA
100
AcDbEntity
  8
0
100
AcDbBlockBegin
  2
*D29
 70
     1
 10
0.0
 20
0.0
 30
0.0
  3
*D29
  1

  0
LINE
  5
52DFC
330
52DFA
100
AcDbEntity
  8
DIMS SPECS
370
    25
100
AcDbLine
 10
210026.473689793
 20
845.0466407026905
 30
0.0
 11
210104.4583698547
 21
845.0466407026905
 31
0.0
  0
LINE
  5
52DFD
330
52DFA
100
AcDbEntity
  8
DIMS SPECS
370
    25
100
AcDbLine
 10
210026.473689793
 20
1315.04664070269
 30
0.0
 11
210104.4583698547
 21
1315.04664070269
 31
0.0
  0
LINE
  5
52DFE
330
52DFA
100
AcDbEntity
  8
DIMS SPECS
370
    25
100
AcDbLine
 10
210104.4583698547
 20
857.5466407026905
 30
0.0
 11
210104.4583698547
 21
1063.619040430766
 31
0.0
  0
LINE
  5
52DFF
330
52DFA
100
AcDbEntity
  8
DIMS SPECS
370
    25
100
AcDbLine
 10
210104.4583698547
 20
1302.54664070269
 30
0.0
 11
210104.4583698547
 21
1096.474240974614
 31
0.0
  0
INSERT
  5
52E00
330
52DFA
100
AcDbEntity
  8
DIMS SPECS
370
    25
100
AcDbBlockReference
  2
FILLED-1
 10
210104.4583698547
 20
845.0466407026905
 30
0.0
 41
12.5
 42
12.5
 43
12.5
 50
270.0
  0
INSERT
  5
52E01
330
52DFA
100
AcDbEntity
  8
DIMS SPECS
370
    25
100
AcDbBlockReference
  2
FILLED-1
 10
210104.4583698547
 20
1315.04664070269
 30
0.0
 41
12.5
 42
12.5
 43
12.5
 50
90.0
  0
MTEXT
  5
52E02
330
52DFA
100
AcDbEntity
  8
DIMS SPECS
100
AcDbMText
 10
210104.4583698547
 20
1080.046640702724
 30
0.0
 40
17.0
 41
0.0
 46
0.0
 71
     5
 72
     1
  1
\A1;470
  7
ABODE-ISO
 73
     1
 44
1.0
  0
POINT
  5
52E03
330
52DFA
100
AcDbEntity
  8
DEFPOINTS
 62
     0
100
AcDbPoint
 10
210011.473689793
 20
845.0466407026905
 30
0.0
  0
POINT
  5
52E04
330
52DFA
100
AcDbEntity
  8
DEFPOINTS
 62
     0
100
AcDbPoint
 10
210011.473689793
 20
1315.04664070269
 30
0.0
  0
POINT
  5
52E05
330
52DFA
100
AcDbEntity
  8
DEFPOINTS
 62
     0
100
AcDbPoint
 10
210104.4583698547
 20
1315.04664070269
 30
0.0
  0
ENDBLK
  5
52E06
330
52DFA
100
AcDbEntity
  8
0
100
AcDbBlockEnd
  0
BLOCK
  5
52E08
330
52E07
100
AcDbEntity
  8
0
100
AcDbBlockBegin
  2
*D30
 70
     1
 10
0.0
 20
0.0
 30
0.0
  3
*D30
  1

  0
LINE
  5
52E09
330
52E07
100
AcDbEntity
  8
DIMS SPECS
370
    25
100
AcDbLine
 10
210109.7608908176
 20
796.5939714110718
 30
0.0
 11
210068.3533449305
 21
796.5939714110573
 31
0.0
  0
LINE
  5
52E0A
330
52E07
100
AcDbEntity
  8
DIMS SPECS
370
    25
100
AcDbLine
 10
210068.3533449305
 20
796.5939714110573
 30
0.0
 11
210027.1651382746
 21
838.9212432019119
 31
0.0
  0
MTEXT
  5
52E0B
330
52E07
100
AcDbEntity
  8
DIMS SPECS
100
AcDbMText
 10
210092.807117874
 20
813.0215716829665
 30
0.0
 40
17.0
 41
0.0
 46
0.0
 71
     5
 72
     1
  1
\A1;R10
  7
ABODE-ISO
 73
     1
 44
1.0
  0
LINE
  5
52E0C
330
52E07
100
AcDbEntity
  8
DIMS SPECS
370
    25
100
AcDbLine
 10
210011.4736897931
 20
855.0466407026688
 30
0.0
 11
210018.447666896
 21
847.8797973689506
 31
0.0
  0
INSERT
  5
52E0D
330
52E07
100
AcDbEntity
  8
DIMS SPECS
370
    25
100
AcDbBlockReference
  2
FILLED-1
 10
210018.447666896
 20
847.8797973689506
 30
0.0
 41
12.5
 42
12.5
 43
12.5
 50
134.2185930120052
  0
POINT
  5
52E0E
330
52E07
100
AcDbEntity
  8
DEFPOINTS
 62
     0
100
AcDbPoint
 10
210018.447666896
 20
847.8797973689506
 30
0.0
  0
POINT
  5
52E0F
330
52E07
100
AcDbEntity
  8
DEFPOINTS
 62
     0
100
AcDbPoint
 10
210011.4736897931
 20
855.0466407026688
 30
0.0
  0
ENDBLK
  5
52E10
330
52E07
100
AcDbEntity
  8
0
100
AcDbBlockEnd
  0
BLOCK
  5
52E46
330
52E45
100
AcDbEntity
  8
0
100
AcDbBlockBegin
  2
*D31
 70
     1
 10
0.0
 20
0.0
 30
0.0
  3
*D31
  1

  0
LINE
  5
52E9C
330
52E45
100
AcDbEntity
  8
DIMS SPECS
370
    25
100
AcDbLine
 10
30496.03246492228
 20
25616.71023688102
 30
0.0
 11
30574.01714498407
 21
25616.71023688102
 31
0.0
  0
LINE
  5
52E9D
330
52E45
100
AcDbEntity
  8
DIMS SPECS
370
    25
100
AcDbLine
 10
30496.03246492228
 20
26086.71023688102
 30
0.0
 11
30574.01714498407
 21
26086.71023688102
 31
0.0
  0
LINE
  5
52E9E
330
52E45
100
AcDbEntity
  8
DIMS SPECS
370
    25
100
AcDbLine
 10
30574.01714498407
 20
25629.21023688101
 30
0.0
 11
30574.01714498407
 21
25835.71023688102
 31
0.0
  0
LINE
  5
52E9F
330
52E45
100
AcDbEntity
  8
DIMS SPECS
370
    25
100
AcDbLine
 10
30574.01714498407
 20
26074.21023688102
 30
0.0
 11
30574.01714498407
 21
25867.71023688102
 31
0.0
  0
INSERT
  5
52EA0
330
52E45
100
AcDbEntity
  8
DIMS SPECS
370
    25
100
AcDbBlockReference
  2
FILLED-1
 10
30574.01714498407
 20
25616.71023688102
 30
0.0
 41
12.5
 42
12.5
 43
12.5
 50
270.0
  0
INSERT
  5
52EA1
330
52E45
100
AcDbEntity
  8
DIMS SPECS
370
    25
100
AcDbBlockReference
  2
FILLED-1
 10
30574.01714498407
 20
26086.71023688102
 30
0.0
 41
12.5
 42
12.5
 43
12.5
 50
90.0
  0
MTEXT
  5
52EA2
330
52E45
100
AcDbEntity
  8
DIMS SPECS
100
AcDbMText
 10
30574.01714498407
 20
25851.71023688102
 30
0.0
 40
17.0
 41
0.0
 46
0.0
 71
     5
 72
     1
  1
\A1;470
  7
ABODE-ISO
 73
     1
 44
1.0
  0
POINT
  5
52EA3
330
52E45
100
AcDbEntity
  8
DEFPOINTS
 62
     0
100
AcDbPoint
 10
30481.03246492228
 20
25616.71023688102
 30
0.0
  0
POINT
  5
52EA4
330
52E45
100
AcDbEntity
  8
DEFPOINTS
 62
     0
100
AcDbPoint
 10
30481.03246492228
 20
26086.71023688102
 30
0.0
  0
POINT
  5
52EA5
330
52E45
100
AcDbEntity
  8
DEFPOINTS
 62
     0
100
AcDbPoint
 10
30574.01714498407
 20
26086.71023688102
 30
0.0
  0
ENDBLK
  5
52E47
330
52E45
100
AcDbEntity
  8
0
100
AcDbBlockEnd
  0
BLOCK
  5
52E53
330
52E52
100
AcDbEntity
  8
0
100
AcDbBlockBegin
  2
*D32
 70
     1
 10
0.0
 20
0.0
 30
0.0
  3
*D32
  1

  0
LINE
  5
52EA6
330
52E52
100
AcDbEntity
  8
DIMS SPECS
370
    25
100
AcDbLine
 10
29521.03246492228
 20
25611.71023688102
 30
0.0
 11
29521.03246492228
 21
25504.40420314509
 31
0.0
  0
LINE
  5
52EA7
330
52E52
100
AcDbEntity
  8
DIMS SPECS
370
    25
100
AcDbLine
 10
30491.03246492228
 20
25611.71023688102
 30
0.0
 11
30491.03246492228
 21
25504.40420314509
 31
0.0
  0
LINE
  5
52EA8
330
52E52
100
AcDbEntity
  8
DIMS SPECS
370
    25
100
AcDbLine
 10
29533.53246492228
 20
25504.40420314509
 30
0.0
 11
30478.53246492228
 21
25504.40420314509
 31
0.0
  0
INSERT
  5
52EA9
330
52E52
100
AcDbEntity
  8
DIMS SPECS
370
    25
100
AcDbBlockReference
  2
FILLED-1
 10
29521.03246492228
 20
25504.40420314509
 30
0.0
 41
12.5
 42
12.5
 43
12.5
 50
180.0
  0
INSERT
  5
52EAA
330
52E52
100
AcDbEntity
  8
DIMS SPECS
370
    25
100
AcDbBlockReference
  2
FILLED-1
 10
30491.03246492228
 20
25504.40420314509
 30
0.0
 41
12.5
 42
12.5
 43
12.5
  0
MTEXT
  5
52EAB
330
52E52
100
AcDbEntity
  8
DIMS SPECS
100
AcDbMText
 10
30006.03246492228
 20
25520.40420314508
 30
0.0
 40
17.0
 41
0.0
 46
0.0
 71
     5
 72
     1
  1
\A1;970
  7
ABODE-ISO
 73
     1
 44
1.0
  0
POINT
  5
52EAC
330
52E52
100
AcDbEntity
  8
DEFPOINTS
 62
     0
100
AcDbPoint
 10
29521.03246492228
 20
25626.71023688102
 30
0.0
  0
POINT
  5
52EAD
330
52E52
100
AcDbEntity
  8
DEFPOINTS
 62
     0
100
AcDbPoint
 10
30491.03246492228
 20
25626.71023688102
 30
0.0
  0
POINT
  5
52EAE
330
52E52
100
AcDbEntity
  8
DEFPOINTS
 62
     0
100
AcDbPoint
 10
30491.03246492228
 20
25504.40420314509
 30
0.0
  0
ENDBLK
  5
52E54
330
52E52
100
AcDbEntity
  8
0
100
AcDbBlockEnd
  0
BLOCK
  5
52E5F
330
52E5E
100
AcDbEntity
  8
0
100
AcDbBlockBegin
  2
*D33
 70
     1
 10
0.0
 20
0.0
 30
0.0
  3
*D33
  1

  0
LINE
  5
52EAF
330
52E5E
100
AcDbEntity
  8
DIMS SPECS
370
    25
100
AcDbLine
 10
30578.94089300337
 20
25568.25756758936
 30
0.0
 11
30537.91212005962
 21
25568.25756758936
 31
0.0
  0
LINE
  5
52EB0
330
52E5E
100
AcDbEntity
  8
DIMS SPECS
370
    25
100
AcDbLine
 10
30537.91212005962
 20
25568.25756758936
 30
0.0
 11
30496.72391340388
 21
25610.58483938022
 31
0.0
  0
MTEXT
  5
52EB1
330
52E5E
100
AcDbEntity
  8
DIMS SPECS
100
AcDbMText
 10
30562.36589300338
 20
25584.25756758937
 30
0.0
 40
17.0
 41
0.0
 46
0.0
 71
     5
 72
     1
  1
\A1;R10
  7
ABODE-ISO
 73
     1
 44
1.0
  0
LINE
  5
52EB2
330
52E5E
100
AcDbEntity
  8
DIMS SPECS
370
    25
100
AcDbLine
 10
30481.0324649224
 20
25626.710236881
 30
0.0
 11
30488.00644202532
 21
25619.54339354727
 31
0.0
  0
INSERT
  5
52EB3
330
52E5E
100
AcDbEntity
  8
DIMS SPECS
370
    25
100
AcDbBlockReference
  2
FILLED-1
 10
30488.00644202532
 20
25619.54339354727
 30
0.0
 41
12.5
 42
12.5
 43
12.5
 50
134.2185930119144
  0
POINT
  5
52EB4
330
52E5E
100
AcDbEntity
  8
DEFPOINTS
 62
     0
100
AcDbPoint
 10
30488.00644202532
 20
25619.54339354727
 30
0.0
  0
POINT
  5
52EB5
330
52E5E
100
AcDbEntity
  8
DEFPOINTS
 62
     0
100
AcDbPoint
 10
30481.0324649224
 20
25626.710236881
 30
0.0
  0
ENDBLK
  5
52E60
330
52E5E
100
AcDbEntity
  8
0
100
AcDbBlockEnd
  0
BLOCK
  5
52E83
330
52E82
100
AcDbEntity
  8
0
100
AcDbBlockBegin
  2
*D34
 70
     1
 10
0.0
 20
0.0
 30
0.0
  3
*D34
  1

  0
LINE
  5
52EB6
330
52E82
100
AcDbEntity
  8
DIMS SPECS
370
    25
100
AcDbLine
 10
29521.03246492225
 20
25611.71023688102
 30
0.0
 11
29521.03246492225
 21
25578.67727239629
 31
0.0
  0
LINE
  5
52EB7
330
52E82
100
AcDbEntity
  8
DIMS SPECS
370
    25
100
AcDbLine
 10
29536.03246492228
 20
25601.71023688102
 30
0.0
 11
29536.03246492228
 21
25578.67727239629
 31
0.0
  0
LINE
  5
52EB8
330
52E82
100
AcDbEntity
  8
DIMS SPECS
370
    25
100
AcDbLine
 10
29508.53246492225
 20
25578.67727239629
 30
0.0
 11
29496.03246492225
 21
25578.67727239629
 31
0.0
  0
LINE
  5
52EB9
330
52E82
100
AcDbEntity
  8
DIMS SPECS
370
    25
100
AcDbLine
 10
29548.53246492228
 20
25578.67727239629
 30
0.0
 11
29596.43246492229
 21
25578.67727239629
 31
0.0
  0
LINE
  5
52EBA
330
52E82
100
AcDbEntity
  8
DIMS SPECS
370
    25
100
AcDbLine
 10
29521.03246492225
 20
25578.67727239629
 30
0.0
 11
29536.03246492228
 21
25578.67727239629
 31
0.0
  0
INSERT
  5
52EBB
330
52E82
100
AcDbEntity
  8
DIMS SPECS
370
    25
100
AcDbBlockReference
  2
FILLED-1
 10
29521.03246492225
 20
25578.67727239629
 30
0.0
 41
12.5
 42
12.5
 43
12.5
  0
INSERT
  5
52EBC
330
52E82
100
AcDbEntity
  8
DIMS SPECS
370
    25
100
AcDbBlockReference
  2
FILLED-1
 10
29536.03246492228
 20
25578.67727239629
 30
0.0
 41
12.5
 42
12.5
 43
12.5
 50
180.0
  0
MTEXT
  5
52EBD
330
52E82
100
AcDbEntity
  8
DIMS SPECS
100
AcDbMText
 10
29578.73246492228
 20
25594.67727239629
 30
0.0
 40
17.0
 41
0.0
 46
0.0
 71
     5
 72
     1
  1
\A1;15
  7
ABODE-ISO
 73
     1
 44
1.0
  0
POINT
  5
52EBE
330
52E82
100
AcDbEntity
  8
DEFPOINTS
 62
     0
100
AcDbPoint
 10
29521.03246492225
 20
25626.71023688102
 30
0.0
  0
POINT
  5
52EBF
330
52E82
100
AcDbEntity
  8
DEFPOINTS
 62
     0
100
AcDbPoint
 10
29536.03246492228
 20
25616.71023688102
 30
0.0
  0
POINT
  5
52EC0
330
52E82
100
AcDbEntity
  8
DEFPOINTS
 62
     0
100
AcDbPoint
 10
29536.03246492228
 20
25578.67727239629
 30
0.0
  0
ENDBLK
  5
52E84
330
52E82
100
AcDbEntity
  8
0
100
AcDbBlockEnd
  0
BLOCK
  5
52E91
330
52E90
100
AcDbEntity
  8
0
100
AcDbBlockBegin
  2
*D35
 70
     1
 10
0.0
 20
0.0
 30
0.0
  3
*D35
  1

  0
LINE
  5
52EC1
330
52E90
100
AcDbEntity
  8
DIMS SPECS
370
    25
100
AcDbLine
 10
29536.03246492228
 20
25601.71023688102
 30
0.0
 11
29536.03246492228
 21
25553.64384295328
 31
0.0
  0
LINE
  5
52EC2
330
52E90
100
AcDbEntity
  8
DIMS SPECS
370
    25
100
AcDbLine
 10
30081.03246492228
 20
25601.71023688102
 30
0.0
 11
30081.03246492228
 21
25553.64384295328
 31
0.0
  0
LINE
  5
52EC3
330
52E90
100
AcDbEntity
  8
DIMS SPECS
370
    25
100
AcDbLine
 10
29548.53246492228
 20
25553.64384295328
 30
0.0
 11
30068.53246492228
 21
25553.64384295328
 31
0.0
  0
INSERT
  5
52EC4
330
52E90
100
AcDbEntity
  8
DIMS SPECS
370
    25
100
AcDbBlockReference
  2
FILLED-1
 10
29536.03246492228
 20
25553.64384295328
 30
0.0
 41
12.5
 42
12.5
 43
12.5
 50
180.0
  0
INSERT
  5
52EC5
330
52E90
100
AcDbEntity
  8
DIMS SPECS
370
    25
100
AcDbBlockReference
  2
FILLED-1
 10
30081.03246492228
 20
25553.64384295328
 30
0.0
 41
12.5
 42
12.5
 43
12.5
  0
MTEXT
  5
52EC6
330
52E90
100
AcDbEntity
  8
DIMS SPECS
100
AcDbMText
 10
29808.53246492228
 20
25569.64384295328
 30
0.0
 40
17.0
 41
0.0
 46
0.0
 71
     5
 72
     1
  1
\A1;545
  7
ABODE-ISO
 73
     1
 44
1.0
  0
POINT
  5
52EC7
330
52E90
100
AcDbEntity
  8
DEFPOINTS
 62
     0
100
AcDbPoint
 10
29536.03246492228
 20
25616.71023688102
 30
0.0
  0
POINT
  5
52EC8
330
52E90
100
AcDbEntity
  8
DEFPOINTS
 62
     0
100
AcDbPoint
 10
30081.03246492228
 20
25616.71023688102
 30
0.0
  0
POINT
  5
52EC9
330
52E90
100
AcDbEntity
  8
DEFPOINTS
 62
     0
100
AcDbPoint
 10
30081.03246492228
 20
25553.64384295328
 30
0.0
  0
ENDBLK
  5
52E92
330
52E90
100
AcDbEntity
  8
0
100
AcDbBlockEnd
  0
BLOCK
  5
52EF2
330
52EF1
100
AcDbEntity
  8
0
100
AcDbBlockBegin
  2
*D36
 70
     1
 10
0.0
 20
0.0
 30
0.0
  3
*D36
  1

  0
LINE
  5
52EF3
330
52EF1
100
AcDbEntity
  8
DIMS SPECS
370
    25
100
AcDbLine
 10
213067.2248971206
 20
810.2566625263133
 30
0.0
 11
213025.8173512331
 21
810.2566625263571
 31
0.0
  0
LINE
  5
52EF4
330
52EF1
100
AcDbEntity
  8
DIMS SPECS
370
    25
100
AcDbLine
 10
213025.8173512331
 20
810.2566625263571
 30
0.0
 11
212991.9764786738
 21
840.4123939371492
 31
0.0
  0
MTEXT
  5
52EF5
330
52EF1
100
AcDbEntity
  8
DIMS SPECS
100
AcDbMText
 10
213050.271124177
 20
826.6842627982665
 30
0.0
 40
17.0
 41
0.0
 46
0.0
 71
     5
 72
     1
  1
\A1;R10
  7
ABODE-ISO
 73
     1
 44
1.0
  0
LINE
  5
52EF6
330
52EF1
100
AcDbEntity
  8
DIMS SPECS
370
    25
100
AcDbLine
 10
212974.4316695248
 20
856.0466407027123
 30
0.0
 11
212982.6441333818
 21
848.728482642211
 31
0.0
  0
INSERT
  5
52EF7
330
52EF1
100
AcDbEntity
  8
DIMS SPECS
370
    25
100
AcDbBlockReference
  2
FILLED-1
 10
212982.6441333818
 20
848.728482642211
 30
0.0
 41
12.5
 42
12.5
 43
12.5
 50
138.2956455844817
  0
POINT
  5
52EF8
330
52EF1
100
AcDbEntity
  8
DEFPOINTS
 62
     0
100
AcDbPoint
 10
212982.6441333818
 20
848.728482642211
 30
0.0
  0
POINT
  5
52EF9
330
52EF1
100
AcDbEntity
  8
DEFPOINTS
 62
     0
100
AcDbPoint
 10
212974.4316695248
 20
856.0466407027123
 30
0.0
  0
ENDBLK
  5
52EFA
330
52EF1
100
AcDbEntity
  8
0
100
AcDbBlockEnd
  0
BLOCK
  5
52EFC
330
52EFB
100
AcDbEntity
  8
0
100
AcDbBlockBegin
  2
*D37
 70
     1
 10
0.0
 20
0.0
 30
0.0
  3
*D37
  1

  0
LINE
  5
52EFD
330
52EFB
100
AcDbEntity
  8
DIMS SPECS
370
    25
100
AcDbLine
 10
212989.4316695248
 20
845.0466407026897
 30
0.0
 11
213026.4421064975
 21
845.0466407026897
 31
0.0
  0
LINE
  5
52EFE
330
52EFB
100
AcDbEntity
  8
DIMS SPECS
370
    25
100
AcDbLine
 10
212989.4316695248
 20
1295.04664070269
 30
0.0
 11
213026.4421064975
 21
1295.04664070269
 31
0.0
  0
LINE
  5
52EFF
330
52EFB
100
AcDbEntity
  8
DIMS SPECS
370
    25
100
AcDbLine
 10
213026.4421064975
 20
857.5466407026897
 30
0.0
 11
213026.4421064975
 21
1053.619040430766
 31
0.0
  0
LINE
  5
52F00
330
52EFB
100
AcDbEntity
  8
DIMS SPECS
370
    25
100
AcDbLine
 10
213026.4421064975
 20
1282.54664070269
 30
0.0
 11
213026.4421064975
 21
1086.474240974613
 31
0.0
  0
INSERT
  5
52F01
330
52EFB
100
AcDbEntity
  8
DIMS SPECS
370
    25
100
AcDbBlockReference
  2
FILLED-1
 10
213026.4421064975
 20
845.0466407026897
 30
0.0
 41
12.5
 42
12.5
 43
12.5
 50
270.0
  0
INSERT
  5
52F02
330
52EFB
100
AcDbEntity
  8
DIMS SPECS
370
    25
100
AcDbBlockReference
  2
FILLED-1
 10
213026.4421064975
 20
1295.04664070269
 30
0.0
 41
12.5
 42
12.5
 43
12.5
 50
90.0
  0
MTEXT
  5
52F03
330
52EFB
100
AcDbEntity
  8
DIMS SPECS
100
AcDbMText
 10
213026.4421064975
 20
1070.046640702724
 30
0.0
 40
17.0
 41
0.0
 46
0.0
 71
     5
 72
     1
  1
\A1;450
  7
ABODE-ISO
 73
     1
 44
1.0
  0
POINT
  5
52F04
330
52EFB
100
AcDbEntity
  8
DEFPOINTS
 62
     0
100
AcDbPoint
 10
212974.4316695248
 20
845.0466407026897
 30
0.0
  0
POINT
  5
52F05
330
52EFB
100
AcDbEntity
  8
DEFPOINTS
 62
     0
100
AcDbPoint
 10
212974.4316695248
 20
1295.04664070269
 30
0.0
  0
POINT
  5
52F06
330
52EFB
100
AcDbEntity
  8
DEFPOINTS
 62
     0
100
AcDbPoint
 10
213026.4421064975
 20
1295.04664070269
 30
0.0
  0
ENDBLK
  5
52F07
330
52EFB
100
AcDbEntity
  8
0
100
AcDbBlockEnd
  0
BLOCK
  5
52F09
330
52F08
100
AcDbEntity
  8
0
100
AcDbBlockBegin
  2
*D38
 70
     1
 10
0.0
 20
0.0
 30
0.0
  3
*D38
  1

  0
LINE
  5
52F0A
330
52F08
100
AcDbEntity
  8
DIMS SPECS
370
    25
100
AcDbLine
 10
212063.4316695248
 20
841.0466407026898
 30
0.0
 11
212063.4316695248
 21
720.9964940878562
 31
0.0
  0
LINE
  5
52F0B
330
52F08
100
AcDbEntity
  8
DIMS SPECS
370
    25
100
AcDbLine
 10
212985.4316695248
 20
841.0466407026898
 30
0.0
 11
212985.4316695248
 21
720.9964940878562
 31
0.0
  0
LINE
  5
52F0C
330
52F08
100
AcDbEntity
  8
DIMS SPECS
370
    25
100
AcDbLine
 10
212075.9316695248
 20
720.9964940878562
 30
0.0
 11
212972.9316695248
 21
720.9964940878562
 31
0.0
  0
INSERT
  5
52F0D
330
52F08
100
AcDbEntity
  8
DIMS SPECS
370
    25
100
AcDbBlockReference
  2
FILLED-1
 10
212063.4316695248
 20
720.9964940878562
 30
0.0
 41
12.5
 42
12.5
 43
12.5
 50
180.0
  0
INSERT
  5
52F0E
330
52F08
100
AcDbEntity
  8
DIMS SPECS
370
    25
100
AcDbBlockReference
  2
FILLED-1
 10
212985.4316695248
 20
720.9964940878562
 30
0.0
 41
12.5
 42
12.5
 43
12.5
  0
MTEXT
  5
52F0F
330
52F08
100
AcDbEntity
  8
DIMS SPECS
100
AcDbMText
 10
212524.4316695248
 20
737.4240943597802
 30
0.0
 40
17.0
 41
0.0
 46
0.0
 71
     5
 72
     1
  1
\A1;922
  7
ABODE-ISO
 73
     1
 44
1.0
  0
POINT
  5
52F10
330
52F08
100
AcDbEntity
  8
DEFPOINTS
 62
     0
100
AcDbPoint
 10
212063.4316695248
 20
856.0466407026899
 30
0.0
  0
POINT
  5
52F11
330
52F08
100
AcDbEntity
  8
DEFPOINTS
 62
     0
100
AcDbPoint
 10
212985.4316695248
 20
856.0466407026899
 30
0.0
  0
POINT
  5
52F12
330
52F08
100
AcDbEntity
  8
DEFPOINTS
 62
     0
100
AcDbPoint
 10
212985.4316695248
 20
720.9964940878562
 30
0.0
  0
ENDBLK
  5
52F13
330
52F08
100
AcDbEntity
  8
0
100
AcDbBlockEnd
  0
BLOCK
  5
52F15
330
52F14
100
AcDbEntity
  8
0
100
AcDbBlockBegin
  2
*D39
 70
     1
 10
0.0
 20
0.0
 30
0.0
  3
*D39
  1

  0
LINE
  5
52F16
330
52F14
100
AcDbEntity
  8
DIMS SPECS
370
    25
100
AcDbLine
 10
212083.2937770677
 20
830.0466407026906
 30
0.0
 11
212083.2937770677
 21
759.7504235414962
 31
0.0
  0
LINE
  5
52F17
330
52F14
100
AcDbEntity
  8
DIMS SPECS
370
    25
100
AcDbLine
 10
212633.0119209344
 20
830.417894480781
 30
0.0
 11
212633.0119209344
 21
759.7504235414962
 31
0.0
  0
LINE
  5
52F18
330
52F14
100
AcDbEntity
  8
DIMS SPECS
370
    25
100
AcDbLine
 10
212095.7937770677
 20
759.7504235414962
 30
0.0
 11
212620.5119209343
 21
759.7504235414962
 31
0.0
  0
INSERT
  5
52F19
330
52F14
100
AcDbEntity
  8
DIMS SPECS
370
    25
100
AcDbBlockReference
  2
FILLED-1
 10
212083.2937770677
 20
759.7504235414962
 30
0.0
 41
12.5
 42
12.5
 43
12.5
 50
180.0
  0
INSERT
  5
52F1A
330
52F14
100
AcDbEntity
  8
DIMS SPECS
370
    25
100
AcDbBlockReference
  2
FILLED-1
 10
212633.0119209344
 20
759.7504235414962
 30
0.0
 41
12.5
 42
12.5
 43
12.5
  0
MTEXT
  5
52F1B
330
52F14
100
AcDbEntity
  8
DIMS SPECS
100
AcDbMText
 10
212358.152849001
 20
776.1780238134202
 30
0.0
 40
17.0
 41
0.0
 46
0.0
 71
     5
 72
     1
  1
\A1;550
  7
ABODE-ISO
 73
     1
 44
1.0
  0
POINT
  5
52F1C
330
52F14
100
AcDbEntity
  8
DEFPOINTS
 62
     0
100
AcDbPoint
 10
212083.2937770677
 20
845.0466407026906
 30
0.0
  0
POINT
  5
52F1D
330
52F14
100
AcDbEntity
  8
DEFPOINTS
 62
     0
100
AcDbPoint
 10
212633.0119209344
 20
845.4178944807809
 30
0.0
  0
POINT
  5
52F1E
330
52F14
100
AcDbEntity
  8
DEFPOINTS
 62
     0
100
AcDbPoint
 10
212633.0119209344
 20
759.7504235414962
 30
0.0
  0
ENDBLK
  5
52F1F
330
52F14
100
AcDbEntity
  8
0
100
AcDbBlockEnd
  0
BLOCK
  5
52F21
330
52F20
100
AcDbEntity
  8
0
100
AcDbBlockBegin
  2
*D40
 70
     1
 10
0.0
 20
0.0
 30
0.0
  3
*D40
  1

  0
LINE
  5
52F22
330
52F20
100
AcDbEntity
  8
DIMS SPECS
370
    25
100
AcDbLine
 10
212063.4316695248
 20
1269.04664070269
 30
0.0
 11
212063.4316695248
 21
783.8754388316011
 31
0.0
  0
LINE
  5
52F23
330
52F20
100
AcDbEntity
  8
DIMS SPECS
370
    25
100
AcDbLine
 10
212083.2937770677
 20
830.0466407026906
 30
0.0
 11
212083.2937770677
 21
783.8754388316011
 31
0.0
  0
LINE
  5
52F24
330
52F20
100
AcDbEntity
  8
DIMS SPECS
370
    25
100
AcDbLine
 10
212050.9316695248
 20
783.8754388316011
 30
0.0
 11
212038.4316695248
 21
783.8754388316011
 31
0.0
  0
LINE
  5
52F25
330
52F20
100
AcDbEntity
  8
DIMS SPECS
370
    25
100
AcDbLine
 10
212095.7937770677
 20
783.8754388316011
 30
0.0
 11
212145.583307999
 21
783.8754388316011
 31
0.0
  0
LINE
  5
52F26
330
52F20
100
AcDbEntity
  8
DIMS SPECS
370
    25
100
AcDbLine
 10
212063.4316695248
 20
783.8754388316011
 30
0.0
 11
212083.2937770677
 21
783.8754388316011
 31
0.0
  0
INSERT
  5
52F27
330
52F20
100
AcDbEntity
  8
DIMS SPECS
370
    25
100
AcDbBlockReference
  2
FILLED-1
 10
212063.4316695248
 20
783.8754388316011
 30
0.0
 41
12.5
 42
12.5
 43
12.5
  0
INSERT
  5
52F28
330
52F20
100
AcDbEntity
  8
DIMS SPECS
370
    25
100
AcDbBlockReference
  2
FILLED-1
 10
212083.2937770677
 20
783.8754388316011
 30
0.0
 41
12.5
 42
12.5
 43
12.5
 50
180.0
  0
MTEXT
  5
52F29
330
52F20
100
AcDbEntity
  8
DIMS SPECS
100
AcDbMText
 10
212126.9385425333
 20
800.3030391035249
 30
0.0
 40
17.0
 41
0.0
 46
0.0
 71
     5
 72
     1
  1
\A1;20
  7
ABODE-ISO
 73
     1
 44
1.0
  0
POINT
  5
52F2A
330
52F20
100
AcDbEntity
  8
DEFPOINTS
 62
     0
100
AcDbPoint
 10
212063.4316695248
 20
1284.04664070269
 30
0.0
  0
POINT
  5
52F2B
330
52F20
100
AcDbEntity
  8
DEFPOINTS
 62
     0
100
AcDbPoint
 10
212083.2937770677
 20
845.0466407026906
 30
0.0
  0
POINT
  5
52F2C
330
52F20
100
AcDbEntity
  8
DEFPOINTS
 62
     0
100
AcDbPoint
 10
212083.2937770677
 20
783.8754388316011
 30
0.0
  0
ENDBLK
  5
52F2D
330
52F20
100
AcDbEntity
  8
0
100
AcDbBlockEnd
  0
BLOCK
  5
52F2F
330
52F2E
100
AcDbEntity
  8
0
100
AcDbBlockBegin
  2
*D41
 70
     1
 10
0.0
 20
0.0
 30
0.0
  3
*D41
  1

  0
LINE
  5
52F30
330
52F2E
100
AcDbEntity
  8
DIMS SPECS
370
    25
100
AcDbLine
 10
209051.4736897929
 20
840.0466407026906
 30
0.0
 11
209051.4736897929
 21
732.7406069667556
 31
0.0
  0
LINE
  5
52F31
330
52F2E
100
AcDbEntity
  8
DIMS SPECS
370
    25
100
AcDbLine
 10
210021.473689793
 20
840.0466407026904
 30
0.0
 11
210021.473689793
 21
732.7406069667556
 31
0.0
  0
LINE
  5
52F32
330
52F2E
100
AcDbEntity
  8
DIMS SPECS
370
    25
100
AcDbLine
 10
209063.973689793
 20
732.7406069667556
 30
0.0
 11
210008.9736897929
 21
732.7406069667556
 31
0.0
  0
INSERT
  5
52F33
330
52F2E
100
AcDbEntity
  8
DIMS SPECS
370
    25
100
AcDbBlockReference
  2
FILLED-1
 10
209051.4736897929
 20
732.7406069667556
 30
0.0
 41
12.5
 42
12.5
 43
12.5
 50
180.0
  0
INSERT
  5
52F34
330
52F2E
100
AcDbEntity
  8
DIMS SPECS
370
    25
100
AcDbBlockReference
  2
FILLED-1
 10
210021.473689793
 20
732.7406069667556
 30
0.0
 41
12.5
 42
12.5
 43
12.5
  0
MTEXT
  5
52F35
330
52F2E
100
AcDbEntity
  8
DIMS SPECS
100
AcDbMText
 10
209536.4736897929
 20
749.1682072386797
 30
0.0
 40
17.0
 41
0.0
 46
0.0
 71
     5
 72
     1
  1
\A1;970
  7
ABODE-ISO
 73
     1
 44
1.0
  0
POINT
  5
52F36
330
52F2E
100
AcDbEntity
  8
DEFPOINTS
 62
     0
100
AcDbPoint
 10
209051.4736897929
 20
855.0466407026904
 30
0.0
  0
POINT
  5
52F37
330
52F2E
100
AcDbEntity
  8
DEFPOINTS
 62
     0
100
AcDbPoint
 10
210021.473689793
 20
855.0466407026904
 30
0.0
  0
POINT
  5
52F38
330
52F2E
100
AcDbEntity
  8
DEFPOINTS
 62
     0
100
AcDbPoint
 10
210021.473689793
 20
732.7406069667556
 30
0.0
  0
ENDBLK
  5
52F39
330
52F2E
100
AcDbEntity
  8
0
100
AcDbBlockEnd
  0
BLOCK
  5
52F3B
330
52F3A
100
AcDbEntity
  8
0
100
AcDbBlockBegin
  2
*D42
 70
     1
 10
0.0
 20
0.0
 30
0.0
  3
*D42
  1

  0
LINE
  5
52F3C
330
52F3A
100
AcDbEntity
  8
DIMS SPECS
370
    25
100
AcDbLine
 10
209051.4736897929
 20
840.0466407026906
 30
0.0
 11
209051.4736897929
 21
807.0136762179645
 31
0.0
  0
LINE
  5
52F3D
330
52F3A
100
AcDbEntity
  8
DIMS SPECS
370
    25
100
AcDbLine
 10
209066.473689793
 20
830.0466407026904
 30
0.0
 11
209066.473689793
 21
807.0136762179645
 31
0.0
  0
LINE
  5
52F3E
330
52F3A
100
AcDbEntity
  8
DIMS SPECS
370
    25
100
AcDbLine
 10
209038.9736897929
 20
807.0136762179645
 30
0.0
 11
209026.4736897929
 21
807.0136762179645
 31
0.0
  0
LINE
  5
52F3F
330
52F3A
100
AcDbEntity
  8
DIMS SPECS
370
    25
100
AcDbLine
 10
209078.973689793
 20
807.0136762179645
 30
0.0
 11
209126.1213444497
 21
807.0136762179645
 31
0.0
  0
LINE
  5
52F40
330
52F3A
100
AcDbEntity
  8
DIMS SPECS
370
    25
100
AcDbLine
 10
209051.4736897929
 20
807.0136762179645
 30
0.0
 11
209066.473689793
 21
807.0136762179645
 31
0.0
  0
INSERT
  5
52F41
330
52F3A
100
AcDbEntity
  8
DIMS SPECS
370
    25
100
AcDbBlockReference
  2
FILLED-1
 10
209051.4736897929
 20
807.0136762179645
 30
0.0
 41
12.5
 42
12.5
 43
12.5
  0
INSERT
  5
52F42
330
52F3A
100
AcDbEntity
  8
DIMS SPECS
370
    25
100
AcDbBlockReference
  2
FILLED-1
 10
209066.473689793
 20
807.0136762179645
 30
0.0
 41
12.5
 42
12.5
 43
12.5
 50
180.0
  0
MTEXT
  5
52F43
330
52F3A
100
AcDbEntity
  8
DIMS SPECS
100
AcDbMText
 10
209108.7975171213
 20
823.2274763539264
 30
0.0
 40
17.0
 41
0.0
 46
0.0
 71
     5
 72
     1
  1
\A1;15
  7
ABODE-ISO
 73
     1
 44
1.0
  0
POINT
  5
52F44
330
52F3A
100
AcDbEntity
  8
DEFPOINTS
 62
     0
100
AcDbPoint
 10
209051.4736897929
 20
855.0466407026904
 30
0.0
  0
POINT
  5
52F45
330
52F3A
100
AcDbEntity
  8
DEFPOINTS
 62
     0
100
AcDbPoint
 10
209066.473689793
 20
845.0466407026905
 30
0.0
  0
POINT
  5
52F46
330
52F3A
100
AcDbEntity
  8
DEFPOINTS
 62
     0
100
AcDbPoint
 10
209066.473689793
 20
807.0136762179645
 30
0.0
  0
ENDBLK
  5
52F47
330
52F3A
100
AcDbEntity
  8
0
100
AcDbBlockEnd
  0
BLOCK
  5
52F49
330
52F48
100
AcDbEntity
  8
0
100
AcDbBlockBegin
  2
*D43
 70
     1
 10
0.0
 20
0.0
 30
0.0
  3
*D43
  1

  0
LINE
  5
52F4A
330
52F48
100
AcDbEntity
  8
DIMS SPECS
370
    25
100
AcDbLine
 10
209066.473689793
 20
830.0466407026904
 30
0.0
 11
209066.473689793
 21
781.980246774954
 31
0.0
  0
LINE
  5
52F4B
330
52F48
100
AcDbEntity
  8
DIMS SPECS
370
    25
100
AcDbLine
 10
209611.4736897929
 20
830.0466407026904
 30
0.0
 11
209611.4736897929
 21
781.980246774954
 31
0.0
  0
LINE
  5
52F4C
330
52F48
100
AcDbEntity
  8
DIMS SPECS
370
    25
100
AcDbLine
 10
209078.973689793
 20
781.980246774954
 30
0.0
 11
209598.973689793
 21
781.980246774954
 31
0.0
  0
INSERT
  5
52F4D
330
52F48
100
AcDbEntity
  8
DIMS SPECS
370
    25
100
AcDbBlockReference
  2
FILLED-1
 10
209066.473689793
 20
781.980246774954
 30
0.0
 41
12.5
 42
12.5
 43
12.5
 50
180.0
  0
INSERT
  5
52F4E
330
52F48
100
AcDbEntity
  8
DIMS SPECS
370
    25
100
AcDbBlockReference
  2
FILLED-1
 10
209611.4736897929
 20
781.980246774954
 30
0.0
 41
12.5
 42
12.5
 43
12.5
  0
MTEXT
  5
52F4F
330
52F48
100
AcDbEntity
  8
DIMS SPECS
100
AcDbMText
 10
209338.9736897929
 20
798.407847046878
 30
0.0
 40
17.0
 41
0.0
 46
0.0
 71
     5
 72
     1
  1
\A1;545
  7
ABODE-ISO
 73
     1
 44
1.0
  0
POINT
  5
52F50
330
52F48
100
AcDbEntity
  8
DEFPOINTS
 62
     0
100
AcDbPoint
 10
209066.473689793
 20
845.0466407026905
 30
0.0
  0
POINT
  5
52F51
330
52F48
100
AcDbEntity
  8
DEFPOINTS
 62
     0
100
AcDbPoint
 10
209611.4736897929
 20
845.0466407026905
 30
0.0
  0
POINT
  5
52F52
330
52F48
100
AcDbEntity
  8
DEFPOINTS
 62
     0
100
AcDbPoint
 10
209611.4736897929
 20
781.980246774954
 30
0.0
  0
ENDBLK
  5
52F53
330
52F48
100
AcDbEntity
  8
0
100
AcDbBlockEnd
  0
BLOCK
  5
52F55
330
52F54
100
AcDbEntity
  8
0
100
AcDbBlockBegin
  2
*D44
 70
     1
 10
0.0
 20
0.0
 30
0.0
  3
*D44
  1

  0
LINE
  5
52F56
330
52F54
100
AcDbEntity
  8
DIMS SPECS
370
    25
100
AcDbLine
 10
210026.473689793
 20
845.0466407026905
 30
0.0
 11
210104.4583698547
 21
845.0466407026905
 31
0.0
  0
LINE
  5
52F57
330
52F54
100
AcDbEntity
  8
DIMS SPECS
370
    25
100
AcDbLine
 10
210026.473689793
 20
1315.04664070269
 30
0.0
 11
210104.4583698547
 21
1315.04664070269
 31
0.0
  0
LINE
  5
52F58
330
52F54
100
AcDbEntity
  8
DIMS SPECS
370
    25
100
AcDbLine
 10
210104.4583698547
 20
857.5466407026905
 30
0.0
 11
210104.4583698547
 21
1063.619040430766
 31
0.0
  0
LINE
  5
52F59
330
52F54
100
AcDbEntity
  8
DIMS SPECS
370
    25
100
AcDbLine
 10
210104.4583698547
 20
1302.54664070269
 30
0.0
 11
210104.4583698547
 21
1096.474240974614
 31
0.0
  0
INSERT
  5
52F5A
330
52F54
100
AcDbEntity
  8
DIMS SPECS
370
    25
100
AcDbBlockReference
  2
FILLED-1
 10
210104.4583698547
 20
845.0466407026905
 30
0.0
 41
12.5
 42
12.5
 43
12.5
 50
270.0
  0
INSERT
  5
52F5B
330
52F54
100
AcDbEntity
  8
DIMS SPECS
370
    25
100
AcDbBlockReference
  2
FILLED-1
 10
210104.4583698547
 20
1315.04664070269
 30
0.0
 41
12.5
 42
12.5
 43
12.5
 50
90.0
  0
MTEXT
  5
52F5C
330
52F54
100
AcDbEntity
  8
DIMS SPECS
100
AcDbMText
 10
210104.4583698547
 20
1080.046640702724
 30
0.0
 40
17.0
 41
0.0
 46
0.0
 71
     5
 72
     1
  1
\A1;470
  7
ABODE-ISO
 73
     1
 44
1.0
  0
POINT
  5
52F5D
330
52F54
100
AcDbEntity
  8
DEFPOINTS
 62
     0
100
AcDbPoint
 10
210011.473689793
 20
845.0466407026905
 30
0.0
  0
POINT
  5
52F5E
330
52F54
100
AcDbEntity
  8
DEFPOINTS
 62
     0
100
AcDbPoint
 10
210011.473689793
 20
1315.04664070269
 30
0.0
  0
POINT
  5
52F5F
330
52F54
100
AcDbEntity
  8
DEFPOINTS
 62
     0
100
AcDbPoint
 10
210104.4583698547
 20
1315.04664070269
 30
0.0
  0
ENDBLK
  5
52F60
330
52F54
100
AcDbEntity
  8
0
100
AcDbBlockEnd
  0
BLOCK
  5
52F62
330
52F61
100
AcDbEntity
  8
0
100
AcDbBlockBegin
  2
*D45
 70
     1
 10
0.0
 20
0.0
 30
0.0
  3
*D45
  1

  0
LINE
  5
52F63
330
52F61
100
AcDbEntity
  8
DIMS SPECS
370
    25
100
AcDbLine
 10
210109.7608908176
 20
796.5939714110718
 30
0.0
 11
210068.3533449305
 21
796.5939714110573
 31
0.0
  0
LINE
  5
52F64
330
52F61
100
AcDbEntity
  8
DIMS SPECS
370
    25
100
AcDbLine
 10
210068.3533449305
 20
796.5939714110573
 30
0.0
 11
210027.1651382746
 21
838.9212432019119
 31
0.0
  0
MTEXT
  5
52F65
330
52F61
100
AcDbEntity
  8
DIMS SPECS
100
AcDbMText
 10
210092.807117874
 20
813.0215716829665
 30
0.0
 40
17.0
 41
0.0
 46
0.0
 71
     5
 72
     1
  1
\A1;R10
  7
ABODE-ISO
 73
     1
 44
1.0
  0
LINE
  5
52F66
330
52F61
100
AcDbEntity
  8
DIMS SPECS
370
    25
100
AcDbLine
 10
210011.4736897931
 20
855.0466407026688
 30
0.0
 11
210018.447666896
 21
847.8797973689506
 31
0.0
  0
INSERT
  5
52F67
330
52F61
100
AcDbEntity
  8
DIMS SPECS
370
    25
100
AcDbBlockReference
  2
FILLED-1
 10
210018.447666896
 20
847.8797973689506
 30
0.0
 41
12.5
 42
12.5
 43
12.5
 50
134.2185930120052
  0
POINT
  5
52F68
330
52F61
100
AcDbEntity
  8
DEFPOINTS
 62
     0
100
AcDbPoint
 10
210018.447666896
 20
847.8797973689506
 30
0.0
  0
POINT
  5
52F69
330
52F61
100
AcDbEntity
  8
DEFPOINTS
 62
     0
100
AcDbPoint
 10
210011.4736897931
 20
855.0466407026688
 30
0.0
  0
ENDBLK
  5
52F6A
330
52F61
100
AcDbEntity
  8
0
100
AcDbBlockEnd
  0
BLOCK
  5
52FD6
330
52FD5
100
AcDbEntity
  8
0
100
AcDbBlockBegin
  2
*D46
 70
     1
 10
0.0
 20
0.0
 30
0.0
  3
*D46
  1

  0
LINE
  5
53002
330
52FD5
100
AcDbEntity
  8
DIMS SPECS
370
    25
100
AcDbLine
 10
34892.07760978007
 20
25579.68918418687
 30
0.0
 11
34851.04883683594
 21
25579.68918418687
 31
0.0
  0
LINE
  5
53003
330
52FD5
100
AcDbEntity
  8
DIMS SPECS
370
    25
100
AcDbLine
 10
34851.04883683594
 20
25579.68918418687
 30
0.0
 11
34817.20796427689
 21
25609.84491559767
 31
0.0
  0
MTEXT
  5
53004
330
52FD5
100
AcDbEntity
  8
DIMS SPECS
100
AcDbMText
 10
34875.50260978007
 20
25595.68918418687
 30
0.0
 40
17.0
 41
0.0
 46
0.0
 71
     5
 72
     1
  1
\A1;R10
  7
ABODE-ISO
 73
     1
 44
1.0
  0
LINE
  5
53005
330
52FD5
100
AcDbEntity
  8
DIMS SPECS
370
    25
100
AcDbLine
 10
34799.66315512788
 20
25625.47916236325
 30
0.0
 11
34807.87561898489
 21
25618.16100430275
 31
0.0
  0
INSERT
  5
53006
330
52FD5
100
AcDbEntity
  8
DIMS SPECS
370
    25
100
AcDbBlockReference
  2
FILLED-1
 10
34807.87561898489
 20
25618.16100430275
 30
0.0
 41
12.5
 42
12.5
 43
12.5
 50
138.2956455843242
  0
POINT
  5
53007
330
52FD5
100
AcDbEntity
  8
DEFPOINTS
 62
     0
100
AcDbPoint
 10
34807.87561898489
 20
25618.16100430275
 30
0.0
  0
POINT
  5
53008
330
52FD5
100
AcDbEntity
  8
DEFPOINTS
 62
     0
100
AcDbPoint
 10
34799.66315512788
 20
25625.47916236325
 30
0.0
  0
ENDBLK
  5
52FD7
330
52FD5
100
AcDbEntity
  8
0
100
AcDbBlockEnd
  0
BLOCK
  5
52FE0
330
52FDF
100
AcDbEntity
  8
0
100
AcDbBlockBegin
  2
*D47
 70
     1
 10
0.0
 20
0.0
 30
0.0
  3
*D47
  1

  0
LINE
  5
53070
330
52FDF
100
AcDbEntity
  8
DIMS SPECS
370
    25
100
AcDbLine
 10
30459.62227801653
 20
25668.68928527813
 30
0.0
 11
30537.60695807832
 21
25668.68928527813
 31
0.0
  0
LINE
  5
53071
330
52FDF
100
AcDbEntity
  8
DIMS SPECS
370
    25
100
AcDbLine
 10
30459.62227801653
 20
26138.68928527813
 30
0.0
 11
30537.60695807832
 21
26138.68928527813
 31
0.0
  0
LINE
  5
53072
330
52FDF
100
AcDbEntity
  8
DIMS SPECS
370
    25
100
AcDbLine
 10
30537.60695807832
 20
25681.18928527813
 30
0.0
 11
30537.60695807832
 21
25887.68928527813
 31
0.0
  0
LINE
  5
53073
330
52FDF
100
AcDbEntity
  8
DIMS SPECS
370
    25
100
AcDbLine
 10
30537.60695807832
 20
26126.18928527813
 30
0.0
 11
30537.60695807832
 21
25919.68928527813
 31
0.0
  0
INSERT
  5
53074
330
52FDF
100
AcDbEntity
  8
DIMS SPECS
370
    25
100
AcDbBlockReference
  2
FILLED-1
 10
30537.60695807832
 20
25668.68928527813
 30
0.0
 41
12.5
 42
12.5
 43
12.5
 50
270.0
  0
INSERT
  5
53075
330
52FDF
100
AcDbEntity
  8
DIMS SPECS
370
    25
100
AcDbBlockReference
  2
FILLED-1
 10
30537.60695807832
 20
26138.68928527813
 30
0.0
 41
12.5
 42
12.5
 43
12.5
 50
90.0
  0
MTEXT
  5
53076
330
52FDF
100
AcDbEntity
  8
DIMS SPECS
100
AcDbMText
 10
30537.60695807831
 20
25903.68928527813
 30
0.0
 40
17.0
 41
0.0
 46
0.0
 71
     5
 72
     1
  1
\A1;470
  7
ABODE-ISO
 73
     1
 44
1.0
  0
POINT
  5
53077
330
52FDF
100
AcDbEntity
  8
DEFPOINTS
 62
     0
100
AcDbPoint
 10
30444.62227801653
 20
25668.68928527813
 30
0.0
  0
POINT
  5
53078
330
52FDF
100
AcDbEntity
  8
DEFPOINTS
 62
     0
100
AcDbPoint
 10
30444.62227801653
 20
26138.68928527813
 30
0.0
  0
POINT
  5
53079
330
52FDF
100
AcDbEntity
  8
DEFPOINTS
 62
     0
100
AcDbPoint
 10
30537.60695807832
 20
26138.68928527813
 30
0.0
  0
ENDBLK
  5
52FE1
330
52FDF
100
AcDbEntity
  8
0
100
AcDbBlockEnd
  0
BLOCK
  5
52FED
330
52FEC
100
AcDbEntity
  8
0
100
AcDbBlockBegin
  2
*D48
 70
     1
 10
0.0
 20
0.0
 30
0.0
  3
*D48
  1

  0
LINE
  5
5307A
330
52FEC
100
AcDbEntity
  8
DIMS SPECS
370
    25
100
AcDbLine
 10
29484.62227801654
 20
25663.68928527813
 30
0.0
 11
29484.62227801654
 21
25556.38325154219
 31
0.0
  0
LINE
  5
5307B
330
52FEC
100
AcDbEntity
  8
DIMS SPECS
370
    25
100
AcDbLine
 10
30454.62227801654
 20
25663.68928527813
 30
0.0
 11
30454.62227801654
 21
25556.38325154219
 31
0.0
  0
LINE
  5
5307C
330
52FEC
100
AcDbEntity
  8
DIMS SPECS
370
    25
100
AcDbLine
 10
29497.12227801653
 20
25556.38325154219
 30
0.0
 11
30442.12227801653
 21
25556.38325154219
 31
0.0
  0
INSERT
  5
5307D
330
52FEC
100
AcDbEntity
  8
DIMS SPECS
370
    25
100
AcDbBlockReference
  2
FILLED-1
 10
29484.62227801654
 20
25556.38325154219
 30
0.0
 41
12.5
 42
12.5
 43
12.5
 50
180.0
  0
INSERT
  5
5307E
330
52FEC
100
AcDbEntity
  8
DIMS SPECS
370
    25
100
AcDbBlockReference
  2
FILLED-1
 10
30454.62227801654
 20
25556.38325154219
 30
0.0
 41
12.5
 42
12.5
 43
12.5
  0
MTEXT
  5
5307F
330
52FEC
100
AcDbEntity
  8
DIMS SPECS
100
AcDbMText
 10
29969.62227801653
 20
25572.38325154219
 30
0.0
 40
17.0
 41
0.0
 46
0.0
 71
     5
 72
     1
  1
\A1;970
  7
ABODE-ISO
 73
     1
 44
1.0
  0
POINT
  5
53080
330
52FEC
100
AcDbEntity
  8
DEFPOINTS
 62
     0
100
AcDbPoint
 10
29484.62227801654
 20
25678.68928527813
 30
0.0
  0
POINT
  5
53081
330
52FEC
100
AcDbEntity
  8
DEFPOINTS
 62
     0
100
AcDbPoint
 10
30454.62227801654
 20
25678.68928527813
 30
0.0
  0
POINT
  5
53082
330
52FEC
100
AcDbEntity
  8
DEFPOINTS
 62
     0
100
AcDbPoint
 10
30454.62227801654
 20
25556.38325154219
 30
0.0
  0
ENDBLK
  5
52FEE
330
52FEC
100
AcDbEntity
  8
0
100
AcDbBlockEnd
  0
BLOCK
  5
52FF9
330
52FF8
100
AcDbEntity
  8
0
100
AcDbBlockBegin
  2
*D49
 70
     1
 10
0.0
 20
0.0
 30
0.0
  3
*D49
  1

  0
LINE
  5
53083
330
52FF8
100
AcDbEntity
  8
DIMS SPECS
370
    25
100
AcDbLine
 10
30542.53070609763
 20
25620.23661598648
 30
0.0
 11
30501.50193315395
 21
25620.23661598648
 31
0.0
  0
LINE
  5
53084
330
52FF8
100
AcDbEntity
  8
DIMS SPECS
370
    25
100
AcDbLine
 10
30501.50193315395
 20
25620.23661598648
 30
0.0
 11
30460.31372649814
 21
25662.56388777734
 31
0.0
  0
MTEXT
  5
53085
330
52FF8
100
AcDbEntity
  8
DIMS SPECS
100
AcDbMText
 10
30525.95570609762
 20
25636.23661598648
 30
0.0
 40
17.0
 41
0.0
 46
0.0
 71
     5
 72
     1
  1
\A1;R10
  7
ABODE-ISO
 73
     1
 44
1.0
  0
LINE
  5
53086
330
52FF8
100
AcDbEntity
  8
DIMS SPECS
370
    25
100
AcDbLine
 10
30444.62227801663
 20
25678.6892852781
 30
0.0
 11
30451.59625511957
 21
25671.52244194438
 31
0.0
  0
INSERT
  5
53087
330
52FF8
100
AcDbEntity
  8
DIMS SPECS
370
    25
100
AcDbBlockReference
  2
FILLED-1
 10
30451.59625511957
 20
25671.52244194438
 30
0.0
 41
12.5
 42
12.5
 43
12.5
 50
134.2185930119588
  0
POINT
  5
53088
330
52FF8
100
AcDbEntity
  8
DEFPOINTS
 62
     0
100
AcDbPoint
 10
30451.59625511957
 20
25671.52244194438
 30
0.0
  0
POINT
  5
53089
330
52FF8
100
AcDbEntity
  8
DEFPOINTS
 62
     0
100
AcDbPoint
 10
30444.62227801663
 20
25678.6892852781
 30
0.0
  0
ENDBLK
  5
52FFA
330
52FF8
100
AcDbEntity
  8
0
100
AcDbBlockEnd
  0
BLOCK
  5
5300A
330
53009
100
AcDbEntity
  8
0
100
AcDbBlockBegin
  2
*D50
 70
     1
 10
0.0
 20
0.0
 30
0.0
  3
*D50
  1

  0
LINE
  5
5300C
330
53009
100
AcDbEntity
  8
DIMS SPECS
370
    25
100
AcDbLine
 10
34814.66315512788
 20
25614.47916236323
 30
0.0
 11
34851.67359210056
 21
25614.47916236323
 31
0.0
  0
LINE
  5
5300D
330
53009
100
AcDbEntity
  8
DIMS SPECS
370
    25
100
AcDbLine
 10
34814.66315512788
 20
26064.47916236322
 30
0.0
 11
34851.67359210056
 21
26064.47916236322
 31
0.0
  0
LINE
  5
5300E
330
53009
100
AcDbEntity
  8
DIMS SPECS
370
    25
100
AcDbLine
 10
34851.67359210056
 20
25626.97916236324
 30
0.0
 11
34851.67359210056
 21
25823.47916236324
 31
0.0
  0
LINE
  5
5300F
330
53009
100
AcDbEntity
  8
DIMS SPECS
370
    25
100
AcDbLine
 10
34851.67359210056
 20
26051.97916236324
 30
0.0
 11
34851.67359210056
 21
25855.47916236323
 31
0.0
  0
INSERT
  5
53010
330
53009
100
AcDbEntity
  8
DIMS SPECS
370
    25
100
AcDbBlockReference
  2
FILLED-1
 10
34851.67359210056
 20
25614.47916236323
 30
0.0
 41
12.5
 42
12.5
 43
12.5
 50
270.0
  0
INSERT
  5
53011
330
53009
100
AcDbEntity
  8
DIMS SPECS
370
    25
100
AcDbBlockReference
  2
FILLED-1
 10
34851.67359210056
 20
26064.47916236322
 30
0.0
 41
12.5
 42
12.5
 43
12.5
 50
90.0
  0
MTEXT
  5
53012
330
53009
100
AcDbEntity
  8
DIMS SPECS
100
AcDbMText
 10
34851.67359210054
 20
25839.47916236323
 30
0.0
 40
17.0
 41
0.0
 46
0.0
 71
     5
 72
     1
  1
\A1;450
  7
ABODE-ISO
 73
     1
 44
1.0
  0
POINT
  5
53013
330
53009
100
AcDbEntity
  8
DEFPOINTS
 62
     0
100
AcDbPoint
 10
34799.66315512788
 20
25614.47916236323
 30
0.0
  0
POINT
  5
53014
330
53009
100
AcDbEntity
  8
DEFPOINTS
 62
     0
100
AcDbPoint
 10
34799.66315512788
 20
26064.47916236322
 30
0.0
  0
POINT
  5
53015
330
53009
100
AcDbEntity
  8
DEFPOINTS
 62
     0
100
AcDbPoint
 10
34851.67359210056
 20
26064.47916236322
 30
0.0
  0
ENDBLK
  5
5300B
330
53009
100
AcDbEntity
  8
0
100
AcDbBlockEnd
  0
BLOCK
  5
53017
330
53016
100
AcDbEntity
  8
0
100
AcDbBlockBegin
  2
*D51
 70
     1
 10
0.0
 20
0.0
 30
0.0
  3
*D51
  1

  0
LINE
  5
53019
330
53016
100
AcDbEntity
  8
DIMS SPECS
370
    25
100
AcDbLine
 10
33888.66315512788
 20
25610.47916236323
 30
0.0
 11
33888.66315512788
 21
25490.42901574839
 31
0.0
  0
LINE
  5
5301A
330
53016
100
AcDbEntity
  8
DIMS SPECS
370
    25
100
AcDbLine
 10
34810.66315512789
 20
25610.47916236323
 30
0.0
 11
34810.66315512789
 21
25490.42901574839
 31
0.0
  0
LINE
  5
5301B
330
53016
100
AcDbEntity
  8
DIMS SPECS
370
    25
100
AcDbLine
 10
33901.16315512789
 20
25490.42901574839
 30
0.0
 11
34798.16315512789
 21
25490.42901574839
 31
0.0
  0
INSERT
  5
5301C
330
53016
100
AcDbEntity
  8
DIMS SPECS
370
    25
100
AcDbBlockReference
  2
FILLED-1
 10
33888.66315512788
 20
25490.42901574839
 30
0.0
 41
12.5
 42
12.5
 43
12.5
 50
180.0
  0
INSERT
  5
5301D
330
53016
100
AcDbEntity
  8
DIMS SPECS
370
    25
100
AcDbBlockReference
  2
FILLED-1
 10
34810.66315512789
 20
25490.42901574839
 30
0.0
 41
12.5
 42
12.5
 43
12.5
  0
MTEXT
  5
5301E
330
53016
100
AcDbEntity
  8
DIMS SPECS
100
AcDbMText
 10
34349.66315512786
 20
25506.42901574839
 30
0.0
 40
17.0
 41
0.0
 46
0.0
 71
     5
 72
     1
  1
\A1;922
  7
ABODE-ISO
 73
     1
 44
1.0
  0
POINT
  5
5301F
330
53016
100
AcDbEntity
  8
DEFPOINTS
 62
     0
100
AcDbPoint
 10
33888.66315512788
 20
25625.47916236324
 30
0.0
  0
POINT
  5
53020
330
53016
100
AcDbEntity
  8
DEFPOINTS
 62
     0
100
AcDbPoint
 10
34810.66315512789
 20
25625.47916236324
 30
0.0
  0
POINT
  5
53021
330
53016
100
AcDbEntity
  8
DEFPOINTS
 62
     0
100
AcDbPoint
 10
34810.66315512789
 20
25490.42901574839
 30
0.0
  0
ENDBLK
  5
53018
330
53016
100
AcDbEntity
  8
0
100
AcDbBlockEnd
  0
BLOCK
  5
53023
330
53022
100
AcDbEntity
  8
0
100
AcDbBlockBegin
  2
*D52
 70
     1
 10
0.0
 20
0.0
 30
0.0
  3
*D52
  1

  0
LINE
  5
53025
330
53022
100
AcDbEntity
  8
DIMS SPECS
370
    25
100
AcDbLine
 10
33908.52526267075
 20
25599.47916236323
 30
0.0
 11
33908.52526267075
 21
25529.18294520203
 31
0.0
  0
LINE
  5
53026
330
53022
100
AcDbEntity
  8
DIMS SPECS
370
    25
100
AcDbLine
 10
34458.24340653741
 20
25599.85041614132
 30
0.0
 11
34458.24340653741
 21
25529.18294520203
 31
0.0
  0
LINE
  5
53027
330
53022
100
AcDbEntity
  8
DIMS SPECS
370
    25
100
AcDbLine
 10
33921.02526267075
 20
25529.18294520203
 30
0.0
 11
34445.74340653741
 21
25529.18294520203
 31
0.0
  0
INSERT
  5
53028
330
53022
100
AcDbEntity
  8
DIMS SPECS
370
    25
100
AcDbBlockReference
  2
FILLED-1
 10
33908.52526267075
 20
25529.18294520203
 30
0.0
 41
12.5
 42
12.5
 43
12.5
 50
180.0
  0
INSERT
  5
53029
330
53022
100
AcDbEntity
  8
DIMS SPECS
370
    25
100
AcDbBlockReference
  2
FILLED-1
 10
34458.24340653741
 20
25529.18294520203
 30
0.0
 41
12.5
 42
12.5
 43
12.5
  0
MTEXT
  5
5302A
330
53022
100
AcDbEntity
  8
DIMS SPECS
100
AcDbMText
 10
34183.38433460407
 20
25545.18294520203
 30
0.0
 40
17.0
 41
0.0
 46
0.0
 71
     5
 72
     1
  1
\A1;550
  7
ABODE-ISO
 73
     1
 44
1.0
  0
POINT
  5
5302B
330
53022
100
AcDbEntity
  8
DEFPOINTS
 62
     0
100
AcDbPoint
 10
33908.52526267075
 20
25614.47916236323
 30
0.0
  0
POINT
  5
5302C
330
53022
100
AcDbEntity
  8
DEFPOINTS
 62
     0
100
AcDbPoint
 10
34458.24340653741
 20
25614.85041614132
 30
0.0
  0
POINT
  5
5302D
330
53022
100
AcDbEntity
  8
DEFPOINTS
 62
     0
100
AcDbPoint
 10
34458.24340653741
 20
25529.18294520203
 30
0.0
  0
ENDBLK
  5
53024
330
53022
100
AcDbEntity
  8
0
100
AcDbBlockEnd
  0
BLOCK
  5
5302F
330
5302E
100
AcDbEntity
  8
0
100
AcDbBlockBegin
  2
*D53
 70
     1
 10
0.0
 20
0.0
 30
0.0
  3
*D53
  1

  0
LINE
  5
53031
330
5302E
100
AcDbEntity
  8
DIMS SPECS
370
    25
100
AcDbLine
 10
33888.66315512788
 20
26038.47916236323
 30
0.0
 11
33888.66315512788
 21
25553.30796049214
 31
0.0
  0
LINE
  5
53032
330
5302E
100
AcDbEntity
  8
DIMS SPECS
370
    25
100
AcDbLine
 10
33908.52526267075
 20
25599.47916236323
 30
0.0
 11
33908.52526267075
 21
25553.30796049214
 31
0.0
  0
LINE
  5
53033
330
5302E
100
AcDbEntity
  8
DIMS SPECS
370
    25
100
AcDbLine
 10
33876.16315512789
 20
25553.30796049214
 30
0.0
 11
33863.66315512788
 21
25553.30796049214
 31
0.0
  0
LINE
  5
53034
330
5302E
100
AcDbEntity
  8
DIMS SPECS
370
    25
100
AcDbLine
 10
33921.02526267075
 20
25553.30796049214
 30
0.0
 11
33971.47526267075
 21
25553.30796049214
 31
0.0
  0
LINE
  5
53035
330
5302E
100
AcDbEntity
  8
DIMS SPECS
370
    25
100
AcDbLine
 10
33888.66315512788
 20
25553.30796049214
 30
0.0
 11
33908.52526267075
 21
25553.30796049214
 31
0.0
  0
INSERT
  5
53036
330
5302E
100
AcDbEntity
  8
DIMS SPECS
370
    25
100
AcDbBlockReference
  2
FILLED-1
 10
33888.66315512788
 20
25553.30796049214
 30
0.0
 41
12.5
 42
12.5
 43
12.5
  0
INSERT
  5
53037
330
5302E
100
AcDbEntity
  8
DIMS SPECS
370
    25
100
AcDbBlockReference
  2
FILLED-1
 10
33908.52526267075
 20
25553.30796049214
 30
0.0
 41
12.5
 42
12.5
 43
12.5
 50
180.0
  0
MTEXT
  5
53038
330
5302E
100
AcDbEntity
  8
DIMS SPECS
100
AcDbMText
 10
33952.50026267075
 20
25569.30796049214
 30
0.0
 40
17.0
 41
0.0
 46
0.0
 71
     5
 72
     1
  1
\A1;20
  7
ABODE-ISO
 73
     1
 44
1.0
  0
POINT
  5
53039
330
5302E
100
AcDbEntity
  8
DEFPOINTS
 62
     0
100
AcDbPoint
 10
33888.66315512788
 20
26053.47916236323
 30
0.0
  0
POINT
  5
5303A
330
5302E
100
AcDbEntity
  8
DEFPOINTS
 62
     0
100
AcDbPoint
 10
33908.52526267075
 20
25614.47916236323
 30
0.0
  0
POINT
  5
5303B
330
5302E
100
AcDbEntity
  8
DEFPOINTS
 62
     0
100
AcDbPoint
 10
33908.52526267075
 20
25553.30796049214
 30
0.0
  0
ENDBLK
  5
53030
330
5302E
100
AcDbEntity
  8
0
100
AcDbBlockEnd
  0
BLOCK
  5
53057
330
53056
100
AcDbEntity
  8
0
100
AcDbBlockBegin
  2
*D54
 70
     1
 10
0.0
 20
0.0
 30
0.0
  3
*D54
  1

  0
LINE
  5
5308A
330
53056
100
AcDbEntity
  8
DIMS SPECS
370
    25
100
AcDbLine
 10
29484.6222780165
 20
25663.68928527813
 30
0.0
 11
29484.6222780165
 21
25630.6563207934
 31
0.0
  0
LINE
  5
5308B
330
53056
100
AcDbEntity
  8
DIMS SPECS
370
    25
100
AcDbLine
 10
29499.62227801653
 20
25653.68928527813
 30
0.0
 11
29499.62227801653
 21
25630.6563207934
 31
0.0
  0
LINE
  5
5308C
330
53056
100
AcDbEntity
  8
DIMS SPECS
370
    25
100
AcDbLine
 10
29472.1222780165
 20
25630.6563207934
 30
0.0
 11
29459.62227801651
 21
25630.6563207934
 31
0.0
  0
LINE
  5
5308D
330
53056
100
AcDbEntity
  8
DIMS SPECS
370
    25
100
AcDbLine
 10
29512.12227801653
 20
25630.6563207934
 30
0.0
 11
29560.02227801654
 21
25630.6563207934
 31
0.0
  0
LINE
  5
5308E
330
53056
100
AcDbEntity
  8
DIMS SPECS
370
    25
100
AcDbLine
 10
29484.6222780165
 20
25630.6563207934
 30
0.0
 11
29499.62227801653
 21
25630.6563207934
 31
0.0
  0
INSERT
  5
5308F
330
53056
100
AcDbEntity
  8
DIMS SPECS
370
    25
100
AcDbBlockReference
  2
FILLED-1
 10
29484.6222780165
 20
25630.6563207934
 30
0.0
 41
12.5
 42
12.5
 43
12.5
  0
INSERT
  5
53090
330
53056
100
AcDbEntity
  8
DIMS SPECS
370
    25
100
AcDbBlockReference
  2
FILLED-1
 10
29499.62227801653
 20
25630.6563207934
 30
0.0
 41
12.5
 42
12.5
 43
12.5
 50
180.0
  0
MTEXT
  5
53091
330
53056
100
AcDbEntity
  8
DIMS SPECS
100
AcDbMText
 10
29542.32227801654
 20
25646.6563207934
 30
0.0
 40
17.0
 41
0.0
 46
0.0
 71
     5
 72
     1
  1
\A1;15
  7
ABODE-ISO
 73
     1
 44
1.0
  0
POINT
  5
53092
330
53056
100
AcDbEntity
  8
DEFPOINTS
 62
     0
100
AcDbPoint
 10
29484.6222780165
 20
25678.68928527813
 30
0.0
  0
POINT
  5
53093
330
53056
100
AcDbEntity
  8
DEFPOINTS
 62
     0
100
AcDbPoint
 10
29499.62227801653
 20
25668.68928527813
 30
0.0
  0
POINT
  5
53094
330
53056
100
AcDbEntity
  8
DEFPOINTS
 62
     0
100
AcDbPoint
 10
29499.62227801653
 20
25630.6563207934
 30
0.0
  0
ENDBLK
  5
53058
330
53056
100
AcDbEntity
  8
0
100
AcDbBlockEnd
  0
BLOCK
  5
53065
330
53064
100
AcDbEntity
  8
0
100
AcDbBlockBegin
  2
*D55
 70
     1
 10
0.0
 20
0.0
 30
0.0
  3
*D55
  1

  0
LINE
  5
53095
330
53064
100
AcDbEntity
  8
DIMS SPECS
370
    25
100
AcDbLine
 10
29499.62227801653
 20
25653.68928527813
 30
0.0
 11
29499.62227801653
 21
25605.62289135039
 31
0.0
  0
LINE
  5
53096
330
53064
100
AcDbEntity
  8
DIMS SPECS
370
    25
100
AcDbLine
 10
30044.62227801653
 20
25653.68928527813
 30
0.0
 11
30044.62227801653
 21
25605.62289135039
 31
0.0
  0
LINE
  5
53097
330
53064
100
AcDbEntity
  8
DIMS SPECS
370
    25
100
AcDbLine
 10
29512.12227801653
 20
25605.62289135039
 30
0.0
 11
30032.12227801653
 21
25605.62289135039
 31
0.0
  0
INSERT
  5
53098
330
53064
100
AcDbEntity
  8
DIMS SPECS
370
    25
100
AcDbBlockReference
  2
FILLED-1
 10
29499.62227801653
 20
25605.62289135039
 30
0.0
 41
12.5
 42
12.5
 43
12.5
 50
180.0
  0
INSERT
  5
53099
330
53064
100
AcDbEntity
  8
DIMS SPECS
370
    25
100
AcDbBlockReference
  2
FILLED-1
 10
30044.62227801653
 20
25605.62289135039
 30
0.0
 41
12.5
 42
12.5
 43
12.5
  0
MTEXT
  5
5309A
330
53064
100
AcDbEntity
  8
DIMS SPECS
100
AcDbMText
 10
29772.12227801653
 20
25621.62289135039
 30
0.0
 40
17.0
 41
0.0
 46
0.0
 71
     5
 72
     1
  1
\A1;545
  7
ABODE-ISO
 73
     1
 44
1.0
  0
POINT
  5
5309B
330
53064
100
AcDbEntity
  8
DEFPOINTS
 62
     0
100
AcDbPoint
 10
29499.62227801653
 20
25668.68928527813
 30
0.0
  0
POINT
  5
5309C
330
53064
100
AcDbEntity
  8
DEFPOINTS
 62
     0
100
AcDbPoint
 10
30044.62227801653
 20
25668.68928527813
 30
0.0
  0
POINT
  5
5309D
330
53064
100
AcDbEntity
  8
DEFPOINTS
 62
     0
100
AcDbPoint
 10
30044.62227801653
 20
25605.62289135039
 30
0.0
  0
ENDBLK
  5
53066
330
53064
100
AcDbEntity
  8
0
100
AcDbBlockEnd
  0
BLOCK
  5
530D2
330
530D1
100
AcDbEntity
  8
0
100
AcDbBlockBegin
  2
*D56
 70
     1
 10
0.0
 20
0.0
 30
0.0
  3
*D56
  1

  0
LINE
  5
530D3
330
530D1
100
AcDbEntity
  8
DIMS SPECS
370
    25
100
AcDbLine
 10
215478.439585102
 20
793.8170244825887
 30
0.0
 11
215437.0320392148
 21
793.8170244826033
 31
0.0
  0
LINE
  5
530D4
330
530D1
100
AcDbEntity
  8
DIMS SPECS
370
    25
100
AcDbLine
 10
215437.0320392148
 20
793.8170244826033
 30
0.0
 11
215381.8736215978
 21
840.8070692307665
 31
0.0
  0
MTEXT
  5
530D5
330
530D1
100
AcDbEntity
  8
DIMS SPECS
100
AcDbMText
 10
215461.4858121584
 20
810.244624754527
 30
0.0
 40
17.0
 41
0.0
 46
0.0
 71
     5
 72
     1
  1
\A1;R10
  7
ABODE-ISO
 73
     1
 44
1.0
  0
LINE
  5
530D6
330
530D1
100
AcDbEntity
  8
DIMS SPECS
370
    25
100
AcDbLine
 10
215363.984925129
 20
856.0466407026833
 30
0.0
 11
215372.3583575186
 21
848.9132242690393
 31
0.0
  0
INSERT
  5
530D7
330
530D1
100
AcDbEntity
  8
DIMS SPECS
370
    25
100
AcDbBlockReference
  2
FILLED-1
 10
215372.3583575186
 20
848.9132242690393
 30
0.0
 41
12.5
 42
12.5
 43
12.5
 50
139.5719682683285
  0
POINT
  5
530D8
330
530D1
100
AcDbEntity
  8
DEFPOINTS
 62
     0
100
AcDbPoint
 10
215372.3583575186
 20
848.9132242690393
 30
0.0
  0
POINT
  5
530D9
330
530D1
100
AcDbEntity
  8
DEFPOINTS
 62
     0
100
AcDbPoint
 10
215363.984925129
 20
856.0466407026833
 30
0.0
  0
ENDBLK
  5
530DA
330
530D1
100
AcDbEntity
  8
0
100
AcDbBlockEnd
  0
BLOCK
  5
530DC
330
530DB
100
AcDbEntity
  8
0
100
AcDbBlockBegin
  2
*D57
 70
     1
 10
0.0
 20
0.0
 30
0.0
  3
*D57
  1

  0
LINE
  5
530DD
330
530DB
100
AcDbEntity
  8
DIMS SPECS
370
    25
100
AcDbLine
 10
213067.2248971206
 20
810.2566625263133
 30
0.0
 11
213025.8173512331
 21
810.2566625263571
 31
0.0
  0
LINE
  5
530DE
330
530DB
100
AcDbEntity
  8
DIMS SPECS
370
    25
100
AcDbLine
 10
213025.8173512331
 20
810.2566625263571
 30
0.0
 11
212991.9764786738
 21
840.4123939371492
 31
0.0
  0
MTEXT
  5
530DF
330
530DB
100
AcDbEntity
  8
DIMS SPECS
100
AcDbMText
 10
213050.271124177
 20
826.6842627982665
 30
0.0
 40
17.0
 41
0.0
 46
0.0
 71
     5
 72
     1
  1
\A1;R10
  7
ABODE-ISO
 73
     1
 44
1.0
  0
LINE
  5
530E0
330
530DB
100
AcDbEntity
  8
DIMS SPECS
370
    25
100
AcDbLine
 10
212974.4316695248
 20
856.0466407027123
 30
0.0
 11
212982.6441333818
 21
848.728482642211
 31
0.0
  0
INSERT
  5
530E1
330
530DB
100
AcDbEntity
  8
DIMS SPECS
370
    25
100
AcDbBlockReference
  2
FILLED-1
 10
212982.6441333818
 20
848.728482642211
 30
0.0
 41
12.5
 42
12.5
 43
12.5
 50
138.2956455844817
  0
POINT
  5
530E2
330
530DB
100
AcDbEntity
  8
DEFPOINTS
 62
     0
100
AcDbPoint
 10
212982.6441333818
 20
848.728482642211
 30
0.0
  0
POINT
  5
530E3
330
530DB
100
AcDbEntity
  8
DEFPOINTS
 62
     0
100
AcDbPoint
 10
212974.4316695248
 20
856.0466407027123
 30
0.0
  0
ENDBLK
  5
530E4
330
530DB
100
AcDbEntity
  8
0
100
AcDbBlockEnd
  0
BLOCK
  5
530E6
330
530E5
100
AcDbEntity
  8
0
100
AcDbBlockBegin
  2
*D58
 70
     1
 10
0.0
 20
0.0
 30
0.0
  3
*D58
  1

  0
LINE
  5
530E7
330
530E5
100
AcDbEntity
  8
DIMS SPECS
370
    25
100
AcDbLine
 10
215382.4498314129
 20
845.0466407026897
 30
0.0
 11
215442.0563782491
 21
845.0466407026897
 31
0.0
  0
LINE
  5
530E8
330
530E5
100
AcDbEntity
  8
DIMS SPECS
370
    25
100
AcDbLine
 10
215382.4498314129
 20
1305.04664070269
 30
0.0
 11
215442.0563782491
 21
1305.04664070269
 31
0.0
  0
LINE
  5
530E9
330
530E5
100
AcDbEntity
  8
DIMS SPECS
370
    25
100
AcDbLine
 10
215442.0563782491
 20
857.5466407026897
 30
0.0
 11
215442.0563782491
 21
1058.619040430766
 31
0.0
  0
LINE
  5
530EA
330
530E5
100
AcDbEntity
  8
DIMS SPECS
370
    25
100
AcDbLine
 10
215442.0563782491
 20
1292.546640702689
 30
0.0
 11
215442.0563782491
 21
1091.474240974613
 31
0.0
  0
INSERT
  5
530EB
330
530E5
100
AcDbEntity
  8
DIMS SPECS
370
    25
100
AcDbBlockReference
  2
FILLED-1
 10
215442.0563782491
 20
845.0466407026897
 30
0.0
 41
12.5
 42
12.5
 43
12.5
 50
270.0
  0
INSERT
  5
530EC
330
530E5
100
AcDbEntity
  8
DIMS SPECS
370
    25
100
AcDbBlockReference
  2
FILLED-1
 10
215442.0563782491
 20
1305.04664070269
 30
0.0
 41
12.5
 42
12.5
 43
12.5
 50
90.0
  0
MTEXT
  5
530ED
330
530E5
100
AcDbEntity
  8
DIMS SPECS
100
AcDbMText
 10
215442.0563782491
 20
1075.046640702724
 30
0.0
 40
17.0
 41
0.0
 46
0.0
 71
     5
 72
     1
  1
\A1;460
  7
ABODE-ISO
 73
     1
 44
1.0
  0
POINT
  5
530EE
330
530E5
100
AcDbEntity
  8
DEFPOINTS
 62
     0
100
AcDbPoint
 10
215367.4498314129
 20
845.0466407026897
 30
0.0
  0
POINT
  5
530EF
330
530E5
100
AcDbEntity
  8
DEFPOINTS
 62
     0
100
AcDbPoint
 10
215367.4498314129
 20
1305.04664070269
 30
0.0
  0
POINT
  5
530F0
330
530E5
100
AcDbEntity
  8
DEFPOINTS
 62
     0
100
AcDbPoint
 10
215442.0563782491
 20
1305.04664070269
 30
0.0
  0
ENDBLK
  5
530F1
330
530E5
100
AcDbEntity
  8
0
100
AcDbBlockEnd
  0
BLOCK
  5
530F3
330
530F2
100
AcDbEntity
  8
0
100
AcDbBlockBegin
  2
*D59
 70
     1
 10
0.0
 20
0.0
 30
0.0
  3
*D59
  1

  0
LINE
  5
530F4
330
530F2
100
AcDbEntity
  8
DIMS SPECS
370
    25
100
AcDbLine
 10
212989.4316695248
 20
845.0466407026897
 30
0.0
 11
213026.4421064975
 21
845.0466407026897
 31
0.0
  0
LINE
  5
530F5
330
530F2
100
AcDbEntity
  8
DIMS SPECS
370
    25
100
AcDbLine
 10
212989.4316695248
 20
1295.04664070269
 30
0.0
 11
213026.4421064975
 21
1295.04664070269
 31
0.0
  0
LINE
  5
530F6
330
530F2
100
AcDbEntity
  8
DIMS SPECS
370
    25
100
AcDbLine
 10
213026.4421064975
 20
857.5466407026897
 30
0.0
 11
213026.4421064975
 21
1053.619040430766
 31
0.0
  0
LINE
  5
530F7
330
530F2
100
AcDbEntity
  8
DIMS SPECS
370
    25
100
AcDbLine
 10
213026.4421064975
 20
1282.54664070269
 30
0.0
 11
213026.4421064975
 21
1086.474240974613
 31
0.0
  0
INSERT
  5
530F8
330
530F2
100
AcDbEntity
  8
DIMS SPECS
370
    25
100
AcDbBlockReference
  2
FILLED-1
 10
213026.4421064975
 20
845.0466407026897
 30
0.0
 41
12.5
 42
12.5
 43
12.5
 50
270.0
  0
INSERT
  5
530F9
330
530F2
100
AcDbEntity
  8
DIMS SPECS
370
    25
100
AcDbBlockReference
  2
FILLED-1
 10
213026.4421064975
 20
1295.04664070269
 30
0.0
 41
12.5
 42
12.5
 43
12.5
 50
90.0
  0
MTEXT
  5
530FA
330
530F2
100
AcDbEntity
  8
DIMS SPECS
100
AcDbMText
 10
213026.4421064975
 20
1070.046640702724
 30
0.0
 40
17.0
 41
0.0
 46
0.0
 71
     5
 72
     1
  1
\A1;450
  7
ABODE-ISO
 73
     1
 44
1.0
  0
POINT
  5
530FB
330
530F2
100
AcDbEntity
  8
DEFPOINTS
 62
     0
100
AcDbPoint
 10
212974.4316695248
 20
845.0466407026897
 30
0.0
  0
POINT
  5
530FC
330
530F2
100
AcDbEntity
  8
DEFPOINTS
 62
     0
100
AcDbPoint
 10
212974.4316695248
 20
1295.04664070269
 30
0.0
  0
POINT
  5
530FD
330
530F2
100
AcDbEntity
  8
DEFPOINTS
 62
     0
100
AcDbPoint
 10
213026.4421064975
 20
1295.04664070269
 30
0.0
  0
ENDBLK
  5
530FE
330
530F2
100
AcDbEntity
  8
0
100
AcDbBlockEnd
  0
BLOCK
  5
53100
330
530FF
100
AcDbEntity
  8
0
100
AcDbBlockBegin
  2
*D60
 70
     1
 10
0.0
 20
0.0
 30
0.0
  3
*D60
  1

  0
LINE
  5
53101
330
530FF
100
AcDbEntity
  8
DIMS SPECS
370
    25
100
AcDbLine
 10
212063.4316695248
 20
841.0466407026898
 30
0.0
 11
212063.4316695248
 21
720.9964940878562
 31
0.0
  0
LINE
  5
53102
330
530FF
100
AcDbEntity
  8
DIMS SPECS
370
    25
100
AcDbLine
 10
212985.4316695248
 20
841.0466407026898
 30
0.0
 11
212985.4316695248
 21
720.9964940878562
 31
0.0
  0
LINE
  5
53103
330
530FF
100
AcDbEntity
  8
DIMS SPECS
370
    25
100
AcDbLine
 10
212075.9316695248
 20
720.9964940878562
 30
0.0
 11
212972.9316695248
 21
720.9964940878562
 31
0.0
  0
INSERT
  5
53104
330
530FF
100
AcDbEntity
  8
DIMS SPECS
370
    25
100
AcDbBlockReference
  2
FILLED-1
 10
212063.4316695248
 20
720.9964940878562
 30
0.0
 41
12.5
 42
12.5
 43
12.5
 50
180.0
  0
INSERT
  5
53105
330
530FF
100
AcDbEntity
  8
DIMS SPECS
370
    25
100
AcDbBlockReference
  2
FILLED-1
 10
212985.4316695248
 20
720.9964940878562
 30
0.0
 41
12.5
 42
12.5
 43
12.5
  0
MTEXT
  5
53106
330
530FF
100
AcDbEntity
  8
DIMS SPECS
100
AcDbMText
 10
212524.4316695248
 20
737.4240943597802
 30
0.0
 40
17.0
 41
0.0
 46
0.0
 71
     5
 72
     1
  1
\A1;922
  7
ABODE-ISO
 73
     1
 44
1.0
  0
POINT
  5
53107
330
530FF
100
AcDbEntity
  8
DEFPOINTS
 62
     0
100
AcDbPoint
 10
212063.4316695248
 20
856.0466407026899
 30
0.0
  0
POINT
  5
53108
330
530FF
100
AcDbEntity
  8
DEFPOINTS
 62
     0
100
AcDbPoint
 10
212985.4316695248
 20
856.0466407026899
 30
0.0
  0
POINT
  5
53109
330
530FF
100
AcDbEntity
  8
DEFPOINTS
 62
     0
100
AcDbPoint
 10
212985.4316695248
 20
720.9964940878562
 30
0.0
  0
ENDBLK
  5
5310A
330
530FF
100
AcDbEntity
  8
0
100
AcDbBlockEnd
  0
BLOCK
  5
5310C
330
5310B
100
AcDbEntity
  8
0
100
AcDbBlockBegin
  2
*D61
 70
     1
 10
0.0
 20
0.0
 30
0.0
  3
*D61
  1

  0
LINE
  5
5310D
330
5310B
100
AcDbEntity
  8
DIMS SPECS
370
    25
100
AcDbLine
 10
212083.2937770677
 20
830.0466407026906
 30
0.0
 11
212083.2937770677
 21
759.7504235414962
 31
0.0
  0
LINE
  5
5310E
330
5310B
100
AcDbEntity
  8
DIMS SPECS
370
    25
100
AcDbLine
 10
212633.0119209344
 20
830.417894480781
 30
0.0
 11
212633.0119209344
 21
759.7504235414962
 31
0.0
  0
LINE
  5
5310F
330
5310B
100
AcDbEntity
  8
DIMS SPECS
370
    25
100
AcDbLine
 10
212095.7937770677
 20
759.7504235414962
 30
0.0
 11
212620.5119209343
 21
759.7504235414962
 31
0.0
  0
INSERT
  5
53110
330
5310B
100
AcDbEntity
  8
DIMS SPECS
370
    25
100
AcDbBlockReference
  2
FILLED-1
 10
212083.2937770677
 20
759.7504235414962
 30
0.0
 41
12.5
 42
12.5
 43
12.5
 50
180.0
  0
INSERT
  5
53111
330
5310B
100
AcDbEntity
  8
DIMS SPECS
370
    25
100
AcDbBlockReference
  2
FILLED-1
 10
212633.0119209344
 20
759.7504235414962
 30
0.0
 41
12.5
 42
12.5
 43
12.5
  0
MTEXT
  5
53112
330
5310B
100
AcDbEntity
  8
DIMS SPECS
100
AcDbMText
 10
212358.152849001
 20
776.1780238134202
 30
0.0
 40
17.0
 41
0.0
 46
0.0
 71
     5
 72
     1
  1
\A1;550
  7
ABODE-ISO
 73
     1
 44
1.0
  0
POINT
  5
53113
330
5310B
100
AcDbEntity
  8
DEFPOINTS
 62
     0
100
AcDbPoint
 10
212083.2937770677
 20
845.0466407026906
 30
0.0
  0
POINT
  5
53114
330
5310B
100
AcDbEntity
  8
DEFPOINTS
 62
     0
100
AcDbPoint
 10
212633.0119209344
 20
845.4178944807809
 30
0.0
  0
POINT
  5
53115
330
5310B
100
AcDbEntity
  8
DEFPOINTS
 62
     0
100
AcDbPoint
 10
212633.0119209344
 20
759.7504235414962
 30
0.0
  0
ENDBLK
  5
53116
330
5310B
100
AcDbEntity
  8
0
100
AcDbBlockEnd
  0
BLOCK
  5
53118
330
53117
100
AcDbEntity
  8
0
100
AcDbBlockBegin
  2
*D62
 70
     1
 10
0.0
 20
0.0
 30
0.0
  3
*D62
  1

  0
LINE
  5
53119
330
53117
100
AcDbEntity
  8
DIMS SPECS
370
    25
100
AcDbLine
 10
212063.4316695248
 20
1269.04664070269
 30
0.0
 11
212063.4316695248
 21
783.8754388316011
 31
0.0
  0
LINE
  5
5311A
330
53117
100
AcDbEntity
  8
DIMS SPECS
370
    25
100
AcDbLine
 10
212083.2937770677
 20
830.0466407026906
 30
0.0
 11
212083.2937770677
 21
783.8754388316011
 31
0.0
  0
LINE
  5
5311B
330
53117
100
AcDbEntity
  8
DIMS SPECS
370
    25
100
AcDbLine
 10
212050.9316695248
 20
783.8754388316011
 30
0.0
 11
212038.4316695248
 21
783.8754388316011
 31
0.0
  0
LINE
  5
5311C
330
53117
100
AcDbEntity
  8
DIMS SPECS
370
    25
100
AcDbLine
 10
212095.7937770677
 20
783.8754388316011
 30
0.0
 11
212145.583307999
 21
783.8754388316011
 31
0.0
  0
LINE
  5
5311D
330
53117
100
AcDbEntity
  8
DIMS SPECS
370
    25
100
AcDbLine
 10
212063.4316695248
 20
783.8754388316011
 30
0.0
 11
212083.2937770677
 21
783.8754388316011
 31
0.0
  0
INSERT
  5
5311E
330
53117
100
AcDbEntity
  8
DIMS SPECS
370
    25
100
AcDbBlockReference
  2
FILLED-1
 10
212063.4316695248
 20
783.8754388316011
 30
0.0
 41
12.5
 42
12.5
 43
12.5
  0
INSERT
  5
5311F
330
53117
100
AcDbEntity
  8
DIMS SPECS
370
    25
100
AcDbBlockReference
  2
FILLED-1
 10
212083.2937770677
 20
783.8754388316011
 30
0.0
 41
12.5
 42
12.5
 43
12.5
 50
180.0
  0
MTEXT
  5
53120
330
53117
100
AcDbEntity
  8
DIMS SPECS
100
AcDbMText
 10
212126.9385425333
 20
800.3030391035249
 30
0.0
 40
17.0
 41
0.0
 46
0.0
 71
     5
 72
     1
  1
\A1;20
  7
ABODE-ISO
 73
     1
 44
1.0
  0
POINT
  5
53121
330
53117
100
AcDbEntity
  8
DEFPOINTS
 62
     0
100
AcDbPoint
 10
212063.4316695248
 20
1284.04664070269
 30
0.0
  0
POINT
  5
53122
330
53117
100
AcDbEntity
  8
DEFPOINTS
 62
     0
100
AcDbPoint
 10
212083.2937770677
 20
845.0466407026906
 30
0.0
  0
POINT
  5
53123
330
53117
100
AcDbEntity
  8
DEFPOINTS
 62
     0
100
AcDbPoint
 10
212083.2937770677
 20
783.8754388316011
 30
0.0
  0
ENDBLK
  5
53124
330
53117
100
AcDbEntity
  8
0
100
AcDbBlockEnd
  0
BLOCK
  5
53126
330
53125
100
AcDbEntity
  8
0
100
AcDbBlockBegin
  2
*D63
 70
     1
 10
0.0
 20
0.0
 30
0.0
  3
*D63
  1

  0
LINE
  5
53127
330
53125
100
AcDbEntity
  8
DIMS SPECS
370
    25
100
AcDbLine
 10
214646.3119389558
 20
830.0466407026906
 30
0.0
 11
214646.3119389558
 21
777.2913691406357
 31
0.0
  0
LINE
  5
53128
330
53125
100
AcDbEntity
  8
DIMS SPECS
370
    25
100
AcDbLine
 10
215036.3119389558
 20
830.0466407026906
 30
0.0
 11
215036.3119389558
 21
777.2913691406357
 31
0.0
  0
LINE
  5
53129
330
53125
100
AcDbEntity
  8
DIMS SPECS
370
    25
100
AcDbLine
 10
214658.8119389558
 20
777.2913691406357
 30
0.0
 11
215023.8119389558
 21
777.2913691406357
 31
0.0
  0
INSERT
  5
5312A
330
53125
100
AcDbEntity
  8
DIMS SPECS
370
    25
100
AcDbBlockReference
  2
FILLED-1
 10
214646.3119389558
 20
777.2913691406357
 30
0.0
 41
12.5
 42
12.5
 43
12.5
 50
180.0
  0
INSERT
  5
5312B
330
53125
100
AcDbEntity
  8
DIMS SPECS
370
    25
100
AcDbBlockReference
  2
FILLED-1
 10
215036.3119389558
 20
777.2913691406357
 30
0.0
 41
12.5
 42
12.5
 43
12.5
  0
MTEXT
  5
5312C
330
53125
100
AcDbEntity
  8
DIMS SPECS
100
AcDbMText
 10
214841.3119389558
 20
793.7189694125595
 30
0.0
 40
17.0
 41
0.0
 46
0.0
 71
     5
 72
     1
  1
\A1;390
  7
ABODE-ISO
 73
     1
 44
1.0
  0
POINT
  5
5312D
330
53125
100
AcDbEntity
  8
DEFPOINTS
 62
     0
100
AcDbPoint
 10
214646.3119389558
 20
845.0466407026906
 30
0.0
  0
POINT
  5
5312E
330
53125
100
AcDbEntity
  8
DEFPOINTS
 62
     0
100
AcDbPoint
 10
215036.3119389558
 20
845.0466407026906
 30
0.0
  0
POINT
  5
5312F
330
53125
100
AcDbEntity
  8
DEFPOINTS
 62
     0
100
AcDbPoint
 10
215036.3119389558
 20
777.2913691406357
 30
0.0
  0
ENDBLK
  5
53130
330
53125
100
AcDbEntity
  8
0
100
AcDbBlockEnd
  0
BLOCK
  5
53132
330
53131
100
AcDbEntity
  8
0
100
AcDbBlockBegin
  2
*D64
 70
     1
 10
0.0
 20
0.0
 30
0.0
  3
*D64
  1

  0
LINE
  5
53133
330
53131
100
AcDbEntity
  8
DIMS SPECS
370
    25
100
AcDbLine
 10
209051.4736897929
 20
840.0466407026906
 30
0.0
 11
209051.4736897929
 21
732.7406069667556
 31
0.0
  0
LINE
  5
53134
330
53131
100
AcDbEntity
  8
DIMS SPECS
370
    25
100
AcDbLine
 10
210021.473689793
 20
840.0466407026904
 30
0.0
 11
210021.473689793
 21
732.7406069667556
 31
0.0
  0
LINE
  5
53135
330
53131
100
AcDbEntity
  8
DIMS SPECS
370
    25
100
AcDbLine
 10
209063.973689793
 20
732.7406069667556
 30
0.0
 11
210008.9736897929
 21
732.7406069667556
 31
0.0
  0
INSERT
  5
53136
330
53131
100
AcDbEntity
  8
DIMS SPECS
370
    25
100
AcDbBlockReference
  2
FILLED-1
 10
209051.4736897929
 20
732.7406069667556
 30
0.0
 41
12.5
 42
12.5
 43
12.5
 50
180.0
  0
INSERT
  5
53137
330
53131
100
AcDbEntity
  8
DIMS SPECS
370
    25
100
AcDbBlockReference
  2
FILLED-1
 10
210021.473689793
 20
732.7406069667556
 30
0.0
 41
12.5
 42
12.5
 43
12.5
  0
MTEXT
  5
53138
330
53131
100
AcDbEntity
  8
DIMS SPECS
100
AcDbMText
 10
209536.4736897929
 20
749.1682072386797
 30
0.0
 40
17.0
 41
0.0
 46
0.0
 71
     5
 72
     1
  1
\A1;970
  7
ABODE-ISO
 73
     1
 44
1.0
  0
POINT
  5
53139
330
53131
100
AcDbEntity
  8
DEFPOINTS
 62
     0
100
AcDbPoint
 10
209051.4736897929
 20
855.0466407026904
 30
0.0
  0
POINT
  5
5313A
330
53131
100
AcDbEntity
  8
DEFPOINTS
 62
     0
100
AcDbPoint
 10
210021.473689793
 20
855.0466407026904
 30
0.0
  0
POINT
  5
5313B
330
53131
100
AcDbEntity
  8
DEFPOINTS
 62
     0
100
AcDbPoint
 10
210021.473689793
 20
732.7406069667556
 30
0.0
  0
ENDBLK
  5
5313C
330
53131
100
AcDbEntity
  8
0
100
AcDbBlockEnd
  0
BLOCK
  5
5313E
330
5313D
100
AcDbEntity
  8
0
100
AcDbBlockBegin
  2
*D65
 70
     1
 10
0.0
 20
0.0
 30
0.0
  3
*D65
  1

  0
LINE
  5
5313F
330
5313D
100
AcDbEntity
  8
DIMS SPECS
370
    25
100
AcDbLine
 10
209051.4736897929
 20
840.0466407026906
 30
0.0
 11
209051.4736897929
 21
807.0136762179645
 31
0.0
  0
LINE
  5
53140
330
5313D
100
AcDbEntity
  8
DIMS SPECS
370
    25
100
AcDbLine
 10
209066.473689793
 20
830.0466407026904
 30
0.0
 11
209066.473689793
 21
807.0136762179645
 31
0.0
  0
LINE
  5
53141
330
5313D
100
AcDbEntity
  8
DIMS SPECS
370
    25
100
AcDbLine
 10
209038.9736897929
 20
807.0136762179645
 30
0.0
 11
209026.4736897929
 21
807.0136762179645
 31
0.0
  0
LINE
  5
53142
330
5313D
100
AcDbEntity
  8
DIMS SPECS
370
    25
100
AcDbLine
 10
209078.973689793
 20
807.0136762179645
 30
0.0
 11
209126.1213444497
 21
807.0136762179645
 31
0.0
  0
LINE
  5
53143
330
5313D
100
AcDbEntity
  8
DIMS SPECS
370
    25
100
AcDbLine
 10
209051.4736897929
 20
807.0136762179645
 30
0.0
 11
209066.473689793
 21
807.0136762179645
 31
0.0
  0
INSERT
  5
53144
330
5313D
100
AcDbEntity
  8
DIMS SPECS
370
    25
100
AcDbBlockReference
  2
FILLED-1
 10
209051.4736897929
 20
807.0136762179645
 30
0.0
 41
12.5
 42
12.5
 43
12.5
  0
INSERT
  5
53145
330
5313D
100
AcDbEntity
  8
DIMS SPECS
370
    25
100
AcDbBlockReference
  2
FILLED-1
 10
209066.473689793
 20
807.0136762179645
 30
0.0
 41
12.5
 42
12.5
 43
12.5
 50
180.0
  0
MTEXT
  5
53146
330
5313D
100
AcDbEntity
  8
DIMS SPECS
100
AcDbMText
 10
209108.7975171213
 20
823.2274763539264
 30
0.0
 40
17.0
 41
0.0
 46
0.0
 71
     5
 72
     1
  1
\A1;15
  7
ABODE-ISO
 73
     1
 44
1.0
  0
POINT
  5
53147
330
5313D
100
AcDbEntity
  8
DEFPOINTS
 62
     0
100
AcDbPoint
 10
209051.4736897929
 20
855.0466407026904
 30
0.0
  0
POINT
  5
53148
330
5313D
100
AcDbEntity
  8
DEFPOINTS
 62
     0
100
AcDbPoint
 10
209066.473689793
 20
845.0466407026905
 30
0.0
  0
POINT
  5
53149
330
5313D
100
AcDbEntity
  8
DEFPOINTS
 62
     0
100
AcDbPoint
 10
209066.473689793
 20
807.0136762179645
 30
0.0
  0
ENDBLK
  5
5314A
330
5313D
100
AcDbEntity
  8
0
100
AcDbBlockEnd
  0
BLOCK
  5
5314C
330
5314B
100
AcDbEntity
  8
0
100
AcDbBlockBegin
  2
*D66
 70
     1
 10
0.0
 20
0.0
 30
0.0
  3
*D66
  1

  0
LINE
  5
5314D
330
5314B
100
AcDbEntity
  8
DIMS SPECS
370
    25
100
AcDbLine
 10
209066.473689793
 20
830.0466407026904
 30
0.0
 11
209066.473689793
 21
781.980246774954
 31
0.0
  0
LINE
  5
5314E
330
5314B
100
AcDbEntity
  8
DIMS SPECS
370
    25
100
AcDbLine
 10
209611.4736897929
 20
830.0466407026904
 30
0.0
 11
209611.4736897929
 21
781.980246774954
 31
0.0
  0
LINE
  5
5314F
330
5314B
100
AcDbEntity
  8
DIMS SPECS
370
    25
100
AcDbLine
 10
209078.973689793
 20
781.980246774954
 30
0.0
 11
209598.973689793
 21
781.980246774954
 31
0.0
  0
INSERT
  5
53150
330
5314B
100
AcDbEntity
  8
DIMS SPECS
370
    25
100
AcDbBlockReference
  2
FILLED-1
 10
209066.473689793
 20
781.980246774954
 30
0.0
 41
12.5
 42
12.5
 43
12.5
 50
180.0
  0
INSERT
  5
53151
330
5314B
100
AcDbEntity
  8
DIMS SPECS
370
    25
100
AcDbBlockReference
  2
FILLED-1
 10
209611.4736897929
 20
781.980246774954
 30
0.0
 41
12.5
 42
12.5
 43
12.5
  0
MTEXT
  5
53152
330
5314B
100
AcDbEntity
  8
DIMS SPECS
100
AcDbMText
 10
209338.9736897929
 20
798.407847046878
 30
0.0
 40
17.0
 41
0.0
 46
0.0
 71
     5
 72
     1
  1
\A1;545
  7
ABODE-ISO
 73
     1
 44
1.0
  0
POINT
  5
53153
330
5314B
100
AcDbEntity
  8
DEFPOINTS
 62
     0
100
AcDbPoint
 10
209066.473689793
 20
845.0466407026905
 30
0.0
  0
POINT
  5
53154
330
5314B
100
AcDbEntity
  8
DEFPOINTS
 62
     0
100
AcDbPoint
 10
209611.4736897929
 20
845.0466407026905
 30
0.0
  0
POINT
  5
53155
330
5314B
100
AcDbEntity
  8
DEFPOINTS
 62
     0
100
AcDbPoint
 10
209611.4736897929
 20
781.980246774954
 30
0.0
  0
ENDBLK
  5
53156
330
5314B
100
AcDbEntity
  8
0
100
AcDbBlockEnd
  0
BLOCK
  5
53158
330
53157
100
AcDbEntity
  8
0
100
AcDbBlockBegin
  2
*D67
 70
     1
 10
0.0
 20
0.0
 30
0.0
  3
*D67
  1

  0
LINE
  5
53159
330
53157
100
AcDbEntity
  8
DIMS SPECS
370
    25
100
AcDbLine
 10
214626.4498314129
 20
840.0466407026899
 30
0.0
 11
214626.4498314129
 21
712.7487646796508
 31
0.0
  0
LINE
  5
5315A
330
53157
100
AcDbEntity
  8
DIMS SPECS
370
    25
100
AcDbLine
 10
215378.4498314129
 20
841.0466407026898
 30
0.0
 11
215378.4498314129
 21
712.7487646796508
 31
0.0
  0
LINE
  5
5315B
330
53157
100
AcDbEntity
  8
DIMS SPECS
370
    25
100
AcDbLine
 10
214638.949831413
 20
712.7487646796508
 30
0.0
 11
215365.9498314129
 21
712.7487646796508
 31
0.0
  0
INSERT
  5
5315C
330
53157
100
AcDbEntity
  8
DIMS SPECS
370
    25
100
AcDbBlockReference
  2
FILLED-1
 10
214626.4498314129
 20
712.7487646796508
 30
0.0
 41
12.5
 42
12.5
 43
12.5
 50
180.0
  0
INSERT
  5
5315D
330
53157
100
AcDbEntity
  8
DIMS SPECS
370
    25
100
AcDbBlockReference
  2
FILLED-1
 10
215378.4498314129
 20
712.7487646796508
 30
0.0
 41
12.5
 42
12.5
 43
12.5
  0
MTEXT
  5
5315E
330
53157
100
AcDbEntity
  8
DIMS SPECS
100
AcDbMText
 10
215002.4498314129
 20
729.1763649515745
 30
0.0
 40
17.0
 41
0.0
 46
0.0
 71
     5
 72
     1
  1
\A1;752
  7
ABODE-ISO
 73
     1
 44
1.0
  0
POINT
  5
5315F
330
53157
100
AcDbEntity
  8
DEFPOINTS
 62
     0
100
AcDbPoint
 10
214626.4498314129
 20
855.0466407026899
 30
0.0
  0
POINT
  5
53160
330
53157
100
AcDbEntity
  8
DEFPOINTS
 62
     0
100
AcDbPoint
 10
215378.4498314129
 20
856.0466407026899
 30
0.0
  0
POINT
  5
53161
330
53157
100
AcDbEntity
  8
DEFPOINTS
 62
     0
100
AcDbPoint
 10
215378.4498314129
 20
712.7487646796508
 30
0.0
  0
ENDBLK
  5
53162
330
53157
100
AcDbEntity
  8
0
100
AcDbBlockEnd
  0
BLOCK
  5
53164
330
53163
100
AcDbEntity
  8
0
100
AcDbBlockBegin
  2
*D68
 70
     1
 10
0.0
 20
0.0
 30
0.0
  3
*D68
  1

  0
LINE
  5
53165
330
53163
100
AcDbEntity
  8
DIMS SPECS
370
    25
100
AcDbLine
 10
214646.3119389558
 20
838.3916981621931
 30
0.0
 11
214646.3119389558
 21
807.5896609564079
 31
0.0
  0
LINE
  5
53166
330
53163
100
AcDbEntity
  8
DIMS SPECS
370
    25
100
AcDbLine
 10
214626.4498314129
 20
840.0466407026899
 30
0.0
 11
214626.4498314129
 21
807.5896609564079
 31
0.0
  0
LINE
  5
53167
330
53163
100
AcDbEntity
  8
DIMS SPECS
370
    25
100
AcDbLine
 10
214658.8119389559
 20
807.5896609564079
 30
0.0
 11
214671.3119389558
 21
807.5896609564079
 31
0.0
  0
LINE
  5
53168
330
53163
100
AcDbEntity
  8
DIMS SPECS
370
    25
100
AcDbLine
 10
214613.9498314129
 20
807.5896609564079
 30
0.0
 11
214564.1603004816
 21
807.5896609564079
 31
0.0
  0
LINE
  5
53169
330
53163
100
AcDbEntity
  8
DIMS SPECS
370
    25
100
AcDbLine
 10
214646.3119389558
 20
807.5896609564079
 30
0.0
 11
214626.4498314129
 21
807.5896609564079
 31
0.0
  0
INSERT
  5
5316A
330
53163
100
AcDbEntity
  8
DIMS SPECS
370
    25
100
AcDbBlockReference
  2
FILLED-1
 10
214646.3119389558
 20
807.5896609564079
 30
0.0
 41
12.5
 42
12.5
 43
12.5
 50
180.0
  0
INSERT
  5
5316B
330
53163
100
AcDbEntity
  8
DIMS SPECS
370
    25
100
AcDbBlockReference
  2
FILLED-1
 10
214626.4498314129
 20
807.5896609564079
 30
0.0
 41
12.5
 42
12.5
 43
12.5
  0
MTEXT
  5
5316C
330
53163
100
AcDbEntity
  8
DIMS SPECS
100
AcDbMText
 10
214582.8050659473
 20
824.0172612283318
 30
0.0
 40
17.0
 41
0.0
 46
0.0
 71
     5
 72
     1
  1
\A1;20
  7
ABODE-ISO
 73
     1
 44
1.0
  0
POINT
  5
5316D
330
53163
100
AcDbEntity
  8
DEFPOINTS
 62
     0
100
AcDbPoint
 10
214646.3119389558
 20
853.3916981621931
 30
0.0
  0
POINT
  5
5316E
330
53163
100
AcDbEntity
  8
DEFPOINTS
 62
     0
100
AcDbPoint
 10
214626.4498314129
 20
855.0466407026899
 30
0.0
  0
POINT
  5
5316F
330
53163
100
AcDbEntity
  8
DEFPOINTS
 62
     0
100
AcDbPoint
 10
214626.4498314129
 20
807.5896609564079
 30
0.0
  0
ENDBLK
  5
53170
330
53163
100
AcDbEntity
  8
0
100
AcDbBlockEnd
  0
BLOCK
  5
53172
330
53171
100
AcDbEntity
  8
0
100
AcDbBlockBegin
  2
*D69
 70
     1
 10
0.0
 20
0.0
 30
0.0
  3
*D69
  1

  0
LINE
  5
53173
330
53171
100
AcDbEntity
  8
DIMS SPECS
370
    25
100
AcDbLine
 10
210026.473689793
 20
845.0466407026905
 30
0.0
 11
210104.4583698547
 21
845.0466407026905
 31
0.0
  0
LINE
  5
53174
330
53171
100
AcDbEntity
  8
DIMS SPECS
370
    25
100
AcDbLine
 10
210026.473689793
 20
1315.04664070269
 30
0.0
 11
210104.4583698547
 21
1315.04664070269
 31
0.0
  0
LINE
  5
53175
330
53171
100
AcDbEntity
  8
DIMS SPECS
370
    25
100
AcDbLine
 10
210104.4583698547
 20
857.5466407026905
 30
0.0
 11
210104.4583698547
 21
1063.619040430766
 31
0.0
  0
LINE
  5
53176
330
53171
100
AcDbEntity
  8
DIMS SPECS
370
    25
100
AcDbLine
 10
210104.4583698547
 20
1302.54664070269
 30
0.0
 11
210104.4583698547
 21
1096.474240974614
 31
0.0
  0
INSERT
  5
53177
330
53171
100
AcDbEntity
  8
DIMS SPECS
370
    25
100
AcDbBlockReference
  2
FILLED-1
 10
210104.4583698547
 20
845.0466407026905
 30
0.0
 41
12.5
 42
12.5
 43
12.5
 50
270.0
  0
INSERT
  5
53178
330
53171
100
AcDbEntity
  8
DIMS SPECS
370
    25
100
AcDbBlockReference
  2
FILLED-1
 10
210104.4583698547
 20
1315.04664070269
 30
0.0
 41
12.5
 42
12.5
 43
12.5
 50
90.0
  0
MTEXT
  5
53179
330
53171
100
AcDbEntity
  8
DIMS SPECS
100
AcDbMText
 10
210104.4583698547
 20
1080.046640702724
 30
0.0
 40
17.0
 41
0.0
 46
0.0
 71
     5
 72
     1
  1
\A1;470
  7
ABODE-ISO
 73
     1
 44
1.0
  0
POINT
  5
5317A
330
53171
100
AcDbEntity
  8
DEFPOINTS
 62
     0
100
AcDbPoint
 10
210011.473689793
 20
845.0466407026905
 30
0.0
  0
POINT
  5
5317B
330
53171
100
AcDbEntity
  8
DEFPOINTS
 62
     0
100
AcDbPoint
 10
210011.473689793
 20
1315.04664070269
 30
0.0
  0
POINT
  5
5317C
330
53171
100
AcDbEntity
  8
DEFPOINTS
 62
     0
100
AcDbPoint
 10
210104.4583698547
 20
1315.04664070269
 30
0.0
  0
ENDBLK
  5
5317D
330
53171
100
AcDbEntity
  8
0
100
AcDbBlockEnd
  0
BLOCK
  5
5317F
330
5317E
100
AcDbEntity
  8
0
100
AcDbBlockBegin
  2
*D70
 70
     1
 10
0.0
 20
0.0
 30
0.0
  3
*D70
  1

  0
LINE
  5
53180
330
5317E
100
AcDbEntity
  8
DIMS SPECS
370
    25
100
AcDbLine
 10
210109.7608908176
 20
796.5939714110718
 30
0.0
 11
210068.3533449305
 21
796.5939714110573
 31
0.0
  0
LINE
  5
53181
330
5317E
100
AcDbEntity
  8
DIMS SPECS
370
    25
100
AcDbLine
 10
210068.3533449305
 20
796.5939714110573
 30
0.0
 11
210027.1651382746
 21
838.9212432019119
 31
0.0
  0
MTEXT
  5
53182
330
5317E
100
AcDbEntity
  8
DIMS SPECS
100
AcDbMText
 10
210092.807117874
 20
813.0215716829665
 30
0.0
 40
17.0
 41
0.0
 46
0.0
 71
     5
 72
     1
  1
\A1;R10
  7
ABODE-ISO
 73
     1
 44
1.0
  0
LINE
  5
53183
330
5317E
100
AcDbEntity
  8
DIMS SPECS
370
    25
100
AcDbLine
 10
210011.4736897931
 20
855.0466407026688
 30
0.0
 11
210018.447666896
 21
847.8797973689506
 31
0.0
  0
INSERT
  5
53184
330
5317E
100
AcDbEntity
  8
DIMS SPECS
370
    25
100
AcDbBlockReference
  2
FILLED-1
 10
210018.447666896
 20
847.8797973689506
 30
0.0
 41
12.5
 42
12.5
 43
12.5
 50
134.2185930120052
  0
POINT
  5
53185
330
5317E
100
AcDbEntity
  8
DEFPOINTS
 62
     0
100
AcDbPoint
 10
210018.447666896
 20
847.8797973689506
 30
0.0
  0
POINT
  5
53186
330
5317E
100
AcDbEntity
  8
DEFPOINTS
 62
     0
100
AcDbPoint
 10
210011.4736897931
 20
855.0466407026688
 30
0.0
  0
ENDBLK
  5
53187
330
5317E
100
AcDbEntity
  8
0
100
AcDbBlockEnd
  0
BLOCK
  5
531D4
330
53188
100
AcDbEntity
  8
0
100
AcDbBlockBegin
  2
A$C5F5F1E98
 70
     0
 10
0.0
 20
0.0
 30
0.0
  3
A$C5F5F1E98
  1

  0
LINE
  5
53189
330
53188
100
AcDbEntity
  8
CUTOUT
100
AcDbLine
 10
-5357.011676909635
 20
384.4844183816384
 30
0.0
 11
-4407.011676909518
 21
384.4844183816384
 31
0.0
  0
ARC
  5
5318A
102
{ACAD_REACTORS
330
531C4
102
}
330
53188
100
AcDbEntity
  8
CUTOUT
100
AcDbCircle
 10
-5357.011676909635
 20
394.4844183816384
 30
0.0
 40
10.0
100
AcDbArc
 50
180.0
 51
270.0
  0
LINE
  5
5318B
330
53188
100
AcDbEntity
  8
CUTOUT
100
AcDbLine
 10
-5357.011676909577
 20
854.4844183816385
 30
0.0
 11
-4407.01167690946
 21
854.4844183816385
 31
0.0
  0
ARC
  5
5318C
330
53188
100
AcDbEntity
  8
CUTOUT
100
AcDbCircle
 10
-4407.011676909518
 20
844.4844183816385
 30
0.0
 40
10.0
100
AcDbArc
 50
0.0
 51
90.0
  0
MTEXT
  5
5318D
102
{ACAD_XDICTIONARY
360
53308
102
}
330
53188
100
AcDbEntity
  8
CUTOUT
100
AcDbMText
 10
290.6932775102905
 20
921.336743309182
 30
0.0
 40
40.0
 41
559.4757407245922
 46
0.0
 71
     1
 72
     5
  1
\pi107.74;INSET CUT OUT
 73
     1
 44
1.0
  0
LINE
  5
5318E
330
53188
100
AcDbEntity
  8
CUTOUT
100
AcDbLine
 10
217.9644647103851
 20
844.4844183816377
 30
0.0
 11
948.964464710356
 21
844.4844183816377
 31
0.0
  0
ARC
  5
5318F
330
53188
100
AcDbEntity
  8
CUTOUT
100
AcDbCircle
 10
217.9644647103851
 20
834.4844183816375
 30
0.0
 40
10.0
100
AcDbArc
 50
90.0
 51
180.0
  0
ARC
  5
53190
102
{ACAD_REACTORS
330
5319A
102
}
330
53188
100
AcDbEntity
  8
CUTOUT
100
AcDbCircle
 10
948.964464710356
 20
833.4844183816375
 30
0.0
 40
11.0
100
AcDbArc
 50
0.0
 51
90.0
  0
LINE
  5
53191
330
53188
100
AcDbEntity
  8
CUTOUT
100
AcDbLine
 10
959.9644647103559
 20
833.4844183816375
 30
0.0
 11
959.9644647103559
 21
395.4844183816376
 31
0.0
  0
LINE
  5
53192
330
53188
100
AcDbEntity
  8
CUTOUT
100
AcDbLine
 10
948.964464710356
 20
384.4844183816377
 30
0.0
 11
217.9644647103851
 21
384.4844183816377
 31
0.0
  0
ARC
  5
53193
102
{ACAD_REACTORS
330
5319A
330
531CA
102
}
330
53188
100
AcDbEntity
  8
CUTOUT
100
AcDbCircle
 10
948.964464710356
 20
395.4844183816376
 30
0.0
 40
11.0
100
AcDbArc
 50
270.0
 51
0.0
  0
LINE
  5
53194
102
{ACAD_REACTORS
330
531CA
102
}
330
53188
100
AcDbEntity
  8
CUTOUT
100
AcDbLine
 10
207.964464710385
 20
394.4844183816376
 30
0.0
 11
207.964464710385
 21
834.4844183816375
 31
0.0
  0
ARC
  5
53195
330
53188
100
AcDbEntity
  8
CUTOUT
100
AcDbCircle
 10
217.9644647103851
 20
394.4844183816376
 30
0.0
 40
10.0
100
AcDbArc
 50
180.0
 51
270.0
  0
LINE
  5
53196
330
53188
100
AcDbEntity
  8
CUTOUT
  6
DASHED2
 48
5.0
100
AcDbLine
 10
227.8265722532524
 20
384.4844183816377
 30
0.0
 11
227.8265722532524
 21
844.4844183816377
 31
0.0
  0
LINE
  5
53197
330
53188
100
AcDbEntity
  8
CUTOUT
  6
DASHED2
 48
5.0
100
AcDbLine
 10
617.8265722532524
 20
384.4844183816377
 30
0.0
 11
617.8265722532524
 21
844.4844183816377
 31
0.0
  0
DIMENSION
  5
53198
102
{ACAD_XDICTIONARY
360
53199
102
}
102
{ACAD_REACTORS
330
5319A
102
}
330
53188
100
AcDbEntity
  8
DIMS SPECS
100
AcDbDimension
  2
*D58
 10
1023.571011546563
 20
844.4844183816377
 30
0.0
 11
1023.571011546563
 21
614.4844183816721
 31
0.0
 12
-214418.4853667026
 22
-460.5622223210521
 32
0.0
 71
     5
 42
459.9999999999996
 73
     0
 74
     0
 75
     0
  3
abode-iso$0
100
AcDbAlignedDimension
 13
948.964464710356
 23
384.4844183816377
 33
0.0
 14
948.964464710356
 24
844.4844183816377
 34
0.0
 50
90.0
100
AcDbRotatedDimension
1001
ACAD_DSTYLE_DIMINSPECT
1070
   396
1000
100%
1070
   395
1000

1070
   394
1070
    33
1070
   393
1070
     0
  0
ARC
  5
5319B
330
53188
100
AcDbEntity
  8
CUTOUT
100
AcDbCircle
 10
-1444.053697177762
 20
823.4844183816376
 30
0.0
 40
11.0
100
AcDbArc
 50
0.0
 51
90.0
  0
LINE
  5
5319C
330
53188
100
AcDbEntity
  8
CUTOUT
100
AcDbLine
 10
-1433.053697177762
 20
823.4844183816376
 30
0.0
 11
-1433.053697177762
 21
395.4844183816376
 31
0.0
  0
ARC
  5
5319D
102
{ACAD_REACTORS
330
531AA
330
531AD
102
}
330
53188
100
AcDbEntity
  8
CUTOUT
100
AcDbCircle
 10
-1444.053697177762
 20
395.4844183816376
 30
0.0
 40
11.0
100
AcDbArc
 50
270.0
 51
0.0
  0
LINE
  5
5319E
102
{ACAD_REACTORS
330
531AA
102
}
330
53188
100
AcDbEntity
  8
CUTOUT
100
AcDbLine
 10
-1444.053697177762
 20
834.4844183816375
 30
0.0
 11
-2344.053697177762
 21
834.4844183816375
 31
0.0
  0
LINE
  5
5319F
330
53188
100
AcDbEntity
  8
CUTOUT
100
AcDbLine
 10
-2355.053697177762
 20
823.4844183816376
 30
0.0
 11
-2355.053697177762
 21
395.4844183816376
 31
0.0
  0
LINE
  5
531A0
102
{ACAD_REACTORS
330
531B0
102
}
330
53188
100
AcDbEntity
  8
CUTOUT
  6
DASHED2
 48
5.0
100
AcDbLine
 10
-2335.191589634865
 20
834.4844183816375
 30
0.0
 11
-2335.191589634895
 21
384.4844183816385
 31
0.0
  0
LINE
  5
531A1
102
{ACAD_REACTORS
330
531B0
102
}
330
53188
100
AcDbEntity
  8
CUTOUT
  6
DASHED2
 48
5.0
100
AcDbLine
 10
-1785.473445768235
 20
834.4844183816375
 30
0.0
 11
-1785.473445768235
 21
384.8556721597288
 31
0.0
  0
ARC
  5
531A2
102
{ACAD_REACTORS
330
531AD
102
}
330
53188
100
AcDbEntity
  8
CUTOUT
100
AcDbCircle
 10
-2344.053697177762
 20
395.4844183816376
 30
0.0
 40
11.0
100
AcDbArc
 50
180.0
 51
270.0
  0
ARC
  5
531A3
102
{ACAD_REACTORS
330
531B3
102
}
330
53188
100
AcDbEntity
  8
CUTOUT
100
AcDbCircle
 10
-2344.053697177762
 20
823.4844183816376
 30
0.0
 40
11.0
100
AcDbArc
 50
90.0
 51
180.0
  0
LINE
  5
531A4
330
53188
100
AcDbEntity
  8
CUTOUT
100
AcDbLine
 10
-2344.053697177762
 20
384.4844183816377
 30
0.0
 11
-1444.053697177762
 21
384.4844183816377
 31
0.0
  0
MTEXT
  5
531A5
102
{ACAD_XDICTIONARY
360
5330A
102
}
330
53188
100
AcDbEntity
  8
CUTOUT
100
AcDbMText
 10
-2161.61287021765
 20
921.336743309182
 30
0.0
 40
40.0
 41
559.4757407245922
 46
0.0
 71
     1
 72
     5
  1
\pi107.74;INSET CUT OUT
 73
     1
 44
1.0
  0
DIMENSION
  5
531A6
330
53188
100
AcDbEntity
  8
DIMS SPECS
100
AcDbDimension
  2
*D56
 10
945.4995584264397
 20
395.4844183816313
 30
0.0
 11
1043.000445455895
 21
333.2548021615512
 31
0.0
 12
-214418.4853667026
 22
-460.5622223210521
 32
0.0
 70
   132
  1
R10
 71
     5
 42
10.99999999997089
 73
     0
 74
     0
 75
     0
  3
abode-iso$4
100
AcDbRadialDimension
 15
953.8729908160746
 25
388.3510019479873
 35
0.0
 40
0.0
1001
ACAD_DSTYLE_DIMINSPECT
1070
   396
1000
100%
1070
   395
1000

1070
   394
1070
    33
1070
   393
1070
     0
1001
ACAD_DSTYLE_DIMRADIAL_EXTENSION
1070
   387
1070
     1
1070
   388
1040
4.712388980384688
1070
   390
1040
0.0
  0
DIMENSION
  5
531A7
330
53188
100
AcDbEntity
  8
DIMS SPECS
100
AcDbDimension
  2
*D57
 10
-1444.053697177762
 20
395.4844183816604
 30
0.0
 11
-1368.214242525573
 21
349.6944402052904
 31
0.0
 12
-214418.4853667026
 22
-460.5622223210521
 32
0.0
 70
   132
  1
R10
 71
     5
 42
11.0000000000582
 73
     0
 74
     0
 75
     0
  3
abode-iso$4
100
AcDbRadialDimension
 15
-1435.841233320767
 25
388.1662603211589
 35
0.0
 40
0.0
1001
ACAD_DSTYLE_DIMINSPECT
1070
   396
1000
100%
1070
   395
1000

1070
   394
1070
    33
1070
   393
1070
     0
1001
ACAD_DSTYLE_DIMRADIAL_EXTENSION
1070
   387
1070
     1
1070
   388
1040
4.712388980384688
1070
   390
1040
0.0
  0
DIMENSION
  5
531A8
102
{ACAD_XDICTIONARY
360
531A9
102
}
102
{ACAD_REACTORS
330
531AA
102
}
330
53188
100
AcDbEntity
  8
DIMS SPECS
100
AcDbDimension
  2
*D59
 10
-1392.0432602051
 20
834.4844183816375
 30
0.0
 11
-1392.0432602051
 21
609.4844183816719
 31
0.0
 12
-214418.4853667026
 22
-460.5622223210521
 32
0.0
 71
     5
 42
449.9999999999998
 73
     0
 74
     0
 75
     0
  3
abode-iso$0
100
AcDbAlignedDimension
 13
-1444.053697177762
 23
384.4844183816377
 33
0.0
 14
-1444.053697177762
 24
834.4844183816375
 34
0.0
 50
90.0
100
AcDbRotatedDimension
1001
ACAD_DSTYLE_DIMINSPECT
1070
   396
1000
100%
1070
   395
1000

1070
   394
1070
    33
1070
   393
1070
     0
  0
DIMENSION
  5
531AB
102
{ACAD_XDICTIONARY
360
531AC
102
}
102
{ACAD_REACTORS
330
531AD
102
}
330
53188
100
AcDbEntity
  8
DIMS SPECS
100
AcDbDimension
  2
*D60
 10
-1433.053697177762
 20
260.4342717668042
 30
0.0
 11
-1894.053697177791
 21
260.4342717668042
 31
0.0
 12
-214418.4853667026
 22
-460.5622223210521
 32
0.0
 70
   128
 71
     5
 42
922.0
 73
     0
 74
     0
 75
     0
  3
abode-iso$0
100
AcDbAlignedDimension
 13
-2355.053697177762
 23
395.4844183816376
 33
0.0
 14
-1433.053697177762
 24
395.4844183816376
 34
0.0
100
AcDbRotatedDimension
1001
ACAD_DSTYLE_DIMINSPECT
1070
   396
1000
100%
1070
   395
1000

1070
   394
1070
    33
1070
   393
1070
     0
  0
DIMENSION
  5
531AE
102
{ACAD_XDICTIONARY
360
531AF
102
}
102
{ACAD_REACTORS
330
531B0
102
}
330
53188
100
AcDbEntity
  8
DIMS SPECS
100
AcDbDimension
  2
*D61
 10
-1785.473445768235
 20
299.1882012204442
 30
0.0
 11
-2060.33251770158
 21
299.1882012204442
 31
0.0
 12
-214418.4853667026
 22
-460.5622223210521
 32
0.0
 70
   128
 71
     5
 42
549.7181438666594
 73
     0
 74
     0
 75
     0
  3
abode-iso$0
100
AcDbAlignedDimension
 13
-2335.191589634895
 23
384.4844183816385
 33
0.0
 14
-1785.473445768235
 24
384.8556721597288
 34
0.0
100
AcDbRotatedDimension
  0
DIMENSION
  5
531B1
102
{ACAD_XDICTIONARY
360
531B2
102
}
102
{ACAD_REACTORS
330
531B3
102
}
330
53188
100
AcDbEntity
  8
DIMS SPECS
100
AcDbDimension
  2
*D62
 10
-2335.191589634895
 20
323.313216510549
 30
0.0
 11
-2291.546824169229
 21
323.313216510549
 31
0.0
 12
-214418.4853667026
 22
-460.5622223210521
 32
0.0
 70
   128
 71
     5
 42
19.8621075428673
 73
     0
 74
     0
 75
     0
  3
abode-iso$0
100
AcDbAlignedDimension
 13
-2355.053697177762
 23
823.4844183816376
 33
0.0
 14
-2335.191589634895
 24
384.4844183816385
 34
0.0
100
AcDbRotatedDimension
  0
DIMENSION
  5
531B4
330
53188
100
AcDbEntity
  8
DIMS SPECS
100
AcDbDimension
  2
*D63
 10
617.8265722532524
 20
316.7291468195835
 30
0.0
 11
422.8265722532523
 21
316.7291468195835
 31
0.0
 12
-214418.4853667026
 22
-460.5622223210521
 32
0.0
 70
   128
 71
     5
 42
390.0
 73
     0
 74
     0
 75
     0
  3
abode-iso$0
100
AcDbAlignedDimension
 13
227.8265722532524
 23
384.4844183816385
 33
0.0
 14
617.8265722532524
 24
384.4844183816385
 34
0.0
100
AcDbRotatedDimension
  0
LINE
  5
531B5
330
53188
100
AcDbEntity
  8
CUTOUT
100
AcDbLine
 10
-4397.011676909605
 20
844.4844183816385
 30
0.0
 11
-4397.011676909605
 21
394.4844183816384
 31
0.0
  0
ARC
  5
531B6
330
53188
100
AcDbEntity
  8
CUTOUT
100
AcDbCircle
 10
-4407.011676909606
 20
394.4844183816384
 30
0.0
 40
10.0
100
AcDbArc
 50
270.0
 51
0.0
  0
LINE
  5
531B7
330
53188
100
AcDbEntity
  8
CUTOUT
100
AcDbLine
 10
-5367.011676909606
 20
844.4844183816385
 30
0.0
 11
-5367.011676909606
 21
394.4844183816384
 31
0.0
  0
LINE
  5
531B8
102
{ACAD_REACTORS
330
531C4
330
531C7
102
}
330
53188
100
AcDbEntity
  8
CUTOUT
  6
DASHED2
 48
5.0
100
AcDbLine
 10
-5352.011676909635
 20
854.4844183816385
 30
0.0
 11
-5352.011676909604
 21
384.4844183816384
 31
0.0
  0
LINE
  5
531B9
102
{ACAD_REACTORS
330
531C7
102
}
330
53188
100
AcDbEntity
  8
CUTOUT
  6
DASHED2
 48
5.0
100
AcDbLine
 10
-4807.011676909635
 20
854.4844183816385
 30
0.0
 11
-4807.011676909606
 21
384.4844183816384
 31
0.0
  0
ARC
  5
531BA
330
53188
100
AcDbEntity
  8
CUTOUT
100
AcDbCircle
 10
-5357.011676909606
 20
844.4844183816385
 30
0.0
 40
10.0
100
AcDbArc
 50
90.0
 51
180.0
  0
DIMENSION
  5
531BB
330
53188
100
AcDbEntity
  8
DIMS SPECS
100
AcDbDimension
  2
*D69
 10
-4314.026996847824
 20
854.4844183816381
 30
0.0
 11
-4314.026996847824
 21
619.4844183816719
 31
0.0
 12
-214418.4853667026
 22
-460.5622223210521
 32
0.0
 70
    32
 71
     5
 42
470.0
 73
     0
 74
     0
 75
     0
  3
abode-iso$0
100
AcDbAlignedDimension
 13
-4407.011676909606
 23
384.4844183816384
 33
0.0
 14
-4407.011676909606
 24
854.4844183816381
 34
0.0
 50
90.0
100
AcDbRotatedDimension
  0
DIMENSION
  5
531BC
330
53188
100
AcDbEntity
  8
DIMS SPECS
100
AcDbDimension
  2
*D64
 10
-4397.011676909605
 20
272.1783846457038
 30
0.0
 11
-4882.011676909606
 21
272.1783846457038
 31
0.0
 12
-214418.4853667026
 22
-460.5622223210521
 32
0.0
 70
   128
 71
     5
 42
970.0
 73
     0
 74
     0
 75
     0
  3
abode-iso$0
100
AcDbAlignedDimension
 13
-5367.011676909606
 23
394.4844183816384
 33
0.0
 14
-4397.011676909605
 24
394.4844183816384
 34
0.0
100
AcDbRotatedDimension
  0
DIMENSION
  5
531BD
330
53188
100
AcDbEntity
  8
DIMS SPECS
100
AcDbDimension
  2
*D70
 10
-4407.01167690949
 20
394.4844183816167
 30
0.0
 11
-4325.678248828508
 21
336.0317490899906
 31
0.0
 12
-214418.4853667026
 22
-460.5622223210521
 32
0.0
 70
   164
 71
     5
 42
10.00000000011641
 73
     0
 74
     0
 75
     0
  3
abode-iso$4
100
AcDbRadialDimension
 15
-4400.037699806563
 25
387.3175750478986
 35
0.0
 40
0.0
1001
ACAD_DSTYLE_DIMRADIAL_EXTENSION
1070
   387
1070
     1
1070
   388
1040
4.712388980384688
1070
   390
1040
0.0
  0
MTEXT
  5
531BE
102
{ACAD_XDICTIONARY
360
5330C
102
}
330
53188
100
AcDbEntity
  8
CUTOUT
100
AcDbMText
 10
-5155.443505153409
 20
938.8537070822303
 30
0.0
 40
40.0
 41
559.4757407245922
 46
0.0
 71
     1
 72
     5
  1
\pi107.74;INSET CUT OUT
 73
     1
 44
1.0
  0
MTEXT
  5
531BF
102
{ACAD_XDICTIONARY
360
5330E
102
}
330
53188
100
AcDbEntity
  8
CUTOUT
  6
DASHED2
 48
5.0
100
AcDbMText
 10
-5335.26458456798
 20
722.264439837767
 30
0.0
 40
40.0
 41
559.4757407245922
 46
0.0
 71
     1
 72
     5
  1
\pi178.74;BOWL(S), \P\pi148.74;OVERFLOW,\P\pi161.74;TAP AREA
 73
     1
 44
1.0
  0
LWPOLYLINE
  5
531C0
330
53188
100
AcDbEntity
  8
CUTOUT
  6
DASHED2
 48
5.0
100
AcDbPolyline
 90
        8
 70
     1
 43
0.0
 10
-4930.652804950136
 20
734.2498014320502
 10
-5183.813078973006
 20
734.2498014320497
 42
0.4142135623730951
 10
-5203.813078973006
 20
714.2498014320497
 10
-5203.813078973006
 20
546.2918466991744
 42
0.4142135623730951
 10
-5183.813078973006
 20
526.2918466991743
 10
-4930.652804950136
 20
526.2918466991743
 42
0.4142135623730951
 10
-4910.652804950135
 20
546.2918466991744
 10
-4910.652804950135
 20
714.2498014320502
 42
0.4142135623730951
1001
GENIUS_GENREC_14
1002
{
1000
PYDIR
1011
-4910.652804950135
1021
526.2918466991743
1031
0.0
1002
}
1002
{
1000
PXDIR
1011
-5203.813078973006
1021
734.2498014320502
1031
0.0
1002
}
1002
{
1000
PORI
1011
-4910.652804950135
1021
734.2498014320502
1031
0.0
1002
}
1002
{
1000
PINS
1011
-4910.652804950135
1021
734.2498014320502
1031
0.0
1002
}
1002
{
1000
PINS2
1011
-5203.813078973006
1021
526.2918466991743
1031
0.0
1002
}
1002
{
1000
C
1070
     1
1002
}
1001
GENIUS_GENOBJ-N-REC_13
1002
{
1000
OWNER
1000
GEN
1002
}
1001
GENIUS_GENODEF_13
1002
{
1000
HIER
1070
     0
1002
}
1002
{
1000
MANEDIT
1070
     0
1002
}
1002
{
1000
NOSEL
1070
     0
1002
}
1002
{
1000
BEHIND
1070
     0
1002
}
1002
{
1000
OTHER
1070
     0
1002
}
1002
{
1000
REACTOR
1002
}
  0
LINE
  5
531C1
330
53188
100
AcDbEntity
  8
sink_brouchure
100
AcDbLine
 10
-4915.977668323816
 20
623.4844183816385
 30
0.0
 11
-4915.977668323816
 21
623.4844183816385
 31
0.0
  0
DIMENSION
  5
531C2
102
{ACAD_XDICTIONARY
360
531C3
102
}
102
{ACAD_REACTORS
330
531C4
102
}
330
53188
100
AcDbEntity
  8
DIMS SPECS
100
AcDbDimension
  2
*D65
 10
-5352.011676909604
 20
346.4514538969124
 30
0.0
 11
-5309.687849581271
 21
362.6652540328744
 31
0.0
 12
-214418.4853667026
 22
-460.5622223210521
 32
0.0
 71
     5
 42
15.0000000000291
 73
     0
 74
     0
 75
     0
  3
abode-iso$0
100
AcDbAlignedDimension
 13
-5367.011676909635
 23
394.4844183816384
 33
0.0
 14
-5352.011676909604
 24
384.4844183816384
 34
0.0
100
AcDbRotatedDimension
1001
ACAD_DSTYLE_DIMINSPECT
1070
   396
1000
100%
1070
   395
1000

1070
   394
1070
    33
1070
   393
1070
     0
  0
DIMENSION
  5
531C5
102
{ACAD_XDICTIONARY
360
531C6
102
}
102
{ACAD_REACTORS
330
531C7
102
}
330
53188
100
AcDbEntity
  8
DIMS SPECS
100
AcDbDimension
  2
*D66
 10
-4807.011676909606
 20
321.418024453902
 30
0.0
 11
-5079.511676909606
 21
321.418024453902
 31
0.0
 12
-214418.4853667026
 22
-460.5622223210521
 32
0.0
 70
   128
 71
     5
 42
545.0
 73
     0
 74
     0
 75
     0
  3
abode-iso$0
100
AcDbAlignedDimension
 13
-5352.011676909604
 23
384.4844183816384
 33
0.0
 14
-4807.011676909606
 24
384.4844183816384
 34
0.0
100
AcDbRotatedDimension
1001
ACAD_DSTYLE_DIMINSPECT
1070
   396
1000
100%
1070
   395
1000

1070
   394
1070
    33
1070
   393
1070
     0
  0
DIMENSION
  5
531C8
102
{ACAD_XDICTIONARY
360
531C9
102
}
102
{ACAD_REACTORS
330
531CA
102
}
330
53188
100
AcDbEntity
  8
DIMS SPECS
100
AcDbDimension
  2
*D67
 10
959.9644647103559
 20
252.1865423585987
 30
0.0
 11
583.9644647103853
 21
268.6141426305226
 31
0.0
 12
-214418.4853667026
 22
-460.5622223210521
 32
0.0
 71
     5
 42
751.9999999999709
 73
     0
 74
     0
 75
     0
  3
abode-iso$0
100
AcDbAlignedDimension
 13
207.964464710385
 23
394.4844183816376
 33
0.0
 14
959.9644647103559
 24
395.4844183816376
 34
0.0
100
AcDbRotatedDimension
1001
ACAD_DSTYLE_DIMINSPECT
1070
   396
1000
100%
1070
   395
1000

1070
   394
1070
    33
1070
   393
1070
     0
  0
MTEXT
  5
531CB
102
{ACAD_XDICTIONARY
360
53310
102
}
330
53188
100
AcDbEntity
  8
CUTOUT
  6
DASHED2
 48
5.0
100
AcDbMText
 10
-2327.399015109171
 20
722.264439837767
 30
0.0
 40
40.0
 41
559.4757407245922
 46
0.0
 71
     1
 72
     5
  1
\pi178.74;BOWL(S), \P\pi148.74;OVERFLOW,\P\pi161.74;TAP AREA
 73
     1
 44
1.0
  0
LWPOLYLINE
  5
531CC
330
53188
100
AcDbEntity
  8
CUTOUT
  6
DASHED2
 48
5.0
100
AcDbPolyline
 90
        8
 70
     1
 43
0.0
 10
-1922.787235491327
 20
734.2498014320502
 10
-2175.947509514197
 20
734.2498014320497
 42
0.4142135623730951
 10
-2195.947509514197
 20
714.2498014320497
 10
-2195.947509514197
 20
546.2918466991744
 42
0.4142135623730951
 10
-2175.947509514197
 20
526.2918466991743
 10
-1922.787235491327
 20
526.2918466991743
 42
0.4142135623730951
 10
-1902.787235491327
 20
546.2918466991744
 10
-1902.787235491327
 20
714.2498014320502
 42
0.4142135623730951
1001
GENIUS_GENREC_14
1002
{
1000
PYDIR
1011
-1902.787235491327
1021
526.2918466991743
1031
0.0
1002
}
1002
{
1000
PXDIR
1011
-2195.947509514197
1021
734.2498014320502
1031
0.0
1002
}
1002
{
1000
PORI
1011
-1902.787235491327
1021
734.2498014320502
1031
0.0
1002
}
1002
{
1000
PINS
1011
-1902.787235491327
1021
734.2498014320502
1031
0.0
1002
}
1002
{
1000
PINS2
1011
-2195.947509514197
1021
526.2918466991743
1031
0.0
1002
}
1002
{
1000
C
1070
     1
1002
}
1001
GENIUS_GENOBJ-N-REC_13
1002
{
1000
OWNER
1000
GEN
1002
}
1001
GENIUS_GENODEF_13
1002
{
1000
HIER
1070
     0
1002
}
1002
{
1000
MANEDIT
1070
     0
1002
}
1002
{
1000
NOSEL
1070
     0
1002
}
1002
{
1000
BEHIND
1070
     0
1002
}
1002
{
1000
OTHER
1070
     0
1002
}
1002
{
1000
REACTOR
1002
}
  0
LINE
  5
531CD
330
53188
100
AcDbEntity
  8
sink_brouchure
100
AcDbLine
 10
-1908.112098865007
 20
623.4844183816385
 30
0.0
 11
-1908.112098865007
 21
623.4844183816385
 31
0.0
  0
MTEXT
  5
531CE
102
{ACAD_XDICTIONARY
360
53312
102
}
330
53188
100
AcDbEntity
  8
CUTOUT
  6
DASHED2
 48
5.0
100
AcDbMText
 10
145.8126315103145
 20
722.264439837767
 30
0.0
 40
40.0
 41
559.4757407245922
 46
0.0
 71
     1
 72
     5
  1
\pi178.74;BOWL(S), \P\pi148.74;OVERFLOW,\P\pi161.74;TAP AREA
 73
     1
 44
1.0
  0
LWPOLYLINE
  5
531CF
330
53188
100
AcDbEntity
  8
CUTOUT
  6
DASHED2
 48
5.0
100
AcDbPolyline
 90
        8
 70
     1
 43
0.0
 10
550.4244111281586
 20
734.2498014320502
 10
297.2641371052887
 20
734.2498014320497
 42
0.4142135623730951
 10
277.2641371052887
 20
714.2498014320497
 10
277.2641371052887
 20
546.2918466991744
 42
0.4142135623730951
 10
297.2641371052887
 20
526.2918466991743
 10
550.4244111281586
 20
526.2918466991743
 42
0.4142135623730951
 10
570.4244111281586
 20
546.2918466991744
 10
570.4244111281586
 20
714.2498014320502
 42
0.4142135623730951
1001
GENIUS_GENREC_14
1002
{
1000
PYDIR
1011
570.4244111281586
1021
526.2918466991743
1031
0.0
1002
}
1002
{
1000
PXDIR
1011
277.2641371052887
1021
734.2498014320502
1031
0.0
1002
}
1002
{
1000
PORI
1011
570.4244111281586
1021
734.2498014320502
1031
0.0
1002
}
1002
{
1000
PINS
1011
570.4244111281586
1021
734.2498014320502
1031
0.0
1002
}
1002
{
1000
PINS2
1011
277.2641371052887
1021
526.2918466991743
1031
0.0
1002
}
1002
{
1000
C
1070
     1
1002
}
1001
GENIUS_GENOBJ-N-REC_13
1002
{
1000
OWNER
1000
GEN
1002
}
1001
GENIUS_GENODEF_13
1002
{
1000
HIER
1070
     0
1002
}
1002
{
1000
MANEDIT
1070
     0
1002
}
1002
{
1000
NOSEL
1070
     0
1002
}
1002
{
1000
BEHIND
1070
     0
1002
}
1002
{
1000
OTHER
1070
     0
1002
}
1002
{
1000
REACTOR
1002
}
  0
LINE
  5
531D0
330
53188
100
AcDbEntity
  8
sink_brouchure
100
AcDbLine
 10
565.0995477544784
 20
623.4844183816385
 30
0.0
 11
565.0995477544784
 21
623.4844183816385
 31
0.0
  0
DIMENSION
  5
531D1
330
53188
100
AcDbEntity
  8
DIMS SPECS
100
AcDbDimension
  2
*D68
 10
207.964464710385
 20
347.0274386353559
 30
0.0
 11
164.3196992447192
 21
363.4550389072797
 31
0.0
 12
-214418.4853667026
 22
-460.5622223210521
 32
0.0
 71
     5
 42
19.86210754289641
 73
     0
 74
     0
 75
     0
  3
abode-iso$0
100
AcDbAlignedDimension
 13
227.8265722532815
 23
392.8294758411411
 33
0.0
 14
207.964464710385
 24
394.4844183816376
 34
0.0
100
AcDbRotatedDimension
  0
ENDBLK
  5
531D5
330
53188
100
AcDbEntity
  8
0
100
AcDbBlockEnd
  0
BLOCK
  5
531D7
330
531D6
100
AcDbEntity
  8
0
100
AcDbBlockBegin
  2
*D72
 70
     1
 10
0.0
 20
0.0
 30
0.0
  3
*D72
  1

  0
LINE
  5
531D8
330
531D6
100
AcDbEntity
  8
DIMS SPECS
370
    25
100
AcDbLine
 10
215478.439585102
 20
793.8170244825887
 30
0.0
 11
215437.0320392148
 21
793.8170244826033
 31
0.0
  0
LINE
  5
531D9
330
531D6
100
AcDbEntity
  8
DIMS SPECS
370
    25
100
AcDbLine
 10
215437.0320392148
 20
793.8170244826033
 30
0.0
 11
215381.8736215978
 21
840.8070692307665
 31
0.0
  0
MTEXT
  5
531DA
330
531D6
100
AcDbEntity
  8
DIMS SPECS
100
AcDbMText
 10
215461.4858121584
 20
810.244624754527
 30
0.0
 40
17.0
 41
0.0
 46
0.0
 71
     5
 72
     1
  1
\A1;R10
  7
ABODE-ISO
 73
     1
 44
1.0
  0
LINE
  5
531DB
330
531D6
100
AcDbEntity
  8
DIMS SPECS
370
    25
100
AcDbLine
 10
215363.984925129
 20
856.0466407026833
 30
0.0
 11
215372.3583575186
 21
848.9132242690393
 31
0.0
  0
INSERT
  5
531DC
330
531D6
100
AcDbEntity
  8
DIMS SPECS
370
    25
100
AcDbBlockReference
  2
FILLED-1
 10
215372.3583575186
 20
848.9132242690393
 30
0.0
 41
12.5
 42
12.5
 43
12.5
 50
139.5719682683285
  0
POINT
  5
531DD
330
531D6
100
AcDbEntity
  8
DEFPOINTS
 62
     0
100
AcDbPoint
 10
215372.3583575186
 20
848.9132242690393
 30
0.0
  0
POINT
  5
531DE
330
531D6
100
AcDbEntity
  8
DEFPOINTS
 62
     0
100
AcDbPoint
 10
215363.984925129
 20
856.0466407026833
 30
0.0
  0
ENDBLK
  5
531DF
330
531D6
100
AcDbEntity
  8
0
100
AcDbBlockEnd
  0
BLOCK
  5
531E1
330
531E0
100
AcDbEntity
  8
0
100
AcDbBlockBegin
  2
*D73
 70
     1
 10
0.0
 20
0.0
 30
0.0
  3
*D73
  1

  0
LINE
  5
531E2
330
531E0
100
AcDbEntity
  8
DIMS SPECS
370
    25
100
AcDbLine
 10
215382.4498314129
 20
845.0466407026897
 30
0.0
 11
215442.0563782491
 21
845.0466407026897
 31
0.0
  0
LINE
  5
531E3
330
531E0
100
AcDbEntity
  8
DIMS SPECS
370
    25
100
AcDbLine
 10
215382.4498314129
 20
1305.04664070269
 30
0.0
 11
215442.0563782491
 21
1305.04664070269
 31
0.0
  0
LINE
  5
531E4
330
531E0
100
AcDbEntity
  8
DIMS SPECS
370
    25
100
AcDbLine
 10
215442.0563782491
 20
857.5466407026897
 30
0.0
 11
215442.0563782491
 21
1058.619040430766
 31
0.0
  0
LINE
  5
531E5
330
531E0
100
AcDbEntity
  8
DIMS SPECS
370
    25
100
AcDbLine
 10
215442.0563782491
 20
1292.546640702689
 30
0.0
 11
215442.0563782491
 21
1091.474240974613
 31
0.0
  0
INSERT
  5
531E6
330
531E0
100
AcDbEntity
  8
DIMS SPECS
370
    25
100
AcDbBlockReference
  2
FILLED-1
 10
215442.0563782491
 20
845.0466407026897
 30
0.0
 41
12.5
 42
12.5
 43
12.5
 50
270.0
  0
INSERT
  5
531E7
330
531E0
100
AcDbEntity
  8
DIMS SPECS
370
    25
100
AcDbBlockReference
  2
FILLED-1
 10
215442.0563782491
 20
1305.04664070269
 30
0.0
 41
12.5
 42
12.5
 43
12.5
 50
90.0
  0
MTEXT
  5
531E8
330
531E0
100
AcDbEntity
  8
DIMS SPECS
100
AcDbMText
 10
215442.0563782491
 20
1075.046640702724
 30
0.0
 40
17.0
 41
0.0
 46
0.0
 71
     5
 72
     1
  1
\A1;460
  7
ABODE-ISO
 73
     1
 44
1.0
  0
POINT
  5
531E9
330
531E0
100
AcDbEntity
  8
DEFPOINTS
 62
     0
100
AcDbPoint
 10
215367.4498314129
 20
845.0466407026897
 30
0.0
  0
POINT
  5
531EA
330
531E0
100
AcDbEntity
  8
DEFPOINTS
 62
     0
100
AcDbPoint
 10
215367.4498314129
 20
1305.04664070269
 30
0.0
  0
POINT
  5
531EB
330
531E0
100
AcDbEntity
  8
DEFPOINTS
 62
     0
100
AcDbPoint
 10
215442.0563782491
 20
1305.04664070269
 30
0.0
  0
ENDBLK
  5
531EC
330
531E0
100
AcDbEntity
  8
0
100
AcDbBlockEnd
  0
BLOCK
  5
531EE
330
531ED
100
AcDbEntity
  8
0
100
AcDbBlockBegin
  2
*D74
 70
     1
 10
0.0
 20
0.0
 30
0.0
  3
*D74
  1

  0
LINE
  5
531EF
330
531ED
100
AcDbEntity
  8
DIMS SPECS
370
    25
100
AcDbLine
 10
214646.3119389558
 20
830.0466407026906
 30
0.0
 11
214646.3119389558
 21
777.2913691406357
 31
0.0
  0
LINE
  5
531F0
330
531ED
100
AcDbEntity
  8
DIMS SPECS
370
    25
100
AcDbLine
 10
215036.3119389558
 20
830.0466407026906
 30
0.0
 11
215036.3119389558
 21
777.2913691406357
 31
0.0
  0
LINE
  5
531F1
330
531ED
100
AcDbEntity
  8
DIMS SPECS
370
    25
100
AcDbLine
 10
214658.8119389558
 20
777.2913691406357
 30
0.0
 11
215023.8119389558
 21
777.2913691406357
 31
0.0
  0
INSERT
  5
531F2
330
531ED
100
AcDbEntity
  8
DIMS SPECS
370
    25
100
AcDbBlockReference
  2
FILLED-1
 10
214646.3119389558
 20
777.2913691406357
 30
0.0
 41
12.5
 42
12.5
 43
12.5
 50
180.0
  0
INSERT
  5
531F3
330
531ED
100
AcDbEntity
  8
DIMS SPECS
370
    25
100
AcDbBlockReference
  2
FILLED-1
 10
215036.3119389558
 20
777.2913691406357
 30
0.0
 41
12.5
 42
12.5
 43
12.5
  0
MTEXT
  5
531F4
330
531ED
100
AcDbEntity
  8
DIMS SPECS
100
AcDbMText
 10
214841.3119389558
 20
793.7189694125595
 30
0.0
 40
17.0
 41
0.0
 46
0.0
 71
     5
 72
     1
  1
\A1;390
  7
ABODE-ISO
 73
     1
 44
1.0
  0
POINT
  5
531F5
330
531ED
100
AcDbEntity
  8
DEFPOINTS
 62
     0
100
AcDbPoint
 10
214646.3119389558
 20
845.0466407026906
 30
0.0
  0
POINT
  5
531F6
330
531ED
100
AcDbEntity
  8
DEFPOINTS
 62
     0
100
AcDbPoint
 10
215036.3119389558
 20
845.0466407026906
 30
0.0
  0
POINT
  5
531F7
330
531ED
100
AcDbEntity
  8
DEFPOINTS
 62
     0
100
AcDbPoint
 10
215036.3119389558
 20
777.2913691406357
 30
0.0
  0
ENDBLK
  5
531F8
330
531ED
100
AcDbEntity
  8
0
100
AcDbBlockEnd
  0
BLOCK
  5
531FA
330
531F9
100
AcDbEntity
  8
0
100
AcDbBlockBegin
  2
*D75
 70
     1
 10
0.0
 20
0.0
 30
0.0
  3
*D75
  1

  0
LINE
  5
531FB
330
531F9
100
AcDbEntity
  8
DIMS SPECS
370
    25
100
AcDbLine
 10
214626.4498314129
 20
840.0466407026899
 30
0.0
 11
214626.4498314129
 21
712.7487646796508
 31
0.0
  0
LINE
  5
531FC
330
531F9
100
AcDbEntity
  8
DIMS SPECS
370
    25
100
AcDbLine
 10
215378.4498314129
 20
841.0466407026898
 30
0.0
 11
215378.4498314129
 21
712.7487646796508
 31
0.0
  0
LINE
  5
531FD
330
531F9
100
AcDbEntity
  8
DIMS SPECS
370
    25
100
AcDbLine
 10
214638.949831413
 20
712.7487646796508
 30
0.0
 11
215365.9498314129
 21
712.7487646796508
 31
0.0
  0
INSERT
  5
531FE
330
531F9
100
AcDbEntity
  8
DIMS SPECS
370
    25
100
AcDbBlockReference
  2
FILLED-1
 10
214626.4498314129
 20
712.7487646796508
 30
0.0
 41
12.5
 42
12.5
 43
12.5
 50
180.0
  0
INSERT
  5
531FF
330
531F9
100
AcDbEntity
  8
DIMS SPECS
370
    25
100
AcDbBlockReference
  2
FILLED-1
 10
215378.4498314129
 20
712.7487646796508
 30
0.0
 41
12.5
 42
12.5
 43
12.5
  0
MTEXT
  5
53200
330
531F9
100
AcDbEntity
  8
DIMS SPECS
100
AcDbMText
 10
215002.4498314129
 20
729.1763649515745
 30
0.0
 40
17.0
 41
0.0
 46
0.0
 71
     5
 72
     1
  1
\A1;752
  7
ABODE-ISO
 73
     1
 44
1.0
  0
POINT
  5
53201
330
531F9
100
AcDbEntity
  8
DEFPOINTS
 62
     0
100
AcDbPoint
 10
214626.4498314129
 20
855.0466407026899
 30
0.0
  0
POINT
  5
53202
330
531F9
100
AcDbEntity
  8
DEFPOINTS
 62
     0
100
AcDbPoint
 10
215378.4498314129
 20
856.0466407026899
 30
0.0
  0
POINT
  5
53203
330
531F9
100
AcDbEntity
  8
DEFPOINTS
 62
     0
100
AcDbPoint
 10
215378.4498314129
 20
712.7487646796508
 30
0.0
  0
ENDBLK
  5
53204
330
531F9
100
AcDbEntity
  8
0
100
AcDbBlockEnd
  0
BLOCK
  5
53206
330
53205
100
AcDbEntity
  8
0
100
AcDbBlockBegin
  2
*D76
 70
     1
 10
0.0
 20
0.0
 30
0.0
  3
*D76
  1

  0
LINE
  5
53207
330
53205
100
AcDbEntity
  8
DIMS SPECS
370
    25
100
AcDbLine
 10
214646.3119389558
 20
838.3916981621931
 30
0.0
 11
214646.3119389558
 21
807.5896609564079
 31
0.0
  0
LINE
  5
53208
330
53205
100
AcDbEntity
  8
DIMS SPECS
370
    25
100
AcDbLine
 10
214626.4498314129
 20
840.0466407026899
 30
0.0
 11
214626.4498314129
 21
807.5896609564079
 31
0.0
  0
LINE
  5
53209
330
53205
100
AcDbEntity
  8
DIMS SPECS
370
    25
100
AcDbLine
 10
214658.8119389559
 20
807.5896609564079
 30
0.0
 11
214671.3119389558
 21
807.5896609564079
 31
0.0
  0
LINE
  5
5320A
330
53205
100
AcDbEntity
  8
DIMS SPECS
370
    25
100
AcDbLine
 10
214613.9498314129
 20
807.5896609564079
 30
0.0
 11
214564.1603004816
 21
807.5896609564079
 31
0.0
  0
LINE
  5
5320B
330
53205
100
AcDbEntity
  8
DIMS SPECS
370
    25
100
AcDbLine
 10
214646.3119389558
 20
807.5896609564079
 30
0.0
 11
214626.4498314129
 21
807.5896609564079
 31
0.0
  0
INSERT
  5
5320C
330
53205
100
AcDbEntity
  8
DIMS SPECS
370
    25
100
AcDbBlockReference
  2
FILLED-1
 10
214646.3119389558
 20
807.5896609564079
 30
0.0
 41
12.5
 42
12.5
 43
12.5
 50
180.0
  0
INSERT
  5
5320D
330
53205
100
AcDbEntity
  8
DIMS SPECS
370
    25
100
AcDbBlockReference
  2
FILLED-1
 10
214626.4498314129
 20
807.5896609564079
 30
0.0
 41
12.5
 42
12.5
 43
12.5
  0
MTEXT
  5
5320E
330
53205
100
AcDbEntity
  8
DIMS SPECS
100
AcDbMText
 10
214582.8050659473
 20
824.0172612283318
 30
0.0
 40
17.0
 41
0.0
 46
0.0
 71
     5
 72
     1
  1
\A1;20
  7
ABODE-ISO
 73
     1
 44
1.0
  0
POINT
  5
5320F
330
53205
100
AcDbEntity
  8
DEFPOINTS
 62
     0
100
AcDbPoint
 10
214646.3119389558
 20
853.3916981621931
 30
0.0
  0
POINT
  5
53210
330
53205
100
AcDbEntity
  8
DEFPOINTS
 62
     0
100
AcDbPoint
 10
214626.4498314129
 20
855.0466407026899
 30
0.0
  0
POINT
  5
53211
330
53205
100
AcDbEntity
  8
DEFPOINTS
 62
     0
100
AcDbPoint
 10
214626.4498314129
 20
807.5896609564079
 30
0.0
  0
ENDBLK
  5
53212
330
53205
100
AcDbEntity
  8
0
100
AcDbBlockEnd
  0
BLOCK
  5
53248
330
53247
100
AcDbEntity
  8
0
100
AcDbBlockBegin
  2
*D77
 70
     1
 10
0.0
 20
0.0
 30
0.0
  3
*D77
  1

  0
LINE
  5
532A9
330
53247
100
AcDbEntity
  8
DIMS SPECS
370
    25
100
AcDbLine
 10
30401.5160477082
 20
25542.25823397316
 30
0.0
 11
30360.48727476479
 21
25542.25823397317
 31
0.0
  0
LINE
  5
532AA
330
53247
100
AcDbEntity
  8
DIMS SPECS
370
    25
100
AcDbLine
 10
30360.48727476479
 20
25542.25823397317
 30
0.0
 11
30305.32885714752
 21
25589.24827872135
 31
0.0
  0
MTEXT
  5
532AB
330
53247
100
AcDbEntity
  8
DIMS SPECS
100
AcDbMText
 10
30384.9410477082
 20
25558.25823397317
 30
0.0
 40
17.0
 41
0.0
 46
0.0
 71
     5
 72
     1
  1
\A1;R10
  7
ABODE-ISO
 73
     1
 44
1.0
  0
LINE
  5
532AC
330
53247
100
AcDbEntity
  8
DIMS SPECS
370
    25
100
AcDbLine
 10
30287.44016067874
 20
25604.48785019324
 30
0.0
 11
30295.81359306837
 21
25597.3544337596
 31
0.0
  0
INSERT
  5
532AD
330
53247
100
AcDbEntity
  8
DIMS SPECS
370
    25
100
AcDbBlockReference
  2
FILLED-1
 10
30295.81359306837
 20
25597.3544337596
 30
0.0
 41
12.5
 42
12.5
 43
12.5
 50
139.5719682684439
  0
POINT
  5
532AE
330
53247
100
AcDbEntity
  8
DEFPOINTS
 62
     0
100
AcDbPoint
 10
30295.81359306837
 20
25597.3544337596
 30
0.0
  0
POINT
  5
532AF
330
53247
100
AcDbEntity
  8
DEFPOINTS
 62
     0
100
AcDbPoint
 10
30287.44016067874
 20
25604.48785019324
 30
0.0
  0
ENDBLK
  5
53249
330
53247
100
AcDbEntity
  8
0
100
AcDbBlockEnd
  0
BLOCK
  5
53252
330
53251
100
AcDbEntity
  8
0
100
AcDbBlockBegin
  2
*D78
 70
     1
 10
0.0
 20
0.0
 30
0.0
  3
*D78
  1

  0
LINE
  5
532B0
330
53251
100
AcDbEntity
  8
DIMS SPECS
370
    25
100
AcDbLine
 10
29569.76717450556
 20
25578.48785019325
 30
0.0
 11
29569.76717450556
 21
25525.73257863119
 31
0.0
  0
LINE
  5
532B1
330
53251
100
AcDbEntity
  8
DIMS SPECS
370
    25
100
AcDbLine
 10
29959.76717450556
 20
25578.48785019325
 30
0.0
 11
29959.76717450556
 21
25525.73257863119
 31
0.0
  0
LINE
  5
532B2
330
53251
100
AcDbEntity
  8
DIMS SPECS
370
    25
100
AcDbLine
 10
29582.26717450557
 20
25525.73257863119
 30
0.0
 11
29947.26717450556
 21
25525.73257863119
 31
0.0
  0
INSERT
  5
532B3
330
53251
100
AcDbEntity
  8
DIMS SPECS
370
    25
100
AcDbBlockReference
  2
FILLED-1
 10
29569.76717450556
 20
25525.73257863119
 30
0.0
 41
12.5
 42
12.5
 43
12.5
 50
180.0
  0
INSERT
  5
532B4
330
53251
100
AcDbEntity
  8
DIMS SPECS
370
    25
100
AcDbBlockReference
  2
FILLED-1
 10
29959.76717450556
 20
25525.73257863119
 30
0.0
 41
12.5
 42
12.5
 43
12.5
  0
MTEXT
  5
532B5
330
53251
100
AcDbEntity
  8
DIMS SPECS
100
AcDbMText
 10
29764.76717450557
 20
25541.7325786312
 30
0.0
 40
17.0
 41
0.0
 46
0.0
 71
     5
 72
     1
  1
\A1;390
  7
ABODE-ISO
 73
     1
 44
1.0
  0
POINT
  5
532B6
330
53251
100
AcDbEntity
  8
DEFPOINTS
 62
     0
100
AcDbPoint
 10
29569.76717450556
 20
25593.48785019325
 30
0.0
  0
POINT
  5
532B7
330
53251
100
AcDbEntity
  8
DEFPOINTS
 62
     0
100
AcDbPoint
 10
29959.76717450556
 20
25593.48785019325
 30
0.0
  0
POINT
  5
532B8
330
53251
100
AcDbEntity
  8
DEFPOINTS
 62
     0
100
AcDbPoint
 10
29959.76717450556
 20
25525.73257863119
 30
0.0
  0
ENDBLK
  5
53253
330
53251
100
AcDbEntity
  8
0
100
AcDbBlockEnd
  0
BLOCK
  5
5325E
330
5325D
100
AcDbEntity
  8
0
100
AcDbBlockBegin
  2
*D79
 70
     1
 10
0.0
 20
0.0
 30
0.0
  3
*D79
  1

  0
LINE
  5
532C2
330
5325D
100
AcDbEntity
  8
DIMS SPECS
370
    25
100
AcDbLine
 10
29569.76717450558
 20
25586.83290765275
 30
0.0
 11
29569.76717450558
 21
25556.03087044697
 31
0.0
  0
LINE
  5
532C3
330
5325D
100
AcDbEntity
  8
DIMS SPECS
370
    25
100
AcDbLine
 10
29549.90506696269
 20
25588.48785019325
 30
0.0
 11
29549.90506696269
 21
25556.03087044697
 31
0.0
  0
LINE
  5
532C4
330
5325D
100
AcDbEntity
  8
DIMS SPECS
370
    25
100
AcDbLine
 10
29582.26717450559
 20
25556.03087044697
 30
0.0
 11
29594.76717450558
 21
25556.03087044697
 31
0.0
  0
LINE
  5
532C5
330
5325D
100
AcDbEntity
  8
DIMS SPECS
370
    25
100
AcDbLine
 10
29537.40506696269
 20
25556.03087044697
 30
0.0
 11
29486.95506696268
 21
25556.03087044697
 31
0.0
  0
LINE
  5
532C6
330
5325D
100
AcDbEntity
  8
DIMS SPECS
370
    25
100
AcDbLine
 10
29569.76717450558
 20
25556.03087044697
 30
0.0
 11
29549.90506696269
 21
25556.03087044697
 31
0.0
  0
INSERT
  5
532C7
330
5325D
100
AcDbEntity
  8
DIMS SPECS
370
    25
100
AcDbBlockReference
  2
FILLED-1
 10
29569.76717450558
 20
25556.03087044697
 30
0.0
 41
12.5
 42
12.5
 43
12.5
 50
180.0
  0
INSERT
  5
532C8
330
5325D
100
AcDbEntity
  8
DIMS SPECS
370
    25
100
AcDbBlockReference
  2
FILLED-1
 10
29549.90506696269
 20
25556.03087044697
 30
0.0
 41
12.5
 42
12.5
 43
12.5
  0
MTEXT
  5
532C9
330
5325D
100
AcDbEntity
  8
DIMS SPECS
100
AcDbMText
 10
29505.93006696269
 20
25572.03087044697
 30
0.0
 40
17.0
 41
0.0
 46
0.0
 71
     5
 72
     1
  1
\A1;20
  7
ABODE-ISO
 73
     1
 44
1.0
  0
POINT
  5
532CA
330
5325D
100
AcDbEntity
  8
DEFPOINTS
 62
     0
100
AcDbPoint
 10
29569.76717450558
 20
25601.83290765275
 30
0.0
  0
POINT
  5
532CB
330
5325D
100
AcDbEntity
  8
DEFPOINTS
 62
     0
100
AcDbPoint
 10
29549.90506696269
 20
25603.48785019325
 30
0.0
  0
POINT
  5
532CC
330
5325D
100
AcDbEntity
  8
DEFPOINTS
 62
     0
100
AcDbPoint
 10
29549.90506696269
 20
25556.03087044697
 30
0.0
  0
ENDBLK
  5
5325F
330
5325D
100
AcDbEntity
  8
0
100
AcDbBlockEnd
  0
BLOCK
  5
5327C
330
5327B
100
AcDbEntity
  8
0
100
AcDbBlockBegin
  2
*D80
 70
     1
 10
0.0
 20
0.0
 30
0.0
  3
*D80
  1

  0
LINE
  5
532B9
330
5327B
100
AcDbEntity
  8
DIMS SPECS
370
    25
100
AcDbLine
 10
29549.90506696269
 20
25588.48785019325
 30
0.0
 11
29549.90506696269
 21
25461.18997417021
 31
0.0
  0
LINE
  5
532BA
330
5327B
100
AcDbEntity
  8
DIMS SPECS
370
    25
100
AcDbLine
 10
30301.90506696266
 20
25589.48785019325
 30
0.0
 11
30301.90506696266
 21
25461.18997417021
 31
0.0
  0
LINE
  5
532BB
330
5327B
100
AcDbEntity
  8
DIMS SPECS
370
    25
100
AcDbLine
 10
29562.40506696269
 20
25461.18997417021
 30
0.0
 11
30289.40506696266
 21
25461.18997417021
 31
0.0
  0
INSERT
  5
532BC
330
5327B
100
AcDbEntity
  8
DIMS SPECS
370
    25
100
AcDbBlockReference
  2
FILLED-1
 10
29549.90506696269
 20
25461.18997417021
 30
0.0
 41
12.5
 42
12.5
 43
12.5
 50
180.0
  0
INSERT
  5
532BD
330
5327B
100
AcDbEntity
  8
DIMS SPECS
370
    25
100
AcDbBlockReference
  2
FILLED-1
 10
30301.90506696266
 20
25461.18997417021
 30
0.0
 41
12.5
 42
12.5
 43
12.5
  0
MTEXT
  5
532BE
330
5327B
100
AcDbEntity
  8
DIMS SPECS
100
AcDbMText
 10
29925.90506696268
 20
25477.18997417021
 30
0.0
 40
17.0
 41
0.0
 46
0.0
 71
     5
 72
     1
  1
\A1;752
  7
ABODE-ISO
 73
     1
 44
1.0
  0
POINT
  5
532BF
330
5327B
100
AcDbEntity
  8
DEFPOINTS
 62
     0
100
AcDbPoint
 10
29549.90506696269
 20
25603.48785019325
 30
0.0
  0
POINT
  5
532C0
330
5327B
100
AcDbEntity
  8
DEFPOINTS
 62
     0
100
AcDbPoint
 10
30301.90506696266
 20
25604.48785019325
 30
0.0
  0
POINT
  5
532C1
330
5327B
100
AcDbEntity
  8
DEFPOINTS
 62
     0
100
AcDbPoint
 10
30301.90506696266
 20
25461.18997417021
 30
0.0
  0
ENDBLK
  5
5327D
330
5327B
100
AcDbEntity
  8
0
100
AcDbBlockEnd
  0
BLOCK
  5
53293
330
53292
100
AcDbEntity
  8
0
100
AcDbBlockBegin
  2
*D81
 70
     1
 10
0.0
 20
0.0
 30
0.0
  3
*D81
  1

  0
LINE
  5
5329F
330
53292
100
AcDbEntity
  8
DIMS SPECS
370
    25
100
AcDbLine
 10
30305.90506696266
 20
25593.48785019325
 30
0.0
 11
30365.51161379887
 21
25593.48785019325
 31
0.0
  0
LINE
  5
532A0
330
53292
100
AcDbEntity
  8
DIMS SPECS
370
    25
100
AcDbLine
 10
30305.90506696266
 20
26053.48785019325
 30
0.0
 11
30365.51161379887
 21
26053.48785019325
 31
0.0
  0
LINE
  5
532A1
330
53292
100
AcDbEntity
  8
DIMS SPECS
370
    25
100
AcDbLine
 10
30365.51161379887
 20
25605.98785019325
 30
0.0
 11
30365.51161379887
 21
25807.48785019325
 31
0.0
  0
LINE
  5
532A2
330
53292
100
AcDbEntity
  8
DIMS SPECS
370
    25
100
AcDbLine
 10
30365.51161379887
 20
26040.98785019325
 30
0.0
 11
30365.51161379887
 21
25839.48785019325
 31
0.0
  0
INSERT
  5
532A3
330
53292
100
AcDbEntity
  8
DIMS SPECS
370
    25
100
AcDbBlockReference
  2
FILLED-1
 10
30365.51161379887
 20
25593.48785019325
 30
0.0
 41
12.5
 42
12.5
 43
12.5
 50
270.0
  0
INSERT
  5
532A4
330
53292
100
AcDbEntity
  8
DIMS SPECS
370
    25
100
AcDbBlockReference
  2
FILLED-1
 10
30365.51161379887
 20
26053.48785019325
 30
0.0
 41
12.5
 42
12.5
 43
12.5
 50
90.0
  0
MTEXT
  5
532A5
330
53292
100
AcDbEntity
  8
DIMS SPECS
100
AcDbMText
 10
30365.51161379887
 20
25823.48785019326
 30
0.0
 40
17.0
 41
0.0
 46
0.0
 71
     5
 72
     1
  1
\A1;460
  7
ABODE-ISO
 73
     1
 44
1.0
  0
POINT
  5
532A6
330
53292
100
AcDbEntity
  8
DEFPOINTS
 62
     0
100
AcDbPoint
 10
30290.90506696266
 20
25593.48785019325
 30
0.0
  0
POINT
  5
532A7
330
53292
100
AcDbEntity
  8
DEFPOINTS
 62
     0
100
AcDbPoint
 10
30290.90506696266
 20
26053.48785019325
 30
0.0
  0
POINT
  5
532A8
330
53292
100
AcDbEntity
  8
DEFPOINTS
 62
     0
100
AcDbPoint
 10
30365.51161379887
 20
26053.48785019325
 30
0.0
  0
ENDBLK
  5
53294
330
53292
100
AcDbEntity
  8
0
100
AcDbBlockEnd
  0
ENDSEC
  0
SECTION
  2
ENTITIES
  0
TEXT
  5
4EFD5
330
52C18
100
AcDbEntity
  8
LAYER1
100
AcDbText
 10
29536.60103082985
 20
26533.84198875161
 30
0.0
 40
150.0
  1
AW3116
100
AcDbText
  0
INSERT
  5
4EFE9
330
52C18
100
AcDbEntity
  8
0
100
AcDbBlockReference
  2
*U15
 10
0.0
 20
0.0
 30
0.0
  0
TEXT
  5
4EFEA
330
52C18
100
AcDbEntity
  8
LAYER1
100
AcDbText
 10
29141.6042719676
 20
25696.20060721863
 30
0.0
 40
30.0
  1
file version 1
100
AcDbText
  0
MTEXT
  5
53230
102
{ACAD_XDICTIONARY
360
53314
102
}
330
52C18
100
AcDbEntity
  8
CUTOUT
100
AcDbMText
 10
29632.6338797626
 20
26130.3401751208
 30
0.0
 40
40.0
 41
559.4757407245922
 46
0.0
 71
     1
 72
     5
  1
\pi107.74;INSET CUT OUT
 73
     1
 44
1.0
  0
LINE
  5
53231
330
52C18
100
AcDbEntity
  8
CUTOUT
100
AcDbLine
 10
29559.90506696269
 20
26053.48785019325
 30
0.0
 11
30290.90506696266
 21
26053.48785019325
 31
0.0
  0
ARC
  5
53232
330
52C18
100
AcDbEntity
  8
CUTOUT
100
AcDbCircle
 10
29559.90506696269
 20
26043.48785019325
 30
0.0
 40
10.0
100
AcDbArc
 50
90.0
 51
180.0
  0
ARC
  5
53233
102
{ACAD_REACTORS
330
5323D
102
}
330
52C18
100
AcDbEntity
  8
CUTOUT
100
AcDbCircle
 10
30290.90506696266
 20
26042.48785019325
 30
0.0
 40
11.0
100
AcDbArc
 50
0.0
 51
90.0
  0
LINE
  5
53234
330
52C18
100
AcDbEntity
  8
CUTOUT
100
AcDbLine
 10
30301.90506696266
 20
26042.48785019325
 30
0.0
 11
30301.90506696266
 21
25604.48785019325
 31
0.0
  0
LINE
  5
53235
330
52C18
100
AcDbEntity
  8
CUTOUT
100
AcDbLine
 10
30290.90506696266
 20
25593.48785019325
 30
0.0
 11
29559.90506696269
 21
25593.48785019325
 31
0.0
  0
ARC
  5
53236
102
{ACAD_REACTORS
330
5323D
330
53242
102
}
330
52C18
100
AcDbEntity
  8
CUTOUT
100
AcDbCircle
 10
30290.90506696266
 20
25604.48785019325
 30
0.0
 40
11.0
100
AcDbArc
 50
270.0
 51
0.0
  0
LINE
  5
53237
102
{ACAD_REACTORS
330
53242
102
}
330
52C18
100
AcDbEntity
  8
CUTOUT
100
AcDbLine
 10
29549.90506696269
 20
25603.48785019325
 30
0.0
 11
29549.90506696269
 21
26043.48785019325
 31
0.0
  0
ARC
  5
53238
330
52C18
100
AcDbEntity
  8
CUTOUT
100
AcDbCircle
 10
29559.90506696269
 20
25603.48785019325
 30
0.0
 40
10.0
100
AcDbArc
 50
180.0
 51
270.0
  0
LINE
  5
53239
330
52C18
100
AcDbEntity
  8
CUTOUT
  6
DASHED2
 48
5.0
100
AcDbLine
 10
29569.76717450556
 20
25593.48785019325
 30
0.0
 11
29569.76717450556
 21
26053.48785019325
 31
0.0
  0
LINE
  5
5323A
330
52C18
100
AcDbEntity
  8
CUTOUT
  6
DASHED2
 48
5.0
100
AcDbLine
 10
29959.76717450556
 20
25593.48785019325
 30
0.0
 11
29959.76717450556
 21
26053.48785019325
 31
0.0
  0
DIMENSION
  5
5323B
102
{ACAD_XDICTIONARY
360
5323C
102
}
102
{ACAD_REACTORS
330
5323D
102
}
330
52C18
100
AcDbEntity
  8
DIMS SPECS
100
AcDbDimension
  2
*D81
 10
30365.51161379887
 20
26053.48785019325
 30
0.0
 11
30365.51161379887
 21
25823.48785019326
 31
0.0
 70
    32
 71
     5
 42
460.0
 73
     0
 74
     0
 75
     0
  3
abode-iso$0
100
AcDbAlignedDimension
 13
30290.90506696266
 23
25593.48785019325
 33
0.0
 14
30290.90506696266
 24
26053.48785019325
 34
0.0
 50
90.0
100
AcDbRotatedDimension
1001
ACAD_DSTYLE_DIMINSPECT
1070
   396
1000
100%
1070
   395
1000

1070
   394
1070
    33
1070
   393
1070
     0
  0
DIMENSION
  5
5323E
330
52C18
100
AcDbEntity
  8
DIMS SPECS
100
AcDbDimension
  2
*D77
 10
30287.44016067874
 20
25604.48785019324
 30
0.0
 11
30384.9410477082
 21
25542.25823397316
 31
0.0
 70
   164
  1
R10
 71
     5
 42
10.99999999997817
 73
     0
 74
     0
 75
     0
  3
abode-iso$4
100
AcDbRadialDimension
 15
30295.81359306837
 25
25597.3544337596
 35
0.0
 40
0.0
1001
ACAD_DSTYLE_DIMINSPECT
1070
   396
1000
100%
1070
   395
1000

1070
   394
1070
    33
1070
   393
1070
     0
1001
ACAD_DSTYLE_DIMRADIAL_EXTENSION
1070
   387
1070
     1
1070
   388
1040
4.712388980384688
1070
   390
1040
0.0
  0
DIMENSION
  5
5323F
330
52C18
100
AcDbEntity
  8
DIMS SPECS
100
AcDbDimension
  2
*D78
 10
29959.76717450556
 20
25525.73257863119
 30
0.0
 11
29764.76717450557
 21
25525.73257863119
 31
0.0
 70
   160
 71
     5
 42
390.0
 73
     0
 74
     0
 75
     0
  3
abode-iso$0
100
AcDbAlignedDimension
 13
29569.76717450556
 23
25593.48785019325
 33
0.0
 14
29959.76717450556
 24
25593.48785019325
 34
0.0
100
AcDbRotatedDimension
  0
DIMENSION
  5
53240
102
{ACAD_XDICTIONARY
360
53241
102
}
102
{ACAD_REACTORS
330
53242
102
}
330
52C18
100
AcDbEntity
  8
DIMS SPECS
100
AcDbDimension
  2
*D80
 10
30301.90506696266
 20
25461.18997417021
 30
0.0
 11
29925.90506696268
 21
25477.18997417021
 31
0.0
 70
    32
 71
     5
 42
751.9999999999709
 73
     0
 74
     0
 75
     0
  3
abode-iso$0
100
AcDbAlignedDimension
 13
29549.90506696269
 23
25603.48785019325
 33
0.0
 14
30301.90506696266
 24
25604.48785019325
 34
0.0
100
AcDbRotatedDimension
1001
ACAD_DSTYLE_DIMINSPECT
1070
   396
1000
100%
1070
   395
1000

1070
   394
1070
    33
1070
   393
1070
     0
  0
MTEXT
  5
53243
102
{ACAD_XDICTIONARY
360
53316
102
}
330
52C18
100
AcDbEntity
  8
CUTOUT
  6
DASHED2
 48
5.0
100
AcDbMText
 10
29487.75323376262
 20
25931.26787164938
 30
0.0
 40
40.0
 41
559.4757407245922
 46
0.0
 71
     1
 72
     5
  1
\pi178.74;BOWL(S), \P\pi148.74;OVERFLOW,\P\pi161.74;TAP AREA
 73
     1
 44
1.0
  0
LWPOLYLINE
  5
53244
330
52C18
100
AcDbEntity
  8
CUTOUT
  6
DASHED2
 48
5.0
100
AcDbPolyline
 90
        8
 70
     1
 43
0.0
 10
29892.36501338046
 20
25943.25323324366
 10
29639.2047393576
 20
25943.25323324366
 42
0.4142135623730951
 10
29619.2047393576
 20
25923.25323324367
 10
29619.2047393576
 20
25755.29527851079
 42
0.4142135623730951
 10
29639.2047393576
 20
25735.29527851079
 10
29892.36501338046
 20
25735.29527851079
 42
0.4142135623730951
 10
29912.36501338047
 20
25755.29527851079
 10
29912.36501338047
 20
25923.25323324367
 42
0.4142135623730951
1001
GENIUS_GENREC_14
1002
{
1000
PYDIR
1011
29912.36501338047
1021
25735.29527851079
1031
0.0
1002
}
1002
{
1000
PXDIR
1011
29619.2047393576
1021
25943.25323324366
1031
0.0
1002
}
1002
{
1000
PORI
1011
29912.36501338047
1021
25943.25323324366
1031
0.0
1002
}
1002
{
1000
PINS
1011
29912.36501338047
1021
25943.25323324366
1031
0.0
1002
}
1002
{
1000
PINS2
1011
29619.2047393576
1021
25735.29527851079
1031
0.0
1002
}
1002
{
1000
C
1070
     1
1002
}
1001
GENIUS_GENOBJ-N-REC_13
1002
{
1000
OWNER
1000
GEN
1002
}
1001
GENIUS_GENODEF_13
1002
{
1000
HIER
1070
     0
1002
}
1002
{
1000
MANEDIT
1070
     0
1002
}
1002
{
1000
NOSEL
1070
     0
1002
}
1002
{
1000
BEHIND
1070
     0
1002
}
1002
{
1000
OTHER
1070
     0
1002
}
1002
{
1000
REACTOR
1002
}
  0
LINE
  5
53245
330
52C18
100
AcDbEntity
  8
sink_brouchure
100
AcDbLine
 10
29907.04015000678
 20
25832.48785019325
 30
0.0
 11
29907.04015000678
 21
25832.48785019325
 31
0.0
  0
DIMENSION
  5
53246
330
52C18
100
AcDbEntity
  8
DIMS SPECS
100
AcDbDimension
  2
*D79
 10
29549.90506696269
 20
25556.03087044697
 30
0.0
 11
29505.93006696269
 21
25572.03087044697
 31
0.0
 70
    32
 71
     5
 42
19.86210754289641
 73
     0
 74
     0
 75
     0
  3
abode-iso$0
100
AcDbAlignedDimension
 13
29569.76717450558
 23
25601.83290765275
 33
0.0
 14
29549.90506696269
 24
25603.48785019325
 34
0.0
100
AcDbRotatedDimension
  0
ENDSEC
  0
SECTION
  2
OBJECTS
  0
DICTIONARY
  5
52BB0
330
0
100
AcDbDictionary
281
     1
  3
ACAD_COLOR
350
52C0E
  3
ACAD_GROUP
350
52BB1
  3
ACAD_LAYOUT
350
52C0D
  3
ACAD_MATERIAL
350
52BB4
  3
ACAD_MLEADERSTYLE
350
52C11
  3
ACAD_MLINESTYLE
350
52C0A
  3
ACAD_PLOTSETTINGS
350
52C0C
  3
ACAD_PLOTSTYLENAME
350
52BB2
  3
ACAD_SCALELIST
350
52BDE
  3
ACAD_TABLESTYLE
350
52C0F
  3
ACAD_VISUALSTYLE
350
52BCD
  3
ACDB_RECOMPOSE_DATA
350
52DBE
  3
AcDbVariableDictionary
350
52DB0
  0
DICTIONARY
  5
52CA6
330
52BA6
100
AcDbDictionary
280
     1
281
     1
  3
ACAD_LAYERSTATES
360
52CA7
  0
DICTIONARY
  5
52DA2
330
52C00
100
AcDbDictionary
280
     1
281
     1
  3
ADSK_XREC_LAYER_RECONCILED
360
52DA3
  0
DICTIONARY
  5
52DA4
330
52C1E
100
AcDbDictionary
280
     1
281
     1
  3
ADSK_XREC_LAYER_RECONCILED
360
52DA5
  0
DICTIONARY
  5
52DA6
330
52C20
100
AcDbDictionary
280
     1
281
     1
  3
ADSK_XREC_LAYER_RECONCILED
360
52DA7
  0
DICTIONARY
  5
52DA8
330
52C21
100
AcDbDictionary
280
     1
281
     1
  3
ADSK_XREC_LAYER_RECONCILED
360
52DA9
  0
DICTIONARY
  5
52DAA
330
52C22
100
AcDbDictionary
280
     1
281
     1
  3
ADSK_XREC_LAYER_RECONCILED
360
52DAB
  0
DICTIONARY
  5
52DAC
330
52C9C
100
AcDbDictionary
280
     1
281
     1
  3
ADSK_XREC_LAYER_RECONCILED
360
52DAD
  0
DICTIONARY
  5
52DAE
330
52C9D
100
AcDbDictionary
280
     1
281
     1
  3
ADSK_XREC_LAYER_RECONCILED
360
52DAF
  0
DICTIONARY
  5
531D2
330
53188
100
AcDbDictionary
280
     1
281
     1
  3
ACAD_SORTENTS
360
531D3
  0
DICTIONARY
  5
53308
330
5318D
100
AcDbDictionary
280
     1
281
     1
  3
ACAD_MTEXT_2008_RT
360
53309
  0
DICTIONARY
  5
53199
330
53198
100
AcDbDictionary
280
     1
281
     1
  3
ACAD_DIMASSOC
360
5319A
  0
DICTIONARY
  5
5330A
330
531A5
100
AcDbDictionary
280
     1
281
     1
  3
ACAD_MTEXT_2008_RT
360
5330B
  0
DICTIONARY
  5
531A9
330
531A8
100
AcDbDictionary
280
     1
281
     1
  3
ACAD_DIMASSOC
360
531AA
  0
DICTIONARY
  5
531AC
330
531AB
100
AcDbDictionary
280
     1
281
     1
  3
ACAD_DIMASSOC
360
531AD
  0
DICTIONARY
  5
531AF
330
531AE
100
AcDbDictionary
280
     1
281
     1
  3
ACAD_DIMASSOC
360
531B0
  0
DICTIONARY
  5
531B2
330
531B1
100
AcDbDictionary
280
     1
281
     1
  3
ACAD_DIMASSOC
360
531B3
  0
DICTIONARY
  5
5330C
330
531BE
100
AcDbDictionary
280
     1
281
     1
  3
ACAD_MTEXT_2008_RT
360
5330D
  0
DICTIONARY
  5
5330E
330
531BF
100
AcDbDictionary
280
     1
281
     1
  3
ACAD_MTEXT_2008_RT
360
5330F
  0
DICTIONARY
  5
531C3
330
531C2
100
AcDbDictionary
280
     1
281
     1
  3
ACAD_DIMASSOC
360
531C4
  0
DICTIONARY
  5
531C6
330
531C5
100
AcDbDictionary
280
     1
281
     1
  3
ACAD_DIMASSOC
360
531C7
  0
DICTIONARY
  5
531C9
330
531C8
100
AcDbDictionary
280
     1
281
     1
  3
ACAD_DIMASSOC
360
531CA
  0
DICTIONARY
  5
53310
330
531CB
100
AcDbDictionary
280
     1
281
     1
  3
ACAD_MTEXT_2008_RT
360
53311
  0
DICTIONARY
  5
53312
330
531CE
100
AcDbDictionary
280
     1
281
     1
  3
ACAD_MTEXT_2008_RT
360
53313
  0
DICTIONARY
  5
53314
330
53230
100
AcDbDictionary
280
     1
281
     1
  3
ACAD_MTEXT_2008_RT
360
53315
  0
DICTIONARY
  5
5323C
330
5323B
100
AcDbDictionary
280
     1
281
     1
  3
ACAD_DIMASSOC
360
5323D
  0
DICTIONARY
  5
53241
330
53240
100
AcDbDictionary
280
     1
281
     1
  3
ACAD_DIMASSOC
360
53242
  0
DICTIONARY
  5
53316
330
53243
100
AcDbDictionary
280
     1
281
     1
  3
ACAD_MTEXT_2008_RT
360
53317
  0
DICTIONARY
  5
52C0E
102
{ACAD_REACTORS
330
52BB0
102
}
330
52BB0
100
AcDbDictionary
281
     1
  0
DICTIONARY
  5
52BB1
102
{ACAD_REACTORS
330
52BB0
102
}
330
52BB0
100
AcDbDictionary
281
     1
  0
DICTIONARY
  5
52C0D
102
{ACAD_REACTORS
330
52BB0
102
}
330
52BB0
100
AcDbDictionary
281
     1
  3
Layout1
350
52C17
  3
Model
350
52C1B
  0
DICTIONARY
  5
52BB4
102
{ACAD_REACTORS
330
52BB0
102
}
330
52BB0
100
AcDbDictionary
281
     1
  3
ByBlock
350
52BBD
  3
ByLayer
350
52BB5
  3
Global
350
52BC5
  0
DICTIONARY
  5
52C11
102
{ACAD_REACTORS
330
52BB0
102
}
330
52BB0
100
AcDbDictionary
281
     1
  3
Standard
350
52C12
  0
DICTIONARY
  5
52C0A
102
{ACAD_REACTORS
330
52BB0
102
}
330
52BB0
100
AcDbDictionary
281
     1
  3
Standard
350
52C0B
  0
DICTIONARY
  5
52C0C
102
{ACAD_REACTORS
330
52BB0
102
}
330
52BB0
100
AcDbDictionary
281
     1
  0
ACDBDICTIONARYWDFLT
  5
52BB2
102
{ACAD_REACTORS
330
52BB0
102
}
330
52BB0
100
AcDbDictionary
281
     1
  3
Normal
350
52BB3
100
AcDbDictionaryWithDefault
340
52BB3
  0
DICTIONARY
  5
52BDE
102
{ACAD_REACTORS
330
52BB0
102
}
330
52BB0
100
AcDbDictionary
281
     1
  3
A0
350
52BDF
  3
A1
350
52BE0
  3
A2
350
52BE1
  3
A3
350
52BE2
  3
A4
350
52BE3
  3
A5
350
52BE4
  3
A6
350
52BE5
  3
A7
350
52BE6
  3
A8
350
52BE7
  3
A9
350
52BE8
  3
B0
350
52BE9
  3
B1
350
52BEA
  3
B2
350
52BEB
  3
B3
350
52BEC
  3
B4
350
52BED
  3
B5
350
52BEE
  3
B6
350
52BEF
  3
B7
350
52BF0
  3
B8
350
52BF1
  3
B9
350
52BF2
  3
C0
350
52BF3
  3
C1
350
52BF4
  3
C2
350
52BF5
  3
C3
350
52BF6
  3
C4
350
52BF7
  3
C5
350
52BF8
  3
C6
350
52BF9
  3
C7
350
52BFA
  3
C8
350
52BFB
  3
C9
350
52BFC
  3
D0
350
52BFD
  3
D1
350
52BFE
  3
D2
350
52BFF
  0
DICTIONARY
  5
52C0F
102
{ACAD_REACTORS
330
52BB0
102
}
330
52BB0
100
AcDbDictionary
281
     1
  3
Standard
350
52C10
  0
DICTIONARY
  5
52BCD
102
{ACAD_REACTORS
330
52BB0
102
}
330
52BB0
100
AcDbDictionary
281
     1
  3
2dWireframe
350
52BD3
  3
3D Hidden
350
52BD5
  3
3dWireframe
350
52BD4
  3
Basic
350
52BD2
  3
Brighten
350
52BD9
  3
ColorChange
350
52BDD
  3
Conceptual
350
52BD6
  3
Dim
350
52BD8
  3
Facepattern
350
52BDC
  3
Flat
350
52BCE
  3
FlatWithEdges
350
52BCF
  3
Gouraud
350
52BD0
  3
GouraudWithEdges
350
52BD1
  3
Linepattern
350
52BDB
  3
Realistic
350
52BD7
  3
Thicken
350
52BDA
  0
XRECORD
  5
52DBE
102
{ACAD_REACTORS
330
52BB0
102
}
330
52BB0
100
AcDbXrecord
280
     1
 90
        1
330
52C10
330
5318D
330
531A5
330
531BE
330
531BF
330
531CB
330
531CE
330
53230
330
53243
  0
DICTIONARY
  5
52DB0
102
{ACAD_REACTORS
330
52BB0
102
}
330
52BB0
100
AcDbDictionary
281
     1
  3
CANNOSCALE
350
52DB4
  3
CMLEADERSTYLE
350
52DB2
  3
CTABLESTYLE
350
52DB1
  3
LAYEREVAL
350
52DB6
  3
LAYERNOTIFY
350
52DB7
  3
LIGHTINGUNITS
350
52DB5
  3
MSLTSCALE
350
52DB3
  0
DICTIONARY
  5
52CA7
102
{ACAD_REACTORS
330
52CA6
102
}
330
52CA6
100
AcDbDictionary
281
     1
  0
XRECORD
  5
52DA3
102
{ACAD_REACTORS
330
52DA2
102
}
330
52DA2
100
AcDbXrecord
280
     1
290
     1
  0
XRECORD
  5
52DA5
102
{ACAD_REACTORS
330
52DA4
102
}
330
52DA4
100
AcDbXrecord
280
     1
290
     1
  0
XRECORD
  5
52DA7
102
{ACAD_REACTORS
330
52DA6
102
}
330
52DA6
100
AcDbXrecord
280
     1
290
     1
  0
XRECORD
  5
52DA9
102
{ACAD_REACTORS
330
52DA8
102
}
330
52DA8
100
AcDbXrecord
280
     1
290
     1
  0
XRECORD
  5
52DAB
102
{ACAD_REACTORS
330
52DAA
102
}
330
52DAA
100
AcDbXrecord
280
     1
290
     1
  0
XRECORD
  5
52DAD
102
{ACAD_REACTORS
330
52DAC
102
}
330
52DAC
100
AcDbXrecord
280
     1
290
     1
  0
XRECORD
  5
52DAF
102
{ACAD_REACTORS
330
52DAE
102
}
330
52DAE
100
AcDbXrecord
280
     1
290
     1
  0
SORTENTSTABLE
  5
531D3
102
{ACAD_REACTORS
330
531D2
102
}
330
531D2
100
AcDbSortentsTable
330
53188
  0
XRECORD
  5
53309
102
{ACAD_REACTORS
330
53308
102
}
330
53308
100
AcDbXrecord
280
     1
 40
19139.0
  1
\pxqc;INSET CUT OUT
  0
DIMASSOC
  5
5319A
102
{ACAD_REACTORS
330
53199
102
}
330
53199
100
AcDbDimAssoc
330
53198
 90
        3
 70
     0
 71
     0
  1
AcDbOsnapPointRef
 72
    13
331
53193
 73
     0
 91
        0
 40
0.0
 10
0.0
 20
0.0
 30
2.000000000000000E+50
 75
     0
  1
AcDbOsnapPointRef
 72
     1
331
53190
 73
     0
 91
        0
 40
0.0
 10
0.0
 20
0.0
 30
2.000000000000000E+50
 75
     0
  0
XRECORD
  5
5330B
102
{ACAD_REACTORS
330
5330A
102
}
330
5330A
100
AcDbXrecord
280
     1
 40
19139.0
  1
\pxqc;INSET CUT OUT
  0
DIMASSOC
  5
531AA
102
{ACAD_REACTORS
330
531A9
102
}
330
531A9
100
AcDbDimAssoc
330
531A8
 90
        3
 70
     0
 71
     0
  1
AcDbOsnapPointRef
 72
    13
331
5319D
 73
     0
 91
        0
 40
0.0
 10
0.0
 20
0.0
 30
2.000000000000000E+50
 75
     0
  1
AcDbOsnapPointRef
 72
    13
331
5319E
 73
     0
 91
        0
 40
0.0
 10
0.0
 20
0.0
 30
2.000000000000000E+50
 75
     0
  0
DIMASSOC
  5
531AD
102
{ACAD_REACTORS
330
531AC
102
}
330
531AC
100
AcDbDimAssoc
330
531AB
 90
        3
 70
     0
 71
     0
  1
AcDbOsnapPointRef
 72
    13
331
531A2
 73
     0
 91
        0
 40
0.0
 10
0.0
 20
0.0
 30
2.000000000000000E+50
 75
     0
  1
AcDbOsnapPointRef
 72
     1
331
5319D
 73
     0
 91
        0
 40
0.0
 10
0.0
 20
0.0
 30
2.000000000000000E+50
 75
     0
  0
DIMASSOC
  5
531B0
102
{ACAD_REACTORS
330
531AF
102
}
330
531AF
100
AcDbDimAssoc
330
531AE
 90
        3
 70
     0
 71
     0
  1
AcDbOsnapPointRef
 72
     1
331
531A0
 73
     2
 91
        0
 40
1.0
 10
0.0
 20
0.0
 30
2.000000000000000E+50
 75
     0
  1
AcDbOsnapPointRef
 72
     1
331
531A1
 73
     2
 91
        0
 40
1.0
 10
0.0
 20
0.0
 30
2.000000000000000E+50
 75
     0
  0
DIMASSOC
  5
531B3
102
{ACAD_REACTORS
330
531B2
102
}
330
531B2
100
AcDbDimAssoc
330
531B1
 90
        1
 70
     0
 71
     0
  1
AcDbOsnapPointRef
 72
     1
331
531A3
 73
     2
 91
        0
 40
3.141592653589792
 10
0.0
 20
0.0
 30
2.000000000000000E+50
 75
     0
  0
XRECORD
  5
5330D
102
{ACAD_REACTORS
330
5330C
102
}
330
5330C
100
AcDbXrecord
280
     1
 40
19139.0
  1
\pxqc;INSET CUT OUT
  0
XRECORD
  5
5330F
102
{ACAD_REACTORS
330
5330E
102
}
330
5330E
100
AcDbXrecord
280
     1
 40
125417.0
  1
\pxqc;BOWL(S), \POVERFLOW,\PTAP AREA
  0
DIMASSOC
  5
531C4
102
{ACAD_REACTORS
330
531C3
102
}
330
531C3
100
AcDbDimAssoc
330
531C2
 90
        3
 70
     0
 71
     0
  1
AcDbOsnapPointRef
 72
    13
331
5318A
 73
     0
 91
        0
 40
0.0
 10
0.0
 20
0.0
 30
2.000000000000000E+50
 75
     0
  1
AcDbOsnapPointRef
 72
     1
331
531B8
 73
     0
 91
        0
 40
0.0
 10
0.0
 20
0.0
 30
2.000000000000000E+50
 75
     0
  0
DIMASSOC
  5
531C7
102
{ACAD_REACTORS
330
531C6
102
}
330
531C6
100
AcDbDimAssoc
330
531C5
 90
        3
 70
     0
 71
     0
  1
AcDbOsnapPointRef
 72
     1
331
531B8
 73
     0
 91
        0
 40
0.0
 10
0.0
 20
0.0
 30
2.000000000000000E+50
 75
     0
  1
AcDbOsnapPointRef
 72
     1
331
531B9
 73
     0
 91
        0
 40
0.0
 10
0.0
 20
0.0
 30
2.000000000000000E+50
 75
     0
  0
DIMASSOC
  5
531CA
102
{ACAD_REACTORS
330
531C9
102
}
330
531C9
100
AcDbDimAssoc
330
531C8
 90
        3
 70
     0
 71
     0
  1
AcDbOsnapPointRef
 72
    13
331
53194
 73
     0
 91
        0
 40
0.0
 10
0.0
 20
0.0
 30
2.000000000000000E+50
 75
     0
  1
AcDbOsnapPointRef
 72
     1
331
53193
 73
     0
 91
        0
 40
0.0
 10
0.0
 20
0.0
 30
2.000000000000000E+50
 75
     0
  0
XRECORD
  5
53311
102
{ACAD_REACTORS
330
53310
102
}
330
53310
100
AcDbXrecord
280
     1
 40
125417.0
  1
\pxqc;BOWL(S), \POVERFLOW,\PTAP AREA
  0
XRECORD
  5
53313
102
{ACAD_REACTORS
330
53312
102
}
330
53312
100
AcDbXrecord
280
     1
 40
125417.0
  1
\pxqc;BOWL(S), \POVERFLOW,\PTAP AREA
  0
XRECORD
  5
53315
102
{ACAD_REACTORS
330
53314
102
}
330
53314
100
AcDbXrecord
280
     1
 40
19139.0
  1
\pxqc;INSET CUT OUT
  0
DIMASSOC
  5
5323D
102
{ACAD_REACTORS
330
5323C
102
}
330
5323C
100
AcDbDimAssoc
330
5323B
 90
        3
 70
     0
 71
     0
  1
AcDbOsnapPointRef
 72
    13
331
53236
 73
     0
 91
        0
 40
0.0
 10
0.0
 20
0.0
 30
2.000000000000000E+50
 75
     0
  1
AcDbOsnapPointRef
 72
     1
331
53233
 73
     0
 91
        0
 40
0.0
 10
0.0
 20
0.0
 30
2.000000000000000E+50
 75
     0
  0
DIMASSOC
  5
53242
102
{ACAD_REACTORS
330
53241
102
}
330
53241
100
AcDbDimAssoc
330
53240
 90
        3
 70
     0
 71
     0
  1
AcDbOsnapPointRef
 72
    13
331
53237
 73
     0
 91
        0
 40
0.0
 10
0.0
 20
0.0
 30
2.000000000000000E+50
 75
     0
  1
AcDbOsnapPointRef
 72
     1
331
53236
 73
     0
 91
        0
 40
0.0
 10
0.0
 20
0.0
 30
2.000000000000000E+50
 75
     0
  0
XRECORD
  5
53317
102
{ACAD_REACTORS
330
53316
102
}
330
53316
100
AcDbXrecord
280
     1
 40
125417.0
  1
\pxqc;BOWL(S), \POVERFLOW,\PTAP AREA
  0
LAYOUT
  5
52C17
102
{ACAD_REACTORS
330
52C0D
102
}
330
52C0D
100
AcDbPlotSettings
  1

  2
\\ABODESERVER\upstairs
  4

  6

 40
0.0
 41
0.0
 42
0.0
 43
0.0
 44
0.0
 45
0.0
 46
0.0
 47
0.0
 48
0.0
 49
0.0
140
0.0
141
0.0
142
1.0
143
1.0
 70
   688
 72
     0
 73
     0
 74
     5
  7

 75
    16
147
1.0
 76
     0
 77
     2
 78
   300
148
0.0
149
0.0
100
AcDbLayout
  1
Layout1
 70
     1
 71
     1
 10
0.0
 20
0.0
 11
420.0
 21
297.0
 12
0.0
 22
0.0
 32
0.0
 14
1.000000000000000E+20
 24
1.000000000000000E+20
 34
1.000000000000000E+20
 15
-1.000000000000000E+20
 25
-1.000000000000000E+20
 35
-1.000000000000000E+20
146
0.0
 13
0.0
 23
0.0
 33
0.0
 16
1.0
 26
0.0
 36
0.0
 17
0.0
 27
1.0
 37
0.0
 76
     0
330
52C14
  0
LAYOUT
  5
52C1B
102
{ACAD_REACTORS
330
52C0D
102
}
330
52C0D
100
AcDbPlotSettings
  1

  2
none_device
  4
Letter_(8.50_x_11.00_Inches)
  6

 40
6.349999904632567
 41
6.349999904632567
 42
6.350006103515625
 43
6.350006103515625
 44
215.8999938964844
 45
279.3999938964844
 46
0.0
 47
0.0
 48
0.0
 49
0.0
140
0.0
141
0.0
142
1.0
143
257.4026605738055
 70
 11952
 72
     0
 73
     1
 74
     0
  7

 75
     0
147
0.0038849637286996
 76
     0
 77
     2
 78
   300
148
-731066.0301792942
149
-637162.055085961
100
AcDbLayout
  1
Model
 70
     1
 71
     0
 10
0.0
 20
0.0
 11
12.0
 21
9.0
 12
0.0
 22
0.0
 32
0.0
 14
0.0
 24
0.0
 34
0.0
 15
0.0
 25
0.0
 35
0.0
146
0.0
 13
0.0
 23
0.0
 33
0.0
 16
1.0
 26
0.0
 36
0.0
 17
0.0
 27
1.0
 37
0.0
 76
     0
330
52C18
331
52C1C
1001
ACAD_PSEXT
1000
None
1000
None
1000
Not applicable
1000
The layout will not be plotted unless a new plotter configuration name is selected.
1070
     0
  0
MATERIAL
  5
52BBD
102
{ACAD_XDICTIONARY
360
52BBE
102
}
102
{ACAD_REACTORS
330
52BB4
102
}
330
52BB4
100
AcDbMaterial
  1
ByBlock
 72
     0
 43
0.0208333333333333
 43
0.0
 43
0.0
 43
0.0
 43
0.0
 43
0.0208333333333333
 43
0.0
 43
0.0
 43
0.0
 43
0.0
 43
1.0
 43
0.0
 43
0.0
 43
0.0
 43
0.0
 43
1.0
 77
     0
 47
0.0208333333333333
 47
0.0
 47
0.0
 47
0.0
 47
0.0
 47
0.0208333333333333
 47
0.0
 47
0.0
 47
0.0
 47
0.0
 47
1.0
 47
0.0
 47
0.0
 47
0.0
 47
0.0
 47
1.0
171
     0
 49
0.0208333333333333
 49
0.0
 49
0.0
 49
0.0
 49
0.0
 49
0.0208333333333333
 49
0.0
 49
0.0
 49
0.0
 49
0.0
 49
1.0
 49
0.0
 49
0.0
 49
0.0
 49
0.0
 49
1.0
175
     0
142
0.0208333333333333
142
0.0
142
0.0
142
0.0
142
0.0
142
0.0208333333333333
142
0.0
142
0.0
142
0.0
142
0.0
142
1.0
142
0.0
142
0.0
142
0.0
142
0.0
142
1.0
179
     0
144
0.0208333333333333
144
0.0
144
0.0
144
0.0
144
0.0
144
0.0208333333333333
144
0.0
144
0.0
144
0.0
144
0.0
144
1.0
144
0.0
144
0.0
144
0.0
144
0.0
144
1.0
147
0.0208333333333333
147
0.0
147
0.0
147
0.0
147
0.0
147
0.0208333333333333
147
0.0
147
0.0
147
0.0
147
0.0
147
1.0
147
0.0
147
0.0
147
0.0
147
0.0
147
1.0
  0
MATERIAL
  5
52BB5
102
{ACAD_XDICTIONARY
360
52BB6
102
}
102
{ACAD_REACTORS
330
52BB4
102
}
330
52BB4
100
AcDbMaterial
  1
ByLayer
 72
     0
 43
0.0208333333333333
 43
0.0
 43
0.0
 43
0.0
 43
0.0
 43
0.0208333333333333
 43
0.0
 43
0.0
 43
0.0
 43
0.0
 43
1.0
 43
0.0
 43
0.0
 43
0.0
 43
0.0
 43
1.0
 77
     0
 47
0.0208333333333333
 47
0.0
 47
0.0
 47
0.0
 47
0.0
 47
0.0208333333333333
 47
0.0
 47
0.0
 47
0.0
 47
0.0
 47
1.0
 47
0.0
 47
0.0
 47
0.0
 47
0.0
 47
1.0
171
     0
 49
0.0208333333333333
 49
0.0
 49
0.0
 49
0.0
 49
0.0
 49
0.0208333333333333
 49
0.0
 49
0.0
 49
0.0
 49
0.0
 49
1.0
 49
0.0
 49
0.0
 49
0.0
 49
0.0
 49
1.0
175
     0
142
0.0208333333333333
142
0.0
142
0.0
142
0.0
142
0.0
142
0.0208333333333333
142
0.0
142
0.0
142
0.0
142
0.0
142
1.0
142
0.0
142
0.0
142
0.0
142
0.0
142
1.0
179
     0
144
0.0208333333333333
144
0.0
144
0.0
144
0.0
144
0.0
144
0.0208333333333333
144
0.0
144
0.0
144
0.0
144
0.0
144
1.0
144
0.0
144
0.0
144
0.0
144
0.0
144
1.0
147
0.0208333333333333
147
0.0
147
0.0
147
0.0
147
0.0
147
0.0208333333333333
147
0.0
147
0.0
147
0.0
147
0.0
147
1.0
147
0.0
147
0.0
147
0.0
147
0.0
147
1.0
  0
MATERIAL
  5
52BC5
102
{ACAD_XDICTIONARY
360
52BC6
102
}
102
{ACAD_REACTORS
330
52BB4
102
}
330
52BB4
100
AcDbMaterial
  1
Global
 72
     0
 43
0.0208333333333333
 43
0.0
 43
0.0
 43
0.0
 43
0.0
 43
0.0208333333333333
 43
0.0
 43
0.0
 43
0.0
 43
0.0
 43
1.0
 43
0.0
 43
0.0
 43
0.0
 43
0.0
 43
1.0
 77
     0
 47
0.0208333333333333
 47
0.0
 47
0.0
 47
0.0
 47
0.0
 47
0.0208333333333333
 47
0.0
 47
0.0
 47
0.0
 47
0.0
 47
1.0
 47
0.0
 47
0.0
 47
0.0
 47
0.0
 47
1.0
171
     0
 49
0.0208333333333333
 49
0.0
 49
0.0
 49
0.0
 49
0.0
 49
0.0208333333333333
 49
0.0
 49
0.0
 49
0.0
 49
0.0
 49
1.0
 49
0.0
 49
0.0
 49
0.0
 49
0.0
 49
1.0
175
     0
142
0.0208333333333333
142
0.0
142
0.0
142
0.0
142
0.0
142
0.0208333333333333
142
0.0
142
0.0
142
0.0
142
0.0
142
1.0
142
0.0
142
0.0
142
0.0
142
0.0
142
1.0
179
     0
144
0.0208333333333333
144
0.0
144
0.0
144
0.0
144
0.0
144
0.0208333333333333
144
0.0
144
0.0
144
0.0
144
0.0
144
1.0
144
0.0
144
0.0
144
0.0
144
0.0
144
1.0
147
0.0208333333333333
147
0.0
147
0.0
147
0.0
147
0.0
147
0.0208333333333333
147
0.0
147
0.0
147
0.0
147
0.0
147
1.0
147
0.0
147
0.0
147
0.0
147
0.0
147
1.0
  0
MLEADERSTYLE
  5
52C12
102
{ACAD_REACTORS
330
52C11
102
}
330
52C11
100
AcDbMLeaderStyle
170
     2
171
     1
172
     0
 90
        2
 40
0.0
 41
0.0
173
     1
 91
-1056964608
340
52C06
 92
       -2
290
     1
 42
0.09
291
     1
 43
0.36
  3
Standard
 44
0.18
300

342
52C01
174
     1
178
     6
175
     1
176
     0
 93
-1056964608
 45
0.18
292
     0
297
     0
 46
0.18
 94
-1056964608
 47
1.0
 49
1.0
140
1.0
293
     1
141
0.0
294
     1
177
     0
142
1.0
295
     0
296
     0
143
0.125
1001
ACAD_MLEADERVER
1070
     2
  0
MLINESTYLE
  5
52C0B
102
{ACAD_REACTORS
330
52C0A
102
}
330
52C0A
100
AcDbMlineStyle
  2
STANDARD
 70
     0
  3

 62
   256
 51
90.0
 52
90.0
 71
     2
 49
0.5
 62
   256
  6
BYLAYER
 49
-0.5
 62
   256
  6
BYLAYER
  0
ACDBPLACEHOLDER
  5
52BB3
102
{ACAD_REACTORS
330
52BB2
102
}
330
52BB2
  0
SCALE
  5
52BDF
102
{ACAD_REACTORS
330
52BDE
102
}
330
52BDE
100
AcDbScale
 70
     0
300
1:1
140
1.0
141
1.0
290
     1
  0
SCALE
  5
52BE0
102
{ACAD_REACTORS
330
52BDE
102
}
330
52BDE
100
AcDbScale
 70
     0
300
1:2
140
1.0
141
2.0
290
     0
  0
SCALE
  5
52BE1
102
{ACAD_REACTORS
330
52BDE
102
}
330
52BDE
100
AcDbScale
 70
     0
300
1:4
140
1.0
141
4.0
290
     0
  0
SCALE
  5
52BE2
102
{ACAD_REACTORS
330
52BDE
102
}
330
52BDE
100
AcDbScale
 70
     0
300
1:5
140
1.0
141
5.0
290
     0
  0
SCALE
  5
52BE3
102
{ACAD_REACTORS
330
52BDE
102
}
330
52BDE
100
AcDbScale
 70
     0
300
1:8
140
1.0
141
8.0
290
     0
  0
SCALE
  5
52BE4
102
{ACAD_REACTORS
330
52BDE
102
}
330
52BDE
100
AcDbScale
 70
     0
300
1:10
140
1.0
141
10.0
290
     0
  0
SCALE
  5
52BE5
102
{ACAD_REACTORS
330
52BDE
102
}
330
52BDE
100
AcDbScale
 70
     0
300
1:16
140
1.0
141
16.0
290
     0
  0
SCALE
  5
52BE6
102
{ACAD_REACTORS
330
52BDE
102
}
330
52BDE
100
AcDbScale
 70
     0
300
1:20
140
1.0
141
20.0
290
     0
  0
SCALE
  5
52BE7
102
{ACAD_REACTORS
330
52BDE
102
}
330
52BDE
100
AcDbScale
 70
     0
300
1:30
140
1.0
141
30.0
290
     0
  0
SCALE
  5
52BE8
102
{ACAD_REACTORS
330
52BDE
102
}
330
52BDE
100
AcDbScale
 70
     0
300
1:40
140
1.0
141
40.0
290
     0
  0
SCALE
  5
52BE9
102
{ACAD_REACTORS
330
52BDE
102
}
330
52BDE
100
AcDbScale
 70
     0
300
1:50
140
1.0
141
50.0
290
     0
  0
SCALE
  5
52BEA
102
{ACAD_REACTORS
330
52BDE
102
}
330
52BDE
100
AcDbScale
 70
     0
300
1:100
140
1.0
141
100.0
290
     0
  0
SCALE
  5
52BEB
102
{ACAD_REACTORS
330
52BDE
102
}
330
52BDE
100
AcDbScale
 70
     0
300
2:1
140
2.0
141
1.0
290
     0
  0
SCALE
  5
52BEC
102
{ACAD_REACTORS
330
52BDE
102
}
330
52BDE
100
AcDbScale
 70
     0
300
4:1
140
4.0
141
1.0
290
     0
  0
SCALE
  5
52BED
102
{ACAD_REACTORS
330
52BDE
102
}
330
52BDE
100
AcDbScale
 70
     0
300
8:1
140
8.0
141
1.0
290
     0
  0
SCALE
  5
52BEE
102
{ACAD_REACTORS
330
52BDE
102
}
330
52BDE
100
AcDbScale
 70
     0
300
10:1
140
10.0
141
1.0
290
     0
  0
SCALE
  5
52BEF
102
{ACAD_REACTORS
330
52BDE
102
}
330
52BDE
100
AcDbScale
 70
     0
300
100:1
140
100.0
141
1.0
290
     0
  0
SCALE
  5
52BF0
102
{ACAD_REACTORS
330
52BDE
102
}
330
52BDE
100
AcDbScale
 70
     0
300
1/128" = 1'-0"
140
0.0078125
141
12.0
290
     0
  0
SCALE
  5
52BF1
102
{ACAD_REACTORS
330
52BDE
102
}
330
52BDE
100
AcDbScale
 70
     0
300
1/64" = 1'-0"
140
0.015625
141
12.0
290
     0
  0
SCALE
  5
52BF2
102
{ACAD_REACTORS
330
52BDE
102
}
330
52BDE
100
AcDbScale
 70
     0
300
1/32" = 1'-0"
140
0.03125
141
12.0
290
     0
  0
SCALE
  5
52BF3
102
{ACAD_REACTORS
330
52BDE
102
}
330
52BDE
100
AcDbScale
 70
     0
300
1/16" = 1'-0"
140
0.0625
141
12.0
290
     0
  0
SCALE
  5
52BF4
102
{ACAD_REACTORS
330
52BDE
102
}
330
52BDE
100
AcDbScale
 70
     0
300
3/32" = 1'-0"
140
0.09375
141
12.0
290
     0
  0
SCALE
  5
52BF5
102
{ACAD_REACTORS
330
52BDE
102
}
330
52BDE
100
AcDbScale
 70
     0
300
1/8" = 1'-0"
140
0.125
141
12.0
290
     0
  0
SCALE
  5
52BF6
102
{ACAD_REACTORS
330
52BDE
102
}
330
52BDE
100
AcDbScale
 70
     0
300
3/16" = 1'-0"
140
0.1875
141
12.0
290
     0
  0
SCALE
  5
52BF7
102
{ACAD_REACTORS
330
52BDE
102
}
330
52BDE
100
AcDbScale
 70
     0
300
1/4" = 1'-0"
140
0.25
141
12.0
290
     0
  0
SCALE
  5
52BF8
102
{ACAD_REACTORS
330
52BDE
102
}
330
52BDE
100
AcDbScale
 70
     0
300
3/8" = 1'-0"
140
0.375
141
12.0
290
     0
  0
SCALE
  5
52BF9
102
{ACAD_REACTORS
330
52BDE
102
}
330
52BDE
100
AcDbScale
 70
     0
300
1/2" = 1'-0"
140
0.5
141
12.0
290
     0
  0
SCALE
  5
52BFA
102
{ACAD_REACTORS
330
52BDE
102
}
330
52BDE
100
AcDbScale
 70
     0
300
3/4" = 1'-0"
140
0.75
141
12.0
290
     0
  0
SCALE
  5
52BFB
102
{ACAD_REACTORS
330
52BDE
102
}
330
52BDE
100
AcDbScale
 70
     0
300
1" = 1'-0"
140
1.0
141
12.0
290
     0
  0
SCALE
  5
52BFC
102
{ACAD_REACTORS
330
52BDE
102
}
330
52BDE
100
AcDbScale
 70
     0
300
1-1/2" = 1'-0"
140
1.5
141
12.0
290
     0
  0
SCALE
  5
52BFD
102
{ACAD_REACTORS
330
52BDE
102
}
330
52BDE
100
AcDbScale
 70
     0
300
3" = 1'-0"
140
3.0
141
12.0
290
     0
  0
SCALE
  5
52BFE
102
{ACAD_REACTORS
330
52BDE
102
}
330
52BDE
100
AcDbScale
 70
     0
300
6" = 1'-0"
140
6.0
141
12.0
290
     0
  0
SCALE
  5
52BFF
102
{ACAD_REACTORS
330
52BDE
102
}
330
52BDE
100
AcDbScale
 70
     0
300
1'-0" = 1'-0"
140
12.0
141
12.0
290
     0
  0
TABLESTYLE
  5
52C10
102
{ACAD_XDICTIONARY
360
52DB8
102
}
102
{ACAD_REACTORS
330
52C0F
102
}
330
52C0F
100
AcDbTableStyle
  3
Standard
 70
     0
 71
     0
 40
0.06
 41
0.06
280
     0
281
     0
  7
STANDARD
140
0.18
170
     2
 62
     0
 63
     7
283
     0
 90
      512
 91
        0
  1

274
    -2
284
     1
 64
     0
275
    -2
285
     1
 65
     0
276
    -2
286
     1
 66
     0
277
    -2
287
     1
 67
     0
278
    -2
288
     1
 68
     0
279
    -2
289
     1
 69
     0
  7
STANDARD
140
0.25
170
     5
 62
     0
 63
     7
283
     0
 90
      512
 91
        0
  1

274
    -2
284
     1
 64
     0
275
    -2
285
     1
 65
     0
276
    -2
286
     1
 66
     0
277
    -2
287
     1
 67
     0
278
    -2
288
     1
 68
     0
279
    -2
289
     1
 69
     0
  7
STANDARD
140
0.18
170
     5
 62
     0
 63
     7
283
     0
 90
      512
 91
        0
  1

274
    -2
284
     1
 64
     0
275
    -2
285
     1
 65
     0
276
    -2
286
     1
 66
     0
277
    -2
287
     1
 67
     0
278
    -2
288
     1
 68
     0
279
    -2
289
     1
 69
     0
  0
VISUALSTYLE
  5
52BD3
102
{ACAD_REACTORS
330
52BCD
102
}
330
52BCD
100
AcDbVisualStyle
  2
2dWireframe
 70
     4
 71
     0
 72
     2
 73
     0
 90
        0
 40
-0.6
 41
-30.0
 62
     5
 63
     7
421
 16777215
 74
     1
 91
        4
 64
     7
 65
   257
 75
     1
175
     1
 42
1.0
 92
        0
 66
   257
 43
1.0
 76
     1
 77
     6
 78
     2
 67
     7
 79
     5
170
     0
171
     0
290
     0
174
     0
 93
        1
 44
0.0
173
     0
291
     0
 45
0.0
  0
VISUALSTYLE
  5
52BD5
102
{ACAD_REACTORS
330
52BCD
102
}
330
52BCD
100
AcDbVisualStyle
  2
3D Hidden
 70
     6
 71
     1
 72
     2
 73
     2
 90
        0
 40
-0.6
 41
-30.0
 62
     5
 63
     7
421
 16777215
 74
     2
 91
        2
 64
     7
 65
   257
 75
     2
175
     1
 42
40.0
 92
        0
 66
   257
 43
1.0
 76
     1
 77
     6
 78
     2
 67
     7
 79
     3
170
     0
171
     0
290
     0
174
     0
 93
        1
 44
0.0
173
     0
291
     0
 45
0.0
  0
VISUALSTYLE
  5
52BD4
102
{ACAD_REACTORS
330
52BCD
102
}
330
52BCD
100
AcDbVisualStyle
  2
3dWireframe
 70
     5
 71
     0
 72
     2
 73
     0
 90
        0
 40
-0.6
 41
-30.0
 62
     5
 63
     7
421
 16777215
 74
     1
 91
        4
 64
     7
 65
   257
 75
     1
175
     1
 42
1.0
 92
        0
 66
   257
 43
1.0
 76
     1
 77
     6
 78
     2
 67
     7
 79
     5
170
     0
171
     0
290
     0
174
     0
 93
        1
 44
0.0
173
     0
291
     0
 45
0.0
  0
VISUALSTYLE
  5
52BD2
102
{ACAD_REACTORS
330
52BCD
102
}
330
52BCD
100
AcDbVisualStyle
  2
Basic
 70
     7
 71
     1
 72
     0
 73
     1
 90
        0
 40
-0.6
 41
-30.0
 62
     5
 63
     7
421
 16777215
 74
     0
 91
        4
 64
     7
 65
   257
 75
     1
175
     1
 42
1.0
 92
        8
 66
     7
 43
1.0
 76
     1
 77
     6
 78
     2
 67
     7
 79
     5
170
     0
171
     0
290
     0
174
     0
 93
        1
 44
0.0
173
     0
291
     1
 45
0.0
  0
VISUALSTYLE
  5
52BD9
102
{ACAD_REACTORS
330
52BCD
102
}
330
52BCD
100
AcDbVisualStyle
  2
Brighten
 70
    12
 71
     2
 72
     2
 73
     0
 90
        0
 40
-0.6
 41
-30.0
 62
     5
 63
     7
421
 16777215
 74
     1
 91
        4
 64
     7
 65
   257
 75
     1
175
     1
 42
1.0
 92
        8
 66
     7
 43
1.0
 76
     1
 77
     6
 78
     2
 67
     7
 79
     5
170
     0
171
     0
290
     0
174
     0
 93
        1
 44
50.0
173
     0
291
     1
 45
0.0
  0
VISUALSTYLE
  5
52BDD
102
{ACAD_REACTORS
330
52BCD
102
}
330
52BCD
100
AcDbVisualStyle
  2
ColorChange
 70
    16
 71
     2
 72
     2
 73
     3
 90
        0
 40
-0.6
 41
-30.0
 62
     5
 63
     8
421
  8421504
 74
     1
 91
        4
 64
     7
 65
   257
 75
     1
175
     1
 42
1.0
 92
        8
 66
     8
424
  8421504
 43
1.0
 76
     1
 77
     6
 78
     2
 67
     7
 79
     5
170
     0
171
     0
290
     0
174
     0
 93
        1
 44
0.0
173
     0
291
     1
 45
0.0
  0
VISUALSTYLE
  5
52BD6
102
{ACAD_REACTORS
330
52BCD
102
}
330
52BCD
100
AcDbVisualStyle
  2
Conceptual
 70
     9
 71
     3
 72
     2
 73
     0
 90
        0
 40
-0.6
 41
-30.0
 62
     5
 63
     7
421
 16777215
 74
     2
 91
        2
 64
     7
 65
   257
 75
     1
175
     1
 42
40.0
 92
        8
 66
     7
 43
1.0
 76
     1
 77
     6
 78
     2
 67
     7
 79
     3
170
     0
171
     0
290
     0
174
     0
 93
        1
 44
0.0
173
     0
291
     0
 45
0.0
  0
VISUALSTYLE
  5
52BD8
102
{ACAD_REACTORS
330
52BCD
102
}
330
52BCD
100
AcDbVisualStyle
  2
Dim
 70
    11
 71
     2
 72
     2
 73
     0
 90
        0
 40
-0.6
 41
-30.0
 62
     5
 63
     7
421
 16777215
 74
     1
 91
        4
 64
     7
 65
   257
 75
     1
175
     1
 42
1.0
 92
        8
 66
     7
 43
1.0
 76
     1
 77
     6
 78
     2
 67
     7
 79
     5
170
     0
171
     0
290
     0
174
     0
 93
        1
 44
-50.0
173
     0
291
     1
 45
0.0
  0
VISUALSTYLE
  5
52BDC
102
{ACAD_REACTORS
330
52BCD
102
}
330
52BCD
100
AcDbVisualStyle
  2
Facepattern
 70
    15
 71
     2
 72
     2
 73
     0
 90
        0
 40
-0.6
 41
-30.0
 62
     5
 63
     7
421
 16777215
 74
     1
 91
        4
 64
     7
 65
   257
 75
     1
175
     1
 42
1.0
 92
        8
 66
     7
 43
1.0
 76
     1
 77
     6
 78
     2
 67
     7
 79
     5
170
     0
171
     0
290
     0
174
     0
 93
        1
 44
0.0
173
     0
291
     1
 45
0.0
  0
VISUALSTYLE
  5
52BCE
102
{ACAD_REACTORS
330
52BCD
102
}
330
52BCD
100
AcDbVisualStyle
  2
Flat
 70
     0
 71
     2
 72
     1
 73
     1
 90
        2
 40
-0.6
 41
30.0
 62
     5
 63
     7
421
 16777215
 74
     0
 91
        4
 64
     7
 65
   257
 75
     1
175
     1
 42
1.0
 92
        8
 66
     7
 43
1.0
 76
     1
 77
     6
 78
     2
 67
     7
 79
     5
170
     0
171
     0
290
     0
174
     0
 93
       13
 44
0.0
173
     0
291
     1
 45
0.0
  0
VISUALSTYLE
  5
52BCF
102
{ACAD_REACTORS
330
52BCD
102
}
330
52BCD
100
AcDbVisualStyle
  2
FlatWithEdges
 70
     1
 71
     2
 72
     1
 73
     1
 90
        2
 40
-0.6
 41
30.0
 62
     5
 63
     7
421
 16777215
 74
     1
 91
        4
 64
     7
 65
   257
 75
     1
175
     1
 42
1.0
 92
        0
 66
   257
 43
1.0
 76
     1
 77
     6
 78
     2
 67
     7
 79
     5
170
     0
171
     0
290
     0
174
     0
 93
       13
 44
0.0
173
     0
291
     1
 45
0.0
  0
VISUALSTYLE
  5
52BD0
102
{ACAD_REACTORS
330
52BCD
102
}
330
52BCD
100
AcDbVisualStyle
  2
Gouraud
 70
     2
 71
     2
 72
     2
 73
     1
 90
        2
 40
-0.6
 41
30.0
 62
     5
 63
     7
421
 16777215
 74
     0
 91
        4
 64
     7
 65
   257
 75
     1
175
     1
 42
1.0
 92
        0
 66
     7
 43
1.0
 76
     1
 77
     6
 78
     2
 67
     7
 79
     5
170
     0
171
     0
290
     0
174
     0
 93
       13
 44
0.0
173
     0
291
     1
 45
0.0
  0
VISUALSTYLE
  5
52BD1
102
{ACAD_REACTORS
330
52BCD
102
}
330
52BCD
100
AcDbVisualStyle
  2
GouraudWithEdges
 70
     3
 71
     2
 72
     2
 73
     1
 90
        2
 40
-0.6
 41
30.0
 62
     5
 63
     7
421
 16777215
 74
     1
 91
        4
 64
     7
 65
   257
 75
     1
175
     1
 42
1.0
 92
        0
 66
   257
 43
1.0
 76
     1
 77
     6
 78
     2
 67
     7
 79
     5
170
     0
171
     0
290
     0
174
     0
 93
       13
 44
0.0
173
     0
291
     1
 45
0.0
  0
VISUALSTYLE
  5
52BDB
102
{ACAD_REACTORS
330
52BCD
102
}
330
52BCD
100
AcDbVisualStyle
  2
Linepattern
 70
    14
 71
     2
 72
     2
 73
     0
 90
        0
 40
-0.6
 41
-30.0
 62
     5
 63
     7
421
 16777215
 74
     1
 91
        4
 64
     7
 65
   257
 75
     7
175
     7
 42
1.0
 92
        8
 66
     7
 43
1.0
 76
     1
 77
     6
 78
     2
 67
     7
 79
     5
170
     0
171
     0
290
     0
174
     0
 93
        1
 44
0.0
173
     0
291
     1
 45
0.0
  0
VISUALSTYLE
  5
52BD7
102
{ACAD_REACTORS
330
52BCD
102
}
330
52BCD
100
AcDbVisualStyle
  2
Realistic
 70
     8
 71
     2
 72
     2
 73
     0
 90
        0
 40
-0.6
 41
-30.0
 62
     5
 63
     7
421
 16777215
 74
     1
 91
        0
 64
     7
 65
   257
 75
     1
175
     1
 42
1.0
 92
        8
 66
     8
424
  7895160
 43
1.0
 76
     1
 77
     6
 78
     2
 67
     7
 79
     5
170
     0
171
     0
290
     0
174
     0
 93
       13
 44
0.0
173
     0
291
     0
 45
0.0
  0
VISUALSTYLE
  5
52BDA
102
{ACAD_REACTORS
330
52BCD
102
}
330
52BCD
100
AcDbVisualStyle
  2
Thicken
 70
    13
 71
     2
 72
     2
 73
     0
 90
        0
 40
-0.6
 41
-30.0
 62
     5
 63
     7
421
 16777215
 74
     1
 91
        4
 64
     7
 65
   257
 75
     1
175
     1
 42
1.0
 92
       12
 66
     7
 43
1.0
 76
     1
 77
     6
 78
     2
 67
     7
 79
     5
170
     0
171
     0
290
     0
174
     0
 93
        1
 44
0.0
173
     0
291
     1
 45
0.0
  0
DICTIONARYVAR
  5
52DB4
102
{ACAD_REACTORS
330
52DB0
102
}
330
52DB0
100
DictionaryVariables
280
     0
  1
1:1
  0
DICTIONARYVAR
  5
52DB2
102
{ACAD_REACTORS
330
52DB0
102
}
330
52DB0
100
DictionaryVariables
280
     0
  1
STANDARD
  0
DICTIONARYVAR
  5
52DB1
102
{ACAD_REACTORS
330
52DB0
102
}
330
52DB0
100
DictionaryVariables
280
     0
  1
STANDARD
  0
DICTIONARYVAR
  5
52DB6
102
{ACAD_REACTORS
330
52DB0
102
}
330
52DB0
100
DictionaryVariables
280
     0
  1
1
  0
DICTIONARYVAR
  5
52DB7
102
{ACAD_REACTORS
330
52DB0
102
}
330
52DB0
100
DictionaryVariables
280
     0
  1
15
  0
DICTIONARYVAR
  5
52DB5
102
{ACAD_REACTORS
330
52DB0
102
}
330
52DB0
100
DictionaryVariables
280
     0
  1
0
  0
DICTIONARYVAR
  5
52DB3
102
{ACAD_REACTORS
330
52DB0
102
}
330
52DB0
100
DictionaryVariables
280
     0
  1
0
  0
DICTIONARY
  5
52BBE
330
52BBD
100
AcDbDictionary
280
     1
281
     1
  3
BUMPTILE
360
52BC0
  3
DIFFUSETILE
360
52BBF
  3
OPACITYTILE
360
52BC3
  3
REFLECTIONTILE
360
52BC2
  3
REFRACTIONTILE
360
52BC4
  3
SPECULARTILE
360
52BC1
  0
DICTIONARY
  5
52BB6
330
52BB5
100
AcDbDictionary
280
     1
281
     1
  3
BUMPTILE
360
52BB8
  3
DIFFUSETILE
360
52BB7
  3
OPACITYTILE
360
52BBB
  3
REFLECTIONTILE
360
52BBA
  3
REFRACTIONTILE
360
52BBC
  3
SPECULARTILE
360
52BB9
  0
DICTIONARY
  5
52BC6
330
52BC5
100
AcDbDictionary
280
     1
281
     1
  3
BUMPTILE
360
52BC8
  3
DIFFUSETILE
360
52BC7
  3
OPACITYTILE
360
52BCB
  3
REFLECTIONTILE
360
52BCA
  3
REFRACTIONTILE
360
52BCC
  3
SPECULARTILE
360
52BC9
  0
DICTIONARY
  5
52DB8
330
52C10
100
AcDbDictionary
280
     1
281
     1
  3
ACAD_ROUNDTRIP_2008_TABLESTYLE_CELLSTYLEMAP
360
53307
  0
XRECORD
  5
52BC0
102
{ACAD_REACTORS
330
52BBE
102
}
330
52BBE
100
AcDbXrecord
280
     1
270
     1
271
     1
  0
XRECORD
  5
52BBF
102
{ACAD_REACTORS
330
52BBE
102
}
330
52BBE
100
AcDbXrecord
280
     1
270
     1
271
     1
  0
XRECORD
  5
52BC3
102
{ACAD_REACTORS
330
52BBE
102
}
330
52BBE
100
AcDbXrecord
280
     1
270
     1
271
     1
  0
XRECORD
  5
52BC2
102
{ACAD_REACTORS
330
52BBE
102
}
330
52BBE
100
AcDbXrecord
280
     1
270
     1
271
     1
  0
XRECORD
  5
52BC4
102
{ACAD_REACTORS
330
52BBE
102
}
330
52BBE
100
AcDbXrecord
280
     1
270
     1
271
     1
  0
XRECORD
  5
52BC1
102
{ACAD_REACTORS
330
52BBE
102
}
330
52BBE
100
AcDbXrecord
280
     1
270
     1
271
     1
  0
XRECORD
  5
52BB8
102
{ACAD_REACTORS
330
52BB6
102
}
330
52BB6
100
AcDbXrecord
280
     1
270
     1
271
     1
  0
XRECORD
  5
52BB7
102
{ACAD_REACTORS
330
52BB6
102
}
330
52BB6
100
AcDbXrecord
280
     1
270
     1
271
     1
  0
XRECORD
  5
52BBB
102
{ACAD_REACTORS
330
52BB6
102
}
330
52BB6
100
AcDbXrecord
280
     1
270
     1
271
     1
  0
XRECORD
  5
52BBA
102
{ACAD_REACTORS
330
52BB6
102
}
330
52BB6
100
AcDbXrecord
280
     1
270
     1
271
     1
  0
XRECORD
  5
52BBC
102
{ACAD_REACTORS
330
52BB6
102
}
330
52BB6
100
AcDbXrecord
280
     1
270
     1
271
     1
  0
XRECORD
  5
52BB9
102
{ACAD_REACTORS
330
52BB6
102
}
330
52BB6
100
AcDbXrecord
280
     1
270
     1
271
     1
  0
XRECORD
  5
52BC8
102
{ACAD_REACTORS
330
52BC6
102
}
330
52BC6
100
AcDbXrecord
280
     1
270
     1
271
     1
  0
XRECORD
  5
52BC7
102
{ACAD_REACTORS
330
52BC6
102
}
330
52BC6
100
AcDbXrecord
280
     1
270
     1
271
     1
  0
XRECORD
  5
52BCB
102
{ACAD_REACTORS
330
52BC6
102
}
330
52BC6
100
AcDbXrecord
280
     1
270
     1
271
     1
  0
XRECORD
  5
52BCA
102
{ACAD_REACTORS
330
52BC6
102
}
330
52BC6
100
AcDbXrecord
280
     1
270
     1
271
     1
  0
XRECORD
  5
52BCC
102
{ACAD_REACTORS
330
52BC6
102
}
330
52BC6
100
AcDbXrecord
280
     1
270
     1
271
     1
  0
XRECORD
  5
52BC9
102
{ACAD_REACTORS
330
52BC6
102
}
330
52BC6
100
AcDbXrecord
280
     1
270
     1
271
     1
  0
CELLSTYLEMAP
  5
53307
102
{ACAD_REACTORS
330
52DB8
102
}
330
52DB8
100
AcDbCellStyleMap
 90
        3
300
CELLSTYLE
  1
TABLEFORMAT_BEGIN
 90
        5
170
     1
 91
        0
 92
    32768
 62
   257
 93
        1
300
CONTENTFORMAT
  1
CONTENTFORMAT_BEGIN
 90
        0
 91
        0
 92
      512
 93
        0
300

 40
0.0
140
1.0
 94
        5
 62
     0
340
52C01
144
0.25
309
CONTENTFORMAT_END
171
     1
301
MARGIN
  1
CELLMARGIN_BEGIN
 40
0.06
 40
0.06
 40
0.06
 40
0.06
 40
0.18
 40
0.18
309
CELLMARGIN_END
 94
        6
 95
        1
302
GRIDFORMAT
  1
GRIDFORMAT_BEGIN
 90
        0
 91
        1
 62
     0
 92
       -2
340
0
 93
        0
 40
0.045
309
GRIDFORMAT_END
 95
        2
302
GRIDFORMAT
  1
GRIDFORMAT_BEGIN
 90
        0
 91
        1
 62
     0
 92
       -2
340
0
 93
        0
 40
0.045
309
GRIDFORMAT_END
 95
        4
302
GRIDFORMAT
  1
GRIDFORMAT_BEGIN
 90
        0
 91
        1
 62
     0
 92
       -2
340
0
 93
        0
 40
0.045
309
GRIDFORMAT_END
 95
        8
302
GRIDFORMAT
  1
GRIDFORMAT_BEGIN
 90
        0
 91
        1
 62
     0
 92
       -2
340
0
 93
        0
 40
0.045
309
GRIDFORMAT_END
 95
       16
302
GRIDFORMAT
  1
GRIDFORMAT_BEGIN
 90
        0
 91
        1
 62
     0
 92
       -2
340
0
 93
        0
 40
0.045
309
GRIDFORMAT_END
 95
       32
302
GRIDFORMAT
  1
GRIDFORMAT_BEGIN
 90
        0
 91
        1
 62
     0
 92
       -2
340
0
 93
        0
 40
0.045
309
GRIDFORMAT_END
309
TABLEFORMAT_END
  1
CELLSTYLE_BEGIN
 90
        1
 91
        1
300
_TITLE
309
CELLSTYLE_END
300
CELLSTYLE
  1
TABLEFORMAT_BEGIN
 90
        5
170
     1
 91
        0
 92
        0
 62
   257
 93
        1
300
CONTENTFORMAT
  1
CONTENTFORMAT_BEGIN
 90
        0
 91
        0
 92
      512
 93
        0
300

 40
0.0
140
1.0
 94
        5
 62
     0
340
52C01
144
0.18
309
CONTENTFORMAT_END
171
     1
301
MARGIN
  1
CELLMARGIN_BEGIN
 40
0.06
 40
0.06
 40
0.06
 40
0.06
 40
0.18
 40
0.18
309
CELLMARGIN_END
 94
        6
 95
        1
302
GRIDFORMAT
  1
GRIDFORMAT_BEGIN
 90
        0
 91
        1
 62
     0
 92
       -2
340
0
 93
        0
 40
0.045
309
GRIDFORMAT_END
 95
        2
302
GRIDFORMAT
  1
GRIDFORMAT_BEGIN
 90
        0
 91
        1
 62
     0
 92
       -2
340
0
 93
        0
 40
0.045
309
GRIDFORMAT_END
 95
        4
302
GRIDFORMAT
  1
GRIDFORMAT_BEGIN
 90
        0
 91
        1
 62
     0
 92
       -2
340
0
 93
        0
 40
0.045
309
GRIDFORMAT_END
 95
        8
302
GRIDFORMAT
  1
GRIDFORMAT_BEGIN
 90
        0
 91
        1
 62
     0
 92
       -2
340
0
 93
        0
 40
0.045
309
GRIDFORMAT_END
 95
       16
302
GRIDFORMAT
  1
GRIDFORMAT_BEGIN
 90
        0
 91
        1
 62
     0
 92
       -2
340
0
 93
        0
 40
0.045
309
GRIDFORMAT_END
 95
       32
302
GRIDFORMAT
  1
GRIDFORMAT_BEGIN
 90
        0
 91
        1
 62
     0
 92
       -2
340
0
 93
        0
 40
0.045
309
GRIDFORMAT_END
309
TABLEFORMAT_END
  1
CELLSTYLE_BEGIN
 90
        2
 91
        1
300
_HEADER
309
CELLSTYLE_END
300
CELLSTYLE
  1
TABLEFORMAT_BEGIN
 90
        5
170
     1
 91
        0
 92
        0
 62
   257
 93
        1
300
CONTENTFORMAT
  1
CONTENTFORMAT_BEGIN
 90
        0
 91
        0
 92
      512
 93
        0
300

 40
0.0
140
1.0
 94
        2
 62
     0
340
52C01
144
0.18
309
CONTENTFORMAT_END
171
     1
301
MARGIN
  1
CELLMARGIN_BEGIN
 40
0.06
 40
0.06
 40
0.06
 40
0.06
 40
0.18
 40
0.18
309
CELLMARGIN_END
 94
        6
 95
        1
302
GRIDFORMAT
  1
GRIDFORMAT_BEGIN
 90
        0
 91
        1
 62
     0
 92
       -2
340
0
 93
        0
 40
0.045
309
GRIDFORMAT_END
 95
        2
302
GRIDFORMAT
  1
GRIDFORMAT_BEGIN
 90
        0
 91
        1
 62
     0
 92
       -2
340
0
 93
        0
 40
0.045
309
GRIDFORMAT_END
 95
        4
302
GRIDFORMAT
  1
GRIDFORMAT_BEGIN
 90
        0
 91
        1
 62
     0
 92
       -2
340
0
 93
        0
 40
0.045
309
GRIDFORMAT_END
 95
        8
302
GRIDFORMAT
  1
GRIDFORMAT_BEGIN
 90
        0
 91
        1
 62
     0
 92
       -2
340
0
 93
        0
 40
0.045
309
GRIDFORMAT_END
 95
       16
302
GRIDFORMAT
  1
GRIDFORMAT_BEGIN
 90
        0
 91
        1
 62
     0
 92
       -2
340
0
 93
        0
 40
0.045
309
GRIDFORMAT_END
 95
       32
302
GRIDFORMAT
  1
GRIDFORMAT_BEGIN
 90
        0
 91
        1
 62
     0
 92
       -2
340
0
 93
        0
 40
0.045
309
GRIDFORMAT_END
309
TABLEFORMAT_END
  1
CELLSTYLE_BEGIN
 90
        3
 91
        2
300
_DATA
309
CELLSTYLE_END
  0
ENDSEC
  0
EOF
