  0
SECTION
  2
HEADER
  9
$ACADVER
  1
AC1015
  9
$ACADMAINTVER
 70
    20
  9
$DWGCODEPAGE
  3
ANSI_1252
  9
$INSBASE
 10
0.0
 20
0.0
 30
0.0
  9
$EXTMIN
 10
29402.4235651819
 20
23654.57565533231
 30
-0.0015258207003583
  9
$EXTMAX
 10
30895.83401549875
 20
24745.33367095737
 30
0.0000000349246037
  9
$LIMMIN
 10
0.0
 20
0.0
  9
$LIMMAX
 10
420.0
 20
297.0
  9
$ORTHOMODE
 70
     0
  9
$REGENMODE
 70
     1
  9
$FILLMODE
 70
     1
  9
$QTEXTMODE
 70
     0
  9
$MIRRTEXT
 70
     0
  9
$LTSCALE
 40
1.0
  9
$ATTMODE
 70
     1
  9
$TEXTSIZE
 40
2.5
  9
$TRACEWID
 40
1.0
  9
$TEXTSTYLE
  7
STANDARD
  9
$CLAYER
  8
0
  9
$CELTYPE
  6
ByLayer
  9
$CECOLOR
 62
   256
  9
$CELTSCALE
 40
1.0
  9
$DISPSILH
 70
     0
  9
$DIMSCALE
 40
1.0
  9
$DIMASZ
 40
3.5
  9
$DIMEXO
 40
1.0
  9
$DIMDLI
 40
10.0
  9
$DIMRND
 40
0.0
  9
$DIMDLE
 40
0.0
  9
$DIMEXE
 40
1.0
  9
$DIMTP
 40
0.1
  9
$DIMTM
 40
0.1
  9
$DIMTXT
 40
3.5
  9
$DIMCEN
 40
0.0
  9
$DIMTSZ
 40
0.0
  9
$DIMTOL
 70
     0
  9
$DIMLIM
 70
     0
  9
$DIMTIH
 70
     0
  9
$DIMTOH
 70
     0
  9
$DIMSE1
 70
     0
  9
$DIMSE2
 70
     0
  9
$DIMTAD
 70
     1
  9
$DIMZIN
 70
     8
  9
$DIMBLK
  1

  9
$DIMASO
 70
     1
  9
$DIMSHO
 70
     1
  9
$DIMPOST
  1

  9
$DIMAPOST
  1
"
  9
$DIMALT
 70
     0
  9
$DIMALTD
 70
     2
  9
$DIMALTF
 40
0.0393701
  9
$DIMLFAC
 40
1.0
  9
$DIMTOFL
 70
     1
  9
$DIMTVP
 40
0.0
  9
$DIMTIX
 70
     0
  9
$DIMSOXD
 70
     0
  9
$DIMSAH
 70
     0
  9
$DIMBLK1
  1

  9
$DIMBLK2
  1

  9
$DIMSTYLE
  2
AM_ISO
  9
$DIMCLRD
 70
   256
  9
$DIMCLRE
 70
   256
  9
$DIMCLRT
 70
     2
  9
$DIMTFAC
 40
0.71
  9
$DIMGAP
 40
1.5
  9
$DIMJUST
 70
     0
  9
$DIMSD1
 70
     0
  9
$DIMSD2
 70
     0
  9
$DIMTOLJ
 70
     1
  9
$DIMTZIN
 70
     0
  9
$DIMALTZ
 70
     0
  9
$DIMALTTZ
 70
     0
  9
$DIMUPT
 70
     0
  9
$DIMDEC
 70
     4
  9
$DIMTDEC
 70
     4
  9
$DIMALTU
 70
     2
  9
$DIMALTTD
 70
     2
  9
$DIMTXSTY
  7
STANDARD
  9
$DIMAUNIT
 70
     0
  9
$DIMADEC
 70
     0
  9
$DIMALTRND
 40
0.0
  9
$DIMAZIN
 70
     0
  9
$DIMDSEP
 70
    46
  9
$DIMATFIT
 70
     3
  9
$DIMFRAC
 70
     0
  9
$DIMLDRBLK
  1

  9
$DIMLUNIT
 70
     2
  9
$DIMLWD
 70
    -2
  9
$DIMLWE
 70
    -2
  9
$DIMTMOVE
 70
     0
  9
$LUNITS
 70
     2
  9
$LUPREC
 70
     2
  9
$SKETCHINC
 40
1.0
  9
$FILLETRAD
 40
2.5
  9
$AUNITS
 70
     0
  9
$AUPREC
 70
     0
  9
$MENU
  1
.
  9
$ELEVATION
 40
0.0
  9
$PELEVATION
 40
0.0
  9
$THICKNESS
 40
0.0
  9
$LIMCHECK
 70
     0
  9
$CHAMFERA
 40
2.5
  9
$CHAMFERB
 40
2.5
  9
$CHAMFERC
 40
0.0
  9
$CHAMFERD
 40
0.0
  9
$SKPOLY
 70
     0
  9
$TDCREATE
 40
2455251.642918206
  9
$TDUCREATE
 40
2455251.642918206
  9
$TDUPDATE
 40
2455999.492821609
  9
$TDUUPDATE
 40
2455999.492821609
  9
$TDINDWG
 40
0.0347260185
  9
$TDUSRTIMER
 40
0.0347254745
  9
$USRTIMER
 70
     1
  9
$ANGBASE
 50
0.0
  9
$ANGDIR
 70
     0
  9
$PDMODE
 70
     0
  9
$PDSIZE
 40
0.0
  9
$PLINEWID
 40
0.0
  9
$SPLFRAME
 70
     0
  9
$SPLINETYPE
 70
     6
  9
$SPLINESEGS
 70
     8
  9
$HANDSEED
  5
4AB05
  9
$SURFTAB1
 70
     6
  9
$SURFTAB2
 70
     6
  9
$SURFTYPE
 70
     6
  9
$SURFU
 70
     6
  9
$SURFV
 70
     6
  9
$UCSBASE
  2

  9
$UCSNAME
  2

  9
$UCSORG
 10
0.0
 20
0.0
 30
0.0
  9
$UCSXDIR
 10
1.0
 20
0.0
 30
0.0
  9
$UCSYDIR
 10
0.0
 20
1.0
 30
0.0
  9
$UCSORTHOREF
  2

  9
$UCSORTHOVIEW
 70
     0
  9
$UCSORGTOP
 10
0.0
 20
0.0
 30
0.0
  9
$UCSORGBOTTOM
 10
0.0
 20
0.0
 30
0.0
  9
$UCSORGLEFT
 10
0.0
 20
0.0
 30
0.0
  9
$UCSORGRIGHT
 10
0.0
 20
0.0
 30
0.0
  9
$UCSORGFRONT
 10
0.0
 20
0.0
 30
0.0
  9
$UCSORGBACK
 10
0.0
 20
0.0
 30
0.0
  9
$PUCSBASE
  2

  9
$PUCSNAME
  2

  9
$PUCSORG
 10
0.0
 20
0.0
 30
0.0
  9
$PUCSXDIR
 10
1.0
 20
0.0
 30
0.0
  9
$PUCSYDIR
 10
0.0
 20
1.0
 30
0.0
  9
$PUCSORTHOREF
  2

  9
$PUCSORTHOVIEW
 70
     0
  9
$PUCSORGTOP
 10
0.0
 20
0.0
 30
0.0
  9
$PUCSORGBOTTOM
 10
0.0
 20
0.0
 30
0.0
  9
$PUCSORGLEFT
 10
0.0
 20
0.0
 30
0.0
  9
$PUCSORGRIGHT
 10
0.0
 20
0.0
 30
0.0
  9
$PUCSORGFRONT
 10
0.0
 20
0.0
 30
0.0
  9
$PUCSORGBACK
 10
0.0
 20
0.0
 30
0.0
  9
$USERI1
 70
     0
  9
$USERI2
 70
     0
  9
$USERI3
 70
     0
  9
$USERI4
 70
     0
  9
$USERI5
 70
     0
  9
$USERR1
 40
0.0
  9
$USERR2
 40
0.0
  9
$USERR3
 40
0.0
  9
$USERR4
 40
0.0
  9
$USERR5
 40
0.0
  9
$WORLDVIEW
 70
     1
  9
$SHADEDGE
 70
     3
  9
$SHADEDIF
 70
    70
  9
$TILEMODE
 70
     1
  9
$MAXACTVP
 70
    64
  9
$PINSBASE
 10
0.0
 20
0.0
 30
0.0
  9
$PLIMCHECK
 70
     0
  9
$PEXTMIN
 10
1.000000000000000E+20
 20
1.000000000000000E+20
 30
1.000000000000000E+20
  9
$PEXTMAX
 10
-1.000000000000000E+20
 20
-1.000000000000000E+20
 30
-1.000000000000000E+20
  9
$PLIMMIN
 10
0.0
 20
0.0
  9
$PLIMMAX
 10
420.0
 20
297.0
  9
$UNITMODE
 70
     0
  9
$VISRETAIN
 70
     1
  9
$PLINEGEN
 70
     0
  9
$PSLTSCALE
 70
     1
  9
$TREEDEPTH
 70
  3020
  9
$CMLSTYLE
  2
Standard
  9
$CMLJUST
 70
     0
  9
$CMLSCALE
 40
1.0
  9
$PROXYGRAPHICS
 70
     1
  9
$MEASUREMENT
 70
     0
  9
$CELWEIGHT
370
    -1
  9
$ENDCAPS
280
     0
  9
$JOINSTYLE
280
     0
  9
$LWDISPLAY
290
     0
  9
$INSUNITS
 70
     0
  9
$HYPERLINKBASE
  1

  9
$STYLESHEET
  1

  9
$XEDIT
290
     1
  9
$CEPSNTYPE
380
     0
  9
$PSTYLEMODE
290
     1
  9
$FINGERPRINTGUID
  2
{B94935EE-21EB-4A9A-99BF-D0AA25FF58AB}
  9
$VERSIONGUID
  2
{9D98DFFB-36E6-41B2-8F5A-3662F3199456}
  9
$EXTNAMES
290
     1
  9
$PSVPSCALE
 40
0.0
  9
$OLESTARTUP
290
     0
  0
ENDSEC
  0
SECTION
  2
CLASSES
  0
CLASS
  1
ACDBDICTIONARYWDFLT
  2
AcDbDictionaryWithDefault
  3
ObjectDBX Classes
 90
        0
280
     0
281
     0
  0
CLASS
  1
MATERIAL
  2
AcDbMaterial
  3
ObjectDBX Classes
 90
     1153
280
     0
281
     0
  0
CLASS
  1
VISUALSTYLE
  2
AcDbVisualStyle
  3
ObjectDBX Classes
 90
     4095
280
     0
281
     0
  0
CLASS
  1
SCALE
  2
AcDbScale
  3
ObjectDBX Classes
 90
     1153
280
     0
281
     0
  0
CLASS
  1
TABLESTYLE
  2
AcDbTableStyle
  3
ObjectDBX Classes
 90
     4095
280
     0
281
     0
  0
CLASS
  1
MLEADERSTYLE
  2
AcDbMLeaderStyle
  3
ACDB_MLEADERSTYLE_CLASS
 90
     4095
280
     0
281
     0
  0
CLASS
  1
AMGSETTINGSOBJ
  2
AmgSettingsObj
  3
"AcadM|Product Description: AutoCAD Mechanical|Company: Autodesk, Inc."
 90
     1024
280
     0
281
     0
  0
CLASS
  1
ACME_DOCUMENT
  2
AcMeDbDoc
  3
AcMeServices
 90
     1024
280
     0
281
     0
  0
CLASS
  1
ACMESCOPE
  2
AcMeScope
  3
AcMeServices
 90
     1024
280
     0
281
     0
  0
CLASS
  1
ACMECOMMANDHISTORY
  2
AcMeCommandHistory
  3
AcMeServices
 90
     1024
280
     0
281
     0
  0
CLASS
  1
ACIMSYSVARMAN
  2
AcImSysVarManager
  3
AcMeServices
 90
     1024
280
     0
281
     0
  0
CLASS
  1
ACIMINTSYSVAR
  2
AcImIntSysVar
  3
AcMeServices
 90
     1024
280
     0
281
     0
  0
CLASS
  1
ACMEDRAWINGMAN
  2
AcMeDrawingMan
  3
AcMeServices
 90
     1024
280
     0
281
     0
  0
CLASS
  1
ACMEVIEW
  2
AcMeView
  3
AcMeServices
 90
     1024
280
     0
281
     0
  0
CLASS
  1
ACDBENTITYCACHE
  2
AcMeEntityCache
  3
AcMeServices
 90
     1024
280
     0
281
     0
  0
CLASS
  1
GSMANAGER
  2
AcMeGSManager
  3
AcMeServices
 90
     1024
280
     0
281
     0
  0
CLASS
  1
AMDTINTERNALREACTOR
  2
AmdtInternalReactor
  3
AcMeServices
 90
     1024
280
     0
281
     0
  0
CLASS
  1
ACMESTATEMGR
  2
AcMeStateMgr
  3
AcMeServices
 90
     1024
280
     0
281
     0
  0
CLASS
  1
ACGREFMASTER
  2
AcGrefMaster
  3
AcAttribServices
 90
     1024
280
     0
281
     0
  0
CLASS
  1
AM_DRAWING_MGR
  2
AcDmDwgMgr
  3
AcMechDwgViewMgmt
 90
     1024
280
     0
281
     0
  0
CLASS
  1
AM_DWG_DOCUMENT
  2
AcDmDwgDocument
  3
AcMechDwgViewMgmt
 90
     1024
280
     0
281
     0
  0
CLASS
  1
AM_DWG_SHEET
  2
AcDmSheet
  3
AcMechDwgViewMgmt
 90
     1024
280
     0
281
     0
  0
CLASS
  1
AM_VIEWDIMPARMAP
  2
AcDmViewDimParMap
  3
AcMechDwgViewMgmt
 90
     1024
280
     0
281
     0
  0
CLASS
  1
ACIMREALSYSVAR
  2
AcImRealSysVar
  3
AcMeServices
 90
     1024
280
     0
281
     0
  0
CLASS
  1
AM_DWGMGR_NAME
  2
AcDmDwgMgrName
  3
AcMechDwgViewMgmt
 90
     1024
280
     0
281
     0
  0
CLASS
  1
ACME_DATABASE
  2
AcMeDbDatabase
  3
AcMeServices
 90
     1024
280
     0
281
     0
  0
CLASS
  1
ACRFINSADJUSTERMGR
  2
AcRfInsAdjusterMgr
  3
AcMeServices
 90
     1024
280
     0
281
     0
  0
CLASS
  1
ACGREFACADMASTER
  2
AcGrefacadMaster
  3
AcGrefServices
 90
     1024
280
     0
281
     0
  0
CLASS
  1
AMDTMENUSTATEMGR
  2
AmdtMenuStateMgr
  3
McadcomServices
 90
     1024
280
     0
281
     0
  0
CLASS
  1
AMDTMCOMMENUSTATE
  2
AmdtMcomMenuState
  3
McadcomServices
 90
     1024
280
     0
281
     0
  0
CLASS
  1
AMIMASTER
  2
AmiMaster
  3
AmiServices
 90
     1024
280
     0
281
     0
  0
CLASS
  1
MAPIAMMOUDLE
  2
MApiAmModule
  3
MApiAmServices
 90
     1024
280
     0
281
     0
  0
CLASS
  1
ACIMSTRSYSVAR
  2
AcImStrSysVar
  3
AcMeServices
 90
     1024
280
     0
281
     0
  0
CLASS
  1
AMDTADMENUSTATE
  2
AmdtAdMenuState
  3
DesignerServices
 90
     1024
280
     0
281
     0
  0
CLASS
  1
ADAPPL
  2
AcAdAppl
  3
DesignerServices
 90
     1024
280
     0
281
     0
  0
CLASS
  1
DEPMGR
  2
AcAdDepMgr
  3
DesignerServices
 90
     1024
280
     0
281
     0
  0
CLASS
  1
PARAMMGR
  2
AcAdParamMgr
  3
DesignerServices
 90
     1024
280
     0
281
     0
  0
CLASS
  1
PARAMSCOPE
  2
AcAdParamScope
  3
DesignerServices
 90
     1024
280
     0
281
     0
  0
CLASS
  1
NAMEDAPPL
  2
AcAdNamedAppl
  3
DesignerServices
 90
     1024
280
     0
281
     0
  0
CLASS
  1
AMDTDMMENUSTATE
  2
AmdtDmMenuState
  3
AcMechDwgViewMgmt
 90
     1024
280
     0
281
     0
  0
CLASS
  1
AMDTAMMENUSTATE
  2
AmdtAmMenuState
  3
DesignerAssemblies
 90
     1024
280
     0
281
     0
  0
CLASS
  1
ACAMPROJECT
  2
AcAmProject
  3
DesignerAssemblies
 90
     1024
280
     0
281
     0
  0
CLASS
  1
ACAMGRCOMPDEF
  2
AcAmGrCompDef
  3
DesignerAssemblies
 90
     1024
280
     0
281
     0
  0
CLASS
  1
ACCMCONTEXT
  2
AcCmContext
  3
DesignerAssemblies
 90
     1024
280
     0
281
     0
  0
CLASS
  1
ACAMCOMPDEF
  2
AcAmCompDef
  3
DesignerAssemblies
 90
     1024
280
     0
281
     0
  0
CLASS
  1
ACAMCOMPDEFMGR
  2
AcAmCompDefMgr
  3
DesignerAssemblies
 90
     1024
280
     0
281
     0
  0
CLASS
  1
AMCONTEXTMGR
  2
AcAmContextMgr
  3
DesignerAssemblies
 90
     1024
280
     0
281
     0
  0
CLASS
  1
ACAMCONTEXTMODELER
  2
AcAmContextModeler
  3
DesignerAssemblies
 90
     1024
280
     0
281
     0
  0
CLASS
  1
ACMDATADICTIONARY
  2
AcmDataDictionary
  3
"AcmSymBB|Product Description: AutoCAD Mechanical|Company: Autodesk, Inc."
 90
     1024
280
     0
281
     0
  0
CLASS
  1
CATALOGSTATE
  2
AcAmCatalogState
  3
DesignerAssemblies
 90
     1024
280
     0
281
     0
  0
CLASS
  1
ACAMGRCOMPDEFSET
  2
AcAmGrCompDefSet
  3
DesignerAssemblies
 90
     1024
280
     0
281
     0
  0
CLASS
  1
AMDTBROWSERDBTAB
  2
AmdtBrowserDbTab
  3
McadcomServices
 90
     1024
280
     0
281
     0
  0
CLASS
  1
CBROWSERAPPOBJECT
  2
CBrowserAppObject
  3
McadcomServices
 90
     1024
280
     0
281
     0
  0
CLASS
  1
DM_PLACEHOLDER
  2
AcDmSelsetPlaceholder
  3
AcMechDwgViewMgmt
 90
     1024
280
     0
281
     0
  0
CLASS
  1
EXACXREFPANELOBJECT
  2
ExAcXREFPanelObject
  3
EXAC_ESW
 90
     1025
280
     0
281
     0
  0
CLASS
  1
NPOCOLLECTION
  2
AcDbImpNonPersistentObjectsCollection
  3
ObjectDBX Classes
 90
     1153
280
     0
281
     0
  0
CLASS
  1
ACMSTANDARDANSI
  2
AcmStandardANSI
  3
"Amdt_StdImp|Product Description: AutoCAD Mechanical|Company: Autodesk, Inc."
 90
     1024
280
     0
281
     0
  0
CLASS
  1
ACMSURFSTANDARDANSI
  2
AcmSurfTextStdANSI
  3
"Amdt_StdImp|Product Description: AutoCAD Mechanical|Company: Autodesk, Inc."
 90
     1024
280
     0
281
     0
  0
CLASS
  1
ACMFCFSTANDARDANSI
  2
AcmFCFStdANSI
  3
"Amdt_StdImp|Product Description: AutoCAD Mechanical|Company: Autodesk, Inc."
 90
     1024
280
     0
281
     0
  0
CLASS
  1
ACMWELDSTANDARDANSI
  2
AcmWeldingStdANSI
  3
"Amdt_StdImp|Product Description: AutoCAD Mechanical|Company: Autodesk, Inc."
 90
     1024
280
     0
281
     0
  0
CLASS
  1
ACMIDSTANDARDANSI
  2
AcmIdStdANSI
  3
"Amdt_StdImp|Product Description: AutoCAD Mechanical|Company: Autodesk, Inc."
 90
     1024
280
     0
281
     0
  0
CLASS
  1
ACMDATUMSTANDARDANSI
  2
AcmDatumStdANSI
  3
"Amdt_StdImp|Product Description: AutoCAD Mechanical|Company: Autodesk, Inc."
 90
     1024
280
     0
281
     0
  0
CLASS
  1
ACMBOMSTANDARDANSI
  2
AcmBOMStdANSI
  3
"Amdt_StdImp|Product Description: AutoCAD Mechanical|Company: Autodesk, Inc."
 90
     1024
280
     0
281
     0
  0
CLASS
  1
ACMDETAILSTANDARDANSI
  2
AmdtDetailSymStdANSI
  3
"Amdt_StdImp|Product Description: AutoCAD Mechanical|Company: Autodesk, Inc."
 90
     1024
280
     0
281
     0
  0
CLASS
  1
ACMSECTIONSTANDARDANSI
  2
AmdtSectionSymStdANSI
  3
"Amdt_StdImp|Product Description: AutoCAD Mechanical|Company: Autodesk, Inc."
 90
     1024
280
     0
281
     0
  0
CLASS
  1
ACMCENTERLINESTANDARDANSI
  2
AmdtCenterLineStdANSI
  3
"Amdt_StdImp|Product Description: AutoCAD Mechanical|Company: Autodesk, Inc."
 90
     1024
280
     0
281
     0
  0
CLASS
  1
ACMTHREADLINESTANDARDANSI
  2
AmdtThreadLineStdANSI
  3
"Amdt_StdImp|Product Description: AutoCAD Mechanical|Company: Autodesk, Inc."
 90
     1024
280
     0
281
     0
  0
CLASS
  1
ACMNOTESTANDARDANSI
  2
AmdtNoteStdANSI
  3
"Amdt_StdImp|Product Description: AutoCAD Mechanical|Company: Autodesk, Inc."
 90
     1024
280
     0
281
     0
  0
CLASS
  1
ACMTAPERSTANDARDANSI
  2
AcmTaperStdANSI
  3
"Amdt_StdImp|Product Description: AutoCAD Mechanical|Company: Autodesk, Inc."
 90
     1024
280
     0
281
     0
  0
CLASS
  1
ACMANOOTATIONVIEWSTANDARDANSI
  2
AmdtAnViewStdANSI
  3
"Amdt_StdImp|Product Description: AutoCAD Mechanical|Company: Autodesk, Inc."
 90
     1024
280
     0
281
     0
  0
CLASS
  1
ACAMGLAYSTD
  2
AcAmgLayStd
  3
"AmgLay|Product Description: AutoCAD Mechanical|Company: Autodesk, Inc."
 90
     1024
280
     0
281
     0
  0
CLASS
  1
ACAMGDIMSTD
  2
AcAmgDimStd
  3
"AmgDim|Product Description: AutoCAD Mechanical|Company: Autodesk, Inc."
 90
     1024
280
     0
281
     0
  0
CLASS
  1
AMGOBJPROPCFG
  2
AmgObjPropCfg
  3
"AmgLay|Product Description: AutoCAD Mechanical|Company: Autodesk, Inc."
 90
     1025
280
     0
281
     0
  0
CLASS
  1
ACAMGHOLECHARTSTDANSI
  2
AcAmgHoleChartStdANSI
  3
AmgDim|Product Description: AutoCAD Mechanical|Company: Autodesk, Inc.
 90
     1024
280
     0
281
     0
  0
CLASS
  1
ACAMGTITLESTD
  2
AcAmgTitleStd
  3
"AmgTitle|Product Description: AutoCAD Mechanical|Company: Autodesk, Inc."
 90
     4095
280
     0
281
     0
  0
CLASS
  1
AMDTNOTETEMPLATEDB
  2
AmdtNoteTemplateDB
  3
AcmSymBB|Product Description: AutoCAD Mechanical|Company: Autodesk, Inc.
 90
     1024
280
     0
281
     0
  0
CLASS
  1
DIMASSOC
  2
AcDbDimAssoc
  3
"AcDbDimAssoc|Product Desc:     AcDim ARX App For Dimension|Company:          Autodesk, Inc.|WEB Address:      www.autodesk.com"
 90
        0
280
     0
281
     0
  0
CLASS
  1
SORTENTSTABLE
  2
AcDbSortentsTable
  3
ObjectDBX Classes
 90
        0
280
     0
281
     0
  0
CLASS
  1
ACMSTANDARDISO
  2
AcmStandardISO
  3
"Amdt_StdImp|Product Description: AutoCAD Mechanical|Company: Autodesk, Inc."
 90
     1024
280
     0
281
     0
  0
CLASS
  1
ACMSURFSTANDARDISO2002
  2
AcmSurfTextStdISO2002
  3
"Amdt_StdImp|Product Description: AutoCAD Mechanical|Company: Autodesk, Inc."
 90
     1024
280
     0
281
     0
  0
CLASS
  1
ACMFCFSTANDARDISO
  2
AcmFCFStdISO
  3
"Amdt_StdImp|Product Description: AutoCAD Mechanical|Company: Autodesk, Inc."
 90
     1024
280
     0
281
     0
  0
CLASS
  1
ACMWELDSTANDARDISO
  2
AcmWeldingStdISO
  3
"Amdt_StdImp|Product Description: AutoCAD Mechanical|Company: Autodesk, Inc."
 90
     1024
280
     0
281
     0
  0
CLASS
  1
ACMIDSTANDARDISO
  2
AcmIdStdISO
  3
"Amdt_StdImp|Product Description: AutoCAD Mechanical|Company: Autodesk, Inc."
 90
     1024
280
     0
281
     0
  0
CLASS
  1
ACMDATUMSTANDARDISO
  2
AcmDatumStdISO
  3
"Amdt_StdImp|Product Description: AutoCAD Mechanical|Company: Autodesk, Inc."
 90
     1024
280
     0
281
     0
  0
CLASS
  1
ACMBOMSTANDARDISO
  2
AcmBOMStdISO
  3
"Amdt_StdImp|Product Description: AutoCAD Mechanical|Company: Autodesk, Inc."
 90
     1024
280
     0
281
     0
  0
CLASS
  1
ACMDETAILSTANDARDISO
  2
AmdtDetailSymStdISO
  3
"Amdt_StdImp|Product Description: AutoCAD Mechanical|Company: Autodesk, Inc."
 90
     1024
280
     0
281
     0
  0
CLASS
  1
ACMSECTIONSTANDARDISO2001
  2
AmdtSectionSymStdISO2001
  3
"Amdt_StdImp|Product Description: AutoCAD Mechanical|Company: Autodesk, Inc."
 90
     1024
280
     0
281
     0
  0
CLASS
  1
ACMCENTERLINESTANDARDISO
  2
AmdtCenterLineStdISO
  3
"Amdt_StdImp|Product Description: AutoCAD Mechanical|Company: Autodesk, Inc."
 90
     1024
280
     0
281
     0
  0
CLASS
  1
ACMNOTESTANDARDISO
  2
AmdtNoteStdISO
  3
"Amdt_StdImp|Product Description: AutoCAD Mechanical|Company: Autodesk, Inc."
 90
     1024
280
     0
281
     0
  0
CLASS
  1
ACAMGHOLECHARTSTDISO
  2
AcAmgHoleChartStdISO
  3
AmgDim|Product Description: AutoCAD Mechanical|Company: Autodesk, Inc.
 90
     1024
280
     0
281
     0
  0
CLASS
  1
ACMTHREADLINESTANDARDISO
  2
AmdtThreadLineStdISO
  3
"Amdt_StdImp|Product Description: AutoCAD Mechanical|Company: Autodesk, Inc."
 90
     1024
280
     0
281
     0
  0
CLASS
  1
ACMTAPERSTANDARDISO
  2
AcmTaperStdISO
  3
"Amdt_StdImp|Product Description: AutoCAD Mechanical|Company: Autodesk, Inc."
 90
     1024
280
     0
281
     0
  0
CLASS
  1
ACMANOOTATIONVIEWSTANDARDISO
  2
AmdtAnViewStdISO
  3
"Amdt_StdImp|Product Description: AutoCAD Mechanical|Company: Autodesk, Inc."
 90
     1024
280
     0
281
     0
  0
CLASS
  1
AMDTEDGESTANDARDISO13715
  2
AmdtEdgeStdISO13715
  3
"Amdt_StdImp|Product Description: AutoCAD Mechanical|Company: Autodesk, Inc."
 90
     1024
280
     0
281
     0
  0
CLASS
  1
ACMDATAENTRYBLOCK
  2
AcmDataEntryBlock
  3
AcmSymBB|Product Description: AutoCAD Mechanical|Company: Autodesk, Inc.
 90
     1024
280
     0
281
     0
  0
CLASS
  1
ACAMGFILTERDAT
  2
AcAmgFilterDat
  3
"AcadM|Product Description: AutoCAD Mechanical|Company: Autodesk, Inc."
 90
     1024
280
     0
281
     0
  0
CLASS
  1
DICTIONARYVAR
  2
AcDbDictionaryVar
  3
ObjectDBX Classes
 90
        0
280
     0
281
     0
  0
CLASS
  1
CELLSTYLEMAP
  2
AcDbCellStyleMap
  3
ObjectDBX Classes
 90
     1152
280
     0
281
     0
  0
CLASS
  1
ACDBPLACEHOLDER
  2
AcDbPlaceHolder
  3
ObjectDBX Classes
 90
        0
280
     0
281
     0
  0
CLASS
  1
LAYOUT
  2
AcDbLayout
  3
ObjectDBX Classes
 90
        0
280
     0
281
     0
  0
ENDSEC
  0
SECTION
  2
TABLES
  0
TABLE
  2
VPORT
  5
4A623
330
0
100
AcDbSymbolTable
 70
     1
  0
VPORT
  5
4A693
330
4A623
100
AcDbSymbolTableRecord
100
AcDbViewportTableRecord
  2
*ACTIVE
 70
     0
 10
0.0
 20
0.0
 11
1.0
 21
1.0
 12
30500.2808993024
 22
24048.05066094842
 13
0.0
 23
0.0
 14
2.5
 24
2.5
 15
10.0
 25
10.0
 16
0.0
 26
0.0
 36
1.0
 17
0.0
 27
0.0
 37
0.0
 40
1759.048343684328
 41
1.664364640883977
 42
50.0
 43
0.0
 44
0.0
 50
0.0
 51
0.0
 71
     0
 72
  1000
 73
     1
 74
     3
 75
     0
 76
     0
 77
     0
 78
     0
281
     0
 65
     0
110
0.0
120
0.0
130
0.0
111
1.0
121
0.0
131
0.0
112
0.0
122
1.0
132
0.0
 79
     0
146
0.0
  0
ENDTAB
  0
TABLE
  2
LTYPE
  5
4A620
330
0
100
AcDbSymbolTable
 70
    22
  0
LTYPE
  5
4A67D
330
4A620
100
AcDbSymbolTableRecord
100
AcDbLinetypeTableRecord
  2
ByBlock
 70
     0
  3

 72
    65
 73
     0
 40
0.0
  0
LTYPE
  5
4A67E
330
4A620
100
AcDbSymbolTableRecord
100
AcDbLinetypeTableRecord
  2
ByLayer
 70
     0
  3

 72
    65
 73
     0
 40
0.0
  0
LTYPE
  5
4A67F
330
4A620
100
AcDbSymbolTableRecord
100
AcDbLinetypeTableRecord
  2
CONTINUOUS
 70
     0
  3
Solid line
 72
    65
 73
     0
 40
0.0
  0
LTYPE
  5
4A694
330
4A620
100
AcDbSymbolTableRecord
100
AcDbLinetypeTableRecord
  2
DASHED2
 70
     0
  3
Dashed (.5x) _ _ _ _ _ _ _ _ _ _ _ _ _ _ _ _ _
 72
    65
 73
     2
 40
9.524999999999998
 49
6.349999999999997
 74
     0
 49
-3.174999999999998
 74
     0
  0
LTYPE
  5
4A6FD
330
4A620
100
AcDbSymbolTableRecord
100
AcDbLinetypeTableRecord
  2
HIDDEN
 70
     0
  3
Hidden __ __ __ __ __ __ __ __ __ __ __ __ __ _
 72
    65
 73
     2
 40
0.375
 49
0.25
 74
     0
 49
-0.125
 74
     0
  0
LTYPE
  5
4A6FE
330
4A620
100
AcDbSymbolTableRecord
100
AcDbLinetypeTableRecord
  2
PHANTOM2
 70
     0
  3
Phantom (.5x) ___ _ _ ___ _ _ ___ _ _ ___ _ _
 72
    65
 73
     6
 40
1.25
 49
0.625
 74
     0
 49
-0.125
 74
     0
 49
0.125
 74
     0
 49
-0.125
 74
     0
 49
0.125
 74
     0
 49
-0.125
 74
     0
  0
LTYPE
  5
4A6FF
330
4A620
100
AcDbSymbolTableRecord
100
AcDbLinetypeTableRecord
  2
CENTER
 70
     0
  3
Center ____ _ ____ _ ____ _ ____ _ ____ _ ____
 72
    65
 73
     4
 40
2.0
 49
1.25
 74
     0
 49
-0.25
 74
     0
 49
0.25
 74
     0
 49
-0.25
 74
     0
  0
LTYPE
  5
4A741
330
4A620
100
AcDbSymbolTableRecord
100
AcDbLinetypeTableRecord
  2
AM_ISO02W050
 70
     0
  3
__ __ __ __ __ __ __ __ __ __ __ __ __ __ __
 72
    65
 73
     2
 40
7.5
 49
6.0
 74
     0
 49
-1.5
 74
     0
  0
LTYPE
  5
4A742
330
4A620
100
AcDbSymbolTableRecord
100
AcDbLinetypeTableRecord
  2
AM_ISO08W050
 70
     0
  3
____ . ____ . ____ . ____ . ____ . ____ . ____
 72
    65
 73
     4
 40
18.0
 49
12.0
 74
     0
 49
-1.5
 74
     0
 49
3.0
 74
     0
 49
-1.5
 74
     0
  0
LTYPE
  5
4A743
330
4A620
100
AcDbSymbolTableRecord
100
AcDbLinetypeTableRecord
  2
AM_ISO09W050
 70
     0
  3
_____ . . _____ . . _____ . . ____ .. ____
 72
    65
 73
     6
 40
22.5
 49
12.0
 74
     0
 49
-1.5
 74
     0
 49
3.0
 74
     0
 49
-1.5
 74
     0
 49
3.0
 74
     0
 49
-1.5
 74
     0
  0
LTYPE
  5
4A744
330
4A620
100
AcDbSymbolTableRecord
100
AcDbLinetypeTableRecord
  2
Amconstr
 70
     0
  3
_______________________
 72
    65
 73
     2
 40
9999.0
 49
9999.0
 74
     0
 49
0.0
 74
     0
  0
LTYPE
  5
4A745
330
4A620
100
AcDbSymbolTableRecord
100
AcDbLinetypeTableRecord
  2
AM_ISO08W050x2
 70
     0
  3
__ . __ . __ . __ . __ . __
 72
    65
 73
     4
 40
9.0
 49
6.0
 74
     0
 49
-0.75
 74
     0
 49
1.5
 74
     0
 49
-0.75
 74
     0
  0
LTYPE
  5
4A746
330
4A620
100
AcDbSymbolTableRecord
100
AcDbLinetypeTableRecord
  2
AM_ISO02W050x2
 70
     0
  3
 _ _ _ _ _ _ _ _ _ _ _ _
 72
    65
 73
     2
 40
3.75
 49
3.0
 74
     0
 49
-0.75
 74
     0
  0
LTYPE
  5
4A749
330
4A620
100
AcDbSymbolTableRecord
100
AcDbLinetypeTableRecord
  2
Amzigzag
 70
     0
  3
/\/-/\/-/\/-/\/-/\/-/\/
 72
    65
 73
     2
 40
11.0001
 49
0.0001
 74
     4
 75
   136
340
4A748
 46
0.04
 50
0.0
 44
0.0
 45
0.0
 49
-11.0
 74
     0
  0
LTYPE
  5
4A74A
330
4A620
100
AcDbSymbolTableRecord
100
AcDbLinetypeTableRecord
  2
CENTER2
 70
     0
  3
Center (.5x) ___ _ ___ _ ___ _ ___ _ ___ _ ___
 72
    65
 73
     4
 40
1.125
 49
0.75
 74
     0
 49
-0.125
 74
     0
 49
0.125
 74
     0
 49
-0.125
 74
     0
  0
LTYPE
  5
4A74B
330
4A620
100
AcDbSymbolTableRecord
100
AcDbLinetypeTableRecord
  2
HIDDEN2
 70
     0
  3
Hidden (.5x) _ _ _ _ _ _ _ _ _ _ _ _ _ _ _ _ _
 72
    65
 73
     2
 40
0.1875
 49
0.125
 74
     0
 49
-0.0625
 74
     0
  0
LTYPE
  5
4A74C
330
4A620
100
AcDbSymbolTableRecord
100
AcDbLinetypeTableRecord
  2
Amzigzag2
 70
     0
  3
/\/-/\/-/\/-/\/-/\/-/\/
 72
    65
 73
     2
 40
0.4401
 49
0.0001
 74
     4
 75
   136
340
4A748
 46
0.0016
 50
0.0
 44
0.0
 45
0.0
 49
-0.4400000000000001
 74
     0
  0
LTYPE
  5
4A75A
330
4A620
100
AcDbSymbolTableRecord
100
AcDbLinetypeTableRecord
  2
ACANSTGB
 70
     0
  3
__ . . __ . .
 72
    65
 73
     6
 40
0.35433070866
 49
0.15748031496
 74
     0
 49
-0.03937007874
 74
     0
 49
0.03937007874
 74
     0
 49
-0.03937007874
 74
     0
 49
0.03937007874
 74
     0
 49
-0.03937007874
 74
     0
  0
LTYPE
  5
4A75B
330
4A620
100
AcDbSymbolTableRecord
100
AcDbLinetypeTableRecord
  2
ACANSTGL
 70
     0
  3
_ _ _ _ _
 72
    65
 73
     2
 40
0.11811023622
 49
0.07874015748
 74
     0
 49
-0.03937007874
 74
     0
  0
LTYPE
  5
4A862
330
4A620
100
AcDbSymbolTableRecord
100
AcDbLinetypeTableRecord
  2
ACISOWELD
 70
     0
  3
_ _ _ _ _
 72
    65
 73
     2
 40
2.0
 49
2.0
 74
     0
 49
-1.0
 74
     0
  0
LTYPE
  5
4A863
330
4A620
100
AcDbSymbolTableRecord
100
AcDbLinetypeTableRecord
  2
ACISOTGB
 70
     0
  3
__ . . __ . .
 72
    65
 73
     6
 40
9.0
 49
4.0
 74
     0
 49
-1.0
 74
     0
 49
1.0
 74
     0
 49
-1.0
 74
     0
 49
1.0
 74
     0
 49
-1.0
 74
     0
  0
LTYPE
  5
4A864
330
4A620
100
AcDbSymbolTableRecord
100
AcDbLinetypeTableRecord
  2
ACISOTGL
 70
     0
  3
_ _ _ _ _
 72
    65
 73
     2
 40
3.0
 49
2.0
 74
     0
 49
-1.0
 74
     0
  0
LTYPE
  5
4A865
330
4A620
100
AcDbSymbolTableRecord
100
AcDbLinetypeTableRecord
  2
DASHDOT
 70
     0
  3
Dash dot __ . __ . __ . __ . __ . __ . __ . __
 72
    65
 73
     4
 40
25.4
 49
12.7
 74
     0
 49
-6.349999999999999
 74
     0
 49
0.0
 74
     0
 49
-6.349999999999999
 74
     0
  0
ENDTAB
  0
TABLE
  2
LAYER
  5
4A61D
102
{ACAD_XDICTIONARY
360
4A876
102
}
330
0
100
AcDbSymbolTable
 70
     8
  0
LAYER
  5
4A677
102
{ACAD_XDICTIONARY
360
4AACC
102
}
330
4A61D
100
AcDbSymbolTableRecord
100
AcDbLayerTableRecord
  2
0
 70
     0
 62
     7
  6
CONTINUOUS
370
    -3
390
4A62A
  0
LAYER
  5
4A695
102
{ACAD_XDICTIONARY
360
4AACE
102
}
330
4A61D
100
AcDbSymbolTableRecord
100
AcDbLayerTableRecord
  2
LAYER1
 70
     0
 62
     1
  6
CONTINUOUS
370
    -3
390
4A62A
  0
LAYER
  5
4A696
330
4A61D
100
AcDbSymbolTableRecord
100
AcDbLayerTableRecord
  2
DEFPOINTS
 70
     0
 62
     7
  6
CONTINUOUS
290
     0
370
    -3
390
4A62A
  0
LAYER
  5
4A697
102
{ACAD_XDICTIONARY
360
4AAD0
102
}
330
4A61D
100
AcDbSymbolTableRecord
100
AcDbLayerTableRecord
  2
DIMS_SPECS
 70
     0
 62
    41
  6
CONTINUOUS
370
    -3
390
4A62A
  0
LAYER
  5
4A698
102
{ACAD_XDICTIONARY
360
4AAD2
102
}
330
4A61D
100
AcDbSymbolTableRecord
100
AcDbLayerTableRecord
  2
CUTOUT
 70
     0
 62
    60
  6
CONTINUOUS
370
    -3
390
4A62A
  0
LAYER
  5
4A866
102
{ACAD_XDICTIONARY
360
4AAD4
102
}
330
4A61D
100
AcDbSymbolTableRecord
100
AcDbLayerTableRecord
  2
DIMS SPECS
 70
     0
 62
    41
  6
CONTINUOUS
370
    13
390
4A62A
  0
LAYER
  5
4A867
102
{ACAD_XDICTIONARY
360
4AAD6
102
}
330
4A61D
100
AcDbSymbolTableRecord
100
AcDbLayerTableRecord
  2
DRAINER MAT 2
 70
     0
 62
     2
  6
CONTINUOUS
290
     0
370
    35
390
4A62A
1001
ACAECLAYERSTANDARD
1000

1000

  0
LAYER
  5
4A868
102
{ACAD_XDICTIONARY
360
4AAD8
102
}
330
4A61D
100
AcDbSymbolTableRecord
100
AcDbLayerTableRecord
  2
sink_specs
 70
     0
 62
   254
  6
CONTINUOUS
370
    20
390
4A62A
1001
ACAECLAYERSTANDARD
1000

1000

  0
ENDTAB
  0
TABLE
  2
STYLE
  5
4A61E
330
0
100
AcDbSymbolTable
 70
     9
  0
STYLE
  5
4A678
330
4A61E
100
AcDbSymbolTableRecord
100
AcDbTextStyleTableRecord
  2
STANDARD
 70
     0
 40
0.0
 41
1.0
 50
0.0
 71
     0
 42
2.5
  3
ISOCP.SHX
  4

  0
STYLE
  5
4A67C
330
4A61E
100
AcDbSymbolTableRecord
100
AcDbTextStyleTableRecord
  2
Annotative
 70
     0
 40
0.0
 41
1.0
 50
0.0
 71
     0
 42
0.2
  3
txt
  4

1001
ACADANNOTATIVE
1000
AnnotativeData
1002
{
1070
     1
1070
     1
1002
}
  0
STYLE
  5
4A699
330
4A61E
100
AcDbSymbolTableRecord
100
AcDbTextStyleTableRecord
  2
ACISOTS
 70
     0
 40
1.0
 41
1.0
 50
0.0
 71
     0
 42
2.5
  3
isocp.shx
  4

  0
STYLE
  5
4A69A
330
4A61E
100
AcDbSymbolTableRecord
100
AcDbTextStyleTableRecord
  2
ABODE-ISO
 70
     0
 40
17.0
 41
0.9
 50
0.0
 71
     0
 42
0.2
  3
txt
  4

  0
STYLE
  5
4A748
330
4A61E
100
AcDbSymbolTableRecord
100
AcDbTextStyleTableRecord
  2

 70
     1
 40
0.0
 41
1.0
 50
0.0
 71
     0
 42
2.5
  3
genltshp.shx
  4

  0
STYLE
  5
4A758
330
4A61E
100
AcDbSymbolTableRecord
100
AcDbTextStyleTableRecord
  2
ACANSTS
 70
     0
 40
1.0
 41
1.0
 50
0.0
 71
     0
 42
2.5
  3
romans.shx
  4

  0
STYLE
  5
4A759
330
4A61E
100
AcDbSymbolTableRecord
100
AcDbTextStyleTableRecord
  2
ACANSGDT
 70
     0
 40
0.0
 41
1.0
 50
0.0
 71
     0
 42
2.5
  3
amgdt.shx
  4

  0
STYLE
  5
4A869
330
4A61E
100
AcDbSymbolTableRecord
100
AcDbTextStyleTableRecord
  2
ACISOGDT
 70
     0
 40
0.0
 41
1.0
 50
0.0
 71
     0
 42
2.5
  3
amgdt.shx
  4

  0
STYLE
  5
4A86A
330
4A61E
100
AcDbSymbolTableRecord
100
AcDbTextStyleTableRecord
  2
SLDTEXTSTYLE0
 70
     0
 40
0.0
 41
0.75
 50
0.0
 71
     0
 42
0.2
  3
TXT
  4

  0
ENDTAB
  0
TABLE
  2
VIEW
  5
4A621
330
0
100
AcDbSymbolTable
 70
     0
  0
ENDTAB
  0
TABLE
  2
UCS
  5
4A622
330
0
100
AcDbSymbolTable
 70
     0
  0
ENDTAB
  0
TABLE
  2
APPID
  5
4A624
330
0
100
AcDbSymbolTable
 70
    28
  0
APPID
  5
4A679
330
4A624
100
AcDbSymbolTableRecord
100
AcDbRegAppTableRecord
  2
ACAD
 70
     0
  0
APPID
  5
4A680
330
4A624
100
AcDbSymbolTableRecord
100
AcDbRegAppTableRecord
  2
ACADANNOTATIVE
 70
     0
  0
APPID
  5
4A68A
330
4A624
100
AcDbSymbolTableRecord
100
AcDbRegAppTableRecord
  2
ACAD_MLEADERVER
 70
     0
  0
APPID
  5
4A69B
330
4A624
100
AcDbSymbolTableRecord
100
AcDbRegAppTableRecord
  2
MCAD_NO_VIS
 70
     0
  0
APPID
  5
4A69C
330
4A624
100
AcDbSymbolTableRecord
100
AcDbRegAppTableRecord
  2
ACAD_TEMP_GRAPHIC
 70
     0
  0
APPID
  5
4A69D
330
4A624
100
AcDbSymbolTableRecord
100
AcDbRegAppTableRecord
  2
AD_DRAW
 70
     0
  0
APPID
  5
4A69E
330
4A624
100
AcDbSymbolTableRecord
100
AcDbRegAppTableRecord
  2
ACATTRIBSERVICES
 70
     0
  0
APPID
  5
4A69F
330
4A624
100
AcDbSymbolTableRecord
100
AcDbRegAppTableRecord
  2
DESIGNERASSEMBLIES
 70
     0
  0
APPID
  5
4A6A0
330
4A624
100
AcDbSymbolTableRecord
100
AcDbRegAppTableRecord
  2
ACADM_DIM_EDIT
 70
     0
  0
APPID
  5
4A6A1
330
4A624
100
AcDbSymbolTableRecord
100
AcDbRegAppTableRecord
  2
AMDT_DM_ADJ
 70
     0
  0
APPID
  5
4A6A2
330
4A624
100
AcDbSymbolTableRecord
100
AcDbRegAppTableRecord
  2
ACAD_DSTYLE_DIMJOGGED_JOGA
 70
     0
  0
APPID
  5
4A6A3
330
4A624
100
AcDbSymbolTableRecord
100
AcDbRegAppTableRecord
  2
ACAECLAYERSTANDARD
 70
     0
  0
APPID
  5
4A6A4
330
4A624
100
AcDbSymbolTableRecord
100
AcDbRegAppTableRecord
  2
ACAD_PSEXT
 70
     0
  0
APPID
  5
4A6A5
330
4A624
100
AcDbSymbolTableRecord
100
AcDbRegAppTableRecord
  2
ACAD_DSTYLE_DIMJAG
 70
     0
  0
APPID
  5
4A6A6
330
4A624
100
AcDbSymbolTableRecord
100
AcDbRegAppTableRecord
  2
ACAD_DSTYLE_DIMTALN
 70
     0
  0
APPID
  5
4A6A7
330
4A624
100
AcDbSymbolTableRecord
100
AcDbRegAppTableRecord
  2
GENIUS_GENODEF_13
 70
     0
  0
APPID
  5
4A6A8
330
4A624
100
AcDbSymbolTableRecord
100
AcDbRegAppTableRecord
  2
ACAD_DSTYLE_DIMINSPECT
 70
     0
  0
APPID
  5
4A6A9
330
4A624
100
AcDbSymbolTableRecord
100
AcDbRegAppTableRecord
  2
GENIUS_GENREC_14
 70
     0
  0
APPID
  5
4A6AA
330
4A624
100
AcDbSymbolTableRecord
100
AcDbRegAppTableRecord
  2
GENIUS_GENOBJ-N-REC_13
 70
     0
  0
APPID
  5
4A6AB
330
4A624
100
AcDbSymbolTableRecord
100
AcDbRegAppTableRecord
  2
ACAD_DSTYLE_DIMRADIAL_EXTENSION
 70
     0
  0
APPID
  5
4A6AC
330
4A624
100
AcDbSymbolTableRecord
100
AcDbRegAppTableRecord
  2
ACAD_DSTYLE_DIMBREAK
 70
     0
  0
APPID
  5
4A875
330
4A624
100
AcDbSymbolTableRecord
100
AcDbRegAppTableRecord
  2
ACAD_DSTYLE_DIMJOGGED_JOGANGLE_SYMBOL
 70
     0
  0
APPID
  5
4AAC8
330
4A624
100
AcDbSymbolTableRecord
100
AcDbRegAppTableRecord
  2
ACAD_EXEMPT_FROM_CAD_STANDARDS
 70
     0
  0
APPID
  5
4AAF3
330
4A624
100
AcDbSymbolTableRecord
100
AcDbRegAppTableRecord
  2
ACAD_DSTYLE_DIMARC_LENGTH_SYMBOL
 70
     0
  0
APPID
  5
4AAF4
330
4A624
100
AcDbSymbolTableRecord
100
AcDbRegAppTableRecord
  2
ACAD_DSTYLE_DIM_LINETYPE
 70
     0
  0
APPID
  5
4AAF5
330
4A624
100
AcDbSymbolTableRecord
100
AcDbRegAppTableRecord
  2
ACAD_DSTYLE_DIM_EXT1_LINETYPE
 70
     0
  0
APPID
  5
4AAF6
330
4A624
100
AcDbSymbolTableRecord
100
AcDbRegAppTableRecord
  2
ACAD_DSTYLE_DIM_EXT2_LINETYPE
 70
     0
  0
APPID
  5
4AAF9
330
4A624
100
AcDbSymbolTableRecord
100
AcDbRegAppTableRecord
  2
ACAD_DSTYLE_DIMTEXT_FILL
 70
     0
  0
ENDTAB
  0
TABLE
  2
DIMSTYLE
  5
4A625
330
0
100
AcDbSymbolTable
 70
    19
100
AcDbDimStyleTable
 71
     0
  0
DIMSTYLE
105
4A67A
330
4A625
100
AcDbSymbolTableRecord
100
AcDbDimStyleTableRecord
  2
STANDARD
 70
     0
271
     2
272
     2
279
     2
284
     8
285
     8
286
     8
340
4A678
  0
DIMSTYLE
105
4A67B
330
4A625
100
AcDbSymbolTableRecord
100
AcDbDimStyleTableRecord
  2
Annotative
 70
     0
340
4A678
1001
ACADANNOTATIVE
1000
AnnotativeData
1002
{
1070
     1
1070
     1
1002
}
  0
DIMSTYLE
105
4A6AD
330
4A625
100
AcDbSymbolTableRecord
100
AcDbDimStyleTableRecord
  2
AM_ISO
 70
     0
  4
"
 41
3.5
 42
1.0
 43
10.0
 44
1.0
 47
0.1
 48
0.1
 73
     0
 74
     0
 77
     1
 78
     8
140
3.5
141
0.0
143
0.0393701
146
0.71
147
1.5
172
     1
176
   256
177
   256
178
     2
271
     2
272
     2
279
     2
284
     8
285
     8
286
     8
340
4A678
  0
DIMSTYLE
105
4A73F
102
{ACAD_REACTORS
330
4A72F
102
}
330
4A625
100
AcDbSymbolTableRecord
100
AcDbDimStyleTableRecord
  2
AM_ANSI
 70
     0
  4
mm
 41
0.12
 42
0.05
 43
0.5
 44
0.1
 47
0.1
 48
0.1
 78
     7
 79
     2
140
0.12
141
0.0
146
0.71
147
0.06
176
   256
177
   256
178
     2
274
     4
284
     7
340
4A678
371
    -1
372
    -1
1001
ACAD_DSTYLE_DIMARC_LENGTH_SYMBOL
1070
   379
1070
     1
1001
ACAD_DSTYLE_DIM_LINETYPE
1070
   380
1005
4A67D
1001
ACAD_DSTYLE_DIM_EXT1_LINETYPE
1070
   381
1005
4A67D
1001
ACAD_DSTYLE_DIM_EXT2_LINETYPE
1070
   382
1005
4A67D
  0
DIMSTYLE
105
4A74D
330
4A625
100
AcDbSymbolTableRecord
100
AcDbDimStyleTableRecord
  2
AM_ANSI$3
 70
     0
  4
mm
 41
0.12
 42
0.05
 43
0.5
 44
0.1
 47
0.1
 48
0.1
 78
     7
 79
     2
140
0.12
141
0.0
146
0.71
147
0.06
176
   256
177
   256
178
     2
274
     4
284
     7
288
     1
289
     0
340
4A678
371
    -1
372
    -1
1001
ACAD_DSTYLE_DIMARC_LENGTH_SYMBOL
1070
   379
1070
     1
1001
ACAD_DSTYLE_DIM_LINETYPE
1070
   380
1005
4A67D
1001
ACAD_DSTYLE_DIM_EXT1_LINETYPE
1070
   381
1005
4A67D
1001
ACAD_DSTYLE_DIM_EXT2_LINETYPE
1070
   382
1005
4A67D
  0
DIMSTYLE
105
4A74E
330
4A625
100
AcDbSymbolTableRecord
100
AcDbDimStyleTableRecord
  2
AM_ANSI$4
 70
     0
  4
mm
 41
0.12
 42
0.05
 43
0.5
 44
0.1
 47
0.1
 48
0.1
 78
     7
 79
     2
140
0.12
141
0.0
146
0.71
147
0.06
176
   256
177
   256
178
     2
274
     4
284
     7
288
     1
289
     0
340
4A678
371
    -1
372
    -1
1001
ACAD_DSTYLE_DIMARC_LENGTH_SYMBOL
1070
   379
1070
     1
1001
ACAD_DSTYLE_DIM_LINETYPE
1070
   380
1005
4A67D
1001
ACAD_DSTYLE_DIM_EXT1_LINETYPE
1070
   381
1005
4A67D
1001
ACAD_DSTYLE_DIM_EXT2_LINETYPE
1070
   382
1005
4A67D
  0
DIMSTYLE
105
4A74F
330
4A625
100
AcDbSymbolTableRecord
100
AcDbDimStyleTableRecord
  2
AM_ANSI$7
 70
     0
  4
mm
 41
0.12
 42
0.05
 43
0.5
 44
0.1
 47
0.1
 48
0.1
 78
     7
 79
     2
140
0.12
141
0.0
146
0.71
147
0.06
176
   256
177
   256
178
     2
274
     4
284
     7
340
4A678
371
    -1
372
    -1
1001
ACAD_DSTYLE_DIMARC_LENGTH_SYMBOL
1070
   379
1070
     1
1001
ACAD_DSTYLE_DIM_LINETYPE
1070
   380
1005
4A67D
1001
ACAD_DSTYLE_DIM_EXT1_LINETYPE
1070
   381
1005
4A67D
1001
ACAD_DSTYLE_DIM_EXT2_LINETYPE
1070
   382
1005
4A67D
  0
DIMSTYLE
105
4A750
330
4A625
100
AcDbSymbolTableRecord
100
AcDbDimStyleTableRecord
  2
AM_ANSI$SF
 70
     0
  4
mm
 41
0.12
 42
0.05
 43
0.5
 44
0.1
 47
0.1
 48
0.1
 75
     1
 76
     1
 78
     7
 79
     2
140
0.12
141
0.0
146
0.71
147
0.06
176
   256
177
   256
178
     2
274
     4
284
     7
340
4A678
371
    -1
372
    -1
1001
ACAD_DSTYLE_DIMARC_LENGTH_SYMBOL
1070
   379
1070
     1
1001
ACAD_DSTYLE_DIM_LINETYPE
1070
   380
1005
4A67D
1001
ACAD_DSTYLE_DIM_EXT1_LINETYPE
1070
   381
1005
4A67D
1001
ACAD_DSTYLE_DIM_EXT2_LINETYPE
1070
   382
1005
4A67D
  0
DIMSTYLE
105
4A755
330
4A625
100
AcDbSymbolTableRecord
100
AcDbDimStyleTableRecord
  2
AM_ANSI$SH
 70
     0
  4
mm
 41
0.12
 42
0.05
 43
0.5
 44
0.1
 47
0.1
 48
0.1
 75
     1
 76
     1
 78
     7
 79
     2
140
0.12
141
0.0
146
0.71
147
0.06
173
     1
176
   256
177
   256
178
     2
274
     4
284
     7
340
4A678
343
4A751
371
    -1
372
    -1
1001
ACAD_DSTYLE_DIMARC_LENGTH_SYMBOL
1070
   379
1070
     1
1001
ACAD_DSTYLE_DIM_LINETYPE
1070
   380
1005
4A67D
1001
ACAD_DSTYLE_DIM_EXT1_LINETYPE
1070
   381
1005
4A67D
1001
ACAD_DSTYLE_DIM_EXT2_LINETYPE
1070
   382
1005
4A67D
  0
DIMSTYLE
105
4A86B
330
4A625
100
AcDbSymbolTableRecord
100
AcDbDimStyleTableRecord
  2
ISO-25
 70
     0
 41
2.5
 42
0.625
 43
3.75
 44
1.25
 73
     0
 74
     0
 77
     1
 78
     8
140
2.5
141
2.5
143
0.03937007874016
147
0.625
171
     3
172
     1
271
     2
272
     2
274
     3
278
    44
283
     0
284
     8
340
4A678
  0
DIMSTYLE
105
4A86C
330
4A625
100
AcDbSymbolTableRecord
100
AcDbDimStyleTableRecord
  2
abode-iso
 70
     0
 40
10.0
 41
1.25
 42
1.5
 43
6.0
 44
0.0
 45
0.00000001
 46
10.0
 77
     1
 78
    12
 79
     3
140
17.0
143
0.03937
147
0.75
171
     3
172
     1
176
   256
177
   256
178
   256
271
     0
272
     0
274
     3
340
4A69A
342
4A6B4
371
    25
372
    25
1001
ACAD_DSTYLE_DIMJAG
1070
   388
1040
1.5
1001
ACAD_DSTYLE_DIMTALN
1070
   392
1070
     0
  0
DIMSTYLE
105
4A86D
330
4A625
100
AcDbSymbolTableRecord
100
AcDbDimStyleTableRecord
  2
abode-iso$7
 70
     0
 40
10.0
 41
2.5
 42
1.5
 43
6.0
 44
3.174999999999999
 45
0.00000001
 46
10.0
 77
     1
 78
    12
 79
     3
140
2.5
143
0.03937
146
1.399999999999999
147
0.762
171
     3
172
     1
176
     7
177
   256
178
   256
271
     0
272
     0
274
     3
340
4A69A
371
    25
372
    25
1001
ACAD_DSTYLE_DIMBREAK
1070
   391
1040
3.75
1001
ACAD_DSTYLE_DIMJAG
1070
   388
1040
1.5
1001
ACAD_DSTYLE_DIMTALN
1070
   392
1070
     0
  0
DIMSTYLE
105
4A86E
102
{ACAD_REACTORS
330
4A894
330
4A89D
330
4A91C
330
4A925
102
}
330
4A625
100
AcDbSymbolTableRecord
100
AcDbDimStyleTableRecord
  2
abode-iso$4
 70
     0
 40
10.0
 41
1.25
 42
1.5
 43
6.0
 44
0.0
 45
0.00000001
 46
10.0
 77
     1
 78
    12
 79
     3
140
17.0
143
0.03937
147
0.75
171
     3
172
     1
176
   256
177
   256
178
   256
271
     0
272
     0
274
     3
340
4A69A
342
4A6B4
371
    25
372
    25
1001
ACAD_DSTYLE_DIMBREAK
1070
   391
1040
3.75
1001
ACAD_DSTYLE_DIMJAG
1070
   388
1040
1.5
1001
ACAD_DSTYLE_DIMTALN
1070
   392
1070
     0
  0
DIMSTYLE
105
4A86F
102
{ACAD_REACTORS
330
4A88B
330
4A88E
330
4A891
330
4A8A0
330
4A8A3
330
4A8B1
330
4A8B2
330
4A8B3
330
4A8B4
330
4A8B5
330
4A8B8
330
4A8B9
330
4A8D6
330
4A8D0
330
4A8D3
330
4A8CA
330
4A8CD
330
4A913
330
4A916
330
4A919
330
4A928
330
4A92B
330
4A939
330
4A93A
330
4A93B
330
4A93C
330
4A93D
330
4A940
330
4A941
330
4A952
330
4A955
330
4A958
330
4A95B
330
4A95E
102
}
330
4A625
100
AcDbSymbolTableRecord
100
AcDbDimStyleTableRecord
  2
abode-iso$0
 70
     0
 40
10.0
 41
1.25
 42
1.5
 43
6.0
 44
0.0
 45
0.00000001
 46
10.0
 77
     1
 78
    12
 79
     3
140
17.0
143
0.03937
147
0.75
171
     3
172
     1
176
   256
177
   256
178
   256
271
     0
272
     0
274
     3
340
4A69A
342
4A6B4
371
    25
372
    25
1001
ACAD_DSTYLE_DIMJAG
1070
   388
1040
1.5
1001
ACAD_DSTYLE_DIMTALN
1070
   392
1070
     0
  0
DIMSTYLE
105
4A870
330
4A625
100
AcDbSymbolTableRecord
100
AcDbDimStyleTableRecord
  2
SLDDIMSTYLE0
 70
     0
 41
3.301999999999999
 44
0.0
 45
0.000000001
 73
     0
 77
     1
 78
    12
140
3.5
144
8.0
147
0.875
173
     1
271
     2
272
     2
284
    12
340
4A86A
  0
DIMSTYLE
105
4A871
330
4A625
100
AcDbSymbolTableRecord
100
AcDbDimStyleTableRecord
  2
SLDDIMSTYLE1
 70
     0
 41
3.301999999999999
 44
0.0
 45
0.000000001
 73
     0
 77
     1
 78
    12
140
3.5
144
8.0
147
0.875
173
     1
271
     2
272
     2
284
    12
340
4A86A
  0
DIMSTYLE
105
4A872
330
4A625
100
AcDbSymbolTableRecord
100
AcDbDimStyleTableRecord
  2
SLDDIMSTYLE3
 70
     0
 41
3.301999999999999
 44
0.0
 45
0.000000001
 73
     0
 77
     1
 78
    12
140
3.5
144
8.0
147
0.875
173
     1
271
     2
272
     2
284
    12
340
4A86A
  0
DIMSTYLE
105
4A873
330
4A625
100
AcDbSymbolTableRecord
100
AcDbDimStyleTableRecord
  2
abode-iso$2
 70
     0
 40
10.0
 41
1.25
 42
1.5
 43
6.0
 44
0.0
 45
0.00000001
 46
10.0
 77
     1
 78
    12
 79
     3
140
17.0
143
0.03937
147
0.75
171
     3
172
     1
176
   256
177
   256
178
   256
271
     0
272
     0
274
     3
340
4A69A
342
4A6B4
371
    25
372
    25
1001
ACAD_DSTYLE_DIMJAG
1070
   388
1040
1.5
1001
ACAD_DSTYLE_DIMTALN
1070
   392
1070
     0
  0
DIMSTYLE
105
4A874
102
{ACAD_REACTORS
330
4A8AE
330
4A936
102
}
330
4A625
100
AcDbSymbolTableRecord
100
AcDbDimStyleTableRecord
  2
abode-iso$3
 70
     0
 40
10.0
 41
1.25
 42
1.5
 43
6.0
 44
0.0
 45
0.00000001
 46
10.0
 77
     1
 78
    12
 79
     3
140
17.0
143
0.03937
147
0.75
171
     3
172
     1
176
   256
177
   256
178
   256
271
     0
272
     0
274
     3
340
4A69A
342
4A6B4
371
    25
372
    25
1001
ACAD_DSTYLE_DIMJAG
1070
   388
1040
1.5
1001
ACAD_DSTYLE_DIMTALN
1070
   392
1070
     0
  0
ENDTAB
  0
TABLE
  2
BLOCK_RECORD
  5
4A61C
330
0
100
AcDbSymbolTable
 70
    57
  0
BLOCK_RECORD
  5
4A68F
330
4A61C
100
AcDbSymbolTableRecord
100
AcDbBlockTableRecord
  2
*Model_Space
340
4A692
  0
BLOCK_RECORD
  5
4A68B
330
4A61C
100
AcDbSymbolTableRecord
100
AcDbBlockTableRecord
  2
*Paper_Space
340
4A68E
  0
BLOCK_RECORD
  5
4A6B0
330
4A61C
100
AcDbSymbolTableRecord
100
AcDbBlockTableRecord
  2
$MODEL_SPACE
340
0
  0
BLOCK_RECORD
  5
4A6B2
330
4A61C
100
AcDbSymbolTableRecord
100
AcDbBlockTableRecord
  2
$PAPER_SPACE
340
0
  0
BLOCK_RECORD
  5
4A6B4
330
4A61C
100
AcDbSymbolTableRecord
100
AcDbBlockTableRecord
  2
FILLED-1
340
0
102
{BLKREFS
331
46C51
331
46C52
331
46C5E
331
46C68
331
46C69
331
46C74
331
46C75
331
4A769
331
4A76A
331
4A775
331
4A776
331
4A782
331
4A783
331
4A78F
331
4A799
331
4A7A2
331
4A7A3
331
4A7AF
331
4A7B0
331
4A7BD
331
4A7BE
331
4A7C9
331
4A7CA
331
4A7D6
331
4A7D7
331
4A7E5
331
4A7E6
331
4A7F1
331
4A7F2
331
4A7FD
331
4A7FE
331
4A80A
331
4A80B
331
4A818
331
4A819
331
4A824
331
4A825
331
4A830
331
4A831
331
4A83D
331
4A83E
331
4A84C
331
4A84D
331
4A85B
331
4A85C
331
4A9C3
331
4A9C4
331
4A9DC
331
4A9DD
331
4A9E6
331
4AA06
331
4AA07
331
4AA1D
331
4AA1E
331
4AA27
331
4AA28
331
4AA33
331
4AA34
331
4AA3C
331
4AA3D
331
4AA48
331
4AA49
331
4AA52
331
4AA53
331
4AA5D
331
4AA5E
331
4AA69
331
4AA6A
331
4AA75
331
4AA76
331
4AA82
331
4AA83
331
4AA91
331
4AA92
331
4AAA0
331
4AAA1
331
4AAA9
331
4AAAA
331
4AAB2
331
4AAB3
331
4AABC
331
4AAC4
331
4AAC5
102
}
  0
BLOCK_RECORD
  5
4A6B6
330
4A61C
100
AcDbSymbolTableRecord
100
AcDbBlockTableRecord
  2
*D3
340
0
  0
BLOCK_RECORD
  5
4A6B8
330
4A61C
100
AcDbSymbolTableRecord
100
AcDbBlockTableRecord
  2
*U4
340
0
102
{BLKREFS
331
46C53
102
}
  0
BLOCK_RECORD
  5
4A6BA
330
4A61C
100
AcDbSymbolTableRecord
100
AcDbBlockTableRecord
  2
*D5
340
0
  0
BLOCK_RECORD
  5
4A6BC
330
4A61C
100
AcDbSymbolTableRecord
100
AcDbBlockTableRecord
  2
*U6
340
0
102
{BLKREFS
331
46C5C
102
}
  0
BLOCK_RECORD
  5
4A6BE
330
4A61C
100
AcDbSymbolTableRecord
100
AcDbBlockTableRecord
  2
*D7
340
0
  0
BLOCK_RECORD
  5
4A6C0
330
4A61C
100
AcDbSymbolTableRecord
100
AcDbBlockTableRecord
  2
*U8
340
0
102
{BLKREFS
331
46C6A
102
}
  0
BLOCK_RECORD
  5
4A6C2
330
4A61C
100
AcDbSymbolTableRecord
100
AcDbBlockTableRecord
  2
*D9
340
0
  0
BLOCK_RECORD
  5
4A6C4
330
4A61C
100
AcDbSymbolTableRecord
100
AcDbBlockTableRecord
  2
*U10
340
0
102
{BLKREFS
331
46C76
102
}
  0
BLOCK_RECORD
  5
4A6C6
330
4A61C
100
AcDbSymbolTableRecord
100
AcDbBlockTableRecord
  2
*U11
340
0
  0
BLOCK_RECORD
  5
4A6C8
330
4A61C
100
AcDbSymbolTableRecord
100
AcDbBlockTableRecord
  2
*U12
340
0
  0
BLOCK_RECORD
  5
4A6CA
330
4A61C
100
AcDbSymbolTableRecord
100
AcDbBlockTableRecord
  2
*U13
340
0
  0
BLOCK_RECORD
  5
4A751
330
4A61C
100
AcDbSymbolTableRecord
100
AcDbBlockTableRecord
  2
GENAXEH
340
0
  0
BLOCK_RECORD
  5
4A763
330
4A61C
100
AcDbSymbolTableRecord
100
AcDbBlockTableRecord
  2
*D16
340
0
  0
BLOCK_RECORD
  5
4A770
330
4A61C
100
AcDbSymbolTableRecord
100
AcDbBlockTableRecord
  2
*D17
340
0
  0
BLOCK_RECORD
  5
4A77C
330
4A61C
100
AcDbSymbolTableRecord
100
AcDbBlockTableRecord
  2
*D18
340
0
  0
BLOCK_RECORD
  5
4A789
330
4A61C
100
AcDbSymbolTableRecord
100
AcDbBlockTableRecord
  2
*D19
340
0
  0
BLOCK_RECORD
  5
4A793
330
4A61C
100
AcDbSymbolTableRecord
100
AcDbBlockTableRecord
  2
*D20
340
0
  0
BLOCK_RECORD
  5
4A79D
330
4A61C
100
AcDbSymbolTableRecord
100
AcDbBlockTableRecord
  2
*D21
340
0
  0
BLOCK_RECORD
  5
4A7A9
330
4A61C
100
AcDbSymbolTableRecord
100
AcDbBlockTableRecord
  2
*D22
340
0
  0
BLOCK_RECORD
  5
4A7B6
330
4A61C
100
AcDbSymbolTableRecord
100
AcDbBlockTableRecord
  2
*D23
340
0
  0
BLOCK_RECORD
  5
4A7C2
330
4A61C
100
AcDbSymbolTableRecord
100
AcDbBlockTableRecord
  2
*D24
340
0
  0
BLOCK_RECORD
  5
4A7D0
330
4A61C
100
AcDbSymbolTableRecord
100
AcDbBlockTableRecord
  2
*D25
340
0
  0
BLOCK_RECORD
  5
4A7DD
330
4A61C
100
AcDbSymbolTableRecord
100
AcDbBlockTableRecord
  2
*D26
340
0
  0
BLOCK_RECORD
  5
4A7EC
330
4A61C
100
AcDbSymbolTableRecord
100
AcDbBlockTableRecord
  2
*D27
340
0
  0
BLOCK_RECORD
  5
4A7F8
330
4A61C
100
AcDbSymbolTableRecord
100
AcDbBlockTableRecord
  2
*D28
340
0
  0
BLOCK_RECORD
  5
4A804
330
4A61C
100
AcDbSymbolTableRecord
100
AcDbBlockTableRecord
  2
*D29
340
0
  0
BLOCK_RECORD
  5
4A811
330
4A61C
100
AcDbSymbolTableRecord
100
AcDbBlockTableRecord
  2
*D30
340
0
  0
BLOCK_RECORD
  5
4A81F
330
4A61C
100
AcDbSymbolTableRecord
100
AcDbBlockTableRecord
  2
*D31
340
0
  0
BLOCK_RECORD
  5
4A82B
330
4A61C
100
AcDbSymbolTableRecord
100
AcDbBlockTableRecord
  2
*D32
340
0
  0
BLOCK_RECORD
  5
4A837
330
4A61C
100
AcDbSymbolTableRecord
100
AcDbBlockTableRecord
  2
*D33
340
0
  0
BLOCK_RECORD
  5
4A844
330
4A61C
100
AcDbSymbolTableRecord
100
AcDbBlockTableRecord
  2
*D34
340
0
  0
BLOCK_RECORD
  5
4A853
330
4A61C
100
AcDbSymbolTableRecord
100
AcDbBlockTableRecord
  2
*D35
340
0
  0
BLOCK_RECORD
  5
4A961
330
4A61C
100
AcDbSymbolTableRecord
100
AcDbBlockTableRecord
  2
*D37
340
0
  0
BLOCK_RECORD
  5
4A96B
330
4A61C
100
AcDbSymbolTableRecord
100
AcDbBlockTableRecord
  2
*D38
340
0
  0
BLOCK_RECORD
  5
4A979
330
4A61C
100
AcDbSymbolTableRecord
100
AcDbBlockTableRecord
  2
*D39
340
0
  0
BLOCK_RECORD
  5
4A986
330
4A61C
100
AcDbSymbolTableRecord
100
AcDbBlockTableRecord
  2
*D40
340
0
  0
BLOCK_RECORD
  5
4A995
330
4A61C
100
AcDbSymbolTableRecord
100
AcDbBlockTableRecord
  2
*D41
340
0
  0
BLOCK_RECORD
  5
4A9A1
330
4A61C
100
AcDbSymbolTableRecord
100
AcDbBlockTableRecord
  2
*D42
340
0
  0
BLOCK_RECORD
  5
4A9AE
330
4A61C
100
AcDbSymbolTableRecord
100
AcDbBlockTableRecord
  2
*D43
340
0
  0
BLOCK_RECORD
  5
4A9BC
330
4A61C
100
AcDbSymbolTableRecord
100
AcDbBlockTableRecord
  2
*D44
340
0
  0
BLOCK_RECORD
  5
4A9C9
330
4A61C
100
AcDbSymbolTableRecord
100
AcDbBlockTableRecord
  2
*D45
340
0
  0
BLOCK_RECORD
  5
4A9D5
330
4A61C
100
AcDbSymbolTableRecord
100
AcDbBlockTableRecord
  2
*D46
340
0
  0
BLOCK_RECORD
  5
4A9E9
330
4A61C
100
AcDbSymbolTableRecord
100
AcDbBlockTableRecord
  2
*D47
340
0
  0
BLOCK_RECORD
  5
4A9F3
330
4A61C
100
AcDbSymbolTableRecord
100
AcDbBlockTableRecord
  2
*D48
340
0
  0
BLOCK_RECORD
  5
4A9FF
330
4A61C
100
AcDbSymbolTableRecord
100
AcDbBlockTableRecord
  2
*D49
340
0
  0
BLOCK_RECORD
  5
4AA0C
330
4A61C
100
AcDbSymbolTableRecord
100
AcDbBlockTableRecord
  2
*D50
340
0
  0
BLOCK_RECORD
  5
4AA42
330
4A61C
100
AcDbSymbolTableRecord
100
AcDbBlockTableRecord
  2
*D51
340
0
  0
BLOCK_RECORD
  5
4AA63
330
4A61C
100
AcDbSymbolTableRecord
100
AcDbBlockTableRecord
  2
*D52
340
0
  0
BLOCK_RECORD
  5
4AA6F
330
4A61C
100
AcDbSymbolTableRecord
100
AcDbBlockTableRecord
  2
*D53
340
0
  0
BLOCK_RECORD
  5
4AA7B
330
4A61C
100
AcDbSymbolTableRecord
100
AcDbBlockTableRecord
  2
*D54
340
0
  0
BLOCK_RECORD
  5
4AA88
330
4A61C
100
AcDbSymbolTableRecord
100
AcDbBlockTableRecord
  2
*D55
340
0
  0
BLOCK_RECORD
  5
4AA97
330
4A61C
100
AcDbSymbolTableRecord
100
AcDbBlockTableRecord
  2
*D56
340
0
  0
ENDTAB
  0
ENDSEC
  0
SECTION
  2
BLOCKS
  0
BLOCK
  5
4A690
330
4A68F
100
AcDbEntity
  8
0
100
AcDbBlockBegin
  2
*Model_Space
 70
     0
 10
0.0
 20
0.0
 30
0.0
  3
*Model_Space
  1

  0
ENDBLK
  5
4A691
330
4A68F
100
AcDbEntity
  8
0
100
AcDbBlockEnd
  0
BLOCK
  5
4A68C
330
4A68B
100
AcDbEntity
 67
     1
  8
0
100
AcDbBlockBegin
  2
*Paper_Space
 70
     0
 10
0.0
 20
0.0
 30
0.0
  3
*Paper_Space
  1

  0
ENDBLK
  5
4A68D
330
4A68B
100
AcDbEntity
 67
     1
  8
0
100
AcDbBlockEnd
  0
BLOCK
  5
4A6B1
330
4A6B0
100
AcDbEntity
  8
0
100
AcDbBlockBegin
  2
$MODEL_SPACE
 70
     0
 10
0.0
 20
0.0
 30
0.0
  3
$MODEL_SPACE
  1

  0
ENDBLK
  5
498D8
330
4A6B0
100
AcDbEntity
  8
0
100
AcDbBlockEnd
  0
BLOCK
  5
4A6B3
330
4A6B2
100
AcDbEntity
  8
0
100
AcDbBlockBegin
  2
$PAPER_SPACE
 70
     0
 10
0.0
 20
0.0
 30
0.0
  3
$PAPER_SPACE
  1

  0
ENDBLK
  5
498D4
330
4A6B2
100
AcDbEntity
  8
0
100
AcDbBlockEnd
  0
BLOCK
  5
4A6B5
330
4A6B4
100
AcDbEntity
  8
0
100
AcDbBlockBegin
  2
FILLED-1
 70
     0
 10
0.0
 20
0.0
 30
0.0
  3
FILLED-1
  1

  0
LINE
  5
13A
330
4A6B4
100
AcDbEntity
  8
0
 62
     0
100
AcDbLine
 10
-1.0
 20
0.0
 30
0.0
 11
0.0
 21
0.0
 31
0.0
  0
POLYLINE
  5
13B
330
4A6B4
100
AcDbEntity
  8
0
 62
     0
100
AcDb2dPolyline
 66
     1
 10
0.0
 20
0.0
 30
0.0
 70
   128
  0
VERTEX
  5
4A5F9
330
13B
100
AcDbEntity
  8
0
 62
     0
100
AcDbVertex
100
AcDb2dVertex
 10
-1.0
 20
-0.3333333333333333
 30
0.0
  0
VERTEX
  5
4A5FA
330
13B
100
AcDbEntity
  8
0
 62
     0
100
AcDbVertex
100
AcDb2dVertex
 10
0.0
 20
0.0
 30
0.0
  0
VERTEX
  5
4A5FB
330
13B
100
AcDbEntity
  8
0
 62
     0
100
AcDbVertex
100
AcDb2dVertex
 10
-1.0
 20
0.3333333333333333
 30
0.0
  0
VERTEX
  5
4A5FC
330
13B
100
AcDbEntity
  8
0
 62
     0
100
AcDbVertex
100
AcDb2dVertex
 10
-1.0
 20
-0.3333333333333333
 30
0.0
  0
SEQEND
  5
4A5FD
330
13B
100
AcDbEntity
  8
0
 62
     0
  0
SOLID
  5
141
330
4A6B4
100
AcDbEntity
  8
0
 62
     0
100
AcDbTrace
 10
-1.0
 20
-0.3333333333333333
 30
0.0
 11
0.0
 21
0.0
 31
0.0
 12
-1.0
 22
0.3333333333333333
 32
0.0
 13
-1.0
 23
-0.3333333333333333
 33
0.0
  0
LINE
  5
142
330
4A6B4
100
AcDbEntity
  8
0
 62
     0
100
AcDbLine
 10
-1.0
 20
-0.3333333333333333
 30
0.0
 11
0.0
 21
0.0
 31
0.0
  0
LINE
  5
143
330
4A6B4
100
AcDbEntity
  8
0
 62
     0
100
AcDbLine
 10
0.0
 20
0.0
 30
0.0
 11
-1.0
 21
0.3333333333333333
 31
0.0
  0
LINE
  5
144
330
4A6B4
100
AcDbEntity
  8
0
 62
     0
100
AcDbLine
 10
-1.0
 20
0.3333333333333333
 30
0.0
 11
-1.0
 21
-0.3333333333333333
 31
0.0
  0
ENDBLK
  5
145
330
4A6B4
100
AcDbEntity
  8
0
100
AcDbBlockEnd
  0
BLOCK
  5
4A6B7
330
4A6B6
100
AcDbEntity
  8
0
100
AcDbBlockBegin
  2
*D3
 70
     1
 10
0.0
 20
0.0
 30
0.0
  3
*D3
  1

  0
LINE
  5
46C4E
330
4A6B6
100
AcDbEntity
  8
DIMS_SPECS
100
AcDbLine
 10
27697.50966347372
 20
23868.95820333854
 30
0.0
 11
27697.50966347372
 21
23779.56217227326
 31
0.0
  0
LINE
  5
46C4F
330
4A6B6
100
AcDbEntity
  8
DIMS_SPECS
100
AcDbLine
 10
28658.50966347372
 20
23868.95820333854
 30
0.0
 11
28658.50966347372
 21
23779.56217227326
 31
0.0
  0
LINE
  5
46C50
330
4A6B6
100
AcDbEntity
  8
DIMS_SPECS
100
AcDbLine
 10
27710.00966347372
 20
23779.56217227326
 30
0.0
 11
28646.00966347372
 21
23779.56217227326
 31
0.0
  0
INSERT
  5
46C51
330
4A6B6
100
AcDbEntity
  8
DIMS_SPECS
100
AcDbBlockReference
  2
FILLED-1
 10
27697.50966347372
 20
23779.56217227326
 30
0.0
 41
12.5
 42
12.5
 43
12.5
 50
180.0
  0
INSERT
  5
46C52
330
4A6B6
100
AcDbEntity
  8
DIMS_SPECS
100
AcDbBlockReference
  2
FILLED-1
 10
28658.50966347372
 20
23779.56217227326
 30
0.0
 41
12.5
 42
12.5
 43
12.5
  0
INSERT
  5
46C53
330
4A6B6
100
AcDbEntity
  8
0
100
AcDbBlockReference
  2
*U4
 10
0.0
 20
0.0
 30
0.0
  0
POINT
  5
46C54
330
4A6B6
100
AcDbEntity
  8
DEFPOINTS
 62
     0
100
AcDbPoint
 10
27697.50966347372
 20
23883.95820333854
 30
0.0
  0
POINT
  5
46C55
330
4A6B6
100
AcDbEntity
  8
DEFPOINTS
 62
     0
100
AcDbPoint
 10
28658.50966347372
 20
23883.95820333854
 30
0.0
  0
POINT
  5
46C56
330
4A6B6
100
AcDbEntity
  8
DEFPOINTS
 62
     0
100
AcDbPoint
 10
28658.50966347372
 20
23779.56217227326
 30
0.0
  0
ENDBLK
  5
46C4D
330
4A6B6
100
AcDbEntity
  8
0
100
AcDbBlockEnd
  0
BLOCK
  5
4A6B9
330
4A6B8
100
AcDbEntity
  8
0
100
AcDbBlockBegin
  2
*U4
 70
     1
 10
0.0
 20
0.0
 30
0.0
  3
*U4
  1

  0
TEXT
  5
496D0
330
4A6B8
100
AcDbEntity
  8
DIMS_SPECS
100
AcDbText
 10
28154.71041126434
 20
23787.70357268115
 30
0.0
 40
17.0
  1
961
 41
0.9
  7
ABODE-ISO
100
AcDbText
  0
ENDBLK
  5
496D2
330
4A6B8
100
AcDbEntity
  8
0
100
AcDbBlockEnd
  0
BLOCK
  5
4A6BB
330
4A6BA
100
AcDbEntity
  8
0
100
AcDbBlockBegin
  2
*D5
 70
     1
 10
0.0
 20
0.0
 30
0.0
  3
*D5
  1

  0
LINE
  5
46C5A
330
4A6BA
100
AcDbEntity
  8
DIMS_SPECS
100
AcDbLine
 10
28743.65619706137
 20
23817.54140504033
 30
0.0
 11
28702.24865117421
 21
23817.54140504033
 31
0.0
  0
LINE
  5
46C5B
330
4A6BA
100
AcDbEntity
  8
DIMS_SPECS
100
AcDbLine
 10
28702.24865117421
 20
23817.54140504033
 30
0.0
 11
28661.19506323108
 21
23866.68991078979
 31
0.0
  0
INSERT
  5
46C5C
330
4A6BA
100
AcDbEntity
  8
0
100
AcDbBlockReference
  2
*U6
 10
0.0
 20
0.0
 30
0.0
  0
LINE
  5
46C5D
330
4A6BA
100
AcDbEntity
  8
DIMS_SPECS
100
AcDbLine
 10
28646.77091429777
 20
23883.95820333857
 30
0.0
 11
28653.18164715703
 21
23876.28340665021
 31
0.0
  0
INSERT
  5
46C5E
330
4A6BA
100
AcDbEntity
  8
DIMS_SPECS
100
AcDbBlockReference
  2
FILLED-1
 10
28653.18164715703
 20
23876.28340665021
 30
0.0
 41
12.5
 42
12.5
 43
12.5
 50
129.8718983619246
  0
POINT
  5
46C5F
330
4A6BA
100
AcDbEntity
  8
DEFPOINTS
 62
     0
100
AcDbPoint
 10
28653.18164715703
 20
23876.28340665021
 30
0.0
  0
POINT
  5
46C60
330
4A6BA
100
AcDbEntity
  8
DEFPOINTS
 62
     0
100
AcDbPoint
 10
28646.77091429777
 20
23883.95820333857
 30
0.0
  0
ENDBLK
  5
46C59
330
4A6BA
100
AcDbEntity
  8
0
100
AcDbBlockEnd
  0
BLOCK
  5
4A6BD
330
4A6BC
100
AcDbEntity
  8
0
100
AcDbBlockBegin
  2
*U6
 70
     1
 10
0.0
 20
0.0
 30
0.0
  3
*U6
  1

  0
TEXT
  5
496D4
330
4A6BC
100
AcDbEntity
  8
DIMS_SPECS
100
AcDbText
 10
28707.80364777516
 20
23825.6828054482
 30
0.0
 40
17.0
  1
R10
 41
0.9
  7
ABODE-ISO
100
AcDbText
  0
ENDBLK
  5
496D6
330
4A6BC
100
AcDbEntity
  8
0
100
AcDbBlockEnd
  0
BLOCK
  5
4A6BF
330
4A6BE
100
AcDbEntity
  8
0
100
AcDbBlockBegin
  2
*D7
 70
     1
 10
0.0
 20
0.0
 30
0.0
  3
*D7
  1

  0
LINE
  5
46C64
330
4A6BE
100
AcDbEntity
  8
DIMS_SPECS
100
AcDbLine
 10
28661.77091429772
 20
23873.95820333854
 30
0.0
 11
28693.74868833494
 21
23873.95820333854
 31
0.0
  0
LINE
  5
46C65
330
4A6BE
100
AcDbEntity
  8
DIMS_SPECS
100
AcDbLine
 10
28661.77091429772
 20
24364.95820333854
 30
0.0
 11
28693.74868833494
 21
24364.95820333854
 31
0.0
  0
LINE
  5
46C66
330
4A6BE
100
AcDbEntity
  8
DIMS_SPECS
100
AcDbLine
 10
28693.74868833494
 20
23886.45820333854
 30
0.0
 11
28693.74868833494
 21
24095.5306030666
 31
0.0
  0
LINE
  5
46C67
330
4A6BE
100
AcDbEntity
  8
DIMS_SPECS
100
AcDbLine
 10
28693.74868833494
 20
24352.45820333854
 30
0.0
 11
28693.74868833494
 21
24128.38580361045
 31
0.0
  0
INSERT
  5
46C68
330
4A6BE
100
AcDbEntity
  8
DIMS_SPECS
100
AcDbBlockReference
  2
FILLED-1
 10
28693.74868833494
 20
23873.95820333854
 30
0.0
 41
12.5
 42
12.5
 43
12.5
 50
270.0
  0
INSERT
  5
46C69
330
4A6BE
100
AcDbEntity
  8
DIMS_SPECS
100
AcDbBlockReference
  2
FILLED-1
 10
28693.74868833494
 20
24364.95820333854
 30
0.0
 41
12.5
 42
12.5
 43
12.5
 50
90.0
  0
INSERT
  5
46C6A
330
4A6BE
100
AcDbEntity
  8
0
100
AcDbBlockReference
  2
*U8
 10
0.0
 20
0.0
 30
0.0
  0
POINT
  5
46C6B
330
4A6BE
100
AcDbEntity
  8
DEFPOINTS
 62
     0
100
AcDbPoint
 10
28646.77091429772
 20
23873.95820333854
 30
0.0
  0
POINT
  5
46C6C
330
4A6BE
100
AcDbEntity
  8
DEFPOINTS
 62
     0
100
AcDbPoint
 10
28646.77091429772
 20
24364.95820333854
 30
0.0
  0
POINT
  5
46C6D
330
4A6BE
100
AcDbEntity
  8
DEFPOINTS
 62
     0
100
AcDbPoint
 10
28693.74868833494
 20
24364.95820333854
 30
0.0
  0
ENDBLK
  5
46C63
330
4A6BE
100
AcDbEntity
  8
0
100
AcDbBlockEnd
  0
BLOCK
  5
4A6C1
330
4A6C0
100
AcDbEntity
  8
0
100
AcDbBlockBegin
  2
*U8
 70
     1
 10
0.0
 20
0.0
 30
0.0
  3
*U8
  1

  0
TEXT
  5
496D8
330
4A6C0
100
AcDbEntity
  8
DIMS_SPECS
100
AcDbText
 10
28678.19906223024
 20
24103.6720034745
 30
0.0
 40
17.0
  1
491
 41
0.9
  7
ABODE-ISO
100
AcDbText
  0
ENDBLK
  5
496DA
330
4A6C0
100
AcDbEntity
  8
0
100
AcDbBlockEnd
  0
BLOCK
  5
4A6C3
330
4A6C2
100
AcDbEntity
  8
0
100
AcDbBlockBegin
  2
*D9
 70
     1
 10
0.0
 20
0.0
 30
0.0
  3
*D9
  1

  0
LINE
  5
46C71
330
4A6C2
100
AcDbEntity
  8
DIMS_SPECS
100
AcDbLine
 10
27697.50966347372
 20
23868.95820333854
 30
0.0
 11
27697.50966347372
 21
23826.59369289194
 31
0.0
  0
LINE
  5
46C72
330
4A6C2
100
AcDbEntity
  8
DIMS_SPECS
100
AcDbLine
 10
28142.50966347374
 20
23858.95820333854
 30
0.0
 11
28142.50966347374
 21
23826.59369289194
 31
0.0
  0
LINE
  5
46C73
330
4A6C2
100
AcDbEntity
  8
DIMS_SPECS
100
AcDbLine
 10
27710.00966347372
 20
23826.59369289194
 30
0.0
 11
28130.00966347375
 21
23826.59369289194
 31
0.0
  0
INSERT
  5
46C74
330
4A6C2
100
AcDbEntity
  8
DIMS_SPECS
100
AcDbBlockReference
  2
FILLED-1
 10
27697.50966347372
 20
23826.59369289194
 30
0.0
 41
12.5
 42
12.5
 43
12.5
 50
180.0
  0
INSERT
  5
46C75
330
4A6C2
100
AcDbEntity
  8
DIMS_SPECS
100
AcDbBlockReference
  2
FILLED-1
 10
28142.50966347374
 20
23826.59369289194
 30
0.0
 41
12.5
 42
12.5
 43
12.5
  0
INSERT
  5
46C76
330
4A6C2
100
AcDbEntity
  8
0
100
AcDbBlockReference
  2
*U10
 10
0.0
 20
0.0
 30
0.0
  0
POINT
  5
46C77
330
4A6C2
100
AcDbEntity
  8
DEFPOINTS
 62
     0
100
AcDbPoint
 10
27697.50966347372
 20
23883.95820333854
 30
0.0
  0
POINT
  5
46C78
330
4A6C2
100
AcDbEntity
  8
DEFPOINTS
 62
     0
100
AcDbPoint
 10
28142.50966347374
 20
23873.95820333854
 30
0.0
  0
POINT
  5
46C79
330
4A6C2
100
AcDbEntity
  8
DEFPOINTS
 62
     0
100
AcDbPoint
 10
28142.50966347374
 20
23826.59369289194
 30
0.0
  0
ENDBLK
  5
46C70
330
4A6C2
100
AcDbEntity
  8
0
100
AcDbBlockEnd
  0
BLOCK
  5
4A6C5
330
4A6C4
100
AcDbEntity
  8
0
100
AcDbBlockBegin
  2
*U10
 70
     1
 10
0.0
 20
0.0
 30
0.0
  3
*U10
  1

  0
TEXT
  5
496DC
330
4A6C4
100
AcDbEntity
  8
DIMS_SPECS
100
AcDbText
 10
27902.49943233845
 20
23834.73509329983
 30
0.0
 40
17.0
  1
445
 41
0.9
  7
ABODE-ISO
100
AcDbText
  0
ENDBLK
  5
496DE
330
4A6C4
100
AcDbEntity
  8
0
100
AcDbBlockEnd
  0
BLOCK
  5
4A6C7
330
4A6C6
100
AcDbEntity
  8
0
100
AcDbBlockBegin
  2
*U11
 70
     1
 10
0.0
 20
0.0
 30
0.0
  3
*U11
  1

  0
TEXT
  5
496A4
330
4A6C6
100
AcDbEntity
  8
CUTOUT
100
AcDbText
 10
27997.34157707748
 20
24169.80436654411
 30
0.0
 40
40.0
  1
BOWL(S),
100
AcDbText
  0
TEXT
  5
496A5
330
4A6C6
100
AcDbEntity
  8
CUTOUT
100
AcDbText
 10
27937.34157707748
 20
24103.13769987745
 30
0.0
 40
40.0
  1
OVERFLOW,
100
AcDbText
  0
TEXT
  5
496A6
330
4A6C6
100
AcDbEntity
  8
CUTOUT
100
AcDbText
 10
27963.34157707748
 20
24036.47103321078
 30
0.0
 40
40.0
  1
TAP AREA
100
AcDbText
  0
ENDBLK
  5
496A8
330
4A6C6
100
AcDbEntity
  8
0
100
AcDbBlockEnd
  0
BLOCK
  5
4A6C9
330
4A6C8
100
AcDbEntity
  8
0
100
AcDbBlockBegin
  2
*U12
 70
     1
 10
0.0
 20
0.0
 30
0.0
  3
*U12
  1

  0
TEXT
  5
496B3
330
4A6C8
100
AcDbEntity
  8
CUTOUT
100
AcDbText
 10
27986.57776733651
 20
24383.62587610703
 30
0.0
 40
40.0
  1
INSET CUT OUT
100
AcDbText
  0
ENDBLK
  5
496B5
330
4A6C8
100
AcDbEntity
  8
0
100
AcDbBlockEnd
  0
BLOCK
  5
4A6CB
330
4A6CA
100
AcDbEntity
  8
0
100
AcDbBlockBegin
  2
*U13
 70
     1
 10
0.0
 20
0.0
 30
0.0
  3
*U13
  1

  0
TEXT
  5
496B7
330
4A6CA
100
AcDbEntity
  8
0
 62
     1
100
AcDbText
 10
27216.85780347565
 20
24224.0366160831
 30
0.0
 40
8.0
  1
All details are provided in good faith and
  7
ACISOTS
100
AcDbText
  0
TEXT
  5
496B8
330
4A6CA
100
AcDbEntity
  8
0
 62
     1
100
AcDbText
 10
27198.40980347565
 20
24210.70328274976
 30
0.0
 40
8.0
  1
within
  7
ACISOTS
100
AcDbText
  0
TEXT
  5
496B9
330
4A6CA
100
AcDbEntity
  8
0
 62
     1
100
AcDbText
 10
27234.38080347565
 20
24197.36994941644
 30
0.0
 40
8.0
  1
the tolerances of the manufacturing process.
  7
ACISOTS
100
AcDbText
  0
TEXT
  5
496BA
330
4A6CA
100
AcDbEntity
  8
0
 62
     1
100
AcDbText
 10
27199.71460347565
 20
24184.03661608311
 30
0.0
 40
8.0
  1
Note: the dimensions on ceramic fireclay
  7
ACISOTS
100
AcDbText
  0
TEXT
  5
496BB
330
4A6CA
100
AcDbEntity
  8
0
 62
     1
100
AcDbText
 10
27198.40980347565
 20
24170.70328274978
 30
0.0
 40
8.0
  1
products
  7
ACISOTS
100
AcDbText
  0
TEXT
  5
496BC
330
4A6CA
100
AcDbEntity
  8
0
 62
     1
100
AcDbText
 10
27201.23840347565
 20
24157.36994941644
 30
0.0
 40
8.0
  1
are subject to wider tolerances due to the
  7
ACISOTS
100
AcDbText
  0
TEXT
  5
496BD
330
4A6CA
100
AcDbEntity
  8
0
 62
     1
100
AcDbText
 10
27198.40980347565
 20
24144.03661608311
 30
0.0
 40
8.0
  1
nature
  7
ACISOTS
100
AcDbText
  0
TEXT
  5
496BE
330
4A6CA
100
AcDbEntity
  8
0
 62
     1
100
AcDbText
 10
27222.95280347565
 20
24130.70328274978
 30
0.0
 40
8.0
  1
of this natural material and the firing
  7
ACISOTS
100
AcDbText
  0
TEXT
  5
496BF
330
4A6CA
100
AcDbEntity
  8
0
 62
     1
100
AcDbText
 10
27198.40980347565
 20
24117.36994941645
 30
0.0
 40
8.0
  1
process.
  7
ACISOTS
100
AcDbText
  0
TEXT
  5
496C0
330
4A6CA
100
AcDbEntity
  8
0
 62
     1
100
AcDbText
 10
27227.90480347565
 20
24090.70328274978
 30
0.0
 40
8.0
  1
We recommend that a test cutout is made in
  7
ACISOTS
100
AcDbText
  0
TEXT
  5
496C1
330
4A6CA
100
AcDbEntity
  8
0
 62
     1
100
AcDbText
 10
27203.52410347565
 20
24077.36994941645
 30
0.0
 40
8.0
  1
scrap timber and checked against the actual
  7
ACISOTS
100
AcDbText
  0
TEXT
  5
496C2
330
4A6CA
100
AcDbEntity
  8
0
 62
     1
100
AcDbText
 10
27198.40980347565
 20
24064.03661608312
 30
0.0
 40
8.0
  1
sink
  7
ACISOTS
100
AcDbText
  0
TEXT
  5
496C3
330
4A6CA
100
AcDbEntity
  8
0
 62
     1
100
AcDbText
 10
27254.57180347565
 20
24050.70328274979
 30
0.0
 40
8.0
  1
supplied before committing to cutting
  7
ACISOTS
100
AcDbText
  0
TEXT
  5
496C4
330
4A6CA
100
AcDbEntity
  8
0
 62
     1
100
AcDbText
 10
27198.40980347565
 20
24037.36994941645
 30
0.0
 40
8.0
  1
the
  7
ACISOTS
100
AcDbText
  0
TEXT
  5
496C5
330
4A6CA
100
AcDbEntity
  8
0
 62
     1
100
AcDbText
 10
27445.04980347565
 20
24024.03661608312
 30
0.0
 40
8.0
  1
worksurface.
  7
ACISOTS
100
AcDbText
  0
TEXT
  5
496C6
330
4A6CA
100
AcDbEntity
  8
0
 62
     1
100
AcDbText
 10
27225.23880347565
 20
23997.36994941646
 30
0.0
 40
8.0
  1
Abode can not accept liability for problems
  7
ACISOTS
100
AcDbText
  0
TEXT
  5
496C7
330
4A6CA
100
AcDbEntity
  8
0
 62
     1
100
AcDbText
 10
27198.40980347565
 20
23984.03661608313
 30
0.0
 40
8.0
  1
or
  7
ACISOTS
100
AcDbText
  0
TEXT
  5
496C8
330
4A6CA
100
AcDbEntity
  8
0
 62
     1
100
AcDbText
 10
27229.42880347565
 20
23970.70328274979
 30
0.0
 40
8.0
  1
costs incurred by failure to follow this advise,
  7
ACISOTS
100
AcDbText
  0
TEXT
  5
496C9
330
4A6CA
100
AcDbEntity
  8
0
 62
     1
100
AcDbText
 10
27222.19080347565
 20
23957.36994941646
 30
0.0
 40
8.0
  1
dimensions weights & measures are subject
  7
ACISOTS
100
AcDbText
  0
TEXT
  5
496CA
330
4A6CA
100
AcDbEntity
  8
0
 62
     1
100
AcDbText
 10
27198.40980347565
 20
23944.03661608313
 30
0.0
 40
8.0
  1
to
  7
ACISOTS
100
AcDbText
  0
TEXT
  5
496CB
330
4A6CA
100
AcDbEntity
  8
0
 62
     1
100
AcDbText
 10
27205.42880347565
 20
23930.7032827498
 30
0.0
 40
8.0
  1
change without prior notice. Errors and omissions
  7
ACISOTS
100
AcDbText
  0
TEXT
  5
496CC
330
4A6CA
100
AcDbEntity
  8
0
 62
     1
100
AcDbText
 10
27465.99980347565
 20
23917.36994941647
 30
0.0
 40
8.0
  1
excepted
  7
ACISOTS
100
AcDbText
  0
ENDBLK
  5
496CE
330
4A6CA
100
AcDbEntity
  8
0
100
AcDbBlockEnd
  0
BLOCK
  5
4A753
330
4A751
100
AcDbEntity
  8
0
100
AcDbBlockBegin
  2
GENAXEH
 70
     0
 10
0.0
 20
0.0
 30
0.0
  3
GENAXEH
  1

  0
LINE
  5
4A752
330
4A751
100
AcDbEntity
  8
0
100
AcDbLine
 10
-1.0
 20
0.0
 30
0.0
 11
1.0
 21
0.0
 31
0.0
  0
ENDBLK
  5
4A754
330
4A751
100
AcDbEntity
  8
0
100
AcDbBlockEnd
  0
BLOCK
  5
4A764
330
4A763
100
AcDbEntity
  8
0
100
AcDbBlockBegin
  2
*D16
 70
     1
 10
0.0
 20
0.0
 30
0.0
  3
*D16
  1

  0
LINE
  5
4A765
330
4A763
100
AcDbEntity
  8
DIMS SPECS
370
    25
100
AcDbLine
 10
195633.0918112399
 20
1304.04664070269
 30
0.0
 11
195815.5628568012
 21
1304.04664070269
 31
0.0
  0
LINE
  5
4A766
330
4A763
100
AcDbEntity
  8
DIMS SPECS
370
    25
100
AcDbLine
 10
195633.0918112399
 20
845.0466407026901
 30
0.0
 11
195815.5628568012
 21
845.0466407026901
 31
0.0
  0
LINE
  5
4A767
330
4A763
100
AcDbEntity
  8
DIMS SPECS
370
    25
100
AcDbLine
 10
195815.5628568012
 20
1291.54664070269
 30
0.0
 11
195815.5628568012
 21
1090.974240974614
 31
0.0
  0
LINE
  5
4A768
330
4A763
100
AcDbEntity
  8
DIMS SPECS
370
    25
100
AcDbLine
 10
195815.5628568012
 20
857.5466407026901
 30
0.0
 11
195815.5628568012
 21
1058.119040430766
 31
0.0
  0
INSERT
  5
4A769
330
4A763
100
AcDbEntity
  8
DIMS SPECS
370
    25
100
AcDbBlockReference
  2
FILLED-1
 10
195815.5628568012
 20
1304.04664070269
 30
0.0
 41
12.5
 42
12.5
 43
12.5
 50
90.0
  0
INSERT
  5
4A76A
330
4A763
100
AcDbEntity
  8
DIMS SPECS
370
    25
100
AcDbBlockReference
  2
FILLED-1
 10
195815.5628568012
 20
845.0466407026901
 30
0.0
 41
12.5
 42
12.5
 43
12.5
 50
270.0
  0
MTEXT
  5
4A76B
330
4A763
100
AcDbEntity
  8
DIMS SPECS
100
AcDbMText
 10
195815.5628568012
 20
1074.546640702722
 30
0.0
 40
17.0
 41
0.0
 71
     5
 72
     1
  1
\A1;459
  7
ABODE-ISO
 73
     1
 44
1.0
1001
ACAD
1000
MTEXTBEGIN
1070
    73
1070
     1
1070
    44
1040
1.0
1070
    74
1070
     0
1000
MTEXTEND
  0
POINT
  5
4A76C
330
4A763
100
AcDbEntity
  8
DEFPOINTS
 62
     0
100
AcDbPoint
 10
195618.09181124
 20
1304.04664070269
 30
0.0
  0
POINT
  5
4A76D
330
4A763
100
AcDbEntity
  8
DEFPOINTS
 62
     0
100
AcDbPoint
 10
195618.09181124
 20
845.0466407026901
 30
0.0
  0
POINT
  5
4A76E
330
4A763
100
AcDbEntity
  8
DEFPOINTS
 62
     0
100
AcDbPoint
 10
195815.5628568012
 20
845.0466407026901
 30
0.0
  0
ENDBLK
  5
4A76F
330
4A763
100
AcDbEntity
  8
0
100
AcDbBlockEnd
  0
BLOCK
  5
4A771
330
4A770
100
AcDbEntity
  8
0
100
AcDbBlockBegin
  2
*D17
 70
     1
 10
0.0
 20
0.0
 30
0.0
  3
*D17
  1

  0
LINE
  5
4A772
330
4A770
100
AcDbEntity
  8
DIMS SPECS
370
    25
100
AcDbLine
 10
195200.09181124
 20
870.0466407027192
 30
0.0
 11
195200.09181124
 21
733.648904818439
 31
0.0
  0
LINE
  5
4A773
330
4A770
100
AcDbEntity
  8
DIMS SPECS
370
    25
100
AcDbLine
 10
195658.09181124
 20
870.0466407026734
 30
0.0
 11
195658.09181124
 21
733.648904818439
 31
0.0
  0
LINE
  5
4A774
330
4A770
100
AcDbEntity
  8
DIMS SPECS
370
    25
100
AcDbLine
 10
195212.59181124
 20
733.648904818439
 30
0.0
 11
195645.59181124
 21
733.648904818439
 31
0.0
  0
INSERT
  5
4A775
330
4A770
100
AcDbEntity
  8
DIMS SPECS
370
    25
100
AcDbBlockReference
  2
FILLED-1
 10
195200.09181124
 20
733.648904818439
 30
0.0
 41
12.5
 42
12.5
 43
12.5
 50
180.0
  0
INSERT
  5
4A776
330
4A770
100
AcDbEntity
  8
DIMS SPECS
370
    25
100
AcDbBlockReference
  2
FILLED-1
 10
195658.09181124
 20
733.648904818439
 30
0.0
 41
12.5
 42
12.5
 43
12.5
  0
MTEXT
  5
4A777
330
4A770
100
AcDbEntity
  8
DIMS SPECS
100
AcDbMText
 10
195429.09181124
 20
750.0765050903628
 30
0.0
 40
17.0
 41
0.0
 71
     5
 72
     1
  1
\A1;458
  7
ABODE-ISO
 73
     1
 44
1.0
1001
ACAD
1000
MTEXTBEGIN
1070
    73
1070
     1
1070
    44
1040
1.0
1070
    74
1070
     0
1000
MTEXTEND
  0
POINT
  5
4A778
330
4A770
100
AcDbEntity
  8
DEFPOINTS
 62
     0
100
AcDbPoint
 10
195200.09181124
 20
885.0466407027193
 30
0.0
  0
POINT
  5
4A779
330
4A770
100
AcDbEntity
  8
DEFPOINTS
 62
     0
100
AcDbPoint
 10
195658.09181124
 20
885.0466407026733
 30
0.0
  0
POINT
  5
4A77A
330
4A770
100
AcDbEntity
  8
DEFPOINTS
 62
     0
100
AcDbPoint
 10
195658.09181124
 20
733.648904818439
 30
0.0
  0
ENDBLK
  5
4A77B
330
4A770
100
AcDbEntity
  8
0
100
AcDbBlockEnd
  0
BLOCK
  5
4A77D
330
4A77C
100
AcDbEntity
  8
0
100
AcDbBlockBegin
  2
*D18
 70
     1
 10
0.0
 20
0.0
 30
0.0
  3
*D18
  1

  0
LINE
  5
4A77E
330
4A77C
100
AcDbEntity
  8
DIMS SPECS
370
    25
100
AcDbLine
 10
195225.09181124
 20
845.0466407026901
 30
0.0
 11
195084.533619707
 21
845.0466407026901
 31
0.0
  0
LINE
  5
4A77F
330
4A77C
100
AcDbEntity
  8
DIMS SPECS
370
    25
100
AcDbLine
 10
195225.0918112403
 20
1238.046640702915
 30
0.0
 11
195084.533619707
 21
1238.046640702915
 31
0.0
  0
LINE
  5
4A780
330
4A77C
100
AcDbEntity
  8
DIMS SPECS
370
    25
100
AcDbLine
 10
195084.533619707
 20
857.5466407026901
 30
0.0
 11
195084.533619707
 21
1025.119040430878
 31
0.0
  0
LINE
  5
4A781
330
4A77C
100
AcDbEntity
  8
DIMS SPECS
370
    25
100
AcDbLine
 10
195084.533619707
 20
1225.546640702915
 30
0.0
 11
195084.533619707
 21
1057.974240974726
 31
0.0
  0
INSERT
  5
4A782
330
4A77C
100
AcDbEntity
  8
DIMS SPECS
370
    25
100
AcDbBlockReference
  2
FILLED-1
 10
195084.533619707
 20
845.0466407026901
 30
0.0
 41
12.5
 42
12.5
 43
12.5
 50
270.0
  0
INSERT
  5
4A783
330
4A77C
100
AcDbEntity
  8
DIMS SPECS
370
    25
100
AcDbBlockReference
  2
FILLED-1
 10
195084.533619707
 20
1238.046640702915
 30
0.0
 41
12.5
 42
12.5
 43
12.5
 50
90.0
  0
MTEXT
  5
4A784
330
4A77C
100
AcDbEntity
  8
DIMS SPECS
100
AcDbMText
 10
195084.533619707
 20
1041.546640702834
 30
0.0
 40
17.0
 41
0.0
 71
     5
 72
     1
  1
\A1;393
  7
ABODE-ISO
 73
     1
 44
1.0
1001
ACAD
1000
MTEXTBEGIN
1070
    73
1070
     1
1070
    44
1040
1.0
1070
    74
1070
     0
1000
MTEXTEND
  0
POINT
  5
4A785
330
4A77C
100
AcDbEntity
  8
DEFPOINTS
 62
     0
100
AcDbPoint
 10
195240.09181124
 20
845.0466407026901
 30
0.0
  0
POINT
  5
4A786
330
4A77C
100
AcDbEntity
  8
DEFPOINTS
 62
     0
100
AcDbPoint
 10
195240.0918112403
 20
1238.046640702915
 30
0.0
  0
POINT
  5
4A787
330
4A77C
100
AcDbEntity
  8
DEFPOINTS
 62
     0
100
AcDbPoint
 10
195084.533619707
 20
1238.046640702915
 30
0.0
  0
ENDBLK
  5
4A788
330
4A77C
100
AcDbEntity
  8
0
100
AcDbBlockEnd
  0
BLOCK
  5
4A78A
330
4A789
100
AcDbEntity
  8
0
100
AcDbBlockBegin
  2
*D19
 70
     1
 10
0.0
 20
0.0
 30
0.0
  3
*D19
  1

  0
LINE
  5
4A78B
330
4A789
100
AcDbEntity
  8
DIMS SPECS
370
    25
100
AcDbLine
 10
195147.5333869153
 20
1309.240155863153
 30
0.0
 11
195188.9409328025
 21
1309.240155863168
 31
0.0
  0
LINE
  5
4A78C
330
4A789
100
AcDbEntity
  8
DIMS SPECS
370
    25
100
AcDbLine
 10
195188.9409328025
 20
1309.240155863168
 30
0.0
 11
195200.7483755807
 21
1298.807884502385
 31
0.0
  0
MTEXT
  5
4A78D
330
4A789
100
AcDbEntity
  8
DIMS SPECS
100
AcDbMText
 10
195164.4871598589
 20
1325.667756135077
 30
0.0
 40
17.0
 41
0.0
 71
     5
 72
     1
  1
\A1;R40
  7
ABODE-ISO
 73
     1
 44
1.0
1001
ACAD
1000
MTEXTBEGIN
1070
    73
1070
     1
1070
    44
1040
1.0
1070
    74
1070
     0
1000
MTEXTEND
  0
LINE
  5
4A78E
330
4A789
100
AcDbEntity
  8
DIMS SPECS
370
    25
100
AcDbLine
 10
195240.0918112402
 20
1264.046640702756
 30
0.0
 11
195210.1158602616
 21
1290.531397883402
 31
0.0
  0
INSERT
  5
4A78F
330
4A789
100
AcDbEntity
  8
DIMS SPECS
370
    25
100
AcDbBlockReference
  2
FILLED-1
 10
195210.1158602616
 20
1290.531397883402
 30
0.0
 41
12.5
 42
12.5
 43
12.5
 50
318.538324689408
  0
POINT
  5
4A790
330
4A789
100
AcDbEntity
  8
DEFPOINTS
 62
     0
100
AcDbPoint
 10
195210.1158602616
 20
1290.531397883402
 30
0.0
  0
POINT
  5
4A791
330
4A789
100
AcDbEntity
  8
DEFPOINTS
 62
     0
100
AcDbPoint
 10
195240.0918112402
 20
1264.046640702756
 30
0.0
  0
ENDBLK
  5
4A792
330
4A789
100
AcDbEntity
  8
0
100
AcDbBlockEnd
  0
BLOCK
  5
4A794
330
4A793
100
AcDbEntity
  8
0
100
AcDbBlockBegin
  2
*D20
 70
     1
 10
0.0
 20
0.0
 30
0.0
  3
*D20
  1

  0
LINE
  5
4A795
330
4A793
100
AcDbEntity
  8
DIMS SPECS
370
    25
100
AcDbLine
 10
195916.849063126
 20
1316.844056716188
 30
0.0
 11
195958.0069829086
 21
1316.844056716203
 31
0.0
  0
LINE
  5
4A796
330
4A793
100
AcDbEntity
  8
DIMS SPECS
370
    25
100
AcDbLine
 10
195958.0069829086
 20
1316.844056716203
 30
0.0
 11
195976.1989998659
 21
1300.640123262405
 31
0.0
  0
MTEXT
  5
4A797
330
4A793
100
AcDbEntity
  8
DIMS SPECS
100
AcDbMText
 10
195933.6780230172
 20
1333.271656988127
 30
0.0
 40
17.0
 41
0.0
 71
     5
 72
     1
  1
\A1;R35
  7
ABODE-ISO
 73
     1
 44
1.0
1001
ACAD
1000
MTEXTBEGIN
1070
    73
1070
     1
1070
    44
1040
1.0
1070
    74
1070
     0
1000
MTEXTEND
  0
LINE
  5
4A798
330
4A793
100
AcDbEntity
  8
DIMS SPECS
370
    25
100
AcDbLine
 10
196011.6687314656
 20
1269.046640702698
 30
0.0
 11
195985.5331397605
 21
1292.326048904593
 31
0.0
  0
INSERT
  5
4A799
330
4A793
100
AcDbEntity
  8
DIMS SPECS
370
    25
100
AcDbBlockReference
  2
FILLED-1
 10
195985.5331397605
 20
1292.326048904593
 30
0.0
 41
12.5
 42
12.5
 43
12.5
 50
318.3080114470755
  0
POINT
  5
4A79A
330
4A793
100
AcDbEntity
  8
DEFPOINTS
 62
     0
100
AcDbPoint
 10
195985.5331397605
 20
1292.326048904593
 30
0.0
  0
POINT
  5
4A79B
330
4A793
100
AcDbEntity
  8
DEFPOINTS
 62
     0
100
AcDbPoint
 10
196011.6687314656
 20
1269.046640702698
 30
0.0
  0
ENDBLK
  5
4A79C
330
4A793
100
AcDbEntity
  8
0
100
AcDbBlockEnd
  0
BLOCK
  5
4A79E
330
4A79D
100
AcDbEntity
  8
0
100
AcDbBlockBegin
  2
*D21
 70
     1
 10
0.0
 20
0.0
 30
0.0
  3
*D21
  1

  0
LINE
  5
4A79F
330
4A79D
100
AcDbEntity
  8
DIMS SPECS
370
    25
100
AcDbLine
 10
195976.6687314662
 20
854.0466407026306
 30
0.0
 11
195976.6687314662
 21
769.4014439373122
 31
0.0
  0
LINE
  5
4A7A0
330
4A79D
100
AcDbEntity
  8
DIMS SPECS
370
    25
100
AcDbLine
 10
196456.6687314662
 20
854.0466407026833
 30
0.0
 11
196456.6687314662
 21
769.4014439373122
 31
0.0
  0
LINE
  5
4A7A1
330
4A79D
100
AcDbEntity
  8
DIMS SPECS
370
    25
100
AcDbLine
 10
195989.1687314662
 20
769.4014439373122
 30
0.0
 11
196444.1687314662
 21
769.4014439373122
 31
0.0
  0
INSERT
  5
4A7A2
330
4A79D
100
AcDbEntity
  8
DIMS SPECS
370
    25
100
AcDbBlockReference
  2
FILLED-1
 10
195976.6687314662
 20
769.4014439373122
 30
0.0
 41
12.5
 42
12.5
 43
12.5
 50
180.0
  0
INSERT
  5
4A7A3
330
4A79D
100
AcDbEntity
  8
DIMS SPECS
370
    25
100
AcDbBlockReference
  2
FILLED-1
 10
196456.6687314662
 20
769.4014439373122
 30
0.0
 41
12.5
 42
12.5
 43
12.5
  0
MTEXT
  5
4A7A4
330
4A79D
100
AcDbEntity
  8
DIMS SPECS
100
AcDbMText
 10
196216.6687314662
 20
785.8290442092362
 30
0.0
 40
17.0
 41
0.0
 71
     5
 72
     1
  1
\A1;480
  7
ABODE-ISO
 73
     1
 44
1.0
1001
ACAD
1000
MTEXTBEGIN
1070
    73
1070
     1
1070
    44
1040
1.0
1070
    74
1070
     0
1000
MTEXTEND
  0
POINT
  5
4A7A5
330
4A79D
100
AcDbEntity
  8
DEFPOINTS
 62
     0
100
AcDbPoint
 10
195976.6687314662
 20
869.0466407026306
 30
0.0
  0
POINT
  5
4A7A6
330
4A79D
100
AcDbEntity
  8
DEFPOINTS
 62
     0
100
AcDbPoint
 10
196456.6687314662
 20
869.0466407026834
 30
0.0
  0
POINT
  5
4A7A7
330
4A79D
100
AcDbEntity
  8
DEFPOINTS
 62
     0
100
AcDbPoint
 10
196456.6687314662
 20
769.4014439373122
 30
0.0
  0
ENDBLK
  5
4A7A8
330
4A79D
100
AcDbEntity
  8
0
100
AcDbBlockEnd
  0
BLOCK
  5
4A7AA
330
4A7A9
100
AcDbEntity
  8
0
100
AcDbBlockBegin
  2
*D22
 70
     1
 10
0.0
 20
0.0
 30
0.0
  3
*D22
  1

  0
LINE
  5
4A7AB
330
4A7A9
100
AcDbEntity
  8
DIMS SPECS
370
    25
100
AcDbLine
 10
196436.6687314662
 20
834.0466407026905
 30
0.0
 11
196537.4300253398
 21
834.0466407026905
 31
0.0
  0
LINE
  5
4A7AC
330
4A7A9
100
AcDbEntity
  8
DIMS SPECS
370
    25
100
AcDbLine
 10
196436.6687314662
 20
1304.04664070269
 30
0.0
 11
196537.4300253398
 21
1304.04664070269
 31
0.0
  0
LINE
  5
4A7AD
330
4A7A9
100
AcDbEntity
  8
DIMS SPECS
370
    25
100
AcDbLine
 10
196537.4300253398
 20
846.5466407026905
 30
0.0
 11
196537.4300253398
 21
1052.619040430766
 31
0.0
  0
LINE
  5
4A7AE
330
4A7A9
100
AcDbEntity
  8
DIMS SPECS
370
    25
100
AcDbLine
 10
196537.4300253398
 20
1291.54664070269
 30
0.0
 11
196537.4300253398
 21
1085.474240974614
 31
0.0
  0
INSERT
  5
4A7AF
330
4A7A9
100
AcDbEntity
  8
DIMS SPECS
370
    25
100
AcDbBlockReference
  2
FILLED-1
 10
196537.4300253398
 20
834.0466407026905
 30
0.0
 41
12.5
 42
12.5
 43
12.5
 50
270.0
  0
INSERT
  5
4A7B0
330
4A7A9
100
AcDbEntity
  8
DIMS SPECS
370
    25
100
AcDbBlockReference
  2
FILLED-1
 10
196537.4300253398
 20
1304.04664070269
 30
0.0
 41
12.5
 42
12.5
 43
12.5
 50
90.0
  0
MTEXT
  5
4A7B1
330
4A7A9
100
AcDbEntity
  8
DIMS SPECS
100
AcDbMText
 10
196537.4300253398
 20
1069.046640702722
 30
0.0
 40
17.0
 41
0.0
 71
     5
 72
     1
  1
\A1;470
  7
ABODE-ISO
 73
     1
 44
1.0
1001
ACAD
1000
MTEXTBEGIN
1070
    73
1070
     1
1070
    44
1040
1.0
1070
    74
1070
     0
1000
MTEXTEND
  0
POINT
  5
4A7B2
330
4A7A9
100
AcDbEntity
  8
DEFPOINTS
 62
     0
100
AcDbPoint
 10
196421.6687314662
 20
834.0466407026905
 30
0.0
  0
POINT
  5
4A7B3
330
4A7A9
100
AcDbEntity
  8
DEFPOINTS
 62
     0
100
AcDbPoint
 10
196421.6687314662
 20
1304.04664070269
 30
0.0
  0
POINT
  5
4A7B4
330
4A7A9
100
AcDbEntity
  8
DEFPOINTS
 62
     0
100
AcDbPoint
 10
196537.4300253398
 20
1304.04664070269
 30
0.0
  0
ENDBLK
  5
4A7B5
330
4A7A9
100
AcDbEntity
  8
0
100
AcDbBlockEnd
  0
BLOCK
  5
4A7B7
330
4A7B6
100
AcDbEntity
  8
0
100
AcDbBlockBegin
  2
*D23
 70
     1
 10
0.0
 20
0.0
 30
0.0
  3
*D23
  1

  0
LINE
  5
4A7B8
330
4A7B6
100
AcDbEntity
  8
DIMS SPECS
370
    25
100
AcDbLine
 10
195833.1808997875
 20
764.3121668543317
 30
0.0
 11
195680.8353525407
 21
764.3121668543244
 31
0.0
  0
LINE
  5
4A7B9
330
4A7B6
100
AcDbEntity
  8
DIMS SPECS
370
    25
100
AcDbLine
 10
195680.8353525407
 20
764.3121668543244
 30
0.0
 11
195555.7804084554
 21
803.7796944358415
 31
0.0
  0
LINE
  5
4A7BA
330
4A7B6
100
AcDbEntity
  8
DIMS SPECS
370
    25
100
AcDbLine
 10
195522.4032140243
 20
814.3135869695761
 30
0.0
 11
195510.4827874418
 21
818.075691445898
 31
0.0
  0
MTEXT
  5
4A7BB
102
{ACAD_XDICTIONARY
360
4AAF7
102
}
330
4A7B6
100
AcDbEntity
  8
DIMS SPECS
100
AcDbMText
 10
195760.7581261641
 20
797.6916139424804
 30
0.0
 40
17.0
 41
0.0
 71
     5
 72
     1
  1
\A1;\U+220510 (granite)/\P8mm (wood)
  7
ABODE-ISO
 73
     1
 44
1.0
1001
ACAD
1000
MTEXTBEGIN
1070
    73
1070
     1
1070
    44
1040
1.0
1070
    74
1070
     0
1000
MTEXTEND
  0
LINE
  5
4A7BC
330
4A7B6
100
AcDbEntity
  8
DIMS SPECS
370
    25
100
AcDbLine
 10
195534.3236406068
 20
810.5514824932543
 30
0.0
 11
195543.8599818729
 21
807.5417989121634
 31
0.0
  0
INSERT
  5
4A7BD
330
4A7B6
100
AcDbEntity
  8
DIMS SPECS
370
    25
100
AcDbBlockReference
  2
FILLED-1
 10
195534.3236406068
 20
810.5514824932543
 30
0.0
 41
12.5
 42
12.5
 43
12.5
 50
342.4842257675388
  0
INSERT
  5
4A7BE
330
4A7B6
100
AcDbEntity
  8
DIMS SPECS
370
    25
100
AcDbBlockReference
  2
FILLED-1
 10
195543.8599818729
 20
807.5417989121634
 30
0.0
 41
12.5
 42
12.5
 43
12.5
 50
162.4842257675387
  0
POINT
  5
4A7BF
330
4A7B6
100
AcDbEntity
  8
DEFPOINTS
 62
     0
100
AcDbPoint
 10
195543.8599818729
 20
807.5417989121634
 30
0.0
  0
POINT
  5
4A7C0
330
4A7B6
100
AcDbEntity
  8
DEFPOINTS
 62
     0
100
AcDbPoint
 10
195534.3236406068
 20
810.5514824932543
 30
0.0
  0
ENDBLK
  5
4A7C1
330
4A7B6
100
AcDbEntity
  8
0
100
AcDbBlockEnd
  0
BLOCK
  5
4A7C3
330
4A7C2
100
AcDbEntity
  8
0
100
AcDbBlockBegin
  2
*D24
 70
     1
 10
0.0
 20
0.0
 30
0.0
  3
*D24
  1

  0
LINE
  5
4A7C4
330
4A7C2
100
AcDbEntity
  8
DIMS SPECS
370
    25
100
AcDbLine
 10
195694.0918112399
 20
883.827403383349
 30
0.0
 11
195694.0918112399
 21
873.4424133865191
 31
0.0
  0
LINE
  5
4A7C5
330
4A7C2
100
AcDbEntity
  8
DIMS SPECS
370
    25
100
AcDbLine
 10
195658.09181124
 20
870.0466407026874
 30
0.0
 11
195658.09181124
 21
873.4424133865191
 31
0.0
  0
LINE
  5
4A7C6
330
4A7C2
100
AcDbEntity
  8
DIMS SPECS
370
    25
100
AcDbLine
 10
195645.59181124
 20
873.4424133865191
 30
0.0
 11
195633.0918112399
 21
873.4424133865191
 31
0.0
  0
LINE
  5
4A7C7
330
4A7C2
100
AcDbEntity
  8
DIMS SPECS
370
    25
100
AcDbLine
 10
195706.59181124
 20
873.4424133865191
 30
0.0
 11
195756.0069030143
 21
873.4424133865191
 31
0.0
  0
LINE
  5
4A7C8
330
4A7C2
100
AcDbEntity
  8
DIMS SPECS
370
    25
100
AcDbLine
 10
195658.09181124
 20
873.4424133865191
 30
0.0
 11
195694.0918112399
 21
873.4424133865191
 31
0.0
  0
INSERT
  5
4A7C9
330
4A7C2
100
AcDbEntity
  8
DIMS SPECS
370
    25
100
AcDbBlockReference
  2
FILLED-1
 10
195658.09181124
 20
873.4424133865191
 30
0.0
 41
12.5
 42
12.5
 43
12.5
  0
INSERT
  5
4A7CA
330
4A7C2
100
AcDbEntity
  8
DIMS SPECS
370
    25
100
AcDbBlockReference
  2
FILLED-1
 10
195694.0918112399
 20
873.4424133865191
 30
0.0
 41
12.5
 42
12.5
 43
12.5
 50
180.0
  0
MTEXT
  5
4A7CB
330
4A7C2
100
AcDbEntity
  8
DIMS SPECS
100
AcDbMText
 10
195737.5493571271
 20
889.870013658443
 30
0.0
 40
17.0
 41
0.0
 71
     5
 72
     1
  1
\A1;36
  7
ABODE-ISO
 73
     1
 44
1.0
1001
ACAD
1000
MTEXTBEGIN
1070
    73
1070
     1
1070
    44
1040
1.0
1070
    74
1070
     0
1000
MTEXTEND
  0
POINT
  5
4A7CC
330
4A7C2
100
AcDbEntity
  8
DEFPOINTS
 62
     0
100
AcDbPoint
 10
195694.0918112399
 20
898.8274033833491
 30
0.0
  0
POINT
  5
4A7CD
330
4A7C2
100
AcDbEntity
  8
DEFPOINTS
 62
     0
100
AcDbPoint
 10
195658.09181124
 20
885.0466407026875
 30
0.0
  0
POINT
  5
4A7CE
330
4A7C2
100
AcDbEntity
  8
DEFPOINTS
 62
     0
100
AcDbPoint
 10
195658.09181124
 20
873.4424133865191
 30
0.0
  0
ENDBLK
  5
4A7CF
330
4A7C2
100
AcDbEntity
  8
0
100
AcDbBlockEnd
  0
BLOCK
  5
4A7D1
330
4A7D0
100
AcDbEntity
  8
0
100
AcDbBlockBegin
  2
*D25
 70
     1
 10
0.0
 20
0.0
 30
0.0
  3
*D25
  1

  0
LINE
  5
4A7D2
330
4A7D0
100
AcDbEntity
  8
DIMS SPECS
370
    25
100
AcDbLine
 10
195724.8110485593
 20
914.5466407026884
 30
0.0
 11
195737.9642238423
 21
914.5466407026884
 31
0.0
  0
LINE
  5
4A7D3
330
4A7D0
100
AcDbEntity
  8
DIMS SPECS
370
    25
100
AcDbLine
 10
195724.8110485593
 20
1234.546640702688
 30
0.0
 11
195737.9642238423
 21
1234.546640702688
 31
0.0
  0
LINE
  5
4A7D4
330
4A7D0
100
AcDbEntity
  8
DIMS SPECS
370
    25
100
AcDbLine
 10
195737.9642238423
 20
927.0466407026884
 30
0.0
 11
195737.9642238423
 21
1058.119040430764
 31
0.0
  0
LINE
  5
4A7D5
330
4A7D0
100
AcDbEntity
  8
DIMS SPECS
370
    25
100
AcDbLine
 10
195737.9642238423
 20
1222.046640702688
 30
0.0
 11
195737.9642238423
 21
1090.974240974612
 31
0.0
  0
INSERT
  5
4A7D6
330
4A7D0
100
AcDbEntity
  8
DIMS SPECS
370
    25
100
AcDbBlockReference
  2
FILLED-1
 10
195737.9642238423
 20
914.5466407026884
 30
0.0
 41
12.5
 42
12.5
 43
12.5
 50
270.0
  0
INSERT
  5
4A7D7
330
4A7D0
100
AcDbEntity
  8
DIMS SPECS
370
    25
100
AcDbBlockReference
  2
FILLED-1
 10
195737.9642238423
 20
1234.546640702688
 30
0.0
 41
12.5
 42
12.5
 43
12.5
 50
90.0
  0
MTEXT
  5
4A7D8
330
4A7D0
100
AcDbEntity
  8
DIMS SPECS
100
AcDbMText
 10
195737.9642238423
 20
1074.546640702719
 30
0.0
 40
17.0
 41
0.0
 71
     5
 72
     1
  1
\A1;320
  7
ABODE-ISO
 73
     1
 44
1.0
1001
ACAD
1000
MTEXTBEGIN
1070
    73
1070
     1
1070
    44
1040
1.0
1070
    74
1070
     0
1000
MTEXTEND
  0
POINT
  5
4A7D9
330
4A7D0
100
AcDbEntity
  8
DEFPOINTS
 62
     0
100
AcDbPoint
 10
195709.8110485593
 20
914.5466407026884
 30
0.0
  0
POINT
  5
4A7DA
330
4A7D0
100
AcDbEntity
  8
DEFPOINTS
 62
     0
100
AcDbPoint
 10
195709.8110485593
 20
1234.546640702688
 30
0.0
  0
POINT
  5
4A7DB
330
4A7D0
100
AcDbEntity
  8
DEFPOINTS
 62
     0
100
AcDbPoint
 10
195737.9642238423
 20
1234.546640702688
 30
0.0
  0
ENDBLK
  5
4A7DC
330
4A7D0
100
AcDbEntity
  8
0
100
AcDbBlockEnd
  0
BLOCK
  5
4A7DE
330
4A7DD
100
AcDbEntity
  8
0
100
AcDbBlockBegin
  2
*D26
 70
     1
 10
0.0
 20
0.0
 30
0.0
  3
*D26
  1

  0
LINE
  5
4A7DF
330
4A7DD
100
AcDbEntity
  8
DIMS SPECS
370
    25
100
AcDbLine
 10
195288.3725739208
 20
1330.04664070269
 30
0.0
 11
195265.5688708549
 21
1330.04664070269
 31
0.0
  0
LINE
  5
4A7E0
330
4A7DD
100
AcDbEntity
  8
DIMS SPECS
370
    25
100
AcDbLine
 10
195295.0918112404
 20
1304.04664070269
 30
0.0
 11
195265.5688708549
 21
1304.04664070269
 31
0.0
  0
LINE
  5
4A7E1
330
4A7DD
100
AcDbEntity
  8
DIMS SPECS
370
    25
100
AcDbLine
 10
195265.5688708549
 20
1291.54664070269
 30
0.0
 11
195265.5688708549
 21
1279.04664070269
 31
0.0
  0
LINE
  5
4A7E2
330
4A7DD
100
AcDbEntity
  8
DIMS SPECS
370
    25
100
AcDbLine
 10
195265.5688708549
 20
1342.54664070269
 30
0.0
 11
195265.5688708549
 21
1355.04664070269
 31
0.0
  0
LINE
  5
4A7E3
330
4A7DD
100
AcDbEntity
  8
DIMS SPECS
370
    25
100
AcDbLine
 10
195265.5688708549
 20
1355.04664070269
 30
0.0
 11
195295.0983745939
 21
1355.04664070269
 31
0.0
  0
LINE
  5
4A7E4
330
4A7DD
100
AcDbEntity
  8
DIMS SPECS
370
    25
100
AcDbLine
 10
195265.5688708549
 20
1304.04664070269
 30
0.0
 11
195265.5688708549
 21
1330.04664070269
 31
0.0
  0
INSERT
  5
4A7E5
330
4A7DD
100
AcDbEntity
  8
DIMS SPECS
370
    25
100
AcDbBlockReference
  2
FILLED-1
 10
195265.5688708549
 20
1304.04664070269
 30
0.0
 41
12.5
 42
12.5
 43
12.5
 50
90.0
  0
INSERT
  5
4A7E6
330
4A7DD
100
AcDbEntity
  8
DIMS SPECS
370
    25
100
AcDbBlockReference
  2
FILLED-1
 10
195265.5688708549
 20
1330.04664070269
 30
0.0
 41
12.5
 42
12.5
 43
12.5
 50
270.0
  0
MTEXT
  5
4A7E7
330
4A7DD
100
AcDbEntity
  8
DIMS SPECS
100
AcDbMText
 10
195284.0836227245
 20
1371.474240974645
 30
0.0
 40
17.0
 41
0.0
 71
     5
 72
     1
  1
\A1;26
  7
ABODE-ISO
 73
     1
 44
1.0
1001
ACAD
1000
MTEXTBEGIN
1070
    73
1070
     1
1070
    44
1040
1.0
1070
    74
1070
     0
1000
MTEXTEND
  0
POINT
  5
4A7E8
330
4A7DD
100
AcDbEntity
  8
DEFPOINTS
 62
     0
100
AcDbPoint
 10
195303.3725739208
 20
1330.04664070269
 30
0.0
  0
POINT
  5
4A7E9
330
4A7DD
100
AcDbEntity
  8
DEFPOINTS
 62
     0
100
AcDbPoint
 10
195310.0918112404
 20
1304.04664070269
 30
0.0
  0
POINT
  5
4A7EA
330
4A7DD
100
AcDbEntity
  8
DEFPOINTS
 62
     0
100
AcDbPoint
 10
195265.5688708549
 20
1304.04664070269
 30
0.0
  0
ENDBLK
  5
4A7EB
330
4A7DD
100
AcDbEntity
  8
0
100
AcDbBlockEnd
  0
BLOCK
  5
4A7ED
330
4A7EC
100
AcDbEntity
  8
0
100
AcDbBlockBegin
  2
*D27
 70
     1
 10
0.0
 20
0.0
 30
0.0
  3
*D27
  1

  0
LINE
  5
4A7EE
330
4A7EC
100
AcDbEntity
  8
DIMS SPECS
370
    25
100
AcDbLine
 10
195319.09181124
 20
778.3274033833508
 30
0.0
 11
195319.09181124
 21
769.998465556107
 31
0.0
  0
LINE
  5
4A7EF
330
4A7EC
100
AcDbEntity
  8
DIMS SPECS
370
    25
100
AcDbLine
 10
195539.09181124
 20
778.3274033833508
 30
0.0
 11
195539.09181124
 21
769.998465556107
 31
0.0
  0
LINE
  5
4A7F0
330
4A7EC
100
AcDbEntity
  8
DIMS SPECS
370
    25
100
AcDbLine
 10
195331.59181124
 20
769.998465556107
 30
0.0
 11
195526.59181124
 21
769.998465556107
 31
0.0
  0
INSERT
  5
4A7F1
330
4A7EC
100
AcDbEntity
  8
DIMS SPECS
370
    25
100
AcDbBlockReference
  2
FILLED-1
 10
195319.09181124
 20
769.998465556107
 30
0.0
 41
12.5
 42
12.5
 43
12.5
 50
180.0
  0
INSERT
  5
4A7F2
330
4A7EC
100
AcDbEntity
  8
DIMS SPECS
370
    25
100
AcDbBlockReference
  2
FILLED-1
 10
195539.09181124
 20
769.998465556107
 30
0.0
 41
12.5
 42
12.5
 43
12.5
  0
MTEXT
  5
4A7F3
330
4A7EC
100
AcDbEntity
  8
DIMS SPECS
100
AcDbMText
 10
195429.09181124
 20
786.4260658280309
 30
0.0
 40
17.0
 41
0.0
 71
     5
 72
     1
  1
\A1;220
  7
ABODE-ISO
 73
     1
 44
1.0
1001
ACAD
1000
MTEXTBEGIN
1070
    73
1070
     1
1070
    44
1040
1.0
1070
    74
1070
     0
1000
MTEXTEND
  0
POINT
  5
4A7F4
330
4A7EC
100
AcDbEntity
  8
DEFPOINTS
 62
     0
100
AcDbPoint
 10
195319.09181124
 20
793.3274033833509
 30
0.0
  0
POINT
  5
4A7F5
330
4A7EC
100
AcDbEntity
  8
DEFPOINTS
 62
     0
100
AcDbPoint
 10
195539.09181124
 20
793.3274033833509
 30
0.0
  0
POINT
  5
4A7F6
330
4A7EC
100
AcDbEntity
  8
DEFPOINTS
 62
     0
100
AcDbPoint
 10
195539.09181124
 20
769.998465556107
 30
0.0
  0
ENDBLK
  5
4A7F7
330
4A7EC
100
AcDbEntity
  8
0
100
AcDbBlockEnd
  0
BLOCK
  5
4A7F9
330
4A7F8
100
AcDbEntity
  8
0
100
AcDbBlockBegin
  2
*D28
 70
     1
 10
0.0
 20
0.0
 30
0.0
  3
*D28
  1

  0
LINE
  5
4A7FA
330
4A7F8
100
AcDbEntity
  8
DIMS SPECS
370
    25
100
AcDbLine
 10
195319.0918112402
 20
1345.04664070269
 30
0.0
 11
195319.0918112402
 21
1363.951647472269
 31
0.0
  0
LINE
  5
4A7FB
330
4A7F8
100
AcDbEntity
  8
DIMS SPECS
370
    25
100
AcDbLine
 10
195539.0918112401
 20
1345.04664070269
 30
0.0
 11
195539.0918112401
 21
1363.951647472269
 31
0.0
  0
LINE
  5
4A7FC
330
4A7F8
100
AcDbEntity
  8
DIMS SPECS
370
    25
100
AcDbLine
 10
195331.5918112402
 20
1363.951647472269
 30
0.0
 11
195526.5918112402
 21
1363.951647472269
 31
0.0
  0
INSERT
  5
4A7FD
330
4A7F8
100
AcDbEntity
  8
DIMS SPECS
370
    25
100
AcDbBlockReference
  2
FILLED-1
 10
195319.0918112402
 20
1363.951647472269
 30
0.0
 41
12.5
 42
12.5
 43
12.5
 50
180.0
  0
INSERT
  5
4A7FE
330
4A7F8
100
AcDbEntity
  8
DIMS SPECS
370
    25
100
AcDbBlockReference
  2
FILLED-1
 10
195539.0918112401
 20
1363.951647472269
 30
0.0
 41
12.5
 42
12.5
 43
12.5
  0
MTEXT
  5
4A7FF
330
4A7F8
100
AcDbEntity
  8
DIMS SPECS
100
AcDbMText
 10
195429.0918112402
 20
1380.379247744193
 30
0.0
 40
17.0
 41
0.0
 71
     5
 72
     1
  1
\A1;220
  7
ABODE-ISO
 73
     1
 44
1.0
1001
ACAD
1000
MTEXTBEGIN
1070
    73
1070
     1
1070
    44
1040
1.0
1070
    74
1070
     0
1000
MTEXTEND
  0
POINT
  5
4A800
330
4A7F8
100
AcDbEntity
  8
DEFPOINTS
 62
     0
100
AcDbPoint
 10
195319.0918112402
 20
1330.04664070269
 30
0.0
  0
POINT
  5
4A801
330
4A7F8
100
AcDbEntity
  8
DEFPOINTS
 62
     0
100
AcDbPoint
 10
195539.0918112401
 20
1330.04664070269
 30
0.0
  0
POINT
  5
4A802
330
4A7F8
100
AcDbEntity
  8
DEFPOINTS
 62
     0
100
AcDbPoint
 10
195539.0918112401
 20
1363.951647472269
 30
0.0
  0
ENDBLK
  5
4A803
330
4A7F8
100
AcDbEntity
  8
0
100
AcDbBlockEnd
  0
BLOCK
  5
4A805
330
4A804
100
AcDbEntity
  8
0
100
AcDbBlockBegin
  2
*D29
 70
     1
 10
0.0
 20
0.0
 30
0.0
  3
*D29
  1

  0
LINE
  5
4A806
330
4A804
100
AcDbEntity
  8
DIMS SPECS
370
    25
100
AcDbLine
 10
195133.3725739207
 20
914.5466407026884
 30
0.0
 11
195136.5407100799
 21
914.5466407026884
 31
0.0
  0
LINE
  5
4A807
330
4A804
100
AcDbEntity
  8
DIMS SPECS
370
    25
100
AcDbLine
 10
195133.3725739207
 20
1234.546640702688
 30
0.0
 11
195136.5407100799
 21
1234.546640702688
 31
0.0
  0
LINE
  5
4A808
330
4A804
100
AcDbEntity
  8
DIMS SPECS
370
    25
100
AcDbLine
 10
195136.5407100799
 20
927.0466407026884
 30
0.0
 11
195136.5407100799
 21
1058.119040430764
 31
0.0
  0
LINE
  5
4A809
330
4A804
100
AcDbEntity
  8
DIMS SPECS
370
    25
100
AcDbLine
 10
195136.5407100799
 20
1222.046640702688
 30
0.0
 11
195136.5407100799
 21
1090.974240974612
 31
0.0
  0
INSERT
  5
4A80A
330
4A804
100
AcDbEntity
  8
DIMS SPECS
370
    25
100
AcDbBlockReference
  2
FILLED-1
 10
195136.5407100799
 20
914.5466407026884
 30
0.0
 41
12.5
 42
12.5
 43
12.5
 50
270.0
  0
INSERT
  5
4A80B
330
4A804
100
AcDbEntity
  8
DIMS SPECS
370
    25
100
AcDbBlockReference
  2
FILLED-1
 10
195136.5407100799
 20
1234.546640702688
 30
0.0
 41
12.5
 42
12.5
 43
12.5
 50
90.0
  0
MTEXT
  5
4A80C
330
4A804
100
AcDbEntity
  8
DIMS SPECS
100
AcDbMText
 10
195136.5407100799
 20
1074.546640702719
 30
0.0
 40
17.0
 41
0.0
 71
     5
 72
     1
  1
\A1;320
  7
ABODE-ISO
 73
     1
 44
1.0
1001
ACAD
1000
MTEXTBEGIN
1070
    73
1070
     1
1070
    44
1040
1.0
1070
    74
1070
     0
1000
MTEXTEND
  0
POINT
  5
4A80D
330
4A804
100
AcDbEntity
  8
DEFPOINTS
 62
     0
100
AcDbPoint
 10
195148.3725739207
 20
914.5466407026884
 30
0.0
  0
POINT
  5
4A80E
330
4A804
100
AcDbEntity
  8
DEFPOINTS
 62
     0
100
AcDbPoint
 10
195148.3725739207
 20
1234.546640702688
 30
0.0
  0
POINT
  5
4A80F
330
4A804
100
AcDbEntity
  8
DEFPOINTS
 62
     0
100
AcDbPoint
 10
195136.5407100799
 20
1234.546640702688
 30
0.0
  0
ENDBLK
  5
4A810
330
4A804
100
AcDbEntity
  8
0
100
AcDbBlockEnd
  0
BLOCK
  5
4A812
330
4A811
100
AcDbEntity
  8
0
100
AcDbBlockBegin
  2
*D30
 70
     1
 10
0.0
 20
0.0
 30
0.0
  3
*D30
  1

  0
LINE
  5
4A813
330
4A811
100
AcDbEntity
  8
DIMS SPECS
370
    25
100
AcDbLine
 10
195164.09181124
 20
883.827403383349
 30
0.0
 11
195164.09181124
 21
878.9230227473231
 31
0.0
  0
LINE
  5
4A814
330
4A811
100
AcDbEntity
  8
DIMS SPECS
370
    25
100
AcDbLine
 10
195200.09181124
 20
870.046640702732
 30
0.0
 11
195200.09181124
 21
878.9230227473231
 31
0.0
  0
LINE
  5
4A815
330
4A811
100
AcDbEntity
  8
DIMS SPECS
370
    25
100
AcDbLine
 10
195151.59181124
 20
878.9230227473231
 30
0.0
 11
195139.09181124
 21
878.9230227473231
 31
0.0
  0
LINE
  5
4A816
330
4A811
100
AcDbEntity
  8
DIMS SPECS
370
    25
100
AcDbLine
 10
195212.59181124
 20
878.9230227473231
 30
0.0
 11
195225.09181124
 21
878.9230227473231
 31
0.0
  0
LINE
  5
4A817
330
4A811
100
AcDbEntity
  8
DIMS SPECS
370
    25
100
AcDbLine
 10
195164.09181124
 20
878.9230227473231
 30
0.0
 11
195200.09181124
 21
878.9230227473231
 31
0.0
  0
INSERT
  5
4A818
330
4A811
100
AcDbEntity
  8
DIMS SPECS
370
    25
100
AcDbBlockReference
  2
FILLED-1
 10
195164.09181124
 20
878.9230227473231
 30
0.0
 41
12.5
 42
12.5
 43
12.5
  0
INSERT
  5
4A819
330
4A811
100
AcDbEntity
  8
DIMS SPECS
370
    25
100
AcDbBlockReference
  2
FILLED-1
 10
195200.09181124
 20
878.9230227473231
 30
0.0
 41
12.5
 42
12.5
 43
12.5
 50
180.0
  0
MTEXT
  5
4A81A
330
4A811
100
AcDbEntity
  8
DIMS SPECS
100
AcDbMText
 10
195182.09181124
 20
895.350623019247
 30
0.0
 40
17.0
 41
0.0
 71
     5
 72
     1
  1
\A1;36
  7
ABODE-ISO
 73
     1
 44
1.0
1001
ACAD
1000
MTEXTBEGIN
1070
    73
1070
     1
1070
    44
1040
1.0
1070
    74
1070
     0
1000
MTEXTEND
  0
POINT
  5
4A81B
330
4A811
100
AcDbEntity
  8
DEFPOINTS
 62
     0
100
AcDbPoint
 10
195164.09181124
 20
898.8274033833491
 30
0.0
  0
POINT
  5
4A81C
330
4A811
100
AcDbEntity
  8
DEFPOINTS
 62
     0
100
AcDbPoint
 10
195200.09181124
 20
885.0466407027321
 30
0.0
  0
POINT
  5
4A81D
330
4A811
100
AcDbEntity
  8
DEFPOINTS
 62
     0
100
AcDbPoint
 10
195200.09181124
 20
878.9230227473231
 30
0.0
  0
ENDBLK
  5
4A81E
330
4A811
100
AcDbEntity
  8
0
100
AcDbBlockEnd
  0
BLOCK
  5
4A820
330
4A81F
100
AcDbEntity
  8
0
100
AcDbBlockBegin
  2
*D31
 70
     1
 10
0.0
 20
0.0
 30
0.0
  3
*D31
  1

  0
LINE
  5
4A821
330
4A81F
100
AcDbEntity
  8
DIMS SPECS
370
    25
100
AcDbLine
 10
195200.09181124
 20
870.046640702732
 30
0.0
 11
195200.09181124
 21
769.998465556107
 31
0.0
  0
LINE
  5
4A822
330
4A81F
100
AcDbEntity
  8
DIMS SPECS
370
    25
100
AcDbLine
 10
195319.09181124
 20
778.3274033833508
 30
0.0
 11
195319.09181124
 21
769.998465556107
 31
0.0
  0
LINE
  5
4A823
330
4A81F
100
AcDbEntity
  8
DIMS SPECS
370
    25
100
AcDbLine
 10
195212.59181124
 20
769.998465556107
 30
0.0
 11
195306.59181124
 21
769.998465556107
 31
0.0
  0
INSERT
  5
4A824
330
4A81F
100
AcDbEntity
  8
DIMS SPECS
370
    25
100
AcDbBlockReference
  2
FILLED-1
 10
195200.09181124
 20
769.998465556107
 30
0.0
 41
12.5
 42
12.5
 43
12.5
 50
180.0
  0
INSERT
  5
4A825
330
4A81F
100
AcDbEntity
  8
DIMS SPECS
370
    25
100
AcDbBlockReference
  2
FILLED-1
 10
195319.09181124
 20
769.998465556107
 30
0.0
 41
12.5
 42
12.5
 43
12.5
  0
MTEXT
  5
4A826
330
4A81F
100
AcDbEntity
  8
DIMS SPECS
100
AcDbMText
 10
195259.59181124
 20
786.4260658280309
 30
0.0
 40
17.0
 41
0.0
 71
     5
 72
     1
  1
\A1;119
  7
ABODE-ISO
 73
     1
 44
1.0
1001
ACAD
1000
MTEXTBEGIN
1070
    73
1070
     1
1070
    44
1040
1.0
1070
    74
1070
     0
1000
MTEXTEND
  0
POINT
  5
4A827
330
4A81F
100
AcDbEntity
  8
DEFPOINTS
 62
     0
100
AcDbPoint
 10
195200.09181124
 20
885.0466407027321
 30
0.0
  0
POINT
  5
4A828
330
4A81F
100
AcDbEntity
  8
DEFPOINTS
 62
     0
100
AcDbPoint
 10
195319.09181124
 20
793.3274033833509
 30
0.0
  0
POINT
  5
4A829
330
4A81F
100
AcDbEntity
  8
DEFPOINTS
 62
     0
100
AcDbPoint
 10
195319.09181124
 20
769.998465556107
 30
0.0
  0
ENDBLK
  5
4A82A
330
4A81F
100
AcDbEntity
  8
0
100
AcDbBlockEnd
  0
BLOCK
  5
4A82C
330
4A82B
100
AcDbEntity
  8
0
100
AcDbBlockBegin
  2
*D32
 70
     1
 10
0.0
 20
0.0
 30
0.0
  3
*D32
  1

  0
LINE
  5
4A82D
330
4A82B
100
AcDbEntity
  8
DIMS SPECS
370
    25
100
AcDbLine
 10
195539.09181124
 20
778.3274033833508
 30
0.0
 11
195539.09181124
 21
750.3523633085219
 31
0.0
  0
LINE
  5
4A82E
330
4A82B
100
AcDbEntity
  8
DIMS SPECS
370
    25
100
AcDbLine
 10
195658.09181124
 20
870.0466407026874
 30
0.0
 11
195658.09181124
 21
750.3523633085219
 31
0.0
  0
LINE
  5
4A82F
330
4A82B
100
AcDbEntity
  8
DIMS SPECS
370
    25
100
AcDbLine
 10
195551.59181124
 20
750.3523633085219
 30
0.0
 11
195645.59181124
 21
750.3523633085219
 31
0.0
  0
INSERT
  5
4A830
330
4A82B
100
AcDbEntity
  8
DIMS SPECS
370
    25
100
AcDbBlockReference
  2
FILLED-1
 10
195539.09181124
 20
750.3523633085219
 30
0.0
 41
12.5
 42
12.5
 43
12.5
 50
180.0
  0
INSERT
  5
4A831
330
4A82B
100
AcDbEntity
  8
DIMS SPECS
370
    25
100
AcDbBlockReference
  2
FILLED-1
 10
195658.09181124
 20
750.3523633085219
 30
0.0
 41
12.5
 42
12.5
 43
12.5
  0
MTEXT
  5
4A832
330
4A82B
100
AcDbEntity
  8
DIMS SPECS
100
AcDbMText
 10
195598.59181124
 20
766.7799635804458
 30
0.0
 40
17.0
 41
0.0
 71
     5
 72
     1
  1
\A1;119
  7
ABODE-ISO
 73
     1
 44
1.0
1001
ACAD
1000
MTEXTBEGIN
1070
    73
1070
     1
1070
    44
1040
1.0
1070
    74
1070
     0
1000
MTEXTEND
  0
POINT
  5
4A833
330
4A82B
100
AcDbEntity
  8
DEFPOINTS
 62
     0
100
AcDbPoint
 10
195539.09181124
 20
793.3274033833509
 30
0.0
  0
POINT
  5
4A834
330
4A82B
100
AcDbEntity
  8
DEFPOINTS
 62
     0
100
AcDbPoint
 10
195658.09181124
 20
885.0466407026875
 30
0.0
  0
POINT
  5
4A835
330
4A82B
100
AcDbEntity
  8
DEFPOINTS
 62
     0
100
AcDbPoint
 10
195658.09181124
 20
750.3523633085219
 30
0.0
  0
ENDBLK
  5
4A836
330
4A82B
100
AcDbEntity
  8
0
100
AcDbBlockEnd
  0
BLOCK
  5
4A838
330
4A837
100
AcDbEntity
  8
0
100
AcDbBlockBegin
  2
*D33
 70
     1
 10
0.0
 20
0.0
 30
0.0
  3
*D33
  1

  0
LINE
  5
4A839
330
4A837
100
AcDbEntity
  8
DIMS SPECS
370
    25
100
AcDbLine
 10
195633.0918112399
 20
845.0466407026901
 30
0.0
 11
195783.2535210608
 21
845.0466407026901
 31
0.0
  0
LINE
  5
4A83A
330
4A837
100
AcDbEntity
  8
DIMS SPECS
370
    25
100
AcDbLine
 10
195724.8110485593
 20
914.5466407026884
 30
0.0
 11
195783.2535210608
 21
914.5466407026884
 31
0.0
  0
LINE
  5
4A83B
330
4A837
100
AcDbEntity
  8
DIMS SPECS
370
    25
100
AcDbLine
 10
195783.2535210608
 20
857.5466407026901
 30
0.0
 11
195783.2535210608
 21
863.3690404307657
 31
0.0
  0
LINE
  5
4A83C
330
4A837
100
AcDbEntity
  8
DIMS SPECS
370
    25
100
AcDbLine
 10
195783.2535210608
 20
902.0466407026884
 30
0.0
 11
195783.2535210608
 21
896.2242409746135
 31
0.0
  0
INSERT
  5
4A83D
330
4A837
100
AcDbEntity
  8
DIMS SPECS
370
    25
100
AcDbBlockReference
  2
FILLED-1
 10
195783.2535210608
 20
845.0466407026901
 30
0.0
 41
12.5
 42
12.5
 43
12.5
 50
270.0
  0
INSERT
  5
4A83E
330
4A837
100
AcDbEntity
  8
DIMS SPECS
370
    25
100
AcDbBlockReference
  2
FILLED-1
 10
195783.2535210608
 20
914.5466407026884
 30
0.0
 41
12.5
 42
12.5
 43
12.5
 50
90.0
  0
MTEXT
  5
4A83F
330
4A837
100
AcDbEntity
  8
DIMS SPECS
100
AcDbMText
 10
195783.2535210608
 20
879.796640702721
 30
0.0
 40
17.0
 41
0.0
 71
     5
 72
     1
  1
\A1;69.5
  7
ABODE-ISO
 73
     1
 44
1.0
1001
ACAD
1000
MTEXTBEGIN
1070
    73
1070
     1
1070
    44
1040
1.0
1070
    74
1070
     0
1000
MTEXTEND
  0
POINT
  5
4A840
330
4A837
100
AcDbEntity
  8
DEFPOINTS
 62
     0
100
AcDbPoint
 10
195618.09181124
 20
845.0466407026901
 30
0.0
  0
POINT
  5
4A841
330
4A837
100
AcDbEntity
  8
DEFPOINTS
 62
     0
100
AcDbPoint
 10
195709.8110485593
 20
914.5466407026884
 30
0.0
  0
POINT
  5
4A842
330
4A837
100
AcDbEntity
  8
DEFPOINTS
 62
     0
100
AcDbPoint
 10
195783.2535210608
 20
914.5466407026884
 30
0.0
  0
ENDBLK
  5
4A843
330
4A837
100
AcDbEntity
  8
0
100
AcDbBlockEnd
  0
BLOCK
  5
4A845
330
4A844
100
AcDbEntity
  8
0
100
AcDbBlockBegin
  2
*D34
 70
     1
 10
0.0
 20
0.0
 30
0.0
  3
*D34
  1

  0
LINE
  5
4A846
330
4A844
100
AcDbEntity
  8
DIMS SPECS
370
    25
100
AcDbLine
 10
195633.0918112399
 20
1304.04664070269
 30
0.0
 11
195767.1193909198
 21
1304.04664070269
 31
0.0
  0
LINE
  5
4A847
330
4A844
100
AcDbEntity
  8
DIMS SPECS
370
    25
100
AcDbLine
 10
195724.8110485593
 20
1234.546640702689
 30
0.0
 11
195767.1193909198
 21
1234.546640702689
 31
0.0
  0
LINE
  5
4A848
330
4A844
100
AcDbEntity
  8
DIMS SPECS
370
    25
100
AcDbLine
 10
195767.1193909198
 20
1316.54664070269
 30
0.0
 11
195767.1193909198
 21
1329.04664070269
 31
0.0
  0
LINE
  5
4A849
330
4A844
100
AcDbEntity
  8
DIMS SPECS
370
    25
100
AcDbLine
 10
195767.1193909198
 20
1222.046640702689
 30
0.0
 11
195767.1193909198
 21
1209.546640702689
 31
0.0
  0
LINE
  5
4A84A
330
4A844
100
AcDbEntity
  8
DIMS SPECS
370
    25
100
AcDbLine
 10
195767.1193909198
 20
1304.04664070269
 30
0.0
 11
195767.1193909198
 21
1285.724240974613
 31
0.0
  0
LINE
  5
4A84B
330
4A844
100
AcDbEntity
  8
DIMS SPECS
370
    25
100
AcDbLine
 10
195767.1193909198
 20
1234.546640702689
 30
0.0
 11
195767.1193909198
 21
1252.869040430765
 31
0.0
  0
INSERT
  5
4A84C
330
4A844
100
AcDbEntity
  8
DIMS SPECS
370
    25
100
AcDbBlockReference
  2
FILLED-1
 10
195767.1193909198
 20
1304.04664070269
 30
0.0
 41
12.5
 42
12.5
 43
12.5
 50
270.0
  0
INSERT
  5
4A84D
330
4A844
100
AcDbEntity
  8
DIMS SPECS
370
    25
100
AcDbBlockReference
  2
FILLED-1
 10
195767.1193909198
 20
1234.546640702689
 30
0.0
 41
12.5
 42
12.5
 43
12.5
 50
90.0
  0
MTEXT
  5
4A84E
330
4A844
100
AcDbEntity
  8
DIMS SPECS
100
AcDbMText
 10
195767.1193909198
 20
1269.296640702721
 30
0.0
 40
17.0
 41
0.0
 71
     5
 72
     1
  1
\A1;69.5
  7
ABODE-ISO
 73
     1
 44
1.0
1001
ACAD
1000
MTEXTBEGIN
1070
    73
1070
     1
1070
    44
1040
1.0
1070
    74
1070
     0
1000
MTEXTEND
  0
POINT
  5
4A84F
330
4A844
100
AcDbEntity
  8
DEFPOINTS
 62
     0
100
AcDbPoint
 10
195618.09181124
 20
1304.04664070269
 30
0.0
  0
POINT
  5
4A850
330
4A844
100
AcDbEntity
  8
DEFPOINTS
 62
     0
100
AcDbPoint
 10
195709.8110485593
 20
1234.546640702689
 30
0.0
  0
POINT
  5
4A851
330
4A844
100
AcDbEntity
  8
DEFPOINTS
 62
     0
100
AcDbPoint
 10
195767.1193909198
 20
1234.546640702689
 30
0.0
  0
ENDBLK
  5
4A852
330
4A844
100
AcDbEntity
  8
0
100
AcDbBlockEnd
  0
BLOCK
  5
4A854
330
4A853
100
AcDbEntity
  8
0
100
AcDbBlockBegin
  2
*D35
 70
     1
 10
0.0
 20
0.0
 30
0.0
  3
*D35
  1

  0
LINE
  5
4A855
330
4A853
100
AcDbEntity
  8
DIMS SPECS
370
    25
100
AcDbLine
 10
195225.09181124
 20
845.0466407026901
 30
0.0
 11
195162.7242427216
 21
845.0466407026901
 31
0.0
  0
LINE
  5
4A856
330
4A853
100
AcDbEntity
  8
DIMS SPECS
370
    25
100
AcDbLine
 10
195288.3725739206
 20
809.0466407026902
 30
0.0
 11
195162.7242427216
 21
809.0466407026902
 31
0.0
  0
LINE
  5
4A857
330
4A853
100
AcDbEntity
  8
DIMS SPECS
370
    25
100
AcDbLine
 10
195162.7242427216
 20
857.5466407026901
 30
0.0
 11
195162.7242427216
 21
870.0466407026901
 31
0.0
  0
LINE
  5
4A858
330
4A853
100
AcDbEntity
  8
DIMS SPECS
370
    25
100
AcDbLine
 10
195162.7242427216
 20
796.5466407026902
 30
0.0
 11
195162.7242427216
 21
784.0466407026902
 31
0.0
  0
LINE
  5
4A859
330
4A853
100
AcDbEntity
  8
DIMS SPECS
370
    25
100
AcDbLine
 10
195162.7242427216
 20
845.0466407026901
 30
0.0
 11
195162.7242427216
 21
843.474240974614
 31
0.0
  0
LINE
  5
4A85A
330
4A853
100
AcDbEntity
  8
DIMS SPECS
370
    25
100
AcDbLine
 10
195162.7242427216
 20
809.0466407026902
 30
0.0
 11
195162.7242427216
 21
810.6190404307662
 31
0.0
  0
INSERT
  5
4A85B
330
4A853
100
AcDbEntity
  8
DIMS SPECS
370
    25
100
AcDbBlockReference
  2
FILLED-1
 10
195162.7242427216
 20
845.0466407026901
 30
0.0
 41
12.5
 42
12.5
 43
12.5
 50
270.0
  0
INSERT
  5
4A85C
330
4A853
100
AcDbEntity
  8
DIMS SPECS
370
    25
100
AcDbBlockReference
  2
FILLED-1
 10
195162.7242427216
 20
809.0466407026902
 30
0.0
 41
12.5
 42
12.5
 43
12.5
 50
90.0
  0
MTEXT
  5
4A85D
330
4A853
100
AcDbEntity
  8
DIMS SPECS
100
AcDbMText
 10
195162.7242427216
 20
827.0466407027216
 30
0.0
 40
17.0
 41
0.0
 71
     5
 72
     1
  1
\A1;36
  7
ABODE-ISO
 73
     1
 44
1.0
1001
ACAD
1000
MTEXTBEGIN
1070
    73
1070
     1
1070
    44
1040
1.0
1070
    74
1070
     0
1000
MTEXTEND
  0
POINT
  5
4A85E
330
4A853
100
AcDbEntity
  8
DEFPOINTS
 62
     0
100
AcDbPoint
 10
195240.09181124
 20
845.0466407026901
 30
0.0
  0
POINT
  5
4A85F
330
4A853
100
AcDbEntity
  8
DEFPOINTS
 62
     0
100
AcDbPoint
 10
195303.3725739206
 20
809.0466407026902
 30
0.0
  0
POINT
  5
4A860
330
4A853
100
AcDbEntity
  8
DEFPOINTS
 62
     0
100
AcDbPoint
 10
195162.7242427216
 20
809.0466407026902
 30
0.0
  0
ENDBLK
  5
4A861
330
4A853
100
AcDbEntity
  8
0
100
AcDbBlockEnd
  0
BLOCK
  5
4A962
330
4A961
100
AcDbEntity
  8
0
100
AcDbBlockBegin
  2
*D37
 70
     1
 10
0.0
 20
0.0
 30
0.0
  3
*D37
  1

  0
LINE
  5
4A9E2
330
4A961
100
AcDbEntity
  8
DIMS SPECS
370
    25
100
AcDbLine
 10
29482.27318523135
 20
24234.44392912735
 30
0.0
 11
29528.02318523135
 21
24234.44392912735
 31
0.0
  0
LINE
  5
4A9E3
330
4A961
100
AcDbEntity
  8
DIMS SPECS
370
    25
100
AcDbLine
 10
29528.02318523135
 20
24234.44392912735
 30
0.0
 11
29539.8306280096
 21
24224.01165776657
 31
0.0
  0
MTEXT
  5
4A9E4
330
4A961
100
AcDbEntity
  8
DIMS SPECS
100
AcDbMText
 10
29501.39818523135
 20
24250.44392912735
 30
0.0
 40
17.0
 41
0.0
 71
     5
 72
     1
  1
\A1;R40
  7
ABODE-ISO
 73
     1
 44
1.0
1001
ACAD
1000
MTEXTBEGIN
1070
    73
1070
     1
1070
    44
1040
1.0
1070
    74
1070
     0
1000
MTEXTEND
  0
LINE
  5
4A9E5
330
4A961
100
AcDbEntity
  8
DIMS SPECS
370
    25
100
AcDbLine
 10
29579.17406366909
 20
24189.25041396694
 30
0.0
 11
29549.19811269045
 21
24215.7351711476
 31
0.0
  0
INSERT
  5
4A9E6
330
4A961
100
AcDbEntity
  8
DIMS SPECS
370
    25
100
AcDbBlockReference
  2
FILLED-1
 10
29549.19811269045
 20
24215.7351711476
 30
0.0
 41
12.5
 42
12.5
 43
12.5
 50
318.5383246894392
  0
POINT
  5
4A9E7
330
4A961
100
AcDbEntity
  8
DEFPOINTS
 62
     0
100
AcDbPoint
 10
29549.19811269045
 20
24215.7351711476
 30
0.0
  0
POINT
  5
4A9E8
330
4A961
100
AcDbEntity
  8
DEFPOINTS
 62
     0
100
AcDbPoint
 10
29579.17406366909
 20
24189.25041396694
 30
0.0
  0
ENDBLK
  5
4A963
330
4A961
100
AcDbEntity
  8
0
100
AcDbBlockEnd
  0
BLOCK
  5
4A96C
330
4A96B
100
AcDbEntity
  8
0
100
AcDbBlockBegin
  2
*D38
 70
     1
 10
0.0
 20
0.0
 30
0.0
  3
*D38
  1

  0
LINE
  5
4AA18
330
4A96B
100
AcDbEntity
  8
DIMS SPECS
370
    25
100
AcDbLine
 10
30033.17406366885
 20
23809.03117664754
 30
0.0
 11
30033.17406366885
 21
23798.64618665071
 31
0.0
  0
LINE
  5
4AA19
330
4A96B
100
AcDbEntity
  8
DIMS SPECS
370
    25
100
AcDbLine
 10
29997.17406366886
 20
23795.25041396688
 30
0.0
 11
29997.17406366886
 21
23798.64618665071
 31
0.0
  0
LINE
  5
4AA1A
330
4A96B
100
AcDbEntity
  8
DIMS SPECS
370
    25
100
AcDbLine
 10
29984.67406366886
 20
23798.64618665071
 30
0.0
 11
29972.17406366885
 21
23798.64618665071
 31
0.0
  0
LINE
  5
4AA1B
330
4A96B
100
AcDbEntity
  8
DIMS SPECS
370
    25
100
AcDbLine
 10
30045.67406366886
 20
23798.64618665071
 30
0.0
 11
30098.67406366886
 21
23798.64618665071
 31
0.0
  0
LINE
  5
4AA1C
330
4A96B
100
AcDbEntity
  8
DIMS SPECS
370
    25
100
AcDbLine
 10
29997.17406366886
 20
23798.64618665071
 30
0.0
 11
30033.17406366885
 21
23798.64618665071
 31
0.0
  0
INSERT
  5
4AA1D
330
4A96B
100
AcDbEntity
  8
DIMS SPECS
370
    25
100
AcDbBlockReference
  2
FILLED-1
 10
29997.17406366886
 20
23798.64618665071
 30
0.0
 41
12.5
 42
12.5
 43
12.5
  0
INSERT
  5
4AA1E
330
4A96B
100
AcDbEntity
  8
DIMS SPECS
370
    25
100
AcDbBlockReference
  2
FILLED-1
 10
30033.17406366885
 20
23798.64618665071
 30
0.0
 41
12.5
 42
12.5
 43
12.5
 50
180.0
  0
MTEXT
  5
4AA1F
330
4A96B
100
AcDbEntity
  8
DIMS SPECS
100
AcDbMText
 10
30078.42406366886
 20
23814.64618665071
 30
0.0
 40
17.0
 41
0.0
 71
     5
 72
     1
  1
\A1;36
  7
ABODE-ISO
 73
     1
 44
1.0
1001
ACAD
1000
MTEXTBEGIN
1070
    73
1070
     1
1070
    44
1040
1.0
1070
    74
1070
     0
1000
MTEXTEND
  0
POINT
  5
4AA20
330
4A96B
100
AcDbEntity
  8
DEFPOINTS
 62
     0
100
AcDbPoint
 10
30033.17406366885
 20
23824.03117664754
 30
0.0
  0
POINT
  5
4AA21
330
4A96B
100
AcDbEntity
  8
DEFPOINTS
 62
     0
100
AcDbPoint
 10
29997.17406366886
 20
23810.25041396688
 30
0.0
  0
POINT
  5
4AA22
330
4A96B
100
AcDbEntity
  8
DEFPOINTS
 62
     0
100
AcDbPoint
 10
29997.17406366886
 20
23798.64618665071
 30
0.0
  0
ENDBLK
  5
4A96D
330
4A96B
100
AcDbEntity
  8
0
100
AcDbBlockEnd
  0
BLOCK
  5
4A97A
330
4A979
100
AcDbEntity
  8
0
100
AcDbBlockBegin
  2
*D39
 70
     1
 10
0.0
 20
0.0
 30
0.0
  3
*D39
  1

  0
LINE
  5
4AA23
330
4A979
100
AcDbEntity
  8
DIMS SPECS
370
    25
100
AcDbLine
 10
30063.8933009882
 20
23839.75041396688
 30
0.0
 11
30077.04647627122
 21
23839.75041396688
 31
0.0
  0
LINE
  5
4AA24
330
4A979
100
AcDbEntity
  8
DIMS SPECS
370
    25
100
AcDbLine
 10
30063.8933009882
 20
24159.75041396688
 30
0.0
 11
30077.04647627122
 21
24159.75041396688
 31
0.0
  0
LINE
  5
4AA25
330
4A979
100
AcDbEntity
  8
DIMS SPECS
370
    25
100
AcDbLine
 10
30077.04647627122
 20
23852.25041396688
 30
0.0
 11
30077.04647627122
 21
23983.75041396688
 31
0.0
  0
LINE
  5
4AA26
330
4A979
100
AcDbEntity
  8
DIMS SPECS
370
    25
100
AcDbLine
 10
30077.04647627122
 20
24147.25041396688
 30
0.0
 11
30077.04647627122
 21
24015.75041396688
 31
0.0
  0
INSERT
  5
4AA27
330
4A979
100
AcDbEntity
  8
DIMS SPECS
370
    25
100
AcDbBlockReference
  2
FILLED-1
 10
30077.04647627122
 20
23839.75041396688
 30
0.0
 41
12.5
 42
12.5
 43
12.5
 50
270.0
  0
INSERT
  5
4AA28
330
4A979
100
AcDbEntity
  8
DIMS SPECS
370
    25
100
AcDbBlockReference
  2
FILLED-1
 10
30077.04647627122
 20
24159.75041396688
 30
0.0
 41
12.5
 42
12.5
 43
12.5
 50
90.0
  0
MTEXT
  5
4AA29
330
4A979
100
AcDbEntity
  8
DIMS SPECS
100
AcDbMText
 10
30077.04647627121
 20
23999.75041396689
 30
0.0
 40
17.0
 41
0.0
 71
     5
 72
     1
  1
\A1;320
  7
ABODE-ISO
 73
     1
 44
1.0
1001
ACAD
1000
MTEXTBEGIN
1070
    73
1070
     1
1070
    44
1040
1.0
1070
    74
1070
     0
1000
MTEXTEND
  0
POINT
  5
4AA2A
330
4A979
100
AcDbEntity
  8
DEFPOINTS
 62
     0
100
AcDbPoint
 10
30048.8933009882
 20
23839.75041396688
 30
0.0
  0
POINT
  5
4AA2B
330
4A979
100
AcDbEntity
  8
DEFPOINTS
 62
     0
100
AcDbPoint
 10
30048.8933009882
 20
24159.75041396688
 30
0.0
  0
POINT
  5
4AA2C
330
4A979
100
AcDbEntity
  8
DEFPOINTS
 62
     0
100
AcDbPoint
 10
30077.04647627122
 20
24159.75041396688
 30
0.0
  0
ENDBLK
  5
4A97B
330
4A979
100
AcDbEntity
  8
0
100
AcDbBlockEnd
  0
BLOCK
  5
4A987
330
4A986
100
AcDbEntity
  8
0
100
AcDbBlockBegin
  2
*D40
 70
     1
 10
0.0
 20
0.0
 30
0.0
  3
*D40
  1

  0
LINE
  5
4AA2D
330
4A986
100
AcDbEntity
  8
DIMS SPECS
370
    25
100
AcDbLine
 10
29627.45482634969
 20
24255.25041396689
 30
0.0
 11
29602.91587515334
 21
24255.25041396689
 31
0.0
  0
LINE
  5
4AA2E
330
4A986
100
AcDbEntity
  8
DIMS SPECS
370
    25
100
AcDbLine
 10
29634.17406366923
 20
24229.25041396688
 30
0.0
 11
29602.91587515334
 21
24229.25041396688
 31
0.0
  0
LINE
  5
4AA2F
330
4A986
100
AcDbEntity
  8
DIMS SPECS
370
    25
100
AcDbLine
 10
29602.91587515334
 20
24216.75041396689
 30
0.0
 11
29602.91587515334
 21
24204.25041396689
 31
0.0
  0
LINE
  5
4AA30
330
4A986
100
AcDbEntity
  8
DIMS SPECS
370
    25
100
AcDbLine
 10
29602.91587515334
 20
24267.75041396689
 30
0.0
 11
29602.91587515334
 21
24280.25041396691
 31
0.0
  0
LINE
  5
4AA31
330
4A986
100
AcDbEntity
  8
DIMS SPECS
370
    25
100
AcDbLine
 10
29602.91587515334
 20
24280.25041396691
 30
0.0
 11
29635.91587515334
 21
24280.25041396691
 31
0.0
  0
LINE
  5
4AA32
330
4A986
100
AcDbEntity
  8
DIMS SPECS
370
    25
100
AcDbLine
 10
29602.91587515334
 20
24229.25041396688
 30
0.0
 11
29602.91587515334
 21
24255.25041396689
 31
0.0
  0
INSERT
  5
4AA33
330
4A986
100
AcDbEntity
  8
DIMS SPECS
370
    25
100
AcDbBlockReference
  2
FILLED-1
 10
29602.91587515334
 20
24229.25041396688
 30
0.0
 41
12.5
 42
12.5
 43
12.5
 50
90.0
  0
INSERT
  5
4AA34
330
4A986
100
AcDbEntity
  8
DIMS SPECS
370
    25
100
AcDbBlockReference
  2
FILLED-1
 10
29602.91587515334
 20
24255.25041396689
 30
0.0
 41
12.5
 42
12.5
 43
12.5
 50
270.0
  0
MTEXT
  5
4AA35
330
4A986
100
AcDbEntity
  8
DIMS SPECS
100
AcDbMText
 10
29623.16587515333
 20
24296.25041396692
 30
0.0
 40
17.0
 41
0.0
 71
     5
 72
     1
  1
\A1;26
  7
ABODE-ISO
 73
     1
 44
1.0
1001
ACAD
1000
MTEXTBEGIN
1070
    73
1070
     1
1070
    44
1040
1.0
1070
    74
1070
     0
1000
MTEXTEND
  0
POINT
  5
4AA36
330
4A986
100
AcDbEntity
  8
DEFPOINTS
 62
     0
100
AcDbPoint
 10
29642.45482634969
 20
24255.25041396689
 30
0.0
  0
POINT
  5
4AA37
330
4A986
100
AcDbEntity
  8
DEFPOINTS
 62
     0
100
AcDbPoint
 10
29649.17406366923
 20
24229.25041396688
 30
0.0
  0
POINT
  5
4AA38
330
4A986
100
AcDbEntity
  8
DEFPOINTS
 62
     0
100
AcDbPoint
 10
29602.91587515334
 20
24229.25041396688
 30
0.0
  0
ENDBLK
  5
4A988
330
4A986
100
AcDbEntity
  8
0
100
AcDbBlockEnd
  0
BLOCK
  5
4A996
330
4A995
100
AcDbEntity
  8
0
100
AcDbBlockBegin
  2
*D41
 70
     1
 10
0.0
 20
0.0
 30
0.0
  3
*D41
  1

  0
LINE
  5
4AA39
330
4A995
100
AcDbEntity
  8
DIMS SPECS
370
    25
100
AcDbLine
 10
29658.17406366886
 20
23703.53117664754
 30
0.0
 11
29658.17406366886
 21
23695.2022388203
 31
0.0
  0
LINE
  5
4AA3A
330
4A995
100
AcDbEntity
  8
DIMS SPECS
370
    25
100
AcDbLine
 10
29878.17406366886
 20
23703.53117664754
 30
0.0
 11
29878.17406366886
 21
23695.2022388203
 31
0.0
  0
LINE
  5
4AA3B
330
4A995
100
AcDbEntity
  8
DIMS SPECS
370
    25
100
AcDbLine
 10
29670.67406366886
 20
23695.2022388203
 30
0.0
 11
29865.67406366886
 21
23695.2022388203
 31
0.0
  0
INSERT
  5
4AA3C
330
4A995
100
AcDbEntity
  8
DIMS SPECS
370
    25
100
AcDbBlockReference
  2
FILLED-1
 10
29658.17406366886
 20
23695.2022388203
 30
0.0
 41
12.5
 42
12.5
 43
12.5
 50
180.0
  0
INSERT
  5
4AA3D
330
4A995
100
AcDbEntity
  8
DIMS SPECS
370
    25
100
AcDbBlockReference
  2
FILLED-1
 10
29878.17406366886
 20
23695.2022388203
 30
0.0
 41
12.5
 42
12.5
 43
12.5
  0
MTEXT
  5
4AA3E
330
4A995
100
AcDbEntity
  8
DIMS SPECS
100
AcDbMText
 10
29768.17406366885
 20
23711.2022388203
 30
0.0
 40
17.0
 41
0.0
 71
     5
 72
     1
  1
\A1;220
  7
ABODE-ISO
 73
     1
 44
1.0
1001
ACAD
1000
MTEXTBEGIN
1070
    73
1070
     1
1070
    44
1040
1.0
1070
    74
1070
     0
1000
MTEXTEND
  0
POINT
  5
4AA3F
330
4A995
100
AcDbEntity
  8
DEFPOINTS
 62
     0
100
AcDbPoint
 10
29658.17406366886
 20
23718.53117664755
 30
0.0
  0
POINT
  5
4AA40
330
4A995
100
AcDbEntity
  8
DEFPOINTS
 62
     0
100
AcDbPoint
 10
29878.17406366886
 20
23718.53117664755
 30
0.0
  0
POINT
  5
4AA41
330
4A995
100
AcDbEntity
  8
DEFPOINTS
 62
     0
100
AcDbPoint
 10
29878.17406366886
 20
23695.2022388203
 30
0.0
  0
ENDBLK
  5
4A997
330
4A995
100
AcDbEntity
  8
0
100
AcDbBlockEnd
  0
BLOCK
  5
4A9A2
330
4A9A1
100
AcDbEntity
  8
0
100
AcDbBlockBegin
  2
*D42
 70
     1
 10
0.0
 20
0.0
 30
0.0
  3
*D42
  1

  0
LINE
  5
4AA4E
330
4A9A1
100
AcDbEntity
  8
DIMS SPECS
370
    25
100
AcDbLine
 10
29472.45482634952
 20
23839.75041396688
 30
0.0
 11
29475.62296250879
 21
23839.75041396688
 31
0.0
  0
LINE
  5
4AA4F
330
4A9A1
100
AcDbEntity
  8
DIMS SPECS
370
    25
100
AcDbLine
 10
29472.45482634952
 20
24159.75041396688
 30
0.0
 11
29475.62296250879
 21
24159.75041396688
 31
0.0
  0
LINE
  5
4AA50
330
4A9A1
100
AcDbEntity
  8
DIMS SPECS
370
    25
100
AcDbLine
 10
29475.62296250879
 20
23852.25041396688
 30
0.0
 11
29475.62296250879
 21
23983.75041396688
 31
0.0
  0
LINE
  5
4AA51
330
4A9A1
100
AcDbEntity
  8
DIMS SPECS
370
    25
100
AcDbLine
 10
29475.62296250879
 20
24147.25041396688
 30
0.0
 11
29475.62296250879
 21
24015.75041396688
 31
0.0
  0
INSERT
  5
4AA52
330
4A9A1
100
AcDbEntity
  8
DIMS SPECS
370
    25
100
AcDbBlockReference
  2
FILLED-1
 10
29475.62296250879
 20
23839.75041396688
 30
0.0
 41
12.5
 42
12.5
 43
12.5
 50
270.0
  0
INSERT
  5
4AA53
330
4A9A1
100
AcDbEntity
  8
DIMS SPECS
370
    25
100
AcDbBlockReference
  2
FILLED-1
 10
29475.62296250879
 20
24159.75041396688
 30
0.0
 41
12.5
 42
12.5
 43
12.5
 50
90.0
  0
MTEXT
  5
4AA54
330
4A9A1
100
AcDbEntity
  8
DIMS SPECS
100
AcDbMText
 10
29475.62296250879
 20
23999.75041396689
 30
0.0
 40
17.0
 41
0.0
 71
     5
 72
     1
  1
\A1;320
  7
ABODE-ISO
 73
     1
 44
1.0
1001
ACAD
1000
MTEXTBEGIN
1070
    73
1070
     1
1070
    44
1040
1.0
1070
    74
1070
     0
1000
MTEXTEND
  0
POINT
  5
4AA55
330
4A9A1
100
AcDbEntity
  8
DEFPOINTS
 62
     0
100
AcDbPoint
 10
29487.45482634952
 20
23839.75041396688
 30
0.0
  0
POINT
  5
4AA56
330
4A9A1
100
AcDbEntity
  8
DEFPOINTS
 62
     0
100
AcDbPoint
 10
29487.45482634952
 20
24159.75041396688
 30
0.0
  0
POINT
  5
4AA57
330
4A9A1
100
AcDbEntity
  8
DEFPOINTS
 62
     0
100
AcDbPoint
 10
29475.62296250879
 20
24159.75041396688
 30
0.0
  0
ENDBLK
  5
4A9A3
330
4A9A1
100
AcDbEntity
  8
0
100
AcDbBlockEnd
  0
BLOCK
  5
4A9AF
330
4A9AE
100
AcDbEntity
  8
0
100
AcDbBlockBegin
  2
*D43
 70
     1
 10
0.0
 20
0.0
 30
0.0
  3
*D43
  1

  0
LINE
  5
4AA58
330
4A9AE
100
AcDbEntity
  8
DIMS SPECS
370
    25
100
AcDbLine
 10
29503.17406366885
 20
23809.03117664754
 30
0.0
 11
29503.17406366885
 21
23804.12679601152
 31
0.0
  0
LINE
  5
4AA59
330
4A9AE
100
AcDbEntity
  8
DIMS SPECS
370
    25
100
AcDbLine
 10
29539.17406366885
 20
23795.25041396693
 30
0.0
 11
29539.17406366885
 21
23804.12679601152
 31
0.0
  0
LINE
  5
4AA5A
330
4A9AE
100
AcDbEntity
  8
DIMS SPECS
370
    25
100
AcDbLine
 10
29490.67406366886
 20
23804.12679601152
 30
0.0
 11
29478.17406366885
 21
23804.12679601152
 31
0.0
  0
LINE
  5
4AA5B
330
4A9AE
100
AcDbEntity
  8
DIMS SPECS
370
    25
100
AcDbLine
 10
29551.67406366886
 20
23804.12679601152
 30
0.0
 11
29564.17406366885
 21
23804.12679601152
 31
0.0
  0
LINE
  5
4AA5C
330
4A9AE
100
AcDbEntity
  8
DIMS SPECS
370
    25
100
AcDbLine
 10
29503.17406366885
 20
23804.12679601152
 30
0.0
 11
29539.17406366885
 21
23804.12679601152
 31
0.0
  0
INSERT
  5
4AA5D
330
4A9AE
100
AcDbEntity
  8
DIMS SPECS
370
    25
100
AcDbBlockReference
  2
FILLED-1
 10
29503.17406366885
 20
23804.12679601152
 30
0.0
 41
12.5
 42
12.5
 43
12.5
  0
INSERT
  5
4AA5E
330
4A9AE
100
AcDbEntity
  8
DIMS SPECS
370
    25
100
AcDbBlockReference
  2
FILLED-1
 10
29539.17406366885
 20
23804.12679601152
 30
0.0
 41
12.5
 42
12.5
 43
12.5
 50
180.0
  0
MTEXT
  5
4AA5F
330
4A9AE
100
AcDbEntity
  8
DIMS SPECS
100
AcDbMText
 10
29521.17406366886
 20
23820.12679601152
 30
0.0
 40
17.0
 41
0.0
 71
     5
 72
     1
  1
\A1;36
  7
ABODE-ISO
 73
     1
 44
1.0
1001
ACAD
1000
MTEXTBEGIN
1070
    73
1070
     1
1070
    44
1040
1.0
1070
    74
1070
     0
1000
MTEXTEND
  0
POINT
  5
4AA60
330
4A9AE
100
AcDbEntity
  8
DEFPOINTS
 62
     0
100
AcDbPoint
 10
29503.17406366885
 20
23824.03117664754
 30
0.0
  0
POINT
  5
4AA61
330
4A9AE
100
AcDbEntity
  8
DEFPOINTS
 62
     0
100
AcDbPoint
 10
29539.17406366885
 20
23810.25041396692
 30
0.0
  0
POINT
  5
4AA62
330
4A9AE
100
AcDbEntity
  8
DEFPOINTS
 62
     0
100
AcDbPoint
 10
29539.17406366885
 20
23804.12679601152
 30
0.0
  0
ENDBLK
  5
4A9B0
330
4A9AE
100
AcDbEntity
  8
0
100
AcDbBlockEnd
  0
BLOCK
  5
4A9BD
330
4A9BC
100
AcDbEntity
  8
0
100
AcDbBlockBegin
  2
*D44
 70
     1
 10
0.0
 20
0.0
 30
0.0
  3
*D44
  1

  0
LINE
  5
4A9BF
330
4A9BC
100
AcDbEntity
  8
DIMS SPECS
370
    25
100
AcDbLine
 10
29972.17406366885
 20
24229.25041396688
 30
0.0
 11
30154.64510923014
 21
24229.25041396688
 31
0.0
  0
LINE
  5
4A9C0
330
4A9BC
100
AcDbEntity
  8
DIMS SPECS
370
    25
100
AcDbLine
 10
29972.17406366885
 20
23770.25041396688
 30
0.0
 11
30154.64510923014
 21
23770.25041396688
 31
0.0
  0
LINE
  5
4A9C1
330
4A9BC
100
AcDbEntity
  8
DIMS SPECS
370
    25
100
AcDbLine
 10
30154.64510923014
 20
24216.75041396689
 30
0.0
 11
30154.64510923014
 21
24015.75041396692
 31
0.0
  0
LINE
  5
4A9C2
330
4A9BC
100
AcDbEntity
  8
DIMS SPECS
370
    25
100
AcDbLine
 10
30154.64510923014
 20
23782.75041396689
 30
0.0
 11
30154.64510923014
 21
23983.75041396691
 31
0.0
  0
INSERT
  5
4A9C3
330
4A9BC
100
AcDbEntity
  8
DIMS SPECS
370
    25
100
AcDbBlockReference
  2
FILLED-1
 10
30154.64510923014
 20
24229.25041396688
 30
0.0
 41
12.5
 42
12.5
 43
12.5
 50
90.0
  0
INSERT
  5
4A9C4
330
4A9BC
100
AcDbEntity
  8
DIMS SPECS
370
    25
100
AcDbBlockReference
  2
FILLED-1
 10
30154.64510923014
 20
23770.25041396688
 30
0.0
 41
12.5
 42
12.5
 43
12.5
 50
270.0
  0
MTEXT
  5
4A9C5
330
4A9BC
100
AcDbEntity
  8
DIMS SPECS
100
AcDbMText
 10
30154.64510923014
 20
23999.75041396692
 30
0.0
 40
17.0
 41
0.0
 71
     5
 72
     1
  1
\A1;459
  7
ABODE-ISO
 73
     1
 44
1.0
1001
ACAD
1000
MTEXTBEGIN
1070
    73
1070
     1
1070
    44
1040
1.0
1070
    74
1070
     0
1000
MTEXTEND
  0
POINT
  5
4A9C6
330
4A9BC
100
AcDbEntity
  8
DEFPOINTS
 62
     0
100
AcDbPoint
 10
29957.17406366886
 20
24229.25041396688
 30
0.0
  0
POINT
  5
4A9C7
330
4A9BC
100
AcDbEntity
  8
DEFPOINTS
 62
     0
100
AcDbPoint
 10
29957.17406366886
 20
23770.25041396688
 30
0.0
  0
POINT
  5
4A9C8
330
4A9BC
100
AcDbEntity
  8
DEFPOINTS
 62
     0
100
AcDbPoint
 10
30154.64510923014
 20
23770.25041396688
 30
0.0
  0
ENDBLK
  5
4A9BE
330
4A9BC
100
AcDbEntity
  8
0
100
AcDbBlockEnd
  0
BLOCK
  5
4A9CA
330
4A9C9
100
AcDbEntity
  8
0
100
AcDbBlockBegin
  2
*D45
 70
     1
 10
0.0
 20
0.0
 30
0.0
  3
*D45
  1

  0
LINE
  5
4AAA6
330
4A9C9
100
AcDbEntity
  8
DIMS SPECS
370
    25
100
AcDbLine
 10
29539.17406366885
 20
23795.25041396693
 30
0.0
 11
29539.17406366885
 21
23658.85267808265
 31
0.0
  0
LINE
  5
4AAA7
330
4A9C9
100
AcDbEntity
  8
DIMS SPECS
370
    25
100
AcDbLine
 10
29997.17406366886
 20
23795.25041396688
 30
0.0
 11
29997.17406366886
 21
23658.85267808265
 31
0.0
  0
LINE
  5
4AAA8
330
4A9C9
100
AcDbEntity
  8
DIMS SPECS
370
    25
100
AcDbLine
 10
29551.67406366886
 20
23658.85267808265
 30
0.0
 11
29984.67406366886
 21
23658.85267808265
 31
0.0
  0
INSERT
  5
4AAA9
330
4A9C9
100
AcDbEntity
  8
DIMS SPECS
370
    25
100
AcDbBlockReference
  2
FILLED-1
 10
29539.17406366885
 20
23658.85267808265
 30
0.0
 41
12.5
 42
12.5
 43
12.5
 50
180.0
  0
INSERT
  5
4AAAA
330
4A9C9
100
AcDbEntity
  8
DIMS SPECS
370
    25
100
AcDbBlockReference
  2
FILLED-1
 10
29997.17406366886
 20
23658.85267808265
 30
0.0
 41
12.5
 42
12.5
 43
12.5
  0
MTEXT
  5
4AAAB
330
4A9C9
100
AcDbEntity
  8
DIMS SPECS
100
AcDbMText
 10
29768.17406366885
 20
23674.85267808265
 30
0.0
 40
17.0
 41
0.0
 71
     5
 72
     1
  1
\A1;458
  7
ABODE-ISO
 73
     1
 44
1.0
1001
ACAD
1000
MTEXTBEGIN
1070
    73
1070
     1
1070
    44
1040
1.0
1070
    74
1070
     0
1000
MTEXTEND
  0
POINT
  5
4AAAC
330
4A9C9
100
AcDbEntity
  8
DEFPOINTS
 62
     0
100
AcDbPoint
 10
29539.17406366885
 20
23810.25041396693
 30
0.0
  0
POINT
  5
4AAAD
330
4A9C9
100
AcDbEntity
  8
DEFPOINTS
 62
     0
100
AcDbPoint
 10
29997.17406366886
 20
23810.25041396688
 30
0.0
  0
POINT
  5
4AAAE
330
4A9C9
100
AcDbEntity
  8
DEFPOINTS
 62
     0
100
AcDbPoint
 10
29997.17406366886
 20
23658.85267808265
 30
0.0
  0
ENDBLK
  5
4A9CB
330
4A9C9
100
AcDbEntity
  8
0
100
AcDbBlockEnd
  0
BLOCK
  5
4A9D6
330
4A9D5
100
AcDbEntity
  8
0
100
AcDbBlockBegin
  2
*D46
 70
     1
 10
0.0
 20
0.0
 30
0.0
  3
*D46
  1

  0
LINE
  5
4A9D8
330
4A9D5
100
AcDbEntity
  8
DIMS SPECS
370
    25
100
AcDbLine
 10
29564.17406366885
 20
23770.25041396688
 30
0.0
 11
29423.61587213592
 21
23770.25041396688
 31
0.0
  0
LINE
  5
4A9D9
330
4A9D5
100
AcDbEntity
  8
DIMS SPECS
370
    25
100
AcDbLine
 10
29564.1740636692
 20
24163.25041396711
 30
0.0
 11
29423.61587213592
 21
24163.25041396711
 31
0.0
  0
LINE
  5
4A9DA
330
4A9D5
100
AcDbEntity
  8
DIMS SPECS
370
    25
100
AcDbLine
 10
29423.61587213592
 20
23782.75041396689
 30
0.0
 11
29423.61587213592
 21
23950.75041396702
 31
0.0
  0
LINE
  5
4A9DB
330
4A9D5
100
AcDbEntity
  8
DIMS SPECS
370
    25
100
AcDbLine
 10
29423.61587213592
 20
24150.75041396711
 30
0.0
 11
29423.61587213592
 21
23982.75041396702
 31
0.0
  0
INSERT
  5
4A9DC
330
4A9D5
100
AcDbEntity
  8
DIMS SPECS
370
    25
100
AcDbBlockReference
  2
FILLED-1
 10
29423.61587213592
 20
23770.25041396688
 30
0.0
 41
12.5
 42
12.5
 43
12.5
 50
270.0
  0
INSERT
  5
4A9DD
330
4A9D5
100
AcDbEntity
  8
DIMS SPECS
370
    25
100
AcDbBlockReference
  2
FILLED-1
 10
29423.61587213592
 20
24163.25041396711
 30
0.0
 41
12.5
 42
12.5
 43
12.5
 50
90.0
  0
MTEXT
  5
4A9DE
330
4A9D5
100
AcDbEntity
  8
DIMS SPECS
100
AcDbMText
 10
29423.61587213592
 20
23966.75041396703
 30
0.0
 40
17.0
 41
0.0
 71
     5
 72
     1
  1
\A1;393
  7
ABODE-ISO
 73
     1
 44
1.0
1001
ACAD
1000
MTEXTBEGIN
1070
    73
1070
     1
1070
    44
1040
1.0
1070
    74
1070
     0
1000
MTEXTEND
  0
POINT
  5
4A9DF
330
4A9D5
100
AcDbEntity
  8
DEFPOINTS
 62
     0
100
AcDbPoint
 10
29579.17406366886
 20
23770.25041396688
 30
0.0
  0
POINT
  5
4A9E0
330
4A9D5
100
AcDbEntity
  8
DEFPOINTS
 62
     0
100
AcDbPoint
 10
29579.17406366921
 20
24163.25041396711
 30
0.0
  0
POINT
  5
4A9E1
330
4A9D5
100
AcDbEntity
  8
DEFPOINTS
 62
     0
100
AcDbPoint
 10
29423.61587213592
 20
24163.25041396711
 30
0.0
  0
ENDBLK
  5
4A9D7
330
4A9D5
100
AcDbEntity
  8
0
100
AcDbBlockEnd
  0
BLOCK
  5
4A9EA
330
4A9E9
100
AcDbEntity
  8
0
100
AcDbBlockBegin
  2
*D47
 70
     1
 10
0.0
 20
0.0
 30
0.0
  3
*D47
  1

  0
LINE
  5
4AAB8
330
4A9E9
100
AcDbEntity
  8
DIMS SPECS
370
    25
100
AcDbLine
 10
30248.78923533751
 20
24242.04782998039
 30
0.0
 11
30297.08923533752
 21
24242.04782998039
 31
0.0
  0
LINE
  5
4AAB9
330
4A9E9
100
AcDbEntity
  8
DIMS SPECS
370
    25
100
AcDbLine
 10
30297.08923533752
 20
24242.04782998039
 30
0.0
 11
30315.28125229479
 21
24225.84389652659
 31
0.0
  0
MTEXT
  5
4AABA
330
4A9E9
100
AcDbEntity
  8
DIMS SPECS
100
AcDbMText
 10
30269.1892353375
 20
24258.04782998039
 30
0.0
 40
17.0
 41
0.0
 71
     5
 72
     1
  1
\A1;R35
  7
ABODE-ISO
 73
     1
 44
1.0
1001
ACAD
1000
MTEXTBEGIN
1070
    73
1070
     1
1070
    44
1040
1.0
1070
    74
1070
     0
1000
MTEXTEND
  0
LINE
  5
4AABB
330
4A9E9
100
AcDbEntity
  8
DIMS SPECS
370
    25
100
AcDbLine
 10
30350.75098389446
 20
24194.25041396689
 30
0.0
 11
30324.61539218943
 21
24217.52982216879
 31
0.0
  0
INSERT
  5
4AABC
330
4A9E9
100
AcDbEntity
  8
DIMS SPECS
370
    25
100
AcDbBlockReference
  2
FILLED-1
 10
30324.61539218943
 20
24217.52982216879
 30
0.0
 41
12.5
 42
12.5
 43
12.5
 50
318.3080114470576
  0
POINT
  5
4AABD
330
4A9E9
100
AcDbEntity
  8
DEFPOINTS
 62
     0
100
AcDbPoint
 10
30324.61539218943
 20
24217.52982216879
 30
0.0
  0
POINT
  5
4AABE
330
4A9E9
100
AcDbEntity
  8
DEFPOINTS
 62
     0
100
AcDbPoint
 10
30350.75098389446
 20
24194.25041396689
 30
0.0
  0
ENDBLK
  5
4A9EB
330
4A9E9
100
AcDbEntity
  8
0
100
AcDbBlockEnd
  0
BLOCK
  5
4A9F4
330
4A9F3
100
AcDbEntity
  8
0
100
AcDbBlockBegin
  2
*D48
 70
     1
 10
0.0
 20
0.0
 30
0.0
  3
*D48
  1

  0
LINE
  5
4AAAF
330
4A9F3
100
AcDbEntity
  8
DIMS SPECS
370
    25
100
AcDbLine
 10
30315.75098389504
 20
23779.25041396683
 30
0.0
 11
30315.75098389504
 21
23694.60521720152
 31
0.0
  0
LINE
  5
4AAB0
330
4A9F3
100
AcDbEntity
  8
DIMS SPECS
370
    25
100
AcDbLine
 10
30795.75098389507
 20
23779.25041396689
 30
0.0
 11
30795.75098389507
 21
23694.60521720152
 31
0.0
  0
LINE
  5
4AAB1
330
4A9F3
100
AcDbEntity
  8
DIMS SPECS
370
    25
100
AcDbLine
 10
30328.25098389504
 20
23694.60521720152
 30
0.0
 11
30783.25098389507
 21
23694.60521720152
 31
0.0
  0
INSERT
  5
4AAB2
330
4A9F3
100
AcDbEntity
  8
DIMS SPECS
370
    25
100
AcDbBlockReference
  2
FILLED-1
 10
30315.75098389504
 20
23694.60521720152
 30
0.0
 41
12.5
 42
12.5
 43
12.5
 50
180.0
  0
INSERT
  5
4AAB3
330
4A9F3
100
AcDbEntity
  8
DIMS SPECS
370
    25
100
AcDbBlockReference
  2
FILLED-1
 10
30795.75098389507
 20
23694.60521720152
 30
0.0
 41
12.5
 42
12.5
 43
12.5
  0
MTEXT
  5
4AAB4
330
4A9F3
100
AcDbEntity
  8
DIMS SPECS
100
AcDbMText
 10
30555.75098389506
 20
23710.60521720151
 30
0.0
 40
17.0
 41
0.0
 71
     5
 72
     1
  1
\A1;480
  7
ABODE-ISO
 73
     1
 44
1.0
1001
ACAD
1000
MTEXTBEGIN
1070
    73
1070
     1
1070
    44
1040
1.0
1070
    74
1070
     0
1000
MTEXTEND
  0
POINT
  5
4AAB5
330
4A9F3
100
AcDbEntity
  8
DEFPOINTS
 62
     0
100
AcDbPoint
 10
30315.75098389504
 20
23794.25041396683
 30
0.0
  0
POINT
  5
4AAB6
330
4A9F3
100
AcDbEntity
  8
DEFPOINTS
 62
     0
100
AcDbPoint
 10
30795.75098389507
 20
23794.25041396689
 30
0.0
  0
POINT
  5
4AAB7
330
4A9F3
100
AcDbEntity
  8
DEFPOINTS
 62
     0
100
AcDbPoint
 10
30795.75098389507
 20
23694.60521720152
 30
0.0
  0
ENDBLK
  5
4A9F5
330
4A9F3
100
AcDbEntity
  8
0
100
AcDbBlockEnd
  0
BLOCK
  5
4AA00
330
4A9FF
100
AcDbEntity
  8
0
100
AcDbBlockBegin
  2
*D49
 70
     1
 10
0.0
 20
0.0
 30
0.0
  3
*D49
  1

  0
LINE
  5
4AA02
330
4A9FF
100
AcDbEntity
  8
DIMS SPECS
370
    25
100
AcDbLine
 10
30775.75098389507
 20
23759.25041396689
 30
0.0
 11
30876.51227776864
 21
23759.25041396689
 31
0.0
  0
LINE
  5
4AA03
330
4A9FF
100
AcDbEntity
  8
DIMS SPECS
370
    25
100
AcDbLine
 10
30775.7509838951
 20
24229.25041396688
 30
0.0
 11
30876.51227776864
 21
24229.25041396688
 31
0.0
  0
LINE
  5
4AA04
330
4A9FF
100
AcDbEntity
  8
DIMS SPECS
370
    25
100
AcDbLine
 10
30876.51227776864
 20
23771.75041396689
 30
0.0
 11
30876.51227776864
 21
23978.25041396689
 31
0.0
  0
LINE
  5
4AA05
330
4A9FF
100
AcDbEntity
  8
DIMS SPECS
370
    25
100
AcDbLine
 10
30876.51227776864
 20
24216.75041396689
 30
0.0
 11
30876.51227776864
 21
24010.25041396688
 31
0.0
  0
INSERT
  5
4AA06
330
4A9FF
100
AcDbEntity
  8
DIMS SPECS
370
    25
100
AcDbBlockReference
  2
FILLED-1
 10
30876.51227776864
 20
23759.25041396689
 30
0.0
 41
12.5
 42
12.5
 43
12.5
 50
270.0
  0
INSERT
  5
4AA07
330
4A9FF
100
AcDbEntity
  8
DIMS SPECS
370
    25
100
AcDbBlockReference
  2
FILLED-1
 10
30876.51227776864
 20
24229.25041396688
 30
0.0
 41
12.5
 42
12.5
 43
12.5
 50
90.0
  0
MTEXT
  5
4AA08
330
4A9FF
100
AcDbEntity
  8
DIMS SPECS
100
AcDbMText
 10
30876.51227776864
 20
23994.25041396689
 30
0.0
 40
17.0
 41
0.0
 71
     5
 72
     1
  1
\A1;470
  7
ABODE-ISO
 73
     1
 44
1.0
1001
ACAD
1000
MTEXTBEGIN
1070
    73
1070
     1
1070
    44
1040
1.0
1070
    74
1070
     0
1000
MTEXTEND
  0
POINT
  5
4AA09
330
4A9FF
100
AcDbEntity
  8
DEFPOINTS
 62
     0
100
AcDbPoint
 10
30760.75098389507
 20
23759.25041396689
 30
0.0
  0
POINT
  5
4AA0A
330
4A9FF
100
AcDbEntity
  8
DEFPOINTS
 62
     0
100
AcDbPoint
 10
30760.7509838951
 20
24229.25041396688
 30
0.0
  0
POINT
  5
4AA0B
330
4A9FF
100
AcDbEntity
  8
DEFPOINTS
 62
     0
100
AcDbPoint
 10
30876.51227776864
 20
24229.25041396688
 30
0.0
  0
ENDBLK
  5
4AA01
330
4A9FF
100
AcDbEntity
  8
0
100
AcDbBlockEnd
  0
BLOCK
  5
4AA0D
330
4AA0C
100
AcDbEntity
  8
0
100
AcDbBlockBegin
  2
*D50
 70
     1
 10
0.0
 20
0.0
 30
0.0
  3
*D50
  1

  0
LINE
  5
4AABF
330
4AA0C
100
AcDbEntity
  8
DIMS SPECS
370
    25
100
AcDbLine
 10
30208.46760496957
 20
23689.51594011853
 30
0.0
 11
30019.91760496944
 21
23689.51594011853
 31
0.0
  0
LINE
  5
4AAC0
330
4AA0C
100
AcDbEntity
  8
DIMS SPECS
370
    25
100
AcDbLine
 10
30019.91760496944
 20
23689.51594011853
 30
0.0
 11
29894.86266088438
 21
23728.98346770003
 31
0.0
  0
LINE
  5
4AAC1
330
4AA0C
100
AcDbEntity
  8
DIMS SPECS
370
    25
100
AcDbLine
 10
29861.48546645321
 20
23739.51736023377
 30
0.0
 11
29849.56503987069
 21
23743.27946471009
 31
0.0
  0
MTEXT
  5
4AAC2
102
{ACAD_XDICTIONARY
360
4AB03
102
}
330
4AA0C
100
AcDbEntity
  8
DIMS SPECS
100
AcDbMText
 10
30117.94260496958
 20
23719.68260678519
 30
0.0
 40
17.0
 41
0.0
 71
     5
 72
     1
  1
\A1;\U+220510 (granite)/\P8mm (wood)
  7
ABODE-ISO
 73
     1
 44
1.0
1001
ACAD
1000
MTEXTBEGIN
1070
    73
1070
     1
1070
    44
1040
1.0
1070
    74
1070
     0
1000
MTEXTEND
  0
LINE
  5
4AAC3
330
4AA0C
100
AcDbEntity
  8
DIMS SPECS
370
    25
100
AcDbLine
 10
29873.40589303574
 20
23735.75525575744
 30
0.0
 11
29882.94223430186
 21
23732.74557217635
 31
0.0
  0
INSERT
  5
4AAC4
330
4AA0C
100
AcDbEntity
  8
DIMS SPECS
370
    25
100
AcDbBlockReference
  2
FILLED-1
 10
29873.40589303574
 20
23735.75525575744
 30
0.0
 41
12.5
 42
12.5
 43
12.5
 50
342.4842257675251
  0
INSERT
  5
4AAC5
330
4AA0C
100
AcDbEntity
  8
DIMS SPECS
370
    25
100
AcDbBlockReference
  2
FILLED-1
 10
29882.94223430186
 20
23732.74557217635
 30
0.0
 41
12.5
 42
12.5
 43
12.5
 50
162.4842257675251
  0
POINT
  5
4AAC6
330
4AA0C
100
AcDbEntity
  8
DEFPOINTS
 62
     0
100
AcDbPoint
 10
29882.94223430186
 20
23732.74557217635
 30
0.0
  0
POINT
  5
4AAC7
330
4AA0C
100
AcDbEntity
  8
DEFPOINTS
 62
     0
100
AcDbPoint
 10
29873.40589303574
 20
23735.75525575744
 30
0.0
  0
ENDBLK
  5
4AA0E
330
4AA0C
100
AcDbEntity
  8
0
100
AcDbBlockEnd
  0
BLOCK
  5
4AA43
330
4AA42
100
AcDbEntity
  8
0
100
AcDbBlockBegin
  2
*D51
 70
     1
 10
0.0
 20
0.0
 30
0.0
  3
*D51
  1

  0
LINE
  5
4AA45
330
4AA42
100
AcDbEntity
  8
DIMS SPECS
370
    25
100
AcDbLine
 10
29658.17406366903
 20
24270.25041396689
 30
0.0
 11
29658.17406366903
 21
24289.15542073646
 31
0.0
  0
LINE
  5
4AA46
330
4AA42
100
AcDbEntity
  8
DIMS SPECS
370
    25
100
AcDbLine
 10
29878.17406366903
 20
24270.25041396689
 30
0.0
 11
29878.17406366903
 21
24289.15542073646
 31
0.0
  0
LINE
  5
4AA47
330
4AA42
100
AcDbEntity
  8
DIMS SPECS
370
    25
100
AcDbLine
 10
29670.67406366903
 20
24289.15542073646
 30
0.0
 11
29865.67406366903
 21
24289.15542073646
 31
0.0
  0
INSERT
  5
4AA48
330
4AA42
100
AcDbEntity
  8
DIMS SPECS
370
    25
100
AcDbBlockReference
  2
FILLED-1
 10
29658.17406366903
 20
24289.15542073646
 30
0.0
 41
12.5
 42
12.5
 43
12.5
 50
180.0
  0
INSERT
  5
4AA49
330
4AA42
100
AcDbEntity
  8
DIMS SPECS
370
    25
100
AcDbBlockReference
  2
FILLED-1
 10
29878.17406366903
 20
24289.15542073646
 30
0.0
 41
12.5
 42
12.5
 43
12.5
  0
MTEXT
  5
4AA4A
330
4AA42
100
AcDbEntity
  8
DIMS SPECS
100
AcDbMText
 10
29768.17406366903
 20
24305.15542073647
 30
0.0
 40
17.0
 41
0.0
 71
     5
 72
     1
  1
\A1;220
  7
ABODE-ISO
 73
     1
 44
1.0
1001
ACAD
1000
MTEXTBEGIN
1070
    73
1070
     1
1070
    44
1040
1.0
1070
    74
1070
     0
1000
MTEXTEND
  0
POINT
  5
4AA4B
330
4AA42
100
AcDbEntity
  8
DEFPOINTS
 62
     0
100
AcDbPoint
 10
29658.17406366903
 20
24255.25041396689
 30
0.0
  0
POINT
  5
4AA4C
330
4AA42
100
AcDbEntity
  8
DEFPOINTS
 62
     0
100
AcDbPoint
 10
29878.17406366903
 20
24255.25041396689
 30
0.0
  0
POINT
  5
4AA4D
330
4AA42
100
AcDbEntity
  8
DEFPOINTS
 62
     0
100
AcDbPoint
 10
29878.17406366903
 20
24289.15542073646
 30
0.0
  0
ENDBLK
  5
4AA44
330
4AA42
100
AcDbEntity
  8
0
100
AcDbBlockEnd
  0
BLOCK
  5
4AA64
330
4AA63
100
AcDbEntity
  8
0
100
AcDbBlockBegin
  2
*D52
 70
     1
 10
0.0
 20
0.0
 30
0.0
  3
*D52
  1

  0
LINE
  5
4AA66
330
4AA63
100
AcDbEntity
  8
DIMS SPECS
370
    25
100
AcDbLine
 10
29539.17406366885
 20
23795.25041396693
 30
0.0
 11
29539.17406366885
 21
23695.2022388203
 31
0.0
  0
LINE
  5
4AA67
330
4AA63
100
AcDbEntity
  8
DIMS SPECS
370
    25
100
AcDbLine
 10
29658.17406366886
 20
23703.53117664754
 30
0.0
 11
29658.17406366886
 21
23695.2022388203
 31
0.0
  0
LINE
  5
4AA68
330
4AA63
100
AcDbEntity
  8
DIMS SPECS
370
    25
100
AcDbLine
 10
29551.67406366886
 20
23695.2022388203
 30
0.0
 11
29645.67406366886
 21
23695.2022388203
 31
0.0
  0
INSERT
  5
4AA69
330
4AA63
100
AcDbEntity
  8
DIMS SPECS
370
    25
100
AcDbBlockReference
  2
FILLED-1
 10
29539.17406366885
 20
23695.2022388203
 30
0.0
 41
12.5
 42
12.5
 43
12.5
 50
180.0
  0
INSERT
  5
4AA6A
330
4AA63
100
AcDbEntity
  8
DIMS SPECS
370
    25
100
AcDbBlockReference
  2
FILLED-1
 10
29658.17406366886
 20
23695.2022388203
 30
0.0
 41
12.5
 42
12.5
 43
12.5
  0
MTEXT
  5
4AA6B
330
4AA63
100
AcDbEntity
  8
DIMS SPECS
100
AcDbMText
 10
29598.67406366885
 20
23711.2022388203
 30
0.0
 40
17.0
 41
0.0
 71
     5
 72
     1
  1
\A1;119
  7
ABODE-ISO
 73
     1
 44
1.0
1001
ACAD
1000
MTEXTBEGIN
1070
    73
1070
     1
1070
    44
1040
1.0
1070
    74
1070
     0
1000
MTEXTEND
  0
POINT
  5
4AA6C
330
4AA63
100
AcDbEntity
  8
DEFPOINTS
 62
     0
100
AcDbPoint
 10
29539.17406366885
 20
23810.25041396692
 30
0.0
  0
POINT
  5
4AA6D
330
4AA63
100
AcDbEntity
  8
DEFPOINTS
 62
     0
100
AcDbPoint
 10
29658.17406366886
 20
23718.53117664755
 30
0.0
  0
POINT
  5
4AA6E
330
4AA63
100
AcDbEntity
  8
DEFPOINTS
 62
     0
100
AcDbPoint
 10
29658.17406366886
 20
23695.2022388203
 30
0.0
  0
ENDBLK
  5
4AA65
330
4AA63
100
AcDbEntity
  8
0
100
AcDbBlockEnd
  0
BLOCK
  5
4AA70
330
4AA6F
100
AcDbEntity
  8
0
100
AcDbBlockBegin
  2
*D53
 70
     1
 10
0.0
 20
0.0
 30
0.0
  3
*D53
  1

  0
LINE
  5
4AA72
330
4AA6F
100
AcDbEntity
  8
DIMS SPECS
370
    25
100
AcDbLine
 10
29878.17406366886
 20
23703.53117664754
 30
0.0
 11
29878.17406366886
 21
23675.55613657271
 31
0.0
  0
LINE
  5
4AA73
330
4AA6F
100
AcDbEntity
  8
DIMS SPECS
370
    25
100
AcDbLine
 10
29997.17406366886
 20
23795.25041396688
 30
0.0
 11
29997.17406366886
 21
23675.55613657271
 31
0.0
  0
LINE
  5
4AA74
330
4AA6F
100
AcDbEntity
  8
DIMS SPECS
370
    25
100
AcDbLine
 10
29890.67406366886
 20
23675.55613657271
 30
0.0
 11
29984.67406366886
 21
23675.55613657271
 31
0.0
  0
INSERT
  5
4AA75
330
4AA6F
100
AcDbEntity
  8
DIMS SPECS
370
    25
100
AcDbBlockReference
  2
FILLED-1
 10
29878.17406366886
 20
23675.55613657271
 30
0.0
 41
12.5
 42
12.5
 43
12.5
 50
180.0
  0
INSERT
  5
4AA76
330
4AA6F
100
AcDbEntity
  8
DIMS SPECS
370
    25
100
AcDbBlockReference
  2
FILLED-1
 10
29997.17406366886
 20
23675.55613657271
 30
0.0
 41
12.5
 42
12.5
 43
12.5
  0
MTEXT
  5
4AA77
330
4AA6F
100
AcDbEntity
  8
DIMS SPECS
100
AcDbMText
 10
29937.67406366885
 20
23691.55613657272
 30
0.0
 40
17.0
 41
0.0
 71
     5
 72
     1
  1
\A1;119
  7
ABODE-ISO
 73
     1
 44
1.0
1001
ACAD
1000
MTEXTBEGIN
1070
    73
1070
     1
1070
    44
1040
1.0
1070
    74
1070
     0
1000
MTEXTEND
  0
POINT
  5
4AA78
330
4AA6F
100
AcDbEntity
  8
DEFPOINTS
 62
     0
100
AcDbPoint
 10
29878.17406366886
 20
23718.53117664755
 30
0.0
  0
POINT
  5
4AA79
330
4AA6F
100
AcDbEntity
  8
DEFPOINTS
 62
     0
100
AcDbPoint
 10
29997.17406366886
 20
23810.25041396688
 30
0.0
  0
POINT
  5
4AA7A
330
4AA6F
100
AcDbEntity
  8
DEFPOINTS
 62
     0
100
AcDbPoint
 10
29997.17406366886
 20
23675.55613657271
 30
0.0
  0
ENDBLK
  5
4AA71
330
4AA6F
100
AcDbEntity
  8
0
100
AcDbBlockEnd
  0
BLOCK
  5
4AA7C
330
4AA7B
100
AcDbEntity
  8
0
100
AcDbBlockBegin
  2
*D54
 70
     1
 10
0.0
 20
0.0
 30
0.0
  3
*D54
  1

  0
LINE
  5
4AA7E
330
4AA7B
100
AcDbEntity
  8
DIMS SPECS
370
    25
100
AcDbLine
 10
29972.17406366885
 20
23770.25041396688
 30
0.0
 11
30122.33577348963
 21
23770.25041396688
 31
0.0
  0
LINE
  5
4AA7F
330
4AA7B
100
AcDbEntity
  8
DIMS SPECS
370
    25
100
AcDbLine
 10
30063.8933009882
 20
23839.75041396688
 30
0.0
 11
30122.33577348963
 21
23839.75041396688
 31
0.0
  0
LINE
  5
4AA80
330
4AA7B
100
AcDbEntity
  8
DIMS SPECS
370
    25
100
AcDbLine
 10
30122.33577348963
 20
23782.75041396689
 30
0.0
 11
30122.33577348963
 21
23789.00041396691
 31
0.0
  0
LINE
  5
4AA81
330
4AA7B
100
AcDbEntity
  8
DIMS SPECS
370
    25
100
AcDbLine
 10
30122.33577348963
 20
23827.25041396688
 30
0.0
 11
30122.33577348963
 21
23821.00041396691
 31
0.0
  0
INSERT
  5
4AA82
330
4AA7B
100
AcDbEntity
  8
DIMS SPECS
370
    25
100
AcDbBlockReference
  2
FILLED-1
 10
30122.33577348963
 20
23770.25041396688
 30
0.0
 41
12.5
 42
12.5
 43
12.5
 50
270.0
  0
INSERT
  5
4AA83
330
4AA7B
100
AcDbEntity
  8
DIMS SPECS
370
    25
100
AcDbBlockReference
  2
FILLED-1
 10
30122.33577348963
 20
23839.75041396688
 30
0.0
 41
12.5
 42
12.5
 43
12.5
 50
90.0
  0
MTEXT
  5
4AA84
330
4AA7B
100
AcDbEntity
  8
DIMS SPECS
100
AcDbMText
 10
30122.33577348962
 20
23805.00041396691
 30
0.0
 40
17.0
 41
0.0
 71
     5
 72
     1
  1
\A1;69.5
  7
ABODE-ISO
 73
     1
 44
1.0
1001
ACAD
1000
MTEXTBEGIN
1070
    73
1070
     1
1070
    44
1040
1.0
1070
    74
1070
     0
1000
MTEXTEND
  0
POINT
  5
4AA85
330
4AA7B
100
AcDbEntity
  8
DEFPOINTS
 62
     0
100
AcDbPoint
 10
29957.17406366886
 20
23770.25041396688
 30
0.0
  0
POINT
  5
4AA86
330
4AA7B
100
AcDbEntity
  8
DEFPOINTS
 62
     0
100
AcDbPoint
 10
30048.8933009882
 20
23839.75041396688
 30
0.0
  0
POINT
  5
4AA87
330
4AA7B
100
AcDbEntity
  8
DEFPOINTS
 62
     0
100
AcDbPoint
 10
30122.33577348963
 20
23839.75041396688
 30
0.0
  0
ENDBLK
  5
4AA7D
330
4AA7B
100
AcDbEntity
  8
0
100
AcDbBlockEnd
  0
BLOCK
  5
4AA89
330
4AA88
100
AcDbEntity
  8
0
100
AcDbBlockBegin
  2
*D55
 70
     1
 10
0.0
 20
0.0
 30
0.0
  3
*D55
  1

  0
LINE
  5
4AA8B
330
4AA88
100
AcDbEntity
  8
DIMS SPECS
370
    25
100
AcDbLine
 10
29972.17406366885
 20
24229.25041396688
 30
0.0
 11
30106.20164334874
 21
24229.25041396688
 31
0.0
  0
LINE
  5
4AA8C
330
4AA88
100
AcDbEntity
  8
DIMS SPECS
370
    25
100
AcDbLine
 10
30063.8933009882
 20
24159.75041396688
 30
0.0
 11
30106.20164334874
 21
24159.75041396688
 31
0.0
  0
LINE
  5
4AA8D
330
4AA88
100
AcDbEntity
  8
DIMS SPECS
370
    25
100
AcDbLine
 10
30106.20164334874
 20
24241.75041396689
 30
0.0
 11
30106.20164334874
 21
24254.25041396688
 31
0.0
  0
LINE
  5
4AA8E
330
4AA88
100
AcDbEntity
  8
DIMS SPECS
370
    25
100
AcDbLine
 10
30106.20164334874
 20
24147.25041396688
 30
0.0
 11
30106.20164334874
 21
24134.75041396688
 31
0.0
  0
LINE
  5
4AA8F
330
4AA88
100
AcDbEntity
  8
DIMS SPECS
370
    25
100
AcDbLine
 10
30106.20164334874
 20
24229.25041396688
 30
0.0
 11
30106.20164334874
 21
24210.50041396688
 31
0.0
  0
LINE
  5
4AA90
330
4AA88
100
AcDbEntity
  8
DIMS SPECS
370
    25
100
AcDbLine
 10
30106.20164334874
 20
24159.75041396688
 30
0.0
 11
30106.20164334874
 21
24178.50041396688
 31
0.0
  0
INSERT
  5
4AA91
330
4AA88
100
AcDbEntity
  8
DIMS SPECS
370
    25
100
AcDbBlockReference
  2
FILLED-1
 10
30106.20164334874
 20
24229.25041396688
 30
0.0
 41
12.5
 42
12.5
 43
12.5
 50
270.0
  0
INSERT
  5
4AA92
330
4AA88
100
AcDbEntity
  8
DIMS SPECS
370
    25
100
AcDbBlockReference
  2
FILLED-1
 10
30106.20164334874
 20
24159.75041396688
 30
0.0
 41
12.5
 42
12.5
 43
12.5
 50
90.0
  0
MTEXT
  5
4AA93
330
4AA88
100
AcDbEntity
  8
DIMS SPECS
100
AcDbMText
 10
30106.20164334874
 20
24194.50041396689
 30
0.0
 40
17.0
 41
0.0
 71
     5
 72
     1
  1
\A1;69.5
  7
ABODE-ISO
 73
     1
 44
1.0
1001
ACAD
1000
MTEXTBEGIN
1070
    73
1070
     1
1070
    44
1040
1.0
1070
    74
1070
     0
1000
MTEXTEND
  0
POINT
  5
4AA94
330
4AA88
100
AcDbEntity
  8
DEFPOINTS
 62
     0
100
AcDbPoint
 10
29957.17406366886
 20
24229.25041396688
 30
0.0
  0
POINT
  5
4AA95
330
4AA88
100
AcDbEntity
  8
DEFPOINTS
 62
     0
100
AcDbPoint
 10
30048.8933009882
 20
24159.75041396688
 30
0.0
  0
POINT
  5
4AA96
330
4AA88
100
AcDbEntity
  8
DEFPOINTS
 62
     0
100
AcDbPoint
 10
30106.20164334874
 20
24159.75041396688
 30
0.0
  0
ENDBLK
  5
4AA8A
330
4AA88
100
AcDbEntity
  8
0
100
AcDbBlockEnd
  0
BLOCK
  5
4AA98
330
4AA97
100
AcDbEntity
  8
0
100
AcDbBlockBegin
  2
*D56
 70
     1
 10
0.0
 20
0.0
 30
0.0
  3
*D56
  1

  0
LINE
  5
4AA9A
330
4AA97
100
AcDbEntity
  8
DIMS SPECS
370
    25
100
AcDbLine
 10
29564.17406366885
 20
23770.25041396688
 30
0.0
 11
29501.8064951505
 21
23770.25041396688
 31
0.0
  0
LINE
  5
4AA9B
330
4AA97
100
AcDbEntity
  8
DIMS SPECS
370
    25
100
AcDbLine
 10
29627.45482634952
 20
23734.25041396689
 30
0.0
 11
29501.8064951505
 21
23734.25041396689
 31
0.0
  0
LINE
  5
4AA9C
330
4AA97
100
AcDbEntity
  8
DIMS SPECS
370
    25
100
AcDbLine
 10
29501.8064951505
 20
23782.75041396689
 30
0.0
 11
29501.8064951505
 21
23795.25041396689
 31
0.0
  0
LINE
  5
4AA9D
330
4AA97
100
AcDbEntity
  8
DIMS SPECS
370
    25
100
AcDbLine
 10
29501.8064951505
 20
23721.75041396689
 30
0.0
 11
29501.8064951505
 21
23709.25041396688
 31
0.0
  0
LINE
  5
4AA9E
330
4AA97
100
AcDbEntity
  8
DIMS SPECS
370
    25
100
AcDbLine
 10
29501.8064951505
 20
23770.25041396688
 30
0.0
 11
29501.8064951505
 21
23768.25041396688
 31
0.0
  0
LINE
  5
4AA9F
330
4AA97
100
AcDbEntity
  8
DIMS SPECS
370
    25
100
AcDbLine
 10
29501.8064951505
 20
23734.25041396689
 30
0.0
 11
29501.8064951505
 21
23736.25041396689
 31
0.0
  0
INSERT
  5
4AAA0
330
4AA97
100
AcDbEntity
  8
DIMS SPECS
370
    25
100
AcDbBlockReference
  2
FILLED-1
 10
29501.8064951505
 20
23770.25041396688
 30
0.0
 41
12.5
 42
12.5
 43
12.5
 50
270.0
  0
INSERT
  5
4AAA1
330
4AA97
100
AcDbEntity
  8
DIMS SPECS
370
    25
100
AcDbBlockReference
  2
FILLED-1
 10
29501.8064951505
 20
23734.25041396689
 30
0.0
 41
12.5
 42
12.5
 43
12.5
 50
90.0
  0
MTEXT
  5
4AAA2
330
4AA97
100
AcDbEntity
  8
DIMS SPECS
100
AcDbMText
 10
29501.8064951505
 20
23752.25041396689
 30
0.0
 40
17.0
 41
0.0
 71
     5
 72
     1
  1
\A1;36
  7
ABODE-ISO
 73
     1
 44
1.0
1001
ACAD
1000
MTEXTBEGIN
1070
    73
1070
     1
1070
    44
1040
1.0
1070
    74
1070
     0
1000
MTEXTEND
  0
POINT
  5
4AAA3
330
4AA97
100
AcDbEntity
  8
DEFPOINTS
 62
     0
100
AcDbPoint
 10
29579.17406366886
 20
23770.25041396688
 30
0.0
  0
POINT
  5
4AAA4
330
4AA97
100
AcDbEntity
  8
DEFPOINTS
 62
     0
100
AcDbPoint
 10
29642.45482634952
 20
23734.25041396689
 30
0.0
  0
POINT
  5
4AAA5
330
4AA97
100
AcDbEntity
  8
DEFPOINTS
 62
     0
100
AcDbPoint
 10
29501.8064951505
 20
23734.25041396689
 30
0.0
  0
ENDBLK
  5
4AA99
330
4AA97
100
AcDbEntity
  8
0
100
AcDbBlockEnd
  0
ENDSEC
  0
SECTION
  2
ENTITIES
  0
TEXT
  5
46C38
330
4A68F
100
AcDbEntity
  8
LAYER1
100
AcDbText
 10
29705.89614638127
 20
24601.724943232
 30
0.0
 40
150.0
  1
AW3010
100
AcDbText
  0
TEXT
  5
46C4A
330
4A68F
100
AcDbEntity
  8
LAYER1
100
AcDbText
 10
30437.82764576392
 20
24617.00446389919
 30
0.0
 40
30.0
  1
file version 1
100
AcDbText
  0
MTEXT
  5
4A901
102
{ACAD_XDICTIONARY
360
4AAE3
102
}
330
4A68F
100
AcDbEntity
  8
CUTOUT
100
AcDbMText
 10
29507.93371356166
 20
24384.23971646994
 30
0.0
 40
40.0
 41
559.4757407245924
 71
     1
 72
     5
  1
{\W0.983616; }UNDERMOUNT CUT OUT
 73
     1
 44
1.0
1001
ACAD
1000
MTEXTBEGIN
1070
    73
1070
     1
1070
    44
1040
1.0
1070
    74
1070
     0
1000
MTEXTEND
  0
MTEXT
  5
4A902
330
4A68F
100
AcDbEntity
  8
0
100
AcDbMText
 10
29632.86510844672
 20
24054.43013382265
 30
0.0
 40
6.0
 41
279.1526917987794
 71
     1
 72
     5
  3
{\LImportant, to the fabricator / installer:\P}The cut out size indicated is flush with the bowl edge with a minimum radius where appropriate.\PYou should confirm with your client if the worksurface cutout is to be cut flush, inside or outside this s
  3
uggested perimeter size. \PIf you create the cutout smaller or larger than the indicated size then some accessories may not fit correctly.\PAll details are provided in good faith and within the tolerances of the manufacturing process.\PWe recommend t
  3
hat a test cutout is made in scrap timber and checked against the actual sink supplied before committing to cutting the worksurface.\PAbode can not accept liability for problems or costs incurred by failure to follow this advise.\PAW3010 v1 (c) abode
  1
 2012
  7
ACISOTS
 73
     1
 44
1.0
1001
ACAD
1000
MTEXTBEGIN
1070
    73
1070
     1
1070
    44
1040
1.0
1070
    74
1070
     0
1000
MTEXTEND
1000
ACAD_MTEXT_DEFINED_HEIGHT_BEGIN
1070
    46
1040
226.0977298948277
1000
ACAD_MTEXT_DEFINED_HEIGHT_END
  0
MTEXT
  5
4A903
330
4A68F
100
AcDbEntity
  8
CUTOUT
100
AcDbMText
 10
29616.86824831458
 20
24219.75241534394
 30
0.0
 40
20.0
 41
559.4757407245924
 71
     1
 72
     5
  1
Tap deck exposed cut out
 73
     1
 44
1.0
1001
ACAD
1000
MTEXTBEGIN
1070
    73
1070
     1
1070
    44
1040
1.0
1070
    74
1070
     0
1000
MTEXTEND
  0
MTEXT
  5
4A904
330
4A68F
100
AcDbEntity
  8
CUTOUT
100
AcDbMText
 10
29626.87576608436
 20
24144.50136768806
 30
0.0
 40
20.0
 41
559.4757407245924
 71
     1
 72
     5
  1
Tap deck hidden cut out
 73
     1
 44
1.0
1001
ACAD
1000
MTEXTBEGIN
1070
    73
1070
     1
1070
    44
1040
1.0
1070
    74
1070
     0
1000
MTEXTEND
  0
MTEXT
  5
4A905
102
{ACAD_XDICTIONARY
360
4AAE5
102
}
330
4A68F
100
AcDbEntity
  8
CUTOUT
100
AcDbMText
 10
30286.54693194217
 20
24294.98001218883
 30
0.0
 40
40.0
 41
559.4757407245924
 71
     1
 72
     5
  1
{\W6.73361; }INSET CUT OUT
 73
     1
 44
1.0
1001
ACAD
1000
MTEXTBEGIN
1070
    73
1070
     1
1070
    44
1040
1.0
1070
    74
1070
     0
1000
MTEXTEND
  0
MTEXT
  5
4A906
102
{ACAD_XDICTIONARY
360
4AAE7
102
}
330
4A68F
100
AcDbEntity
  8
CUTOUT
  6
DASHED2
 48
5.0
100
AcDbMText
 10
30280.41132975013
 20
24087.53181585321
 30
0.0
 40
40.0
 41
559.4757407245924
 71
     1
 72
     5
  1
{\W5.5856;  }BOWL(S), \P{\W9.29611; }OVERFLOW,\P{\W5.5856;  }TAP AREA\P{\W9.29625; }\P{\W8.7418;  }
 73
     1
 44
1.0
1001
ACAD
1000
MTEXTBEGIN
1070
    73
1070
     1
1070
    44
1040
1.0
1070
    74
1070
     0
1000
MTEXTEND
  0
LWPOLYLINE
  5
4A907
330
4A68F
100
AcDbEntity
  8
CUTOUT
  6
DASHED2
 48
5.0
100
AcDbPolyline
 90
        8
 70
     1
 43
0.0
 10
30685.02310936797
 20
24099.5171774475
 10
30431.8628353451
 20
24099.5171774475
 42
0.4142135623730951
 10
30411.8628353451
 20
24079.5171774475
 10
30411.8628353451
 20
23911.55922271462
 42
0.4142135623730951
 10
30431.8628353451
 20
23891.55922271462
 10
30685.02310936797
 20
23891.55922271462
 42
0.4142135623730951
 10
30705.02310936797
 20
23911.55922271462
 10
30705.02310936797
 20
24079.5171774475
 42
0.4142135623730951
1001
GENIUS_GENREC_14
1002
{
1000
PYDIR
1011
30705.02310936797
1021
23891.55922271462
1031
0.0
1002
}
1002
{
1000
PXDIR
1011
30411.8628353451
1021
24099.5171774475
1031
0.0
1002
}
1002
{
1000
PORI
1011
30705.02310936797
1021
24099.5171774475
1031
0.0
1002
}
1002
{
1000
PINS
1011
30705.02310936797
1021
24099.5171774475
1031
0.0
1002
}
1002
{
1000
PINS2
1011
30411.8628353451
1021
23891.55922271462
1031
0.0
1002
}
1002
{
1000
C
1070
     1
1002
}
1001
GENIUS_GENOBJ-N-REC_13
1002
{
1000
OWNER
1000
GEN
1002
}
1001
GENIUS_GENODEF_13
1002
{
1000
HIER
1070
     0
1002
}
1002
{
1000
MANEDIT
1070
     0
1002
}
1002
{
1000
NOSEL
1070
     0
1002
}
1002
{
1000
BEHIND
1070
     0
1002
}
1002
{
1000
OTHER
1070
     0
1002
}
1002
{
1000
REACTOR
1002
}
  0
LINE
  5
4A908
102
{ACAD_REACTORS
330
4A957
102
}
330
4A68F
100
AcDbEntity
  8
CUTOUT
100
AcDbLine
 10
29997.17406366886
 20
24189.25041396688
 30
0.0
 11
29997.17406366886
 21
23810.25041396688
 31
0.0
  0
ARC
  5
4A909
330
4A68F
100
AcDbEntity
  8
CUTOUT
  6
DASHED2
 48
5.0
100
AcDbCircle
 10
29957.17406366886
 20
24123.25041396691
 30
0.0
 40
40.0
100
AcDbArc
 50
0.0
 51
90.0
  0
ARC
  5
4A90A
102
{ACAD_REACTORS
330
4A95D
102
}
330
4A68F
100
AcDbEntity
  8
CUTOUT
100
AcDbCircle
 10
29957.17406366886
 20
24189.25041396688
 30
0.0
 40
40.0
100
AcDbArc
 50
0.0
 51
90.0
  0
LINE
  5
4A90B
102
{ACAD_REACTORS
330
4A95A
330
4A960
102
}
330
4A68F
100
AcDbEntity
  8
CUTOUT
100
AcDbLine
 10
29957.17406366886
 20
23770.25041396688
 30
0.0
 11
29579.17406366886
 21
23770.25041396688
 31
0.0
  0
ARC
  5
4A90C
102
{ACAD_REACTORS
330
4A915
330
4A918
102
}
330
4A68F
100
AcDbEntity
  8
CUTOUT
100
AcDbCircle
 10
29957.17406366886
 20
23810.25041396688
 30
0.0
 40
40.0
100
AcDbArc
 50
270.0
 51
0.0
  0
LINE
  5
4A90D
102
{ACAD_REACTORS
330
4A918
330
4A954
102
}
330
4A68F
100
AcDbEntity
  8
CUTOUT
100
AcDbLine
 10
29539.17406366885
 20
23810.25041396692
 30
0.0
 11
29539.17406366926
 21
24189.25041396692
 31
0.0
  0
ARC
  5
4A90E
330
4A68F
100
AcDbEntity
  8
CUTOUT
  6
DASHED2
 48
5.0
100
AcDbCircle
 10
29579.17406366918
 20
24123.25041396711
 30
0.0
 40
40.0
100
AcDbArc
 50
90.0
 51
180.0
  0
ARC
  5
4A90F
102
{ACAD_REACTORS
330
4A918
330
4A91B
102
}
330
4A68F
100
AcDbEntity
  8
CUTOUT
100
AcDbCircle
 10
29579.17406366886
 20
23810.25041396688
 30
0.0
 40
40.0
100
AcDbArc
 50
180.0
 51
270.0
  0
LINE
  5
4A910
102
{ACAD_REACTORS
330
4A915
330
4A95D
102
}
330
4A68F
100
AcDbEntity
  8
CUTOUT
100
AcDbLine
 10
29579.17406366926
 20
24229.25041396688
 30
0.0
 11
29957.17406366886
 21
24229.25041396688
 31
0.0
  0
ARC
  5
4A911
330
4A68F
100
AcDbEntity
  8
CUTOUT
100
AcDbCircle
 10
29579.17406366926
 20
24189.25041396688
 30
0.0
 40
40.0
100
AcDbArc
 50
90.0
 51
180.0
  0
LINE
  5
4A912
102
{ACAD_REACTORS
330
4A91B
102
}
330
4A68F
100
AcDbEntity
  8
CUTOUT
  6
DASHED2
 48
5.0
100
AcDbLine
 10
29579.17406366921
 20
24163.25041396711
 30
0.0
 11
29957.17406366889
 21
24163.25041396691
 31
0.0
  0
DIMENSION
  5
4A913
102
{ACAD_XDICTIONARY
360
4A914
102
}
102
{ACAD_REACTORS
330
4A915
102
}
330
4A68F
100
AcDbEntity
  8
DIMS SPECS
100
AcDbDimension
  2
*D44
 10
30154.64510923014
 20
23770.25041396688
 30
0.0
 11
30154.64510923014
 21
23999.75041396692
 31
0.0
 70
   160
 71
     5
 42
459.0
  3
abode-iso$0
100
AcDbAlignedDimension
 13
29957.17406366886
 23
24229.25041396688
 33
0.0
 14
29957.17406366886
 24
23770.25041396688
 34
0.0
 50
90.0
100
AcDbRotatedDimension
1001
ACAD_DSTYLE_DIMINSPECT
1070
   396
1000
100%
1070
   395
1000

1070
   394
1070
    33
1070
   393
1070
     0
1001
ACAD
1000
DSTYLE
1002
{
1070
   174
1070
     1
1002
}
  0
DIMENSION
  5
4A916
102
{ACAD_XDICTIONARY
360
4A917
102
}
102
{ACAD_REACTORS
330
4A918
102
}
330
4A68F
100
AcDbEntity
  8
DIMS SPECS
100
AcDbDimension
  2
*D45
 10
29997.17406366886
 20
23658.85267808265
 30
0.0
 11
29768.17406366885
 21
23674.85267808265
 31
0.0
 70
    32
 71
     5
 42
458.0
  3
abode-iso$0
100
AcDbAlignedDimension
 13
29539.17406366885
 23
23810.25041396693
 33
0.0
 14
29997.17406366886
 24
23810.25041396688
 34
0.0
100
AcDbRotatedDimension
1001
ACAD_DSTYLE_DIMINSPECT
1070
   396
1000
100%
1070
   395
1000

1070
   394
1070
    33
1070
   393
1070
     0
1001
ACAD
1000
DSTYLE
1002
{
1070
   174
1070
     1
1002
}
  0
DIMENSION
  5
4A919
102
{ACAD_XDICTIONARY
360
4A91A
102
}
102
{ACAD_REACTORS
330
4A91B
102
}
330
4A68F
100
AcDbEntity
  8
DIMS SPECS
100
AcDbDimension
  2
*D46
 10
29423.61587213592
 20
24163.25041396711
 30
0.0
 11
29423.61587213592
 21
23966.75041396703
 31
0.0
 70
   160
 71
     5
 42
393.0000000002256
  3
abode-iso$0
100
AcDbAlignedDimension
 13
29579.17406366886
 23
23770.25041396688
 33
0.0
 14
29579.17406366921
 24
24163.25041396711
 34
0.0
 50
90.0
100
AcDbRotatedDimension
1001
ACAD_DSTYLE_DIMINSPECT
1070
   396
1000
100%
1070
   395
1000

1070
   394
1070
    33
1070
   393
1070
     0
1001
ACAD
1000
DSTYLE
1002
{
1070
   174
1070
     1
1002
}
  0
DIMENSION
  5
4A91C
330
4A68F
100
AcDbEntity
  8
DIMS SPECS
100
AcDbDimension
  2
*D37
 10
29579.17406366909
 20
24189.25041396694
 30
0.0
 11
29501.39818523135
 21
24234.44392912735
 31
0.0
 70
   164
 71
     5
 42
39.9999999998945
  3
abode-iso$4
100
AcDbRadialDimension
 15
29549.19811269045
 25
24215.7351711476
 35
0.0
 40
0.0
1001
ACAD_DSTYLE_DIMINSPECT
1070
   396
1000
100%
1070
   395
1000

1070
   394
1070
    33
1070
   393
1070
     0
1001
ACAD_DSTYLE_DIMRADIAL_EXTENSION
1070
   387
1070
     1
1070
   388
1040
1.570796326794895
1070
   390
1040
3.141592653588778
1001
ACAD
1000
DSTYLE
1002
{
1070
   174
1070
     1
1002
}
  0
LINE
  5
4A91D
330
4A68F
100
AcDbEntity
  8
CUTOUT
100
AcDbLine
 10
30795.7509838951
 20
24194.25041396689
 30
0.0
 11
30795.75098389507
 21
23794.25041396689
 31
0.0
  0
ARC
  5
4A91E
330
4A68F
100
AcDbEntity
  8
CUTOUT
100
AcDbCircle
 10
30760.7509838951
 20
24194.25041396689
 30
0.0
 40
35.0
100
AcDbArc
 50
0.0
 51
90.0
  0
LINE
  5
4A91F
330
4A68F
100
AcDbEntity
  8
CUTOUT
100
AcDbLine
 10
30760.75098389507
 20
23759.25041396689
 30
0.0
 11
30350.75098389504
 21
23759.25041396688
 31
0.0
  0
ARC
  5
4A920
102
{ACAD_REACTORS
330
4A92A
330
4A92D
102
}
330
4A68F
100
AcDbEntity
  8
CUTOUT
100
AcDbCircle
 10
30760.75098389507
 20
23794.25041396689
 30
0.0
 40
35.0
100
AcDbArc
 50
270.0
 51
0.0
  0
LINE
  5
4A921
102
{ACAD_REACTORS
330
4A92A
102
}
330
4A68F
100
AcDbEntity
  8
CUTOUT
100
AcDbLine
 10
30315.75098389504
 20
23794.25041396683
 30
0.0
 11
30315.75098389446
 21
24194.25041396683
 31
0.0
  0
ARC
  5
4A922
102
{ACAD_REACTORS
330
4A92A
102
}
330
4A68F
100
AcDbEntity
  8
CUTOUT
100
AcDbCircle
 10
30350.75098389504
 20
23794.25041396688
 30
0.0
 40
35.0
100
AcDbArc
 50
180.0
 51
270.0
  0
LINE
  5
4A923
102
{ACAD_REACTORS
330
4A92D
102
}
330
4A68F
100
AcDbEntity
  8
CUTOUT
100
AcDbLine
 10
30350.75098389446
 20
24229.25041396688
 30
0.0
 11
30760.7509838951
 21
24229.25041396688
 31
0.0
  0
ARC
  5
4A924
102
{ACAD_REACTORS
330
4A927
102
}
330
4A68F
100
AcDbEntity
  8
CUTOUT
100
AcDbCircle
 10
30350.75098389446
 20
24194.25041396689
 30
0.0
 40
35.0
100
AcDbArc
 50
90.0
 51
180.0
  0
DIMENSION
  5
4A925
102
{ACAD_XDICTIONARY
360
4A926
102
}
102
{ACAD_REACTORS
330
4A927
102
}
330
4A68F
100
AcDbEntity
  8
DIMS SPECS
100
AcDbDimension
  2
*D47
 10
30350.75098389446
 20
24194.25041396689
 30
0.0
 11
30269.1892353375
 21
24242.04782998039
 31
0.0
 70
   164
 71
     5
 42
35.00000000004184
  3
abode-iso$4
100
AcDbRadialDimension
 15
30324.61539218943
 25
24217.52982216879
 35
0.0
 40
0.0
1001
ACAD_DSTYLE_DIMINSPECT
1070
   396
1000
100%
1070
   395
1000

1070
   394
1070
    33
1070
   393
1070
     0
1001
ACAD
1000
DSTYLE
1002
{
1070
   174
1070
     1
1002
}
1001
ACAD_DSTYLE_DIMRADIAL_EXTENSION
1070
   387
1070
     1
1070
   388
1040
1.570796326794896
1070
   390
1040
3.141592653589793
  0
DIMENSION
  5
4A928
102
{ACAD_XDICTIONARY
360
4A929
102
}
102
{ACAD_REACTORS
330
4A92A
102
}
330
4A68F
100
AcDbEntity
  8
DIMS SPECS
100
AcDbDimension
  2
*D48
 10
30795.75098389507
 20
23694.60521720152
 30
0.0
 11
30555.75098389506
 21
23710.60521720151
 31
0.0
 70
    32
 71
     5
 42
480.0000000000291
  3
abode-iso$0
100
AcDbAlignedDimension
 13
30315.75098389504
 23
23794.25041396683
 33
0.0
 14
30795.75098389507
 24
23794.25041396689
 34
0.0
100
AcDbRotatedDimension
1001
ACAD_DSTYLE_DIMINSPECT
1070
   396
1000
100%
1070
   395
1000

1070
   394
1070
    33
1070
   393
1070
     0
1001
ACAD
1000
DSTYLE
1002
{
1070
   174
1070
     1
1002
}
  0
DIMENSION
  5
4A92B
102
{ACAD_XDICTIONARY
360
4A92C
102
}
102
{ACAD_REACTORS
330
4A92D
102
}
330
4A68F
100
AcDbEntity
  8
DIMS SPECS
100
AcDbDimension
  2
*D49
 10
30876.51227776864
 20
24229.25041396688
 30
0.0
 11
30876.51227776864
 21
23994.25041396689
 31
0.0
 70
    32
 71
     5
 42
470.0
  3
abode-iso$0
100
AcDbAlignedDimension
 13
30760.75098389507
 23
23759.25041396689
 33
0.0
 14
30760.7509838951
 24
24229.25041396688
 34
0.0
 50
90.0
100
AcDbRotatedDimension
1001
ACAD_DSTYLE_DIMINSPECT
1070
   396
1000
100%
1070
   395
1000

1070
   394
1070
    33
1070
   393
1070
     0
1001
ACAD
1000
DSTYLE
1002
{
1070
   174
1070
     1
1002
}
  0
CIRCLE
  5
4A92E
330
4A68F
100
AcDbEntity
  8
CUTOUT
100
AcDbCircle
 10
29658.17406366886
 20
23734.25041396689
 30
0.0
 40
5.0
  0
CIRCLE
  5
4A92F
102
{ACAD_REACTORS
330
4A938
102
}
330
4A68F
100
AcDbEntity
  8
CUTOUT
100
AcDbCircle
 10
29878.17406366886
 20
23734.25041396689
 30
0.0
 40
5.0
  0
CIRCLE
  5
4A930
330
4A68F
100
AcDbEntity
  8
CUTOUT
100
AcDbCircle
 10
30033.17406366885
 20
23839.75041396688
 30
0.0
 40
5.0
  0
CIRCLE
  5
4A931
330
4A68F
100
AcDbEntity
  8
CUTOUT
100
AcDbCircle
 10
30033.17406366885
 20
24159.75041396688
 30
0.0
 40
5.0
  0
CIRCLE
  5
4A932
330
4A68F
100
AcDbEntity
  8
CUTOUT
100
AcDbCircle
 10
29503.17406366885
 20
23839.75041396688
 30
0.0
 40
5.0
  0
CIRCLE
  5
4A933
330
4A68F
100
AcDbEntity
  8
CUTOUT
100
AcDbCircle
 10
29503.17406366885
 20
24159.75041396688
 30
0.0
 40
5.0
  0
CIRCLE
  5
4A934
330
4A68F
100
AcDbEntity
  8
CUTOUT
100
AcDbCircle
 10
29658.17406366903
 20
24255.25041396689
 30
0.0
 40
5.0
  0
CIRCLE
  5
4A935
102
{ACAD_REACTORS
330
4A93F
102
}
330
4A68F
100
AcDbEntity
  8
CUTOUT
100
AcDbCircle
 10
29878.17406366903
 20
24255.25041396689
 30
0.0
 40
5.0
  0
DIMENSION
  5
4A936
102
{ACAD_XDICTIONARY
360
4A937
102
}
102
{ACAD_REACTORS
330
4A938
102
}
330
4A68F
100
AcDbEntity
  8
DIMS SPECS
100
AcDbDimension
  2
*D50
 10
29873.40589303574
 20
23735.75525575744
 30
0.0
 11
30117.94260496958
 21
23689.51594011853
 31
0.0
 70
   163
  1
<> (granite)/\P8mm (wood)
 71
     5
 42
10.00000000012005
  3
abode-iso$3
100
AcDbDiametricDimension
 15
29882.94223430186
 25
23732.74557217635
 35
0.0
 40
0.0
1001
ACAD_DSTYLE_DIMRADIAL_EXTENSION
1070
   387
1070
     1
1070
   388
1040
0.0
1070
   390
1040
0.0
1001
ACAD
1000
DSTYLE
1002
{
1070
   174
1070
     1
1002
}
1001
ACAD_DSTYLE_DIMINSPECT
1070
   396
1000
100%
1070
   395
1000

1070
   394
1070
    33
1070
   393
1070
     0
  0
DIMENSION
  5
4A939
330
4A68F
100
AcDbEntity
  8
DIMS SPECS
100
AcDbDimension
  2
*D38
 10
29997.17406366886
 20
23798.64618665071
 30
0.0
 11
30078.42406366886
 21
23798.64618665071
 31
0.0
 70
   160
 71
     5
 42
36.0
  3
abode-iso$0
100
AcDbAlignedDimension
 13
30033.17406366885
 23
23824.03117664754
 33
0.0
 14
29997.17406366886
 24
23810.25041396688
 34
0.0
100
AcDbRotatedDimension
1001
ACAD_DSTYLE_DIMINSPECT
1070
   396
1000
100%
1070
   395
1000

1070
   394
1070
    33
1070
   393
1070
     0
1001
ACAD
1000
DSTYLE
1002
{
1070
   174
1070
     1
1002
}
  0
DIMENSION
  5
4A93A
330
4A68F
100
AcDbEntity
  8
DIMS SPECS
100
AcDbDimension
  2
*D39
 10
30077.04647627122
 20
24159.75041396688
 30
0.0
 11
30077.04647627121
 21
23999.75041396689
 31
0.0
 70
    32
 71
     5
 42
320.0
  3
abode-iso$0
100
AcDbAlignedDimension
 13
30048.8933009882
 23
23839.75041396688
 33
0.0
 14
30048.8933009882
 24
24159.75041396688
 34
0.0
 50
90.0
100
AcDbRotatedDimension
1001
ACAD_DSTYLE_DIMINSPECT
1070
   396
1000
100%
1070
   395
1000

1070
   394
1070
    33
1070
   393
1070
     0
1001
ACAD
1000
DSTYLE
1002
{
1070
   174
1070
     1
1002
}
  0
DIMENSION
  5
4A93B
330
4A68F
100
AcDbEntity
  8
DIMS SPECS
100
AcDbDimension
  2
*D40
 10
29602.91587515334
 20
24229.25041396688
 30
0.0
 11
29623.16587515333
 21
24280.25041396692
 31
0.0
 70
   160
 71
     5
 42
26.0
  3
abode-iso$0
100
AcDbAlignedDimension
 13
29642.45482634969
 23
24255.25041396689
 33
0.0
 14
29649.17406366923
 24
24229.25041396688
 34
0.0
 50
90.0
100
AcDbRotatedDimension
1001
ACAD_DSTYLE_DIMINSPECT
1070
   396
1000
100%
1070
   395
1000

1070
   394
1070
    33
1070
   393
1070
     0
1001
ACAD
1000
DSTYLE
1002
{
1070
   174
1070
     1
1002
}
  0
DIMENSION
  5
4A93C
330
4A68F
100
AcDbEntity
  8
DIMS SPECS
100
AcDbDimension
  2
*D41
 10
29878.17406366886
 20
23695.2022388203
 30
0.0
 11
29768.17406366885
 21
23711.2022388203
 31
0.0
 70
    32
 71
     5
 42
220.0
  3
abode-iso$0
100
AcDbAlignedDimension
 13
29658.17406366886
 23
23718.53117664755
 33
0.0
 14
29878.17406366886
 24
23718.53117664755
 34
0.0
100
AcDbRotatedDimension
1001
ACAD_DSTYLE_DIMINSPECT
1070
   396
1000
100%
1070
   395
1000

1070
   394
1070
    33
1070
   393
1070
     0
1001
ACAD
1000
DSTYLE
1002
{
1070
   174
1070
     1
1002
}
  0
DIMENSION
  5
4A93D
102
{ACAD_XDICTIONARY
360
4A93E
102
}
102
{ACAD_REACTORS
330
4A93F
102
}
330
4A68F
100
AcDbEntity
  8
DIMS SPECS
100
AcDbDimension
  2
*D51
 10
29878.17406366903
 20
24289.15542073646
 30
0.0
 11
29768.17406366903
 21
24305.15542073647
 31
0.0
 70
    32
 71
     5
 42
220.0
  3
abode-iso$0
100
AcDbAlignedDimension
 13
29658.17406366903
 23
24255.25041396689
 33
0.0
 14
29878.17406366903
 24
24255.25041396689
 34
0.0
100
AcDbRotatedDimension
1001
ACAD_DSTYLE_DIMINSPECT
1070
   396
1000
100%
1070
   395
1000

1070
   394
1070
    33
1070
   393
1070
     0
1001
ACAD
1000
DSTYLE
1002
{
1070
   174
1070
     1
1002
}
  0
DIMENSION
  5
4A940
330
4A68F
100
AcDbEntity
  8
DIMS SPECS
100
AcDbDimension
  2
*D42
 10
29475.62296250879
 20
24159.75041396688
 30
0.0
 11
29475.62296250879
 21
23999.75041396689
 31
0.0
 70
    32
 71
     5
 42
320.0
  3
abode-iso$0
100
AcDbAlignedDimension
 13
29487.45482634952
 23
23839.75041396688
 33
0.0
 14
29487.45482634952
 24
24159.75041396688
 34
0.0
 50
90.0
100
AcDbRotatedDimension
1001
ACAD_DSTYLE_DIMINSPECT
1070
   396
1000
100%
1070
   395
1000

1070
   394
1070
    33
1070
   393
1070
     0
1001
ACAD
1000
DSTYLE
1002
{
1070
   174
1070
     1
1002
}
  0
DIMENSION
  5
4A941
330
4A68F
100
AcDbEntity
  8
DIMS SPECS
100
AcDbDimension
  2
*D43
 10
29539.17406366885
 20
23804.12679601152
 30
0.0
 11
29521.17406366886
 21
23820.12679601152
 31
0.0
 70
    32
 71
     5
 42
36.0
  3
abode-iso$0
100
AcDbAlignedDimension
 13
29503.17406366885
 23
23824.03117664754
 33
0.0
 14
29539.17406366885
 24
23810.25041396692
 34
0.0
100
AcDbRotatedDimension
1001
ACAD_DSTYLE_DIMINSPECT
1070
   396
1000
100%
1070
   395
1000

1070
   394
1070
    33
1070
   393
1070
     0
1001
ACAD
1000
DSTYLE
1002
{
1070
   174
1070
     1
1002
}
  0
LINE
  5
4A942
330
4A68F
100
AcDbEntity
  8
CUTOUT
100
AcDbLine
 10
29503.17406366885
 20
23855.46965128622
 30
0.0
 11
29503.17406366885
 21
23824.03117664754
 31
0.0
  0
LINE
  5
4A943
330
4A68F
100
AcDbEntity
  8
CUTOUT
100
AcDbLine
 10
29487.45482634952
 20
23839.75041396688
 30
0.0
 11
29518.8933009882
 21
23839.75041396688
 31
0.0
  0
LINE
  5
4A944
102
{ACAD_REACTORS
330
4A954
102
}
330
4A68F
100
AcDbEntity
  8
CUTOUT
100
AcDbLine
 10
29658.17406366886
 20
23749.96965128623
 30
0.0
 11
29658.17406366886
 21
23718.53117664755
 31
0.0
  0
LINE
  5
4A945
102
{ACAD_REACTORS
330
4A960
102
}
330
4A68F
100
AcDbEntity
  8
CUTOUT
100
AcDbLine
 10
29642.45482634952
 20
23734.25041396689
 30
0.0
 11
29673.8933009882
 21
23734.25041396689
 31
0.0
  0
LINE
  5
4A946
102
{ACAD_REACTORS
330
4A957
102
}
330
4A68F
100
AcDbEntity
  8
CUTOUT
100
AcDbLine
 10
29878.17406366886
 20
23749.96965128623
 30
0.0
 11
29878.17406366886
 21
23718.53117664755
 31
0.0
  0
LINE
  5
4A947
330
4A68F
100
AcDbEntity
  8
CUTOUT
100
AcDbLine
 10
29862.45482634952
 20
23734.25041396689
 30
0.0
 11
29893.89330098819
 21
23734.25041396689
 31
0.0
  0
LINE
  5
4A948
330
4A68F
100
AcDbEntity
  8
CUTOUT
100
AcDbLine
 10
30033.17406366885
 20
23855.46965128622
 30
0.0
 11
30033.17406366885
 21
23824.03117664754
 31
0.0
  0
LINE
  5
4A949
102
{ACAD_REACTORS
330
4A95A
102
}
330
4A68F
100
AcDbEntity
  8
CUTOUT
100
AcDbLine
 10
30017.45482634952
 20
23839.75041396688
 30
0.0
 11
30048.8933009882
 21
23839.75041396688
 31
0.0
  0
LINE
  5
4A94A
330
4A68F
100
AcDbEntity
  8
CUTOUT
100
AcDbLine
 10
30033.17406366885
 20
24175.46965128622
 30
0.0
 11
30033.17406366885
 21
24144.03117664754
 31
0.0
  0
LINE
  5
4A94B
102
{ACAD_REACTORS
330
4A95D
102
}
330
4A68F
100
AcDbEntity
  8
CUTOUT
100
AcDbLine
 10
30017.45482634952
 20
24159.75041396688
 30
0.0
 11
30048.8933009882
 21
24159.75041396688
 31
0.0
  0
LINE
  5
4A94C
330
4A68F
100
AcDbEntity
  8
CUTOUT
100
AcDbLine
 10
29878.17406366903
 20
24270.96965128622
 30
0.0
 11
29878.17406366903
 21
24239.53117664755
 31
0.0
  0
LINE
  5
4A94D
330
4A68F
100
AcDbEntity
  8
CUTOUT
100
AcDbLine
 10
29862.45482634969
 20
24255.25041396689
 30
0.0
 11
29893.89330098837
 21
24255.25041396689
 31
0.0
  0
LINE
  5
4A94E
330
4A68F
100
AcDbEntity
  8
CUTOUT
100
AcDbLine
 10
29658.17406366903
 20
24270.96965128622
 30
0.0
 11
29658.17406366903
 21
24239.53117664755
 31
0.0
  0
LINE
  5
4A94F
330
4A68F
100
AcDbEntity
  8
CUTOUT
100
AcDbLine
 10
29642.45482634969
 20
24255.25041396689
 30
0.0
 11
29673.89330098837
 21
24255.25041396689
 31
0.0
  0
LINE
  5
4A950
330
4A68F
100
AcDbEntity
  8
CUTOUT
100
AcDbLine
 10
29503.17406366885
 20
24175.46965128622
 30
0.0
 11
29503.17406366885
 21
24144.03117664754
 31
0.0
  0
LINE
  5
4A951
330
4A68F
100
AcDbEntity
  8
CUTOUT
100
AcDbLine
 10
29487.45482634952
 20
24159.75041396688
 30
0.0
 11
29518.8933009882
 21
24159.75041396688
 31
0.0
  0
DIMENSION
  5
4A952
102
{ACAD_XDICTIONARY
360
4A953
102
}
102
{ACAD_REACTORS
330
4A954
102
}
330
4A68F
100
AcDbEntity
  8
DIMS SPECS
100
AcDbDimension
  2
*D52
 10
29658.17406366886
 20
23695.2022388203
 30
0.0
 11
29598.67406366885
 21
23711.2022388203
 31
0.0
 70
    32
 71
     5
 42
119.0
  3
abode-iso$0
100
AcDbAlignedDimension
 13
29539.17406366885
 23
23810.25041396692
 33
0.0
 14
29658.17406366886
 24
23718.53117664755
 34
0.0
100
AcDbRotatedDimension
1001
ACAD_DSTYLE_DIMINSPECT
1070
   396
1000
100%
1070
   395
1000

1070
   394
1070
    33
1070
   393
1070
     0
1001
ACAD
1000
DSTYLE
1002
{
1070
   174
1070
     1
1070
   271
1070
     1
1002
}
  0
DIMENSION
  5
4A955
102
{ACAD_XDICTIONARY
360
4A956
102
}
102
{ACAD_REACTORS
330
4A957
102
}
330
4A68F
100
AcDbEntity
  8
DIMS SPECS
100
AcDbDimension
  2
*D53
 10
29997.17406366886
 20
23675.55613657271
 30
0.0
 11
29937.67406366885
 21
23675.55613657271
 31
0.0
 70
   160
 71
     5
 42
119.0
  3
abode-iso$0
100
AcDbAlignedDimension
 13
29878.17406366886
 23
23718.53117664755
 33
0.0
 14
29997.17406366886
 24
23810.25041396688
 34
0.0
100
AcDbRotatedDimension
1001
ACAD_DSTYLE_DIMINSPECT
1070
   396
1000
100%
1070
   395
1000

1070
   394
1070
    33
1070
   393
1070
     0
1001
ACAD
1000
DSTYLE
1002
{
1070
   174
1070
     1
1070
   271
1070
     1
1002
}
  0
DIMENSION
  5
4A958
102
{ACAD_XDICTIONARY
360
4A959
102
}
102
{ACAD_REACTORS
330
4A95A
102
}
330
4A68F
100
AcDbEntity
  8
DIMS SPECS
100
AcDbDimension
  2
*D54
 10
30122.33577348963
 20
23839.75041396688
 30
0.0
 11
30122.33577348962
 21
23805.00041396691
 31
0.0
 70
   160
 71
     5
 42
69.49999999999636
  3
abode-iso$0
100
AcDbAlignedDimension
 13
29957.17406366886
 23
23770.25041396688
 33
0.0
 14
30048.8933009882
 24
23839.75041396688
 34
0.0
 50
90.0
100
AcDbRotatedDimension
1001
ACAD_DSTYLE_DIMINSPECT
1070
   396
1000
100%
1070
   395
1000

1070
   394
1070
    33
1070
   393
1070
     0
1001
ACAD
1000
DSTYLE
1002
{
1070
   174
1070
     1
1070
   271
1070
     1
1002
}
  0
DIMENSION
  5
4A95B
102
{ACAD_XDICTIONARY
360
4A95C
102
}
102
{ACAD_REACTORS
330
4A95D
102
}
330
4A68F
100
AcDbEntity
  8
DIMS SPECS
100
AcDbDimension
  2
*D55
 10
30106.20164334874
 20
24159.75041396688
 30
0.0
 11
30106.20164334874
 21
24194.50041396689
 31
0.0
 70
    32
 71
     5
 42
69.50000000000364
  3
abode-iso$0
100
AcDbAlignedDimension
 13
29957.17406366886
 23
24229.25041396688
 33
0.0
 14
30048.8933009882
 24
24159.75041396688
 34
0.0
 50
90.0
100
AcDbRotatedDimension
1001
ACAD_DSTYLE_DIMINSPECT
1070
   396
1000
100%
1070
   395
1000

1070
   394
1070
    33
1070
   393
1070
     0
1001
ACAD
1000
DSTYLE
1002
{
1070
   174
1070
     1
1070
   271
1070
     1
1002
}
  0
DIMENSION
  5
4A95E
102
{ACAD_XDICTIONARY
360
4A95F
102
}
102
{ACAD_REACTORS
330
4A960
102
}
330
4A68F
100
AcDbEntity
  8
DIMS SPECS
100
AcDbDimension
  2
*D56
 10
29501.8064951505
 20
23734.25041396689
 30
0.0
 11
29501.8064951505
 21
23752.25041396689
 31
0.0
 70
    32
 71
     5
 42
36.0
  3
abode-iso$0
100
AcDbAlignedDimension
 13
29579.17406366886
 23
23770.25041396688
 33
0.0
 14
29642.45482634952
 24
23734.25041396689
 34
0.0
 50
90.0
100
AcDbRotatedDimension
1001
ACAD_DSTYLE_DIMINSPECT
1070
   396
1000
100%
1070
   395
1000

1070
   394
1070
    33
1070
   393
1070
     0
1001
ACAD
1000
DSTYLE
1002
{
1070
   174
1070
     1
1002
}
  0
ENDSEC
  0
SECTION
  2
OBJECTS
  0
DICTIONARY
  5
4A627
330
0
100
AcDbDictionary
281
     1
  3
ACAD_COLOR
350
4A685
  3
ACAD_GROUP
350
4A628
  3
ACAD_LAYOUT
350
4A684
  3
ACAD_MATERIAL
350
4A62B
  3
ACAD_MLEADERSTYLE
350
4A688
  3
ACAD_MLINESTYLE
350
4A681
  3
ACAD_PLOTSETTINGS
350
4A683
  3
ACAD_PLOTSTYLENAME
350
4A629
  3
ACAD_SCALELIST
350
4A655
  3
ACAD_TABLESTYLE
350
4A686
  3
ACAD_VISUALSTYLE
350
4A644
  3
ACDB_RECOMPOSE_DATA
350
4AAE9
  3
AcDbVariableDictionary
350
4AADA
  3
AcmDictionary
350
4A723
  3
AMG
350
4A6CD
  3
AMGSNAPSETTINGS
350
4A8F9
  3
DWGPROPS
350
4AAEA
  0
DICTIONARY
  5
4A876
330
4A61D
100
AcDbDictionary
280
     1
281
     1
  3
ACAD_LAYERSTATES
360
4A877
  0
DICTIONARY
  5
4AACC
330
4A677
100
AcDbDictionary
280
     1
281
     1
  3
ADSK_XREC_LAYER_RECONCILED
360
4AACD
  0
DICTIONARY
  5
4AACE
330
4A695
100
AcDbDictionary
280
     1
281
     1
  3
ADSK_XREC_LAYER_RECONCILED
360
4AACF
  0
DICTIONARY
  5
4AAD0
330
4A697
100
AcDbDictionary
280
     1
281
     1
  3
ADSK_XREC_LAYER_RECONCILED
360
4AAD1
  0
DICTIONARY
  5
4AAD2
330
4A698
100
AcDbDictionary
280
     1
281
     1
  3
ADSK_XREC_LAYER_RECONCILED
360
4AAD3
  0
DICTIONARY
  5
4AAD4
330
4A866
100
AcDbDictionary
280
     1
281
     1
  3
ADSK_XREC_LAYER_RECONCILED
360
4AAD5
  0
DICTIONARY
  5
4AAD6
330
4A867
100
AcDbDictionary
280
     1
281
     1
  3
ADSK_XREC_LAYER_RECONCILED
360
4AAD7
  0
DICTIONARY
  5
4AAD8
330
4A868
100
AcDbDictionary
280
     1
281
     1
  3
ADSK_XREC_LAYER_RECONCILED
360
4AAD9
  0
DICTIONARY
  5
4AAF7
330
4A7BB
100
AcDbDictionary
280
     1
281
     1
  3
ACAD_MTEXT_RT
360
4AAF8
  0
DICTIONARY
  5
4AB03
330
4AAC2
100
AcDbDictionary
280
     1
281
     1
  3
ACAD_MTEXT_RT
360
4AB04
  0
DICTIONARY
  5
4AAE3
330
4A901
100
AcDbDictionary
280
     1
281
     1
  3
ACAD_MTEXT_2008_RT
360
4AAE4
  3
ACAD_MTEXT_RT
360
4AB00
  0
DICTIONARY
  5
4AAE5
330
4A905
100
AcDbDictionary
280
     1
281
     1
  3
ACAD_MTEXT_2008_RT
360
4AAE6
  3
ACAD_MTEXT_RT
360
4AB01
  0
DICTIONARY
  5
4AAE7
330
4A906
100
AcDbDictionary
280
     1
281
     1
  3
ACAD_MTEXT_2008_RT
360
4AAE8
  3
ACAD_MTEXT_RT
360
4AB02
  0
DICTIONARY
  5
4A914
330
4A913
100
AcDbDictionary
280
     1
281
     1
  3
ACAD_DIMASSOC
360
4A915
  0
DICTIONARY
  5
4A917
330
4A916
100
AcDbDictionary
280
     1
281
     1
  3
ACAD_DIMASSOC
360
4A918
  0
DICTIONARY
  5
4A91A
330
4A919
100
AcDbDictionary
280
     1
281
     1
  3
ACAD_DIMASSOC
360
4A91B
  0
DICTIONARY
  5
4A926
330
4A925
100
AcDbDictionary
280
     1
281
     1
  3
ACAD_DIMASSOC
360
4A927
  0
DICTIONARY
  5
4A929
330
4A928
100
AcDbDictionary
280
     1
281
     1
  3
ACAD_DIMASSOC
360
4A92A
  0
DICTIONARY
  5
4A92C
330
4A92B
100
AcDbDictionary
280
     1
281
     1
  3
ACAD_DIMASSOC
360
4A92D
  0
DICTIONARY
  5
4A937
330
4A936
100
AcDbDictionary
280
     1
281
     1
  3
ACAD_DIMASSOC
360
4A938
  0
DICTIONARY
  5
4A93E
330
4A93D
100
AcDbDictionary
280
     1
281
     1
  3
ACAD_DIMASSOC
360
4A93F
  0
DICTIONARY
  5
4A953
330
4A952
100
AcDbDictionary
280
     1
281
     1
  3
ACAD_DIMASSOC
360
4A954
  0
DICTIONARY
  5
4A956
330
4A955
100
AcDbDictionary
280
     1
281
     1
  3
ACAD_DIMASSOC
360
4A957
  0
DICTIONARY
  5
4A959
330
4A958
100
AcDbDictionary
280
     1
281
     1
  3
ACAD_DIMASSOC
360
4A95A
  0
DICTIONARY
  5
4A95C
330
4A95B
100
AcDbDictionary
280
     1
281
     1
  3
ACAD_DIMASSOC
360
4A95D
  0
DICTIONARY
  5
4A95F
330
4A95E
100
AcDbDictionary
280
     1
281
     1
  3
ACAD_DIMASSOC
360
4A960
  0
DICTIONARY
  5
4A685
102
{ACAD_REACTORS
330
4A627
102
}
330
4A627
100
AcDbDictionary
281
     1
  0
DICTIONARY
  5
4A628
102
{ACAD_REACTORS
330
4A627
102
}
330
4A627
100
AcDbDictionary
281
     1
  0
DICTIONARY
  5
4A684
102
{ACAD_REACTORS
330
4A627
102
}
330
4A627
100
AcDbDictionary
281
     1
  3
Layout1
350
4A68E
  3
Model
350
4A692
  0
DICTIONARY
  5
4A62B
102
{ACAD_REACTORS
330
4A627
102
}
330
4A627
100
AcDbDictionary
281
     1
  3
ByBlock
350
4A634
  3
ByLayer
350
4A62C
  3
Global
350
4A63C
  0
DICTIONARY
  5
4A688
102
{ACAD_REACTORS
330
4A627
102
}
330
4A627
100
AcDbDictionary
281
     1
  3
Standard
350
4A689
  0
DICTIONARY
  5
4A681
102
{ACAD_REACTORS
330
4A627
102
}
330
4A627
100
AcDbDictionary
281
     1
  3
Standard
350
4A682
  0
DICTIONARY
  5
4A683
102
{ACAD_REACTORS
330
4A627
102
}
330
4A627
100
AcDbDictionary
281
     1
  0
ACDBDICTIONARYWDFLT
  5
4A629
102
{ACAD_REACTORS
330
4A627
102
}
330
4A627
100
AcDbDictionary
281
     1
  3
Normal
350
4A62A
100
AcDbDictionaryWithDefault
340
4A62A
  0
DICTIONARY
  5
4A655
102
{ACAD_REACTORS
330
4A627
102
}
330
4A627
100
AcDbDictionary
281
     1
  3
A0
350
4A656
  3
A1
350
4A657
  3
A2
350
4A658
  3
A3
350
4A659
  3
A4
350
4A65A
  3
A5
350
4A65B
  3
A6
350
4A65C
  3
A7
350
4A65D
  3
A8
350
4A65E
  3
A9
350
4A65F
  3
B0
350
4A660
  3
B1
350
4A661
  3
B2
350
4A662
  3
B3
350
4A663
  3
B4
350
4A664
  3
B5
350
4A665
  3
B6
350
4A666
  3
B7
350
4A667
  3
B8
350
4A668
  3
B9
350
4A669
  3
C0
350
4A66A
  3
C1
350
4A66B
  3
C2
350
4A66C
  3
C3
350
4A66D
  3
C4
350
4A66E
  3
C5
350
4A66F
  3
C6
350
4A670
  3
C7
350
4A671
  3
C8
350
4A672
  3
C9
350
4A673
  3
D0
350
4A674
  3
D1
350
4A675
  3
D2
350
4A676
  0
DICTIONARY
  5
4A686
102
{ACAD_REACTORS
330
4A627
102
}
330
4A627
100
AcDbDictionary
281
     1
  3
Standard
350
4A687
  0
DICTIONARY
  5
4A644
102
{ACAD_REACTORS
330
4A627
102
}
330
4A627
100
AcDbDictionary
281
     1
  3
2dWireframe
350
4A64A
  3
3D Hidden
350
4A64C
  3
3dWireframe
350
4A64B
  3
Basic
350
4A649
  3
Brighten
350
4A650
  3
ColorChange
350
4A654
  3
Conceptual
350
4A64D
  3
Dim
350
4A64F
  3
Facepattern
350
4A653
  3
Flat
350
4A645
  3
FlatWithEdges
350
4A646
  3
Gouraud
350
4A647
  3
GouraudWithEdges
350
4A648
  3
Linepattern
350
4A652
  3
Realistic
350
4A64E
  3
Thicken
350
4A651
  0
XRECORD
  5
4AAE9
102
{ACAD_REACTORS
330
4A627
102
}
330
4A627
100
AcDbXrecord
280
     1
 90
        1
330
4A687
330
4A901
330
4A905
330
4A906
  0
DICTIONARY
  5
4AADA
102
{ACAD_REACTORS
330
4A627
102
}
330
4A627
100
AcDbDictionary
281
     1
  3
CANNOSCALE
350
4AADD
  3
CMLEADERSTYLE
350
4AADC
  3
CTABLESTYLE
350
4AADB
  3
DIMASSOC
350
4AAE0
  3
INDEXCTL
350
4AADF
  3
SORTENTS
350
4AADE
  0
DICTIONARY
  5
4A723
102
{ACAD_REACTORS
330
4A627
102
}
330
4A627
100
AcDbDictionary
281
     1
  3
AcmStdDictionary
350
4A72E
  0
DICTIONARY
  5
4A6CD
102
{ACAD_REACTORS
330
4A627
102
}
330
4A627
100
AcDbDictionary
281
     1
  0
DICTIONARY
  5
4A8F9
102
{ACAD_REACTORS
330
4A627
102
}
330
4A627
100
AcDbDictionary
281
     1
  0
XRECORD
  5
4AAEA
102
{ACAD_REACTORS
330
4A627
102
}
330
4A627
100
AcDbXrecord
280
     1
  1
DWGPROPS COOKIE
  2

  3

  4

  6

  7

  8
paul
  9

300
=
301
=
302
=
303
=
304
=
305
=
306
=
307
=
308
=
309
=
 40
0.0347258449074074
 41
2455251.642918206
 42
2455999.492821609
  1

 90
        0
  0
DICTIONARY
  5
4A877
102
{ACAD_REACTORS
330
4A876
102
}
330
4A876
100
AcDbDictionary
281
     1
  0
XRECORD
  5
4AACD
102
{ACAD_REACTORS
330
4AACC
102
}
330
4AACC
100
AcDbXrecord
280
     1
290
     1
  0
XRECORD
  5
4AACF
102
{ACAD_REACTORS
330
4AACE
102
}
330
4AACE
100
AcDbXrecord
280
     1
290
     1
  0
XRECORD
  5
4AAD1
102
{ACAD_REACTORS
330
4AAD0
102
}
330
4AAD0
100
AcDbXrecord
280
     1
290
     1
  0
XRECORD
  5
4AAD3
102
{ACAD_REACTORS
330
4AAD2
102
}
330
4AAD2
100
AcDbXrecord
280
     1
290
     1
  0
XRECORD
  5
4AAD5
102
{ACAD_REACTORS
330
4AAD4
102
}
330
4AAD4
100
AcDbXrecord
280
     1
290
     1
  0
XRECORD
  5
4AAD7
102
{ACAD_REACTORS
330
4AAD6
102
}
330
4AAD6
100
AcDbXrecord
280
     1
290
     1
  0
XRECORD
  5
4AAD9
102
{ACAD_REACTORS
330
4AAD8
102
}
330
4AAD8
100
AcDbXrecord
280
     1
290
     1
  0
XRECORD
  5
4AAF8
102
{ACAD_REACTORS
330
4AAF7
102
}
330
4AAF7
100
AcDbXrecord
280
     1
 40
52826.0
  1
\A1;\U+220510 (granite)/\P8mm (wood)
  0
XRECORD
  5
4AB04
102
{ACAD_REACTORS
330
4AB03
102
}
330
4AB03
100
AcDbXrecord
280
     1
 40
52826.0
  1
\A1;\U+220510 (granite)/\P8mm (wood)
  0
XRECORD
  5
4AAE4
102
{ACAD_REACTORS
330
4AAE3
102
}
330
4AAE3
100
AcDbXrecord
280
     1
 40
29091.0
  1
\pxqc;UNDERMOUNT CUT OUT
  0
XRECORD
  5
4AB00
102
{ACAD_REACTORS
330
4AAE3
102
}
330
4AAE3
100
AcDbXrecord
280
     1
 40
37744.0
  1
\pi15.738;UNDERMOUNT CUT OUT
  0
XRECORD
  5
4AAE6
102
{ACAD_REACTORS
330
4AAE5
102
}
330
4AAE5
100
AcDbXrecord
280
     1
 40
19139.0
  1
\pxqc;INSET CUT OUT
  0
XRECORD
  5
4AB01
102
{ACAD_REACTORS
330
4AAE5
102
}
330
4AAE5
100
AcDbXrecord
280
     1
 40
24470.0
  1
\pi107.74;INSET CUT OUT
  0
XRECORD
  5
4AAE8
102
{ACAD_REACTORS
330
4AAE7
102
}
330
4AAE7
100
AcDbXrecord
280
     1
 40
125417.0
  1
\pxqc;BOWL(S), \POVERFLOW,\PTAP AREA
  0
XRECORD
  5
4AB02
102
{ACAD_REACTORS
330
4AAE7
102
}
330
4AAE7
100
AcDbXrecord
280
     1
 40
340168.0
  1
\pi178.74;BOWL(S), \P\pi148.74;OVERFLOW,\P\pi161.74;TAP AREA
  0
DIMASSOC
  5
4A915
102
{ACAD_REACTORS
330
4A914
102
}
330
4A914
100
AcDbDimAssoc
330
4A913
 90
        3
 70
     0
 71
     0
  1
AcDbOsnapPointRef
 72
     1
331
4A910
 73
     0
 91
        0
 40
0.0
 10
0.0
 20
0.0
 30
2.000000000000000E+50
 75
     0
  1
AcDbOsnapPointRef
 72
    13
331
4A90C
 73
     0
 91
        0
 40
0.0
 10
0.0
 20
0.0
 30
2.000000000000000E+50
 75
     0
  0
DIMASSOC
  5
4A918
102
{ACAD_REACTORS
330
4A917
102
}
330
4A917
100
AcDbDimAssoc
330
4A916
 90
        3
 70
     0
 71
     0
  1
AcDbOsnapPointRef
 72
     6
331
4A90D
 73
     0
 91
        0
 40
0.0
 10
0.0
 20
0.0
 30
0.0
332
4A90F
 74
     0
 92
        0
 75
     0
  1
AcDbOsnapPointRef
 72
     1
331
4A90C
 73
     0
 91
        0
 40
0.0
 10
0.0
 20
0.0
 30
2.000000000000000E+50
 75
     0
  0
DIMASSOC
  5
4A91B
102
{ACAD_REACTORS
330
4A91A
102
}
330
4A91A
100
AcDbDimAssoc
330
4A919
 90
        3
 70
     0
 71
     0
  1
AcDbOsnapPointRef
 72
     1
331
4A90F
 73
     0
 91
        0
 40
0.0
 10
0.0
 20
0.0
 30
2.000000000000000E+50
 75
     0
  1
AcDbOsnapPointRef
 72
    13
331
4A912
 73
     0
 91
        0
 40
0.0
 10
0.0
 20
0.0
 30
2.000000000000000E+50
 75
     0
  0
DIMASSOC
  5
4A927
102
{ACAD_REACTORS
330
4A926
102
}
330
4A926
100
AcDbDimAssoc
330
4A925
 90
        2
 70
     0
 71
     0
  1
AcDbOsnapPointRef
 72
     3
331
4A924
 73
     2
 91
        0
 40
0.0
 10
0.0
 20
0.0
 30
0.0
 75
     0
  0
DIMASSOC
  5
4A92A
102
{ACAD_REACTORS
330
4A929
102
}
330
4A929
100
AcDbDimAssoc
330
4A928
 90
        3
 70
     0
 71
     0
  1
AcDbOsnapPointRef
 72
     6
331
4A921
 73
     0
 91
        0
 40
0.0
 10
0.0
 20
0.0
 30
0.0
332
4A922
 74
     0
 92
        0
 75
     0
  1
AcDbOsnapPointRef
 72
     1
331
4A920
 73
     0
 91
        0
 40
0.0
 10
0.0
 20
0.0
 30
2.000000000000000E+50
 75
     0
  0
DIMASSOC
  5
4A92D
102
{ACAD_REACTORS
330
4A92C
102
}
330
4A92C
100
AcDbDimAssoc
330
4A92B
 90
        3
 70
     0
 71
     0
  1
AcDbOsnapPointRef
 72
    13
331
4A920
 73
     0
 91
        0
 40
0.0
 10
0.0
 20
0.0
 30
2.000000000000000E+50
 75
     0
  1
AcDbOsnapPointRef
 72
     1
331
4A923
 73
     0
 91
        0
 40
0.0
 10
0.0
 20
0.0
 30
2.000000000000000E+50
 75
     0
  0
DIMASSOC
  5
4A938
102
{ACAD_REACTORS
330
4A937
102
}
330
4A937
100
AcDbDimAssoc
330
4A936
 90
        2
 70
     0
 71
     0
  1
AcDbOsnapPointRef
 72
     3
331
4A92F
 73
     2
 91
        0
 40
0.0
 10
0.0
 20
0.0
 30
0.0
 75
     0
  0
DIMASSOC
  5
4A93F
102
{ACAD_REACTORS
330
4A93E
102
}
330
4A93E
100
AcDbDimAssoc
330
4A93D
 90
        2
 70
     0
 71
     0
  1
AcDbOsnapPointRef
 72
     3
331
4A935
 73
     0
 91
        0
 40
0.0
 10
0.0
 20
0.0
 30
0.0
 75
     0
  0
DIMASSOC
  5
4A954
102
{ACAD_REACTORS
330
4A953
102
}
330
4A953
100
AcDbDimAssoc
330
4A952
 90
        3
 70
     0
 71
     0
  1
AcDbOsnapPointRef
 72
    13
331
4A90D
 73
     0
 91
        0
 40
0.0
 10
0.0
 20
0.0
 30
2.000000000000000E+50
 75
     0
  1
AcDbOsnapPointRef
 72
     1
331
4A944
 73
     0
 91
        0
 40
0.0
 10
0.0
 20
0.0
 30
2.000000000000000E+50
 75
     0
  0
DIMASSOC
  5
4A957
102
{ACAD_REACTORS
330
4A956
102
}
330
4A956
100
AcDbDimAssoc
330
4A955
 90
        3
 70
     0
 71
     0
  1
AcDbOsnapPointRef
 72
     1
331
4A946
 73
     0
 91
        0
 40
0.0
 10
0.0
 20
0.0
 30
2.000000000000000E+50
 75
     0
  1
AcDbOsnapPointRef
 72
     1
331
4A908
 73
     0
 91
        0
 40
0.0
 10
0.0
 20
0.0
 30
2.000000000000000E+50
 75
     0
  0
DIMASSOC
  5
4A95A
102
{ACAD_REACTORS
330
4A959
102
}
330
4A959
100
AcDbDimAssoc
330
4A958
 90
        3
 70
     0
 71
     0
  1
AcDbOsnapPointRef
 72
    13
331
4A90B
 73
     0
 91
        0
 40
0.0
 10
0.0
 20
0.0
 30
2.000000000000000E+50
 75
     0
  1
AcDbOsnapPointRef
 72
     1
331
4A949
 73
     0
 91
        0
 40
0.0
 10
0.0
 20
0.0
 30
2.000000000000000E+50
 75
     0
  0
DIMASSOC
  5
4A95D
102
{ACAD_REACTORS
330
4A95C
102
}
330
4A95C
100
AcDbDimAssoc
330
4A95B
 90
        3
 70
     0
 71
     0
  1
AcDbOsnapPointRef
 72
     6
331
4A90A
 73
     0
 91
        0
 40
1.570796326794896
 10
0.0
 20
0.0
 30
0.0
332
4A910
 74
     0
 92
        0
 75
     0
  1
AcDbOsnapPointRef
 72
     1
331
4A94B
 73
     0
 91
        0
 40
0.0
 10
0.0
 20
0.0
 30
2.000000000000000E+50
 75
     0
  0
DIMASSOC
  5
4A960
102
{ACAD_REACTORS
330
4A95F
102
}
330
4A95F
100
AcDbDimAssoc
330
4A95E
 90
        3
 70
     0
 71
     0
  1
AcDbOsnapPointRef
 72
     1
331
4A90B
 73
     0
 91
        0
 40
0.0
 10
0.0
 20
0.0
 30
2.000000000000000E+50
 75
     0
  1
AcDbOsnapPointRef
 72
    13
331
4A945
 73
     0
 91
        0
 40
0.0
 10
0.0
 20
0.0
 30
2.000000000000000E+50
 75
     0
  0
LAYOUT
  5
4A68E
102
{ACAD_XDICTIONARY
360
4AAEF
102
}
102
{ACAD_REACTORS
330
4A684
102
}
330
4A684
100
AcDbPlotSettings
  1

  2
\\abodeserver\upstairs
  4

  6

 40
0.0
 41
0.0
 42
0.0
 43
0.0
 44
0.0
 45
0.0
 46
0.0
 47
0.0
 48
0.0
 49
0.0
140
0.0
141
0.0
142
1.0
143
1.0
 70
   688
 72
     0
 73
     0
 74
     5
  7

 75
    16
147
1.0
148
0.0
149
0.0
100
AcDbLayout
  1
Layout1
 70
     1
 71
     1
 10
0.0
 20
0.0
 11
420.0
 21
297.0
 12
0.0
 22
0.0
 32
0.0
 14
1.000000000000000E+20
 24
1.000000000000000E+20
 34
1.000000000000000E+20
 15
-1.000000000000000E+20
 25
-1.000000000000000E+20
 35
-1.000000000000000E+20
146
0.0
 13
0.0
 23
0.0
 33
0.0
 16
1.0
 26
0.0
 36
0.0
 17
0.0
 27
1.0
 37
0.0
 76
     0
330
4A68B
  0
LAYOUT
  5
4A692
102
{ACAD_XDICTIONARY
360
4AAF1
102
}
102
{ACAD_REACTORS
330
4A684
102
}
330
4A684
100
AcDbPlotSettings
  1

  2
\\abodeserver\upstairs
  4

  6

 40
0.0
 41
0.0
 42
0.0
 43
0.0
 44
0.0
 45
0.0
 46
0.0
 47
0.0
 48
0.0
 49
0.0
140
0.0
141
0.0
142
1.0
143
1.0
 70
  1712
 72
     0
 73
     0
 74
     0
  7

 75
     0
147
1.0
148
0.0
149
0.0
100
AcDbLayout
  1
Model
 70
     1
 71
     0
 10
0.0
 20
0.0
 11
12.0
 21
9.0
 12
0.0
 22
0.0
 32
0.0
 14
0.0
 24
0.0
 34
0.0
 15
0.0
 25
0.0
 35
0.0
146
0.0
 13
0.0
 23
0.0
 33
0.0
 16
1.0
 26
0.0
 36
0.0
 17
0.0
 27
1.0
 37
0.0
 76
     0
330
4A68F
331
4A693
  0
MATERIAL
  5
4A634
102
{ACAD_XDICTIONARY
360
4A635
102
}
102
{ACAD_REACTORS
330
4A62B
102
}
330
4A62B
100
AcDbMaterial
  1
ByBlock
 72
     0
 43
0.0208333333333333
 43
0.0
 43
0.0
 43
0.0
 43
0.0
 43
0.0208333333333333
 43
0.0
 43
0.0
 43
0.0
 43
0.0
 43
1.0
 43
0.0
 43
0.0
 43
0.0
 43
0.0
 43
1.0
 77
     0
 47
0.0208333333333333
 47
0.0
 47
0.0
 47
0.0
 47
0.0
 47
0.0208333333333333
 47
0.0
 47
0.0
 47
0.0
 47
0.0
 47
1.0
 47
0.0
 47
0.0
 47
0.0
 47
0.0
 47
1.0
171
     0
 49
0.0208333333333333
 49
0.0
 49
0.0
 49
0.0
 49
0.0
 49
0.0208333333333333
 49
0.0
 49
0.0
 49
0.0
 49
0.0
 49
1.0
 49
0.0
 49
0.0
 49
0.0
 49
0.0
 49
1.0
175
     0
142
0.0208333333333333
142
0.0
142
0.0
142
0.0
142
0.0
142
0.0208333333333333
142
0.0
142
0.0
142
0.0
142
0.0
142
1.0
142
0.0
142
0.0
142
0.0
142
0.0
142
1.0
179
     0
144
0.0208333333333333
144
0.0
144
0.0
144
0.0
144
0.0
144
0.0208333333333333
144
0.0
144
0.0
144
0.0
144
0.0
144
1.0
144
0.0
144
0.0
144
0.0
144
0.0
144
1.0
147
0.0208333333333333
147
0.0
147
0.0
147
0.0
147
0.0
147
0.0208333333333333
147
0.0
147
0.0
147
0.0
147
0.0
147
1.0
147
0.0
147
0.0
147
0.0
147
0.0
147
1.0
  0
MATERIAL
  5
4A62C
102
{ACAD_XDICTIONARY
360
4A62D
102
}
102
{ACAD_REACTORS
330
4A62B
102
}
330
4A62B
100
AcDbMaterial
  1
ByLayer
 72
     0
 43
0.0208333333333333
 43
0.0
 43
0.0
 43
0.0
 43
0.0
 43
0.0208333333333333
 43
0.0
 43
0.0
 43
0.0
 43
0.0
 43
1.0
 43
0.0
 43
0.0
 43
0.0
 43
0.0
 43
1.0
 77
     0
 47
0.0208333333333333
 47
0.0
 47
0.0
 47
0.0
 47
0.0
 47
0.0208333333333333
 47
0.0
 47
0.0
 47
0.0
 47
0.0
 47
1.0
 47
0.0
 47
0.0
 47
0.0
 47
0.0
 47
1.0
171
     0
 49
0.0208333333333333
 49
0.0
 49
0.0
 49
0.0
 49
0.0
 49
0.0208333333333333
 49
0.0
 49
0.0
 49
0.0
 49
0.0
 49
1.0
 49
0.0
 49
0.0
 49
0.0
 49
0.0
 49
1.0
175
     0
142
0.0208333333333333
142
0.0
142
0.0
142
0.0
142
0.0
142
0.0208333333333333
142
0.0
142
0.0
142
0.0
142
0.0
142
1.0
142
0.0
142
0.0
142
0.0
142
0.0
142
1.0
179
     0
144
0.0208333333333333
144
0.0
144
0.0
144
0.0
144
0.0
144
0.0208333333333333
144
0.0
144
0.0
144
0.0
144
0.0
144
1.0
144
0.0
144
0.0
144
0.0
144
0.0
144
1.0
147
0.0208333333333333
147
0.0
147
0.0
147
0.0
147
0.0
147
0.0208333333333333
147
0.0
147
0.0
147
0.0
147
0.0
147
1.0
147
0.0
147
0.0
147
0.0
147
0.0
147
1.0
  0
MATERIAL
  5
4A63C
102
{ACAD_XDICTIONARY
360
4A63D
102
}
102
{ACAD_REACTORS
330
4A62B
102
}
330
4A62B
100
AcDbMaterial
  1
Global
 72
     0
 43
0.0208333333333333
 43
0.0
 43
0.0
 43
0.0
 43
0.0
 43
0.0208333333333333
 43
0.0
 43
0.0
 43
0.0
 43
0.0
 43
1.0
 43
0.0
 43
0.0
 43
0.0
 43
0.0
 43
1.0
 77
     0
 47
0.0208333333333333
 47
0.0
 47
0.0
 47
0.0
 47
0.0
 47
0.0208333333333333
 47
0.0
 47
0.0
 47
0.0
 47
0.0
 47
1.0
 47
0.0
 47
0.0
 47
0.0
 47
0.0
 47
1.0
171
     0
 49
0.0208333333333333
 49
0.0
 49
0.0
 49
0.0
 49
0.0
 49
0.0208333333333333
 49
0.0
 49
0.0
 49
0.0
 49
0.0
 49
1.0
 49
0.0
 49
0.0
 49
0.0
 49
0.0
 49
1.0
175
     0
142
0.0208333333333333
142
0.0
142
0.0
142
0.0
142
0.0
142
0.0208333333333333
142
0.0
142
0.0
142
0.0
142
0.0
142
1.0
142
0.0
142
0.0
142
0.0
142
0.0
142
1.0
179
     0
144
0.0208333333333333
144
0.0
144
0.0
144
0.0
144
0.0
144
0.0208333333333333
144
0.0
144
0.0
144
0.0
144
0.0
144
1.0
144
0.0
144
0.0
144
0.0
144
0.0
144
1.0
147
0.0208333333333333
147
0.0
147
0.0
147
0.0
147
0.0
147
0.0208333333333333
147
0.0
147
0.0
147
0.0
147
0.0
147
1.0
147
0.0
147
0.0
147
0.0
147
0.0
147
1.0
  0
MLEADERSTYLE
  5
4A689
102
{ACAD_REACTORS
330
4A688
102
}
330
4A688
100
AcDbMLeaderStyle
170
     2
171
     1
172
     0
 90
        2
 40
0.0
 41
0.0
173
     1
 91
-1056964608
340
4A67D
 92
       -2
290
     1
 42
0.09
291
     1
 43
0.36
  3
Standard
 44
0.18
300

342
4A678
174
     1
178
     6
175
     1
176
     0
 93
-1056964608
 45
0.18
292
     0
297
     0
 46
0.18
 94
-1056964608
 47
1.0
 49
1.0
140
1.0
293
     1
141
0.0
294
     1
177
     0
142
1.0
295
     0
296
     0
143
0.125
1001
ACAD_MLEADERVER
1070
     2
  0
MLINESTYLE
  5
4A682
102
{ACAD_REACTORS
330
4A681
102
}
330
4A681
100
AcDbMlineStyle
  2
STANDARD
 70
     0
  3

 62
   256
 51
90.0
 52
90.0
 71
     2
 49
0.5
 62
   256
  6
BYLAYER
 49
-0.5
 62
   256
  6
BYLAYER
  0
ACDBPLACEHOLDER
  5
4A62A
102
{ACAD_REACTORS
330
4A629
102
}
330
4A629
  0
SCALE
  5
4A656
102
{ACAD_REACTORS
330
4A655
102
}
330
4A655
100
AcDbScale
 70
     0
300
1:1
140
1.0
141
1.0
290
     1
  0
SCALE
  5
4A657
102
{ACAD_REACTORS
330
4A655
102
}
330
4A655
100
AcDbScale
 70
     0
300
1:2
140
1.0
141
2.0
290
     0
  0
SCALE
  5
4A658
102
{ACAD_REACTORS
330
4A655
102
}
330
4A655
100
AcDbScale
 70
     0
300
1:4
140
1.0
141
4.0
290
     0
  0
SCALE
  5
4A659
102
{ACAD_REACTORS
330
4A655
102
}
330
4A655
100
AcDbScale
 70
     0
300
1:5
140
1.0
141
5.0
290
     0
  0
SCALE
  5
4A65A
102
{ACAD_REACTORS
330
4A655
102
}
330
4A655
100
AcDbScale
 70
     0
300
1:8
140
1.0
141
8.0
290
     0
  0
SCALE
  5
4A65B
102
{ACAD_REACTORS
330
4A655
102
}
330
4A655
100
AcDbScale
 70
     0
300
1:10
140
1.0
141
10.0
290
     0
  0
SCALE
  5
4A65C
102
{ACAD_REACTORS
330
4A655
102
}
330
4A655
100
AcDbScale
 70
     0
300
1:16
140
1.0
141
16.0
290
     0
  0
SCALE
  5
4A65D
102
{ACAD_REACTORS
330
4A655
102
}
330
4A655
100
AcDbScale
 70
     0
300
1:20
140
1.0
141
20.0
290
     0
  0
SCALE
  5
4A65E
102
{ACAD_REACTORS
330
4A655
102
}
330
4A655
100
AcDbScale
 70
     0
300
1:30
140
1.0
141
30.0
290
     0
  0
SCALE
  5
4A65F
102
{ACAD_REACTORS
330
4A655
102
}
330
4A655
100
AcDbScale
 70
     0
300
1:40
140
1.0
141
40.0
290
     0
  0
SCALE
  5
4A660
102
{ACAD_REACTORS
330
4A655
102
}
330
4A655
100
AcDbScale
 70
     0
300
1:50
140
1.0
141
50.0
290
     0
  0
SCALE
  5
4A661
102
{ACAD_REACTORS
330
4A655
102
}
330
4A655
100
AcDbScale
 70
     0
300
1:100
140
1.0
141
100.0
290
     0
  0
SCALE
  5
4A662
102
{ACAD_REACTORS
330
4A655
102
}
330
4A655
100
AcDbScale
 70
     0
300
2:1
140
2.0
141
1.0
290
     0
  0
SCALE
  5
4A663
102
{ACAD_REACTORS
330
4A655
102
}
330
4A655
100
AcDbScale
 70
     0
300
4:1
140
4.0
141
1.0
290
     0
  0
SCALE
  5
4A664
102
{ACAD_REACTORS
330
4A655
102
}
330
4A655
100
AcDbScale
 70
     0
300
8:1
140
8.0
141
1.0
290
     0
  0
SCALE
  5
4A665
102
{ACAD_REACTORS
330
4A655
102
}
330
4A655
100
AcDbScale
 70
     0
300
10:1
140
10.0
141
1.0
290
     0
  0
SCALE
  5
4A666
102
{ACAD_REACTORS
330
4A655
102
}
330
4A655
100
AcDbScale
 70
     0
300
100:1
140
100.0
141
1.0
290
     0
  0
SCALE
  5
4A667
102
{ACAD_REACTORS
330
4A655
102
}
330
4A655
100
AcDbScale
 70
     0
300
1/128" = 1'-0"
140
0.0078125
141
12.0
290
     0
  0
SCALE
  5
4A668
102
{ACAD_REACTORS
330
4A655
102
}
330
4A655
100
AcDbScale
 70
     0
300
1/64" = 1'-0"
140
0.015625
141
12.0
290
     0
  0
SCALE
  5
4A669
102
{ACAD_REACTORS
330
4A655
102
}
330
4A655
100
AcDbScale
 70
     0
300
1/32" = 1'-0"
140
0.03125
141
12.0
290
     0
  0
SCALE
  5
4A66A
102
{ACAD_REACTORS
330
4A655
102
}
330
4A655
100
AcDbScale
 70
     0
300
1/16" = 1'-0"
140
0.0625
141
12.0
290
     0
  0
SCALE
  5
4A66B
102
{ACAD_REACTORS
330
4A655
102
}
330
4A655
100
AcDbScale
 70
     0
300
3/32" = 1'-0"
140
0.09375
141
12.0
290
     0
  0
SCALE
  5
4A66C
102
{ACAD_REACTORS
330
4A655
102
}
330
4A655
100
AcDbScale
 70
     0
300
1/8" = 1'-0"
140
0.125
141
12.0
290
     0
  0
SCALE
  5
4A66D
102
{ACAD_REACTORS
330
4A655
102
}
330
4A655
100
AcDbScale
 70
     0
300
3/16" = 1'-0"
140
0.1875
141
12.0
290
     0
  0
SCALE
  5
4A66E
102
{ACAD_REACTORS
330
4A655
102
}
330
4A655
100
AcDbScale
 70
     0
300
1/4" = 1'-0"
140
0.25
141
12.0
290
     0
  0
SCALE
  5
4A66F
102
{ACAD_REACTORS
330
4A655
102
}
330
4A655
100
AcDbScale
 70
     0
300
3/8" = 1'-0"
140
0.375
141
12.0
290
     0
  0
SCALE
  5
4A670
102
{ACAD_REACTORS
330
4A655
102
}
330
4A655
100
AcDbScale
 70
     0
300
1/2" = 1'-0"
140
0.5
141
12.0
290
     0
  0
SCALE
  5
4A671
102
{ACAD_REACTORS
330
4A655
102
}
330
4A655
100
AcDbScale
 70
     0
300
3/4" = 1'-0"
140
0.75
141
12.0
290
     0
  0
SCALE
  5
4A672
102
{ACAD_REACTORS
330
4A655
102
}
330
4A655
100
AcDbScale
 70
     0
300
1" = 1'-0"
140
1.0
141
12.0
290
     0
  0
SCALE
  5
4A673
102
{ACAD_REACTORS
330
4A655
102
}
330
4A655
100
AcDbScale
 70
     0
300
1-1/2" = 1'-0"
140
1.5
141
12.0
290
     0
  0
SCALE
  5
4A674
102
{ACAD_REACTORS
330
4A655
102
}
330
4A655
100
AcDbScale
 70
     0
300
3" = 1'-0"
140
3.0
141
12.0
290
     0
  0
SCALE
  5
4A675
102
{ACAD_REACTORS
330
4A655
102
}
330
4A655
100
AcDbScale
 70
     0
300
6" = 1'-0"
140
6.0
141
12.0
290
     0
  0
SCALE
  5
4A676
102
{ACAD_REACTORS
330
4A655
102
}
330
4A655
100
AcDbScale
 70
     0
300
1'-0" = 1'-0"
140
12.0
141
12.0
290
     0
  0
TABLESTYLE
  5
4A687
102
{ACAD_XDICTIONARY
360
4AAE1
102
}
102
{ACAD_REACTORS
330
4A686
102
}
330
4A686
100
AcDbTableStyle
  3
Standard
 70
     0
 71
     0
 40
0.06
 41
0.06
280
     0
281
     0
  7
STANDARD
140
0.18
170
     2
 62
     0
 63
     7
283
     0
274
    -2
284
     1
 64
     0
275
    -2
285
     1
 65
     0
276
    -2
286
     1
 66
     0
277
    -2
287
     1
 67
     0
278
    -2
288
     1
 68
     0
279
    -2
289
     1
 69
     0
  7
STANDARD
140
0.25
170
     5
 62
     0
 63
     7
283
     0
274
    -2
284
     1
 64
     0
275
    -2
285
     1
 65
     0
276
    -2
286
     1
 66
     0
277
    -2
287
     1
 67
     0
278
    -2
288
     1
 68
     0
279
    -2
289
     1
 69
     0
  7
STANDARD
140
0.18
170
     5
 62
     0
 63
     7
283
     0
274
    -2
284
     1
 64
     0
275
    -2
285
     1
 65
     0
276
    -2
286
     1
 66
     0
277
    -2
287
     1
 67
     0
278
    -2
288
     1
 68
     0
279
    -2
289
     1
 69
     0
  0
VISUALSTYLE
  5
4A64A
102
{ACAD_REACTORS
330
4A644
102
}
330
4A644
100
AcDbVisualStyle
  2
2dWireframe
 70
     4
 71
     0
 72
     2
 73
     0
 90
        0
 40
-0.6
 41
-30.0
 62
     5
 63
     7
 74
     1
 91
        4
 64
     7
 65
   257
 75
     1
175
     1
 42
1.0
 92
        0
 66
   257
 43
1.0
 76
     1
 77
     6
 78
     2
 67
     7
 79
     5
170
     0
171
     0
290
     0
174
     0
 93
        1
 44
0.0
173
     0
291
     0
 45
0.0
1001
ACAD
1000
AcDbSavedByObjectVersion
1070
     0
  0
VISUALSTYLE
  5
4A64C
102
{ACAD_REACTORS
330
4A644
102
}
330
4A644
100
AcDbVisualStyle
  2
3D Hidden
 70
     6
 71
     1
 72
     2
 73
     2
 90
        0
 40
-0.6
 41
-30.0
 62
     5
 63
     7
 74
     2
 91
        2
 64
     7
 65
   257
 75
     2
175
     1
 42
40.0
 92
        0
 66
   257
 43
1.0
 76
     1
 77
     6
 78
     2
 67
     7
 79
     3
170
     0
171
     0
290
     0
174
     0
 93
        1
 44
0.0
173
     0
291
     0
 45
0.0
1001
ACAD
1000
AcDbSavedByObjectVersion
1070
     0
  0
VISUALSTYLE
  5
4A64B
102
{ACAD_REACTORS
330
4A644
102
}
330
4A644
100
AcDbVisualStyle
  2
3dWireframe
 70
     5
 71
     0
 72
     2
 73
     0
 90
        0
 40
-0.6
 41
-30.0
 62
     5
 63
     7
 74
     1
 91
        4
 64
     7
 65
   257
 75
     1
175
     1
 42
1.0
 92
        0
 66
   257
 43
1.0
 76
     1
 77
     6
 78
     2
 67
     7
 79
     5
170
     0
171
     0
290
     0
174
     0
 93
        1
 44
0.0
173
     0
291
     0
 45
0.0
1001
ACAD
1000
AcDbSavedByObjectVersion
1070
     0
  0
VISUALSTYLE
  5
4A649
102
{ACAD_REACTORS
330
4A644
102
}
330
4A644
100
AcDbVisualStyle
  2
Basic
 70
     7
 71
     1
 72
     0
 73
     1
 90
        0
 40
-0.6
 41
-30.0
 62
     5
 63
     7
 74
     0
 91
        4
 64
     7
 65
   257
 75
     1
175
     1
 42
1.0
 92
        8
 66
     7
 43
1.0
 76
     1
 77
     6
 78
     2
 67
     7
 79
     5
170
     0
171
     0
290
     0
174
     0
 93
        1
 44
0.0
173
     0
291
     1
 45
0.0
1001
ACAD
1000
AcDbSavedByObjectVersion
1070
     0
  0
VISUALSTYLE
  5
4A650
102
{ACAD_REACTORS
330
4A644
102
}
330
4A644
100
AcDbVisualStyle
  2
Brighten
 70
    12
 71
     2
 72
     2
 73
     0
 90
        0
 40
-0.6
 41
-30.0
 62
     5
 63
     7
 74
     1
 91
        4
 64
     7
 65
   257
 75
     1
175
     1
 42
1.0
 92
        8
 66
     7
 43
1.0
 76
     1
 77
     6
 78
     2
 67
     7
 79
     5
170
     0
171
     0
290
     0
174
     0
 93
        1
 44
50.0
173
     0
291
     1
 45
0.0
1001
ACAD
1000
AcDbSavedByObjectVersion
1070
     0
  0
VISUALSTYLE
  5
4A654
102
{ACAD_REACTORS
330
4A644
102
}
330
4A644
100
AcDbVisualStyle
  2
ColorChange
 70
    16
 71
     2
 72
     2
 73
     3
 90
        0
 40
-0.6
 41
-30.0
 62
     5
 63
     8
 74
     1
 91
        4
 64
     7
 65
   257
 75
     1
175
     1
 42
1.0
 92
        8
 66
     8
 43
1.0
 76
     1
 77
     6
 78
     2
 67
     7
 79
     5
170
     0
171
     0
290
     0
174
     0
 93
        1
 44
0.0
173
     0
291
     1
 45
0.0
1001
ACAD
1000
AcDbSavedByObjectVersion
1070
     0
  0
VISUALSTYLE
  5
4A64D
102
{ACAD_REACTORS
330
4A644
102
}
330
4A644
100
AcDbVisualStyle
  2
Conceptual
 70
     9
 71
     3
 72
     2
 73
     0
 90
        0
 40
-0.6
 41
-30.0
 62
     5
 63
     7
 74
     2
 91
        2
 64
     7
 65
   257
 75
     1
175
     1
 42
40.0
 92
        8
 66
     7
 43
1.0
 76
     1
 77
     6
 78
     2
 67
     7
 79
     3
170
     0
171
     0
290
     0
174
     0
 93
        1
 44
0.0
173
     0
291
     0
 45
0.0
1001
ACAD
1000
AcDbSavedByObjectVersion
1070
     0
  0
VISUALSTYLE
  5
4A64F
102
{ACAD_REACTORS
330
4A644
102
}
330
4A644
100
AcDbVisualStyle
  2
Dim
 70
    11
 71
     2
 72
     2
 73
     0
 90
        0
 40
-0.6
 41
-30.0
 62
     5
 63
     7
 74
     1
 91
        4
 64
     7
 65
   257
 75
     1
175
     1
 42
1.0
 92
        8
 66
     7
 43
1.0
 76
     1
 77
     6
 78
     2
 67
     7
 79
     5
170
     0
171
     0
290
     0
174
     0
 93
        1
 44
-50.0
173
     0
291
     1
 45
0.0
1001
ACAD
1000
AcDbSavedByObjectVersion
1070
     0
  0
VISUALSTYLE
  5
4A653
102
{ACAD_REACTORS
330
4A644
102
}
330
4A644
100
AcDbVisualStyle
  2
Facepattern
 70
    15
 71
     2
 72
     2
 73
     0
 90
        0
 40
-0.6
 41
-30.0
 62
     5
 63
     7
 74
     1
 91
        4
 64
     7
 65
   257
 75
     1
175
     1
 42
1.0
 92
        8
 66
     7
 43
1.0
 76
     1
 77
     6
 78
     2
 67
     7
 79
     5
170
     0
171
     0
290
     0
174
     0
 93
        1
 44
0.0
173
     0
291
     1
 45
0.0
1001
ACAD
1000
AcDbSavedByObjectVersion
1070
     0
  0
VISUALSTYLE
  5
4A645
102
{ACAD_REACTORS
330
4A644
102
}
330
4A644
100
AcDbVisualStyle
  2
Flat
 70
     0
 71
     2
 72
     1
 73
     1
 90
        2
 40
-0.6
 41
30.0
 62
     5
 63
     7
 74
     0
 91
        4
 64
     7
 65
   257
 75
     1
175
     1
 42
1.0
 92
        8
 66
     7
 43
1.0
 76
     1
 77
     6
 78
     2
 67
     7
 79
     5
170
     0
171
     0
290
     0
174
     0
 93
       13
 44
0.0
173
     0
291
     1
 45
0.0
1001
ACAD
1000
AcDbSavedByObjectVersion
1070
     0
  0
VISUALSTYLE
  5
4A646
102
{ACAD_REACTORS
330
4A644
102
}
330
4A644
100
AcDbVisualStyle
  2
FlatWithEdges
 70
     1
 71
     2
 72
     1
 73
     1
 90
        2
 40
-0.6
 41
30.0
 62
     5
 63
     7
 74
     1
 91
        4
 64
     7
 65
   257
 75
     1
175
     1
 42
1.0
 92
        0
 66
   257
 43
1.0
 76
     1
 77
     6
 78
     2
 67
     7
 79
     5
170
     0
171
     0
290
     0
174
     0
 93
       13
 44
0.0
173
     0
291
     1
 45
0.0
1001
ACAD
1000
AcDbSavedByObjectVersion
1070
     0
  0
VISUALSTYLE
  5
4A647
102
{ACAD_REACTORS
330
4A644
102
}
330
4A644
100
AcDbVisualStyle
  2
Gouraud
 70
     2
 71
     2
 72
     2
 73
     1
 90
        2
 40
-0.6
 41
30.0
 62
     5
 63
     7
 74
     0
 91
        4
 64
     7
 65
   257
 75
     1
175
     1
 42
1.0
 92
        0
 66
     7
 43
1.0
 76
     1
 77
     6
 78
     2
 67
     7
 79
     5
170
     0
171
     0
290
     0
174
     0
 93
       13
 44
0.0
173
     0
291
     1
 45
0.0
1001
ACAD
1000
AcDbSavedByObjectVersion
1070
     0
  0
VISUALSTYLE
  5
4A648
102
{ACAD_REACTORS
330
4A644
102
}
330
4A644
100
AcDbVisualStyle
  2
GouraudWithEdges
 70
     3
 71
     2
 72
     2
 73
     1
 90
        2
 40
-0.6
 41
30.0
 62
     5
 63
     7
 74
     1
 91
        4
 64
     7
 65
   257
 75
     1
175
     1
 42
1.0
 92
        0
 66
   257
 43
1.0
 76
     1
 77
     6
 78
     2
 67
     7
 79
     5
170
     0
171
     0
290
     0
174
     0
 93
       13
 44
0.0
173
     0
291
     1
 45
0.0
1001
ACAD
1000
AcDbSavedByObjectVersion
1070
     0
  0
VISUALSTYLE
  5
4A652
102
{ACAD_REACTORS
330
4A644
102
}
330
4A644
100
AcDbVisualStyle
  2
Linepattern
 70
    14
 71
     2
 72
     2
 73
     0
 90
        0
 40
-0.6
 41
-30.0
 62
     5
 63
     7
 74
     1
 91
        4
 64
     7
 65
   257
 75
     7
175
     7
 42
1.0
 92
        8
 66
     7
 43
1.0
 76
     1
 77
     6
 78
     2
 67
     7
 79
     5
170
     0
171
     0
290
     0
174
     0
 93
        1
 44
0.0
173
     0
291
     1
 45
0.0
1001
ACAD
1000
AcDbSavedByObjectVersion
1070
     0
  0
VISUALSTYLE
  5
4A64E
102
{ACAD_REACTORS
330
4A644
102
}
330
4A644
100
AcDbVisualStyle
  2
Realistic
 70
     8
 71
     2
 72
     2
 73
     0
 90
        0
 40
-0.6
 41
-30.0
 62
     5
 63
     7
 74
     1
 91
        0
 64
     7
 65
   257
 75
     1
175
     1
 42
1.0
 92
        8
 66
     8
 43
1.0
 76
     1
 77
     6
 78
     2
 67
     7
 79
     5
170
     0
171
     0
290
     0
174
     0
 93
       13
 44
0.0
173
     0
291
     0
 45
0.0
1001
ACAD
1000
AcDbSavedByObjectVersion
1070
     0
  0
VISUALSTYLE
  5
4A651
102
{ACAD_REACTORS
330
4A644
102
}
330
4A644
100
AcDbVisualStyle
  2
Thicken
 70
    13
 71
     2
 72
     2
 73
     0
 90
        0
 40
-0.6
 41
-30.0
 62
     5
 63
     7
 74
     1
 91
        4
 64
     7
 65
   257
 75
     1
175
     1
 42
1.0
 92
       12
 66
     7
 43
1.0
 76
     1
 77
     6
 78
     2
 67
     7
 79
     5
170
     0
171
     0
290
     0
174
     0
 93
        1
 44
0.0
173
     0
291
     1
 45
0.0
1001
ACAD
1000
AcDbSavedByObjectVersion
1070
     0
  0
DICTIONARYVAR
  5
4AADD
102
{ACAD_REACTORS
330
4AADA
102
}
330
4AADA
100
DictionaryVariables
280
     0
  1
1:1
  0
DICTIONARYVAR
  5
4AADC
102
{ACAD_REACTORS
330
4AADA
102
}
330
4AADA
100
DictionaryVariables
280
     0
  1
STANDARD
  0
DICTIONARYVAR
  5
4AADB
102
{ACAD_REACTORS
330
4AADA
102
}
330
4AADA
100
DictionaryVariables
280
     0
  1
STANDARD
  0
DICTIONARYVAR
  5
4AAE0
102
{ACAD_REACTORS
330
4AADA
102
}
330
4AADA
100
DictionaryVariables
280
     0
  1
1
  0
DICTIONARYVAR
  5
4AADF
102
{ACAD_REACTORS
330
4AADA
102
}
330
4AADA
100
DictionaryVariables
280
     0
  1
0
  0
DICTIONARYVAR
  5
4AADE
102
{ACAD_REACTORS
330
4AADA
102
}
330
4AADA
100
DictionaryVariables
280
     0
  1
127
  0
DICTIONARY
  5
4A72E
102
{ACAD_REACTORS
330
4A723
102
}
330
4A723
100
AcDbDictionary
281
     1
  0
DICTIONARY
  5
4AAEF
330
4A68E
100
AcDbDictionary
280
     1
281
     1
  3
ACAD_XREC_ROUNDTRIP
360
4AAF0
  0
DICTIONARY
  5
4AAF1
330
4A692
100
AcDbDictionary
280
     1
281
     1
  3
ACAD_XREC_ROUNDTRIP
360
4AAF2
  0
DICTIONARY
  5
4A635
330
4A634
100
AcDbDictionary
280
     1
281
     1
  3
ACAD_XREC_ROUNDTRIP
360
4AAEC
  3
BUMPTILE
360
4A637
  3
DIFFUSETILE
360
4A636
  3
OPACITYTILE
360
4A63A
  3
REFLECTIONTILE
360
4A639
  3
REFRACTIONTILE
360
4A63B
  3
SPECULARTILE
360
4A638
  0
DICTIONARY
  5
4A62D
330
4A62C
100
AcDbDictionary
280
     1
281
     1
  3
ACAD_XREC_ROUNDTRIP
360
4AAEB
  3
BUMPTILE
360
4A62F
  3
DIFFUSETILE
360
4A62E
  3
OPACITYTILE
360
4A632
  3
REFLECTIONTILE
360
4A631
  3
REFRACTIONTILE
360
4A633
  3
SPECULARTILE
360
4A630
  0
DICTIONARY
  5
4A63D
330
4A63C
100
AcDbDictionary
280
     1
281
     1
  3
ACAD_XREC_ROUNDTRIP
360
4AAED
  3
BUMPTILE
360
4A63F
  3
DIFFUSETILE
360
4A63E
  3
OPACITYTILE
360
4A642
  3
REFLECTIONTILE
360
4A641
  3
REFRACTIONTILE
360
4A643
  3
SPECULARTILE
360
4A640
  0
DICTIONARY
  5
4AAE1
330
4A687
100
AcDbDictionary
280
     1
281
     1
  3
ACAD_ROUNDTRIP_2008_TABLESTYLE_CELLSTYLEMAP
360
4AAE2
  3
ACAD_XREC_ROUNDTRIP
360
4AAEE
  0
XRECORD
  5
4AAF0
102
{ACAD_REACTORS
330
4AAEF
102
}
330
4AAEF
100
AcDbXrecord
280
     1
102
SHADEPLOT
 70
     0
102
SHADEPLOTRESLEVEL
 70
     2
102
SHADEPLOTCUSTOMDPI
 70
   300
  0
XRECORD
  5
4AAF2
102
{ACAD_REACTORS
330
4AAF1
102
}
330
4AAF1
100
AcDbXrecord
280
     1
102
SHADEPLOT
 70
     0
102
SHADEPLOTRESLEVEL
 70
     2
102
SHADEPLOTCUSTOMDPI
 70
   300
  0
XRECORD
  5
4AAEC
102
{ACAD_REACTORS
330
4A635
102
}
330
4A635
100
AcDbXrecord
280
     1
102
MATERIAL
148
0.0
149
0.0
149
0.0
 93
        0
 94
      127
282
     0
 72
     0
 77
     0
171
     0
175
     0
179
     0
273
     0
  0
XRECORD
  5
4A637
102
{ACAD_REACTORS
330
4A635
102
}
330
4A635
100
AcDbXrecord
280
     1
270
     1
271
     1
  0
XRECORD
  5
4A636
102
{ACAD_REACTORS
330
4A635
102
}
330
4A635
100
AcDbXrecord
280
     1
270
     1
271
     1
  0
XRECORD
  5
4A63A
102
{ACAD_REACTORS
330
4A635
102
}
330
4A635
100
AcDbXrecord
280
     1
270
     1
271
     1
  0
XRECORD
  5
4A639
102
{ACAD_REACTORS
330
4A635
102
}
330
4A635
100
AcDbXrecord
280
     1
270
     1
271
     1
  0
XRECORD
  5
4A63B
102
{ACAD_REACTORS
330
4A635
102
}
330
4A635
100
AcDbXrecord
280
     1
270
     1
271
     1
  0
XRECORD
  5
4A638
102
{ACAD_REACTORS
330
4A635
102
}
330
4A635
100
AcDbXrecord
280
     1
270
     1
271
     1
  0
XRECORD
  5
4AAEB
102
{ACAD_REACTORS
330
4A62D
102
}
330
4A62D
100
AcDbXrecord
280
     1
102
MATERIAL
148
0.0
149
0.0
149
0.0
 93
        0
 94
      127
282
     0
 72
     0
 77
     0
171
     0
175
     0
179
     0
273
     0
  0
XRECORD
  5
4A62F
102
{ACAD_REACTORS
330
4A62D
102
}
330
4A62D
100
AcDbXrecord
280
     1
270
     1
271
     1
  0
XRECORD
  5
4A62E
102
{ACAD_REACTORS
330
4A62D
102
}
330
4A62D
100
AcDbXrecord
280
     1
270
     1
271
     1
  0
XRECORD
  5
4A632
102
{ACAD_REACTORS
330
4A62D
102
}
330
4A62D
100
AcDbXrecord
280
     1
270
     1
271
     1
  0
XRECORD
  5
4A631
102
{ACAD_REACTORS
330
4A62D
102
}
330
4A62D
100
AcDbXrecord
280
     1
270
     1
271
     1
  0
XRECORD
  5
4A633
102
{ACAD_REACTORS
330
4A62D
102
}
330
4A62D
100
AcDbXrecord
280
     1
270
     1
271
     1
  0
XRECORD
  5
4A630
102
{ACAD_REACTORS
330
4A62D
102
}
330
4A62D
100
AcDbXrecord
280
     1
270
     1
271
     1
  0
XRECORD
  5
4AAED
102
{ACAD_REACTORS
330
4A63D
102
}
330
4A63D
100
AcDbXrecord
280
     1
102
MATERIAL
148
0.0
149
0.0
149
0.0
 93
        0
 94
      127
282
     0
 72
     0
 77
     0
171
     0
175
     0
179
     0
273
     0
  0
XRECORD
  5
4A63F
102
{ACAD_REACTORS
330
4A63D
102
}
330
4A63D
100
AcDbXrecord
280
     1
270
     1
271
     1
  0
XRECORD
  5
4A63E
102
{ACAD_REACTORS
330
4A63D
102
}
330
4A63D
100
AcDbXrecord
280
     1
270
     1
271
     1
  0
XRECORD
  5
4A642
102
{ACAD_REACTORS
330
4A63D
102
}
330
4A63D
100
AcDbXrecord
280
     1
270
     1
271
     1
  0
XRECORD
  5
4A641
102
{ACAD_REACTORS
330
4A63D
102
}
330
4A63D
100
AcDbXrecord
280
     1
270
     1
271
     1
  0
XRECORD
  5
4A643
102
{ACAD_REACTORS
330
4A63D
102
}
330
4A63D
100
AcDbXrecord
280
     1
270
     1
271
     1
  0
XRECORD
  5
4A640
102
{ACAD_REACTORS
330
4A63D
102
}
330
4A63D
100
AcDbXrecord
280
     1
270
     1
271
     1
  0
CELLSTYLEMAP
  5
4AAE2
102
{ACAD_REACTORS
330
4AAE1
102
}
330
4AAE1
100
AcDbCellStyleMap
 90
        3
300
CELLSTYLE
  1
TABLEFORMAT_BEGIN
 90
        5
170
     1
 91
        0
 92
    32768
 62
   257
 93
        1
300
CONTENTFORMAT
  1
CONTENTFORMAT_BEGIN
 90
        0
 91
        0
 92
      512
 93
        0
300

 40
0.0
140
1.0
 94
        5
 62
     0
340
4A678
144
0.25
309
CONTENTFORMAT_END
171
     0
 94
        0
309
TABLEFORMAT_END
  1
CELLSTYLE_BEGIN
 90
        1
 91
        1
300
_TITLE
309
CELLSTYLE_END
300
CELLSTYLE
  1
TABLEFORMAT_BEGIN
 90
        5
170
     1
 91
        0
 92
        0
 62
   257
 93
        1
300
CONTENTFORMAT
  1
CONTENTFORMAT_BEGIN
 90
        0
 91
        0
 92
      512
 93
        0
300

 40
0.0
140
1.0
 94
        5
 62
     0
340
4A678
144
0.18
309
CONTENTFORMAT_END
171
     0
 94
        0
309
TABLEFORMAT_END
  1
CELLSTYLE_BEGIN
 90
        2
 91
        1
300
_HEADER
309
CELLSTYLE_END
300
CELLSTYLE
  1
TABLEFORMAT_BEGIN
 90
        5
170
     1
 91
        0
 92
        0
 62
   257
 93
        1
300
CONTENTFORMAT
  1
CONTENTFORMAT_BEGIN
 90
        0
 91
        0
 92
      512
 93
        0
300

 40
0.0
140
1.0
 94
        2
 62
     0
340
4A678
144
0.18
309
CONTENTFORMAT_END
171
     0
 94
        0
309
TABLEFORMAT_END
  1
CELLSTYLE_BEGIN
 90
        3
 91
        2
300
_DATA
309
CELLSTYLE_END
  0
XRECORD
  5
4AAEE
102
{ACAD_REACTORS
330
4AAE1
102
}
330
4AAE1
100
AcDbXrecord
280
     1
102
ACAD_ROUNDTRIP_PRE2007_TABLESTYLE
 90
      512
 91
        0
  1

 92
      512
 93
        0
  2

 94
      512
 95
        0
  3

  0
ENDSEC
  0
EOF
