  0
SECTION
  2
HEADER
  9
$ACADVER
  1
AC1021
  9
$ACADMAINTVER
 70
    50
  9
$DWGCODEPAGE
  3
ANSI_1252
  9
$LASTSAVEDBY
  1
mstaweczny
  9
$INSBASE
 10
0.0
 20
0.0
 30
0.0
  9
$EXTMIN
 10
29050.77647794923
 20
25624.39139384844
 30
0.0
  9
$EXTMAX
 10
30716.81977165792
 20
26676.40104386972
 30
0.0
  9
$LIMMIN
 10
0.0
 20
0.0
  9
$LIMMAX
 10
420.0
 20
297.0
  9
$ORTHOMODE
 70
     0
  9
$REGENMODE
 70
     1
  9
$FILLMODE
 70
     1
  9
$QTEXTMODE
 70
     0
  9
$MIRRTEXT
 70
     0
  9
$LTSCALE
 40
1.0
  9
$ATTMODE
 70
     1
  9
$TEXTSIZE
 40
2.5
  9
$TRACEWID
 40
1.0
  9
$TEXTSTYLE
  7
STANDARD
  9
$CLAYER
  8
0
  9
$CELTYPE
  6
ByLayer
  9
$CECOLOR
 62
   256
  9
$CELTSCALE
 40
1.0
  9
$DISPSILH
 70
     0
  9
$DIMSCALE
 40
1.0
  9
$DIMASZ
 40
0.12
  9
$DIMEXO
 40
0.05
  9
$DIMDLI
 40
0.5
  9
$DIMRND
 40
0.0
  9
$DIMDLE
 40
0.0
  9
$DIMEXE
 40
0.1
  9
$DIMTP
 40
0.1
  9
$DIMTM
 40
0.1
  9
$DIMTXT
 40
0.12
  9
$DIMCEN
 40
0.0
  9
$DIMTSZ
 40
0.0
  9
$DIMTOL
 70
     0
  9
$DIMLIM
 70
     0
  9
$DIMTIH
 70
     1
  9
$DIMTOH
 70
     1
  9
$DIMSE1
 70
     0
  9
$DIMSE2
 70
     0
  9
$DIMTAD
 70
     0
  9
$DIMZIN
 70
     7
  9
$DIMBLK
  1

  9
$DIMASO
 70
     1
  9
$DIMSHO
 70
     1
  9
$DIMPOST
  1

  9
$DIMAPOST
  1
mm
  9
$DIMALT
 70
     0
  9
$DIMALTD
 70
     2
  9
$DIMALTF
 40
25.4
  9
$DIMLFAC
 40
1.0
  9
$DIMTOFL
 70
     0
  9
$DIMTVP
 40
0.0
  9
$DIMTIX
 70
     0
  9
$DIMSOXD
 70
     0
  9
$DIMSAH
 70
     0
  9
$DIMBLK1
  1

  9
$DIMBLK2
  1

  9
$DIMSTYLE
  2
AM_ANSI
  9
$DIMCLRD
 70
   256
  9
$DIMCLRE
 70
   256
  9
$DIMCLRT
 70
   140
  9
$DIMTFAC
 40
0.71
  9
$DIMGAP
 40
0.06
  9
$DIMJUST
 70
     0
  9
$DIMSD1
 70
     0
  9
$DIMSD2
 70
     0
  9
$DIMTOLJ
 70
     1
  9
$DIMTZIN
 70
     7
  9
$DIMALTZ
 70
     0
  9
$DIMALTTZ
 70
     0
  9
$DIMUPT
 70
     0
  9
$DIMDEC
 70
     4
  9
$DIMTDEC
 70
     4
  9
$DIMALTU
 70
     2
  9
$DIMALTTD
 70
     4
  9
$DIMTXSTY
  7
STANDARD
  9
$DIMAUNIT
 70
     0
  9
$DIMADEC
 70
     0
  9
$DIMALTRND
 40
0.0
  9
$DIMAZIN
 70
     2
  9
$DIMDSEP
 70
    46
  9
$DIMATFIT
 70
     3
  9
$DIMFRAC
 70
     0
  9
$DIMLDRBLK
  1

  9
$DIMLUNIT
 70
     2
  9
$DIMLWD
 70
    -1
  9
$DIMLWE
 70
    -1
  9
$DIMTMOVE
 70
     0
  9
$DIMFXL
 40
1.0
  9
$DIMFXLON
 70
     0
  9
$DIMJOGANG
 40
0.7853981633974483
  9
$DIMTFILL
 70
     0
  9
$DIMTFILLCLR
 70
     0
  9
$DIMARCSYM
 70
     1
  9
$DIMLTYPE
  6
ByBlock
  9
$DIMLTEX1
  6
ByBlock
  9
$DIMLTEX2
  6
ByBlock
  9
$LUNITS
 70
     2
  9
$LUPREC
 70
     2
  9
$SKETCHINC
 40
1.0
  9
$FILLETRAD
 40
2.5
  9
$AUNITS
 70
     0
  9
$AUPREC
 70
     0
  9
$MENU
  1
.
  9
$ELEVATION
 40
0.0
  9
$PELEVATION
 40
0.0
  9
$THICKNESS
 40
0.0
  9
$LIMCHECK
 70
     0
  9
$CHAMFERA
 40
2.5
  9
$CHAMFERB
 40
2.5
  9
$CHAMFERC
 40
0.0
  9
$CHAMFERD
 40
0.0
  9
$SKPOLY
 70
     0
  9
$TDCREATE
 40
2455251.684584873
  9
$TDUCREATE
 40
2455251.642918206
  9
$TDUPDATE
 40
2458305.433679387
  9
$TDUUPDATE
 40
2458305.392012720
  9
$TDINDWG
 40
0.0619716898
  9
$TDUSRTIMER
 40
0.0619707292
  9
$USRTIMER
 70
     1
  9
$ANGBASE
 50
0.0
  9
$ANGDIR
 70
     0
  9
$PDMODE
 70
     0
  9
$PDSIZE
 40
0.0
  9
$PLINEWID
 40
0.0
  9
$SPLFRAME
 70
     0
  9
$SPLINETYPE
 70
     6
  9
$SPLINESEGS
 70
     8
  9
$HANDSEED
  5
55CE2
  9
$SURFTAB1
 70
     6
  9
$SURFTAB2
 70
     6
  9
$SURFTYPE
 70
     6
  9
$SURFU
 70
     6
  9
$SURFV
 70
     6
  9
$UCSBASE
  2

  9
$UCSNAME
  2

  9
$UCSORG
 10
0.0
 20
0.0
 30
0.0
  9
$UCSXDIR
 10
1.0
 20
0.0
 30
0.0
  9
$UCSYDIR
 10
0.0
 20
1.0
 30
0.0
  9
$UCSORTHOREF
  2

  9
$UCSORTHOVIEW
 70
     0
  9
$UCSORGTOP
 10
0.0
 20
0.0
 30
0.0
  9
$UCSORGBOTTOM
 10
0.0
 20
0.0
 30
0.0
  9
$UCSORGLEFT
 10
0.0
 20
0.0
 30
0.0
  9
$UCSORGRIGHT
 10
0.0
 20
0.0
 30
0.0
  9
$UCSORGFRONT
 10
0.0
 20
0.0
 30
0.0
  9
$UCSORGBACK
 10
0.0
 20
0.0
 30
0.0
  9
$PUCSBASE
  2

  9
$PUCSNAME
  2

  9
$PUCSORG
 10
0.0
 20
0.0
 30
0.0
  9
$PUCSXDIR
 10
1.0
 20
0.0
 30
0.0
  9
$PUCSYDIR
 10
0.0
 20
1.0
 30
0.0
  9
$PUCSORTHOREF
  2

  9
$PUCSORTHOVIEW
 70
     0
  9
$PUCSORGTOP
 10
0.0
 20
0.0
 30
0.0
  9
$PUCSORGBOTTOM
 10
0.0
 20
0.0
 30
0.0
  9
$PUCSORGLEFT
 10
0.0
 20
0.0
 30
0.0
  9
$PUCSORGRIGHT
 10
0.0
 20
0.0
 30
0.0
  9
$PUCSORGFRONT
 10
0.0
 20
0.0
 30
0.0
  9
$PUCSORGBACK
 10
0.0
 20
0.0
 30
0.0
  9
$USERI1
 70
     0
  9
$USERI2
 70
     0
  9
$USERI3
 70
     0
  9
$USERI4
 70
     0
  9
$USERI5
 70
     0
  9
$USERR1
 40
0.0
  9
$USERR2
 40
0.0
  9
$USERR3
 40
0.0
  9
$USERR4
 40
0.0
  9
$USERR5
 40
0.0
  9
$WORLDVIEW
 70
     1
  9
$SHADEDGE
 70
     3
  9
$SHADEDIF
 70
    70
  9
$TILEMODE
 70
     1
  9
$MAXACTVP
 70
    64
  9
$PINSBASE
 10
0.0
 20
0.0
 30
0.0
  9
$PLIMCHECK
 70
     0
  9
$PEXTMIN
 10
1.000000000000000E+20
 20
1.000000000000000E+20
 30
1.000000000000000E+20
  9
$PEXTMAX
 10
-1.000000000000000E+20
 20
-1.000000000000000E+20
 30
-1.000000000000000E+20
  9
$PLIMMIN
 10
0.0
 20
0.0
  9
$PLIMMAX
 10
420.0
 20
297.0
  9
$UNITMODE
 70
     0
  9
$VISRETAIN
 70
     1
  9
$PLINEGEN
 70
     0
  9
$PSLTSCALE
 70
     1
  9
$TREEDEPTH
 70
  3020
  9
$CMLSTYLE
  2
Standard
  9
$CMLJUST
 70
     0
  9
$CMLSCALE
 40
1.0
  9
$PROXYGRAPHICS
 70
     1
  9
$MEASUREMENT
 70
     0
  9
$CELWEIGHT
370
    -1
  9
$ENDCAPS
280
     0
  9
$JOINSTYLE
280
     0
  9
$LWDISPLAY
290
     0
  9
$INSUNITS
 70
     0
  9
$HYPERLINKBASE
  1

  9
$STYLESHEET
  1

  9
$XEDIT
290
     1
  9
$CEPSNTYPE
380
     0
  9
$PSTYLEMODE
290
     1
  9
$FINGERPRINTGUID
  2
{7CA7D69D-36B4-42EF-92E2-8442B4B9647F}
  9
$VERSIONGUID
  2
{941B1261-BBC0-45EE-990E-3C59718AA687}
  9
$EXTNAMES
290
     1
  9
$PSVPSCALE
 40
0.0
  9
$OLESTARTUP
290
     0
  9
$SORTENTS
280
   127
  9
$INDEXCTL
280
     0
  9
$HIDETEXT
280
     0
  9
$XCLIPFRAME
290
     0
  9
$HALOGAP
280
     0
  9
$OBSCOLOR
 70
   257
  9
$OBSLTYPE
280
     0
  9
$INTERSECTIONDISPLAY
280
     0
  9
$INTERSECTIONCOLOR
 70
   257
  9
$DIMASSOC
280
     1
  9
$PROJECTNAME
  1

  9
$CAMERADISPLAY
290
     0
  9
$LENSLENGTH
 40
50.0
  9
$CAMERAHEIGHT
 40
0.0
  9
$STEPSPERSEC
 40
2.0
  9
$STEPSIZE
 40
6.0
  9
$3DDWFPREC
 40
2.0
  9
$PSOLWIDTH
 40
0.25
  9
$PSOLHEIGHT
 40
4.0
  9
$LOFTANG1
 40
1.570796326794896
  9
$LOFTANG2
 40
1.570796326794896
  9
$LOFTMAG1
 40
0.0
  9
$LOFTMAG2
 40
0.0
  9
$LOFTPARAM
 70
     7
  9
$LOFTNORMALS
280
     1
  9
$LATITUDE
 40
37.795
  9
$LONGITUDE
 40
-122.394
  9
$NORTHDIRECTION
 40
0.0
  9
$TIMEZONE
 70
 -8000
  9
$LIGHTGLYPHDISPLAY
280
     1
  9
$TILEMODELIGHTSYNCH
280
     1
  9
$CMATERIAL
347
52BB5
  9
$SOLIDHIST
280
     1
  9
$SHOWHIST
280
     1
  9
$DWFFRAME
280
     2
  9
$DGNFRAME
280
     0
  9
$REALWORLDSCALE
290
     1
  9
$INTERFERECOLOR
 62
     1
  9
$INTERFEREOBJVS
345
52BD7
  9
$INTERFEREVPVS
346
52BD4
  9
$CSHADOW
280
     0
  9
$SHADOWPLANELOCATION
 40
0.0
  0
ENDSEC
  0
SECTION
  2
CLASSES
  0
CLASS
  1
ACDBDICTIONARYWDFLT
  2
AcDbDictionaryWithDefault
  3
ObjectDBX Classes
 90
        0
 91
        1
280
     0
281
     0
  0
CLASS
  1
MATERIAL
  2
AcDbMaterial
  3
ObjectDBX Classes
 90
     1153
 91
        3
280
     0
281
     0
  0
CLASS
  1
VISUALSTYLE
  2
AcDbVisualStyle
  3
ObjectDBX Classes
 90
     4095
 91
       16
280
     0
281
     0
  0
CLASS
  1
SCALE
  2
AcDbScale
  3
ObjectDBX Classes
 90
     1153
 91
       33
280
     0
281
     0
  0
CLASS
  1
TABLESTYLE
  2
AcDbTableStyle
  3
ObjectDBX Classes
 90
     4095
 91
        1
280
     0
281
     0
  0
CLASS
  1
MLEADERSTYLE
  2
AcDbMLeaderStyle
  3
ACDB_MLEADERSTYLE_CLASS
 90
     4095
 91
        1
280
     0
281
     0
  0
CLASS
  1
EXACXREFPANELOBJECT
  2
ExAcXREFPanelObject
  3
EXAC_ESW
 90
     1025
 91
        1
280
     0
281
     0
  0
CLASS
  1
NPOCOLLECTION
  2
AcDbImpNonPersistentObjectsCollection
  3
ObjectDBX Classes
 90
     1153
 91
        1
280
     0
281
     0
  0
CLASS
  1
DIMASSOC
  2
AcDbDimAssoc
  3
"AcDbDimAssoc|Product Desc:     AcDim ARX App For Dimension|Company:          Autodesk, Inc.|WEB Address:      www.autodesk.com"
 90
        0
 91
       12
280
     0
281
     0
  0
CLASS
  1
SORTENTSTABLE
  2
AcDbSortentsTable
  3
ObjectDBX Classes
 90
        0
 91
        1
280
     0
281
     0
  0
CLASS
  1
DICTIONARYVAR
  2
AcDbDictionaryVar
  3
ObjectDBX Classes
 90
        0
 91
        7
280
     0
281
     0
  0
CLASS
  1
CELLSTYLEMAP
  2
AcDbCellStyleMap
  3
ObjectDBX Classes
 90
     1152
 91
        3
280
     0
281
     0
  0
CLASS
  1
AMGSETTINGSOBJ
  2
AmgSettingsObj
  3
"AcadM|Product Description: AutoCAD Mechanical|Company: Autodesk, Inc."
 90
     1024
 91
        2
280
     0
281
     0
  0
CLASS
  1
ACME_DOCUMENT
  2
AcMeDbDoc
  3
AcMeServices
 90
     1024
 91
        1
280
     0
281
     0
  0
CLASS
  1
ACMESCOPE
  2
AcMeScope
  3
AcMeServices
 90
     1024
 91
        1
280
     0
281
     0
  0
CLASS
  1
ACMECOMMANDHISTORY
  2
AcMeCommandHistory
  3
AcMeServices
 90
     1024
 91
        1
280
     0
281
     0
  0
CLASS
  1
ACIMSYSVARMAN
  2
AcImSysVarManager
  3
AcMeServices
 90
     1024
 91
        5
280
     0
281
     0
  0
CLASS
  1
ACIMINTSYSVAR
  2
AcImIntSysVar
  3
AcMeServices
 90
     1024
 91
       27
280
     0
281
     0
  0
CLASS
  1
ACMEDRAWINGMAN
  2
AcMeDrawingMan
  3
AcMeServices
 90
     1024
 91
        1
280
     0
281
     0
  0
CLASS
  1
ACMEVIEW
  2
AcMeView
  3
AcMeServices
 90
     1024
 91
        1
280
     0
281
     0
  0
CLASS
  1
ACDBENTITYCACHE
  2
AcMeEntityCache
  3
AcMeServices
 90
     1024
 91
        1
280
     0
281
     0
  0
CLASS
  1
GSMANAGER
  2
AcMeGSManager
  3
AcMeServices
 90
     1024
 91
        1
280
     0
281
     0
  0
CLASS
  1
AMDTINTERNALREACTOR
  2
AmdtInternalReactor
  3
AcMeServices
 90
     1024
 91
        2
280
     0
281
     0
  0
CLASS
  1
ACMESTATEMGR
  2
AcMeStateMgr
  3
AcMeServices
 90
     1024
 91
        1
280
     0
281
     0
  0
CLASS
  1
ACGREFMASTER
  2
AcGrefMaster
  3
AcAttribServices
 90
     1024
 91
        1
280
     0
281
     0
  0
CLASS
  1
AM_DRAWING_MGR
  2
AcDmDwgMgr
  3
AcMechDwgViewMgmt
 90
     1024
 91
        1
280
     0
281
     0
  0
CLASS
  1
AM_DWG_DOCUMENT
  2
AcDmDwgDocument
  3
AcMechDwgViewMgmt
 90
     1024
 91
        1
280
     0
281
     0
  0
CLASS
  1
AM_DWG_SHEET
  2
AcDmSheet
  3
AcMechDwgViewMgmt
 90
     1024
 91
        1
280
     0
281
     0
  0
CLASS
  1
AM_VIEWDIMPARMAP
  2
AcDmViewDimParMap
  3
AcMechDwgViewMgmt
 90
     1024
 91
        1
280
     0
281
     0
  0
CLASS
  1
ACIMREALSYSVAR
  2
AcImRealSysVar
  3
AcMeServices
 90
     1024
 91
        1
280
     0
281
     0
  0
CLASS
  1
AM_DWGMGR_NAME
  2
AcDmDwgMgrName
  3
AcMechDwgViewMgmt
 90
     1024
 91
        1
280
     0
281
     0
  0
CLASS
  1
ACME_DATABASE
  2
AcMeDbDatabase
  3
AcMeServices
 90
     1024
 91
        2
280
     0
281
     0
  0
CLASS
  1
ACRFINSADJUSTERMGR
  2
AcRfInsAdjusterMgr
  3
AcMeServices
 90
     1024
 91
        1
280
     0
281
     0
  0
CLASS
  1
ACGREFACADMASTER
  2
AcGrefacadMaster
  3
AcGrefServices
 90
     1024
 91
        1
280
     0
281
     0
  0
CLASS
  1
AMDTMENUSTATEMGR
  2
AmdtMenuStateMgr
  3
McadcomServices
 90
     1024
 91
        1
280
     0
281
     0
  0
CLASS
  1
AMDTMCOMMENUSTATE
  2
AmdtMcomMenuState
  3
McadcomServices
 90
     1024
 91
        1
280
     0
281
     0
  0
CLASS
  1
AMIMASTER
  2
AmiMaster
  3
AmiServices
 90
     1024
 91
        1
280
     0
281
     0
  0
CLASS
  1
MAPIAMMOUDLE
  2
MApiAmModule
  3
MApiAmServices
 90
     1024
 91
        1
280
     0
281
     0
  0
CLASS
  1
ACIMSTRSYSVAR
  2
AcImStrSysVar
  3
AcMeServices
 90
     1024
 91
        5
280
     0
281
     0
  0
CLASS
  1
AMDTADMENUSTATE
  2
AmdtAdMenuState
  3
DesignerServices
 90
     1024
 91
        1
280
     0
281
     0
  0
CLASS
  1
ADAPPL
  2
AcAdAppl
  3
DesignerServices
 90
     1024
 91
        1
280
     0
281
     0
  0
CLASS
  1
DEPMGR
  2
AcAdDepMgr
  3
DesignerServices
 90
     1024
 91
        1
280
     0
281
     0
  0
CLASS
  1
PARAMMGR
  2
AcAdParamMgr
  3
DesignerServices
 90
     1024
 91
        1
280
     0
281
     0
  0
CLASS
  1
PARAMSCOPE
  2
AcAdParamScope
  3
DesignerServices
 90
     1024
 91
        1
280
     0
281
     0
  0
CLASS
  1
NAMEDAPPL
  2
AcAdNamedAppl
  3
DesignerServices
 90
     1024
 91
        1
280
     0
281
     0
  0
CLASS
  1
AMDTDMMENUSTATE
  2
AmdtDmMenuState
  3
AcMechDwgViewMgmt
 90
     1024
 91
        1
280
     0
281
     0
  0
CLASS
  1
AMDTAMMENUSTATE
  2
AmdtAmMenuState
  3
DesignerAssemblies
 90
     1024
 91
        1
280
     0
281
     0
  0
CLASS
  1
ACAMPROJECT
  2
AcAmProject
  3
DesignerAssemblies
 90
     1024
 91
        1
280
     0
281
     0
  0
CLASS
  1
ACAMGRCOMPDEF
  2
AcAmGrCompDef
  3
DesignerAssemblies
 90
     1024
 91
        1
280
     0
281
     0
  0
CLASS
  1
ACCMCONTEXT
  2
AcCmContext
  3
DesignerAssemblies
 90
     1024
 91
        1
280
     0
281
     0
  0
CLASS
  1
ACAMCOMPDEF
  2
AcAmCompDef
  3
DesignerAssemblies
 90
     1024
 91
        1
280
     0
281
     0
  0
CLASS
  1
ACAMCOMPDEFMGR
  2
AcAmCompDefMgr
  3
DesignerAssemblies
 90
     1024
 91
        1
280
     0
281
     0
  0
CLASS
  1
AMCONTEXTMGR
  2
AcAmContextMgr
  3
DesignerAssemblies
 90
     1024
 91
        1
280
     0
281
     0
  0
CLASS
  1
ACAMCONTEXTMODELER
  2
AcAmContextModeler
  3
DesignerAssemblies
 90
     1024
 91
        1
280
     0
281
     0
  0
CLASS
  1
ACMDATADICTIONARY
  2
AcmDataDictionary
  3
"AcmSymBB|Product Description: AutoCAD Mechanical|Company: Autodesk, Inc."
 90
     1024
 91
        1
280
     0
281
     0
  0
CLASS
  1
CATALOGSTATE
  2
AcAmCatalogState
  3
DesignerAssemblies
 90
     1024
 91
        1
280
     0
281
     0
  0
CLASS
  1
ACAMGRCOMPDEFSET
  2
AcAmGrCompDefSet
  3
DesignerAssemblies
 90
     1024
 91
        1
280
     0
281
     0
  0
CLASS
  1
AMDTBROWSERDBTAB
  2
AmdtBrowserDbTab
  3
McadcomServices
 90
     1024
 91
        1
280
     0
281
     0
  0
CLASS
  1
CBROWSERAPPOBJECT
  2
CBrowserAppObject
  3
McadcomServices
 90
     1024
 91
        3
280
     0
281
     0
  0
CLASS
  1
DM_PLACEHOLDER
  2
AcDmSelsetPlaceholder
  3
AcMechDwgViewMgmt
 90
     1024
 91
        1
280
     0
281
     0
  0
CLASS
  1
ACMSTANDARDANSI
  2
AcmStandardANSI
  3
"Amdt_StdImp|Product Description: AutoCAD Mechanical|Company: Autodesk, Inc."
 90
     1024
 91
        1
280
     0
281
     0
  0
CLASS
  1
ACMSURFSTANDARDANSI
  2
AcmSurfTextStdANSI
  3
"Amdt_StdImp|Product Description: AutoCAD Mechanical|Company: Autodesk, Inc."
 90
     1024
 91
        1
280
     0
281
     0
  0
CLASS
  1
ACMFCFSTANDARDANSI
  2
AcmFCFStdANSI
  3
"Amdt_StdImp|Product Description: AutoCAD Mechanical|Company: Autodesk, Inc."
 90
     1024
 91
        1
280
     0
281
     0
  0
CLASS
  1
ACMWELDSTANDARDANSI
  2
AcmWeldingStdANSI
  3
"Amdt_StdImp|Product Description: AutoCAD Mechanical|Company: Autodesk, Inc."
 90
     1024
 91
        1
280
     0
281
     0
  0
CLASS
  1
ACMIDSTANDARDANSI
  2
AcmIdStdANSI
  3
"Amdt_StdImp|Product Description: AutoCAD Mechanical|Company: Autodesk, Inc."
 90
     1024
 91
        1
280
     0
281
     0
  0
CLASS
  1
ACMDATUMSTANDARDANSI
  2
AcmDatumStdANSI
  3
"Amdt_StdImp|Product Description: AutoCAD Mechanical|Company: Autodesk, Inc."
 90
     1024
 91
        1
280
     0
281
     0
  0
CLASS
  1
ACMBOMSTANDARDANSI
  2
AcmBOMStdANSI
  3
"Amdt_StdImp|Product Description: AutoCAD Mechanical|Company: Autodesk, Inc."
 90
     1024
 91
        1
280
     0
281
     0
  0
CLASS
  1
ACMDETAILSTANDARDANSI
  2
AmdtDetailSymStdANSI
  3
"Amdt_StdImp|Product Description: AutoCAD Mechanical|Company: Autodesk, Inc."
 90
     1024
 91
        1
280
     0
281
     0
  0
CLASS
  1
ACMSECTIONSTANDARDANSI
  2
AmdtSectionSymStdANSI
  3
"Amdt_StdImp|Product Description: AutoCAD Mechanical|Company: Autodesk, Inc."
 90
     1024
 91
        1
280
     0
281
     0
  0
CLASS
  1
ACMCENTERLINESTANDARDANSI
  2
AmdtCenterLineStdANSI
  3
"Amdt_StdImp|Product Description: AutoCAD Mechanical|Company: Autodesk, Inc."
 90
     1024
 91
        1
280
     0
281
     0
  0
CLASS
  1
ACMTHREADLINESTANDARDANSI
  2
AmdtThreadLineStdANSI
  3
"Amdt_StdImp|Product Description: AutoCAD Mechanical|Company: Autodesk, Inc."
 90
     1024
 91
        1
280
     0
281
     0
  0
CLASS
  1
ACMNOTESTANDARDANSI
  2
AmdtNoteStdANSI
  3
"Amdt_StdImp|Product Description: AutoCAD Mechanical|Company: Autodesk, Inc."
 90
     1024
 91
        1
280
     0
281
     0
  0
CLASS
  1
ACMTAPERSTANDARDANSI
  2
AcmTaperStdANSI
  3
"Amdt_StdImp|Product Description: AutoCAD Mechanical|Company: Autodesk, Inc."
 90
     1024
 91
        1
280
     0
281
     0
  0
CLASS
  1
ACMANOOTATIONVIEWSTANDARDANSI
  2
AmdtAnViewStdANSI
  3
"Amdt_StdImp|Product Description: AutoCAD Mechanical|Company: Autodesk, Inc."
 90
     1024
 91
        1
280
     0
281
     0
  0
CLASS
  1
ACAMGLAYSTD
  2
AcAmgLayStd
  3
"AmgLay|Product Description: AutoCAD Mechanical|Company: Autodesk, Inc."
 90
     1024
 91
        2
280
     0
281
     0
  0
CLASS
  1
ACAMGDIMSTD
  2
AcAmgDimStd
  3
"AmgDim|Product Description: AutoCAD Mechanical|Company: Autodesk, Inc."
 90
     1024
 91
        2
280
     0
281
     0
  0
CLASS
  1
AMGOBJPROPCFG
  2
AmgObjPropCfg
  3
"AmgLay|Product Description: AutoCAD Mechanical|Company: Autodesk, Inc."
 90
     1025
 91
        1
280
     0
281
     0
  0
CLASS
  1
ACAMGHOLECHARTSTDANSI
  2
AcAmgHoleChartStdANSI
  3
AmgDim|Product Description: AutoCAD Mechanical|Company: Autodesk, Inc.
 90
     1024
 91
        1
280
     0
281
     0
  0
CLASS
  1
ACAMGTITLESTD
  2
AcAmgTitleStd
  3
"AmgTitle|Product Description: AutoCAD Mechanical|Company: Autodesk, Inc."
 90
     4095
 91
        2
280
     0
281
     0
  0
CLASS
  1
AMDTNOTETEMPLATEDB
  2
AmdtNoteTemplateDB
  3
AcmSymBB|Product Description: AutoCAD Mechanical|Company: Autodesk, Inc.
 90
     1024
 91
       12
280
     0
281
     0
  0
CLASS
  1
ACMSTANDARDISO
  2
AcmStandardISO
  3
"Amdt_StdImp|Product Description: AutoCAD Mechanical|Company: Autodesk, Inc."
 90
     1024
 91
        1
280
     0
281
     0
  0
CLASS
  1
ACMSURFSTANDARDISO2002
  2
AcmSurfTextStdISO2002
  3
"Amdt_StdImp|Product Description: AutoCAD Mechanical|Company: Autodesk, Inc."
 90
     1024
 91
        1
280
     0
281
     0
  0
CLASS
  1
ACMFCFSTANDARDISO
  2
AcmFCFStdISO
  3
"Amdt_StdImp|Product Description: AutoCAD Mechanical|Company: Autodesk, Inc."
 90
     1024
 91
        1
280
     0
281
     0
  0
CLASS
  1
ACMWELDSTANDARDISO
  2
AcmWeldingStdISO
  3
"Amdt_StdImp|Product Description: AutoCAD Mechanical|Company: Autodesk, Inc."
 90
     1024
 91
        1
280
     0
281
     0
  0
CLASS
  1
ACMIDSTANDARDISO
  2
AcmIdStdISO
  3
"Amdt_StdImp|Product Description: AutoCAD Mechanical|Company: Autodesk, Inc."
 90
     1024
 91
        1
280
     0
281
     0
  0
CLASS
  1
ACMDATUMSTANDARDISO
  2
AcmDatumStdISO
  3
"Amdt_StdImp|Product Description: AutoCAD Mechanical|Company: Autodesk, Inc."
 90
     1024
 91
        1
280
     0
281
     0
  0
CLASS
  1
ACMBOMSTANDARDISO
  2
AcmBOMStdISO
  3
"Amdt_StdImp|Product Description: AutoCAD Mechanical|Company: Autodesk, Inc."
 90
     1024
 91
        1
280
     0
281
     0
  0
CLASS
  1
ACMDETAILSTANDARDISO
  2
AmdtDetailSymStdISO
  3
"Amdt_StdImp|Product Description: AutoCAD Mechanical|Company: Autodesk, Inc."
 90
     1024
 91
        1
280
     0
281
     0
  0
CLASS
  1
ACMSECTIONSTANDARDISO2001
  2
AmdtSectionSymStdISO2001
  3
"Amdt_StdImp|Product Description: AutoCAD Mechanical|Company: Autodesk, Inc."
 90
     1024
 91
        1
280
     0
281
     0
  0
CLASS
  1
ACMCENTERLINESTANDARDISO
  2
AmdtCenterLineStdISO
  3
"Amdt_StdImp|Product Description: AutoCAD Mechanical|Company: Autodesk, Inc."
 90
     1024
 91
        1
280
     0
281
     0
  0
CLASS
  1
ACMNOTESTANDARDISO
  2
AmdtNoteStdISO
  3
"Amdt_StdImp|Product Description: AutoCAD Mechanical|Company: Autodesk, Inc."
 90
     1024
 91
        1
280
     0
281
     0
  0
CLASS
  1
ACAMGHOLECHARTSTDISO
  2
AcAmgHoleChartStdISO
  3
AmgDim|Product Description: AutoCAD Mechanical|Company: Autodesk, Inc.
 90
     1024
 91
        1
280
     0
281
     0
  0
CLASS
  1
ACMTHREADLINESTANDARDISO
  2
AmdtThreadLineStdISO
  3
"Amdt_StdImp|Product Description: AutoCAD Mechanical|Company: Autodesk, Inc."
 90
     1024
 91
        1
280
     0
281
     0
  0
CLASS
  1
ACMTAPERSTANDARDISO
  2
AcmTaperStdISO
  3
"Amdt_StdImp|Product Description: AutoCAD Mechanical|Company: Autodesk, Inc."
 90
     1024
 91
        1
280
     0
281
     0
  0
CLASS
  1
ACMANOOTATIONVIEWSTANDARDISO
  2
AmdtAnViewStdISO
  3
"Amdt_StdImp|Product Description: AutoCAD Mechanical|Company: Autodesk, Inc."
 90
     1024
 91
        1
280
     0
281
     0
  0
CLASS
  1
AMDTEDGESTANDARDISO13715
  2
AmdtEdgeStdISO13715
  3
"Amdt_StdImp|Product Description: AutoCAD Mechanical|Company: Autodesk, Inc."
 90
     1024
 91
        1
280
     0
281
     0
  0
CLASS
  1
ACMDATAENTRYBLOCK
  2
AcmDataEntryBlock
  3
AcmSymBB|Product Description: AutoCAD Mechanical|Company: Autodesk, Inc.
 90
     1024
 91
        1
280
     0
281
     0
  0
CLASS
  1
ACAMGFILTERDAT
  2
AcAmgFilterDat
  3
"AcadM|Product Description: AutoCAD Mechanical|Company: Autodesk, Inc."
 90
     1024
 91
        0
280
     0
281
     0
  0
ENDSEC
  0
SECTION
  2
TABLES
  0
TABLE
  2
VPORT
  5
52BAC
330
0
100
AcDbSymbolTable
 70
     1
  0
VPORT
  5
52C1C
330
52BAC
100
AcDbSymbolTableRecord
100
AcDbViewportTableRecord
  2
*ACTIVE
 70
     0
 10
0.0
 20
0.0
 11
1.0
 21
1.0
 12
30484.74922581064
 22
26019.01431741565
 13
0.0
 23
0.0
 14
2.5
 24
2.5
 15
10.0
 25
10.0
 16
0.0
 26
0.0
 36
1.0
 17
0.0
 27
0.0
 37
0.0
 40
2463.414767394484
 41
1.929455445544554
 42
50.0
 43
0.0
 44
0.0
 50
0.0
 51
0.0
 71
     0
 72
  1000
 73
     1
 74
     3
 75
     0
 76
     0
 77
     0
 78
     0
281
     0
 65
     0
110
0.0
120
0.0
130
0.0
111
1.0
121
0.0
131
0.0
112
0.0
122
1.0
132
0.0
 79
     0
146
0.0
348
52BD3
 60
     3
 61
     5
292
     1
282
     0
141
0.0
142
0.0
 63
   250
421
  3355443
  0
ENDTAB
  0
TABLE
  2
LTYPE
  5
52BA9
330
0
100
AcDbSymbolTable
 70
    22
  0
LTYPE
  5
52C06
330
52BA9
100
AcDbSymbolTableRecord
100
AcDbLinetypeTableRecord
  2
ByBlock
 70
     0
  3

 72
    65
 73
     0
 40
0.0
  0
LTYPE
  5
52C07
330
52BA9
100
AcDbSymbolTableRecord
100
AcDbLinetypeTableRecord
  2
ByLayer
 70
     0
  3

 72
    65
 73
     0
 40
0.0
  0
LTYPE
  5
52C08
330
52BA9
100
AcDbSymbolTableRecord
100
AcDbLinetypeTableRecord
  2
CONTINUOUS
 70
     0
  3
Solid line
 72
    65
 73
     0
 40
0.0
  0
LTYPE
  5
530E8
330
52BA9
100
AcDbSymbolTableRecord
100
AcDbLinetypeTableRecord
  2
HIDDEN
 70
     0
  3
Hidden __ __ __ __ __ __ __ __ __ __ __ __ __ _
 72
    65
 73
     2
 40
0.375
 49
0.25
 74
     0
 49
-0.125
 74
     0
  0
LTYPE
  5
530E9
330
52BA9
100
AcDbSymbolTableRecord
100
AcDbLinetypeTableRecord
  2
PHANTOM2
 70
     0
  3
Phantom (.5x) ___ _ _ ___ _ _ ___ _ _ ___ _ _
 72
    65
 73
     6
 40
1.25
 49
0.625
 74
     0
 49
-0.125
 74
     0
 49
0.125
 74
     0
 49
-0.125
 74
     0
 49
0.125
 74
     0
 49
-0.125
 74
     0
  0
LTYPE
  5
530EA
330
52BA9
100
AcDbSymbolTableRecord
100
AcDbLinetypeTableRecord
  2
CENTER
 70
     0
  3
Center ____ _ ____ _ ____ _ ____ _ ____ _ ____
 72
    65
 73
     4
 40
2.0
 49
1.25
 74
     0
 49
-0.25
 74
     0
 49
0.25
 74
     0
 49
-0.25
 74
     0
  0
LTYPE
  5
5312F
330
52BA9
100
AcDbSymbolTableRecord
100
AcDbLinetypeTableRecord
  2
Amconstr
 70
     0
  3
_______________________
 72
    65
 73
     2
 40
9999.0
 49
9999.0
 74
     0
 49
0.0
 74
     0
  0
LTYPE
  5
53135
330
52BA9
100
AcDbSymbolTableRecord
100
AcDbLinetypeTableRecord
  2
CENTER2
 70
     0
  3
Center (.5x) ___ _ ___ _ ___ _ ___ _ ___ _ ___
 72
    65
 73
     4
 40
1.125
 49
0.75
 74
     0
 49
-0.125
 74
     0
 49
0.125
 74
     0
 49
-0.125
 74
     0
  0
LTYPE
  5
53136
330
52BA9
100
AcDbSymbolTableRecord
100
AcDbLinetypeTableRecord
  2
HIDDEN2
 70
     0
  3
Hidden (.5x) _ _ _ _ _ _ _ _ _ _ _ _ _ _ _ _ _
 72
    65
 73
     2
 40
0.1875
 49
0.125
 74
     0
 49
-0.0625
 74
     0
  0
LTYPE
  5
53137
330
52BA9
100
AcDbSymbolTableRecord
100
AcDbLinetypeTableRecord
  2
Amzigzag2
 70
     0
  3
/\/-/\/-/\/-/\/-/\/-/\/
 72
    65
 73
     2
 40
0.4401
 49
0.0001
 74
     4
 75
   136
340
53133
 46
0.0016
 50
0.0
 44
0.0
 45
0.0
 49
-0.4400000000000003
 74
     0
  0
LTYPE
  5
53145
330
52BA9
100
AcDbSymbolTableRecord
100
AcDbLinetypeTableRecord
  2
ACANSTGB
 70
     0
  3
__ . . __ . .
 72
    65
 73
     6
 40
0.35433070866
 49
0.15748031496
 74
     0
 49
-0.03937007874
 74
     0
 49
0.03937007874
 74
     0
 49
-0.03937007874
 74
     0
 49
0.03937007874
 74
     0
 49
-0.03937007874
 74
     0
  0
LTYPE
  5
53146
330
52BA9
100
AcDbSymbolTableRecord
100
AcDbLinetypeTableRecord
  2
ACANSTGL
 70
     0
  3
_ _ _ _ _
 72
    65
 73
     2
 40
0.11811023622
 49
0.07874015748
 74
     0
 49
-0.03937007874
 74
     0
  0
LTYPE
  5
5317A
330
52BA9
100
AcDbSymbolTableRecord
100
AcDbLinetypeTableRecord
  2
ACISOWELD
 70
     0
  3
_ _ _ _ _
 72
    65
 73
     2
 40
2.0
 49
2.0
 74
     0
 49
-1.0
 74
     0
  0
LTYPE
  5
5317B
330
52BA9
100
AcDbSymbolTableRecord
100
AcDbLinetypeTableRecord
  2
ACISOTGB
 70
     0
  3
__ . . __ . .
 72
    65
 73
     6
 40
9.0
 49
4.0
 74
     0
 49
-1.0
 74
     0
 49
1.0
 74
     0
 49
-1.0
 74
     0
 49
1.0
 74
     0
 49
-1.0
 74
     0
  0
LTYPE
  5
5317C
330
52BA9
100
AcDbSymbolTableRecord
100
AcDbLinetypeTableRecord
  2
ACISOTGL
 70
     0
  3
_ _ _ _ _
 72
    65
 73
     2
 40
3.0
 49
2.0
 74
     0
 49
-1.0
 74
     0
  0
LTYPE
  5
55AE4
330
52BA9
100
AcDbSymbolTableRecord
100
AcDbLinetypeTableRecord
  2
DASHED2
 70
     0
  3
Dashed (.5x) _ _ _ _ _ _ _ _ _ _ _ _ _ _ _ _ _
 72
    65
 73
     2
 40
9.524999999999996
 49
6.349999999999998
 74
     0
 49
-3.174999999999998
 74
     0
  0
ENDTAB
  0
TABLE
  2
LAYER
  5
52BA6
102
{ACAD_XDICTIONARY
360
52CA6
102
}
330
0
100
AcDbSymbolTable
 70
     6
  0
LAYER
  5
52C00
102
{ACAD_XDICTIONARY
360
52DA2
102
}
330
52BA6
100
AcDbSymbolTableRecord
100
AcDbLayerTableRecord
  2
0
 70
     0
 62
     7
  6
CONTINUOUS
370
    -3
390
52BB3
347
52BC5
  0
LAYER
  5
52C1E
102
{ACAD_XDICTIONARY
360
52DA4
102
}
330
52BA6
100
AcDbSymbolTableRecord
100
AcDbLayerTableRecord
  2
LAYER1
 70
     0
 62
     1
  6
CONTINUOUS
370
    -3
390
52BB3
347
52BC5
  0
LAYER
  5
52C1F
330
52BA6
100
AcDbSymbolTableRecord
100
AcDbLayerTableRecord
  2
DEFPOINTS
 70
     0
 62
     7
  6
CONTINUOUS
290
     0
370
    -3
390
52BB3
347
52BC5
  0
LAYER
  5
52C21
102
{ACAD_XDICTIONARY
360
52DA8
102
}
330
52BA6
100
AcDbSymbolTableRecord
100
AcDbLayerTableRecord
  2
CUTOUT
 70
     0
 62
    60
  6
CONTINUOUS
370
    -3
390
52BB3
347
52BC5
  0
LAYER
  5
52C9C
102
{ACAD_XDICTIONARY
360
52DAC
102
}
330
52BA6
100
AcDbSymbolTableRecord
100
AcDbLayerTableRecord
  2
DIMS SPECS
 70
     0
 62
    41
  6
CONTINUOUS
370
    35
390
52BB3
347
52BC5
  0
ENDTAB
  0
TABLE
  2
STYLE
  5
52BA7
330
0
100
AcDbSymbolTable
 70
     8
  0
STYLE
  5
52C01
330
52BA7
100
AcDbSymbolTableRecord
100
AcDbTextStyleTableRecord
  2
STANDARD
 70
     0
 40
0.0
 41
1.0
 50
0.0
 71
     0
 42
2.5
  3
ISOCP.SHX
  4

  0
STYLE
  5
52C23
330
52BA7
100
AcDbSymbolTableRecord
100
AcDbTextStyleTableRecord
  2
ACISOTS
 70
     0
 40
1.0
 41
1.0
 50
0.0
 71
     0
 42
2.5
  3
isocp.shx
  4

  0
STYLE
  5
52C24
330
52BA7
100
AcDbSymbolTableRecord
100
AcDbTextStyleTableRecord
  2
ABODE-ISO
 70
     0
 40
17.0
 41
0.9
 50
0.0
 71
     0
 42
0.2
  3
txt
  4

  0
STYLE
  5
53133
330
52BA7
100
AcDbSymbolTableRecord
100
AcDbTextStyleTableRecord
  2

 70
     1
 40
0.0
 41
1.0
 50
0.0
 71
     0
 42
2.5
  3
genltshp.shx
  4

  0
STYLE
  5
53144
330
52BA7
100
AcDbSymbolTableRecord
100
AcDbTextStyleTableRecord
  2
ACANSGDT
 70
     0
 40
0.0
 41
1.0
 50
0.0
 71
     0
 42
2.5
  3
amgdt.shx
  4

  0
STYLE
  5
53180
330
52BA7
100
AcDbSymbolTableRecord
100
AcDbTextStyleTableRecord
  2
ACISOGDT
 70
     0
 40
0.0
 41
1.0
 50
0.0
 71
     0
 42
2.5
  3
amgdt.shx
  4

  0
STYLE
  5
53181
330
52BA7
100
AcDbSymbolTableRecord
100
AcDbTextStyleTableRecord
  2
Abode ISO Bold
 70
     0
 40
17.0
 41
0.9
 50
0.0
 71
     0
 42
1.0
  3
GOTHICB.TTF
  4

1001
ACAD
1000
Century Gothic
1071
 33554466
  0
ENDTAB
  0
TABLE
  2
VIEW
  5
52BAA
330
0
100
AcDbSymbolTable
 70
     0
  0
ENDTAB
  0
TABLE
  2
UCS
  5
52BAB
330
0
100
AcDbSymbolTable
 70
     0
  0
ENDTAB
  0
TABLE
  2
APPID
  5
52BAD
330
0
100
AcDbSymbolTable
 70
    23
  0
APPID
  5
52C02
330
52BAD
100
AcDbSymbolTableRecord
100
AcDbRegAppTableRecord
  2
ACAD
 70
     0
  0
APPID
  5
52C09
330
52BAD
100
AcDbSymbolTableRecord
100
AcDbRegAppTableRecord
  2
ACADANNOTATIVE
 70
     0
  0
APPID
  5
52C13
330
52BAD
100
AcDbSymbolTableRecord
100
AcDbRegAppTableRecord
  2
ACAD_MLEADERVER
 70
     0
  0
APPID
  5
52C25
330
52BAD
100
AcDbSymbolTableRecord
100
AcDbRegAppTableRecord
  2
MCAD_NO_VIS
 70
     0
  0
APPID
  5
52C26
330
52BAD
100
AcDbSymbolTableRecord
100
AcDbRegAppTableRecord
  2
ACAD_TEMP_GRAPHIC
 70
     0
  0
APPID
  5
52C27
330
52BAD
100
AcDbSymbolTableRecord
100
AcDbRegAppTableRecord
  2
AD_DRAW
 70
     0
  0
APPID
  5
52C28
330
52BAD
100
AcDbSymbolTableRecord
100
AcDbRegAppTableRecord
  2
ACATTRIBSERVICES
 70
     0
  0
APPID
  5
52C29
330
52BAD
100
AcDbSymbolTableRecord
100
AcDbRegAppTableRecord
  2
DESIGNERASSEMBLIES
 70
     0
  0
APPID
  5
52C2A
330
52BAD
100
AcDbSymbolTableRecord
100
AcDbRegAppTableRecord
  2
ACADM_DIM_EDIT
 70
     0
  0
APPID
  5
52C2B
330
52BAD
100
AcDbSymbolTableRecord
100
AcDbRegAppTableRecord
  2
AMDT_DM_ADJ
 70
     0
  0
APPID
  5
52C2C
330
52BAD
100
AcDbSymbolTableRecord
100
AcDbRegAppTableRecord
  2
ACAD_DSTYLE_DIMJOGGED_JOGA
 70
     0
  0
APPID
  5
52C2D
330
52BAD
100
AcDbSymbolTableRecord
100
AcDbRegAppTableRecord
  2
ACAECLAYERSTANDARD
 70
     0
  0
APPID
  5
52C2E
330
52BAD
100
AcDbSymbolTableRecord
100
AcDbRegAppTableRecord
  2
ACAD_PSEXT
 70
     0
  0
APPID
  5
52C2F
330
52BAD
100
AcDbSymbolTableRecord
100
AcDbRegAppTableRecord
  2
ACAD_DSTYLE_DIMJAG
 70
     0
  0
APPID
  5
52C30
330
52BAD
100
AcDbSymbolTableRecord
100
AcDbRegAppTableRecord
  2
ACAD_DSTYLE_DIMTALN
 70
     0
  0
APPID
  5
52C31
330
52BAD
100
AcDbSymbolTableRecord
100
AcDbRegAppTableRecord
  2
GENIUS_GENODEF_13
 70
     0
  0
APPID
  5
52C32
330
52BAD
100
AcDbSymbolTableRecord
100
AcDbRegAppTableRecord
  2
ACAD_DSTYLE_DIMINSPECT
 70
     0
  0
APPID
  5
52C33
330
52BAD
100
AcDbSymbolTableRecord
100
AcDbRegAppTableRecord
  2
GENIUS_GENREC_14
 70
     0
  0
APPID
  5
52C34
330
52BAD
100
AcDbSymbolTableRecord
100
AcDbRegAppTableRecord
  2
GENIUS_GENOBJ-N-REC_13
 70
     0
  0
APPID
  5
52C35
330
52BAD
100
AcDbSymbolTableRecord
100
AcDbRegAppTableRecord
  2
ACAD_DSTYLE_DIMRADIAL_EXTENSION
 70
     0
  0
APPID
  5
52C36
330
52BAD
100
AcDbSymbolTableRecord
100
AcDbRegAppTableRecord
  2
ACAD_DSTYLE_DIMBREAK
 70
     0
  0
APPID
  5
52C5D
330
52BAD
100
AcDbSymbolTableRecord
100
AcDbRegAppTableRecord
  2
ACAD_EXEMPT_FROM_CAD_STANDARDS
 70
     0
  0
APPID
  5
53185
330
52BAD
100
AcDbSymbolTableRecord
100
AcDbRegAppTableRecord
  2
ACAD_DSTYLE_DIMJOGGED_JOGANGLE_SYMBOL
 70
     0
  0
ENDTAB
  0
TABLE
  2
DIMSTYLE
  5
52BAE
330
0
100
AcDbSymbolTable
 70
    15
100
AcDbDimStyleTable
 71
     1
340
5312A
  0
DIMSTYLE
105
52C03
330
52BAE
100
AcDbSymbolTableRecord
100
AcDbDimStyleTableRecord
  2
STANDARD
 70
     0
271
     2
272
     2
279
     2
284
     8
285
     8
286
     8
340
52C01
  0
DIMSTYLE
105
52C37
330
52BAE
100
AcDbSymbolTableRecord
100
AcDbDimStyleTableRecord
  2
AM_ISO
 70
     0
  4
"
 41
3.5
 42
1.0
 43
10.0
 44
1.0
 47
0.1
 48
0.1
 73
     0
 74
     0
 77
     1
 78
     8
140
3.5
141
0.0
143
0.0393701
146
0.71
147
1.5
172
     1
176
   256
177
   256
178
     2
271
     2
272
     2
279
     2
284
     8
285
     8
286
     8
340
52C01
  0
DIMSTYLE
105
52CA0
330
52BAE
100
AcDbSymbolTableRecord
100
AcDbDimStyleTableRecord
  2
abode-iso
 70
     0
 40
10.0
 41
1.25
 42
1.5
 43
6.0
 44
0.0
 45
0.00000001
 46
10.0
 77
     1
 78
    12
 79
     3
140
17.0
143
0.03937
147
0.75
171
     3
172
     1
176
   256
177
   256
178
   256
271
     0
272
     0
274
     3
340
52C24
342
52C3E
371
    25
372
    25
1001
ACAD_DSTYLE_DIMJAG
1070
   388
1040
1.5
1001
ACAD_DSTYLE_DIMTALN
1070
   392
1070
     0
  0
DIMSTYLE
105
52CA1
102
{ACAD_REACTORS
330
55C94
102
}
330
52BAE
100
AcDbSymbolTableRecord
100
AcDbDimStyleTableRecord
  2
abode-iso$4
 70
     0
 40
10.0
 41
1.25
 42
1.5
 43
6.0
 44
0.0
 45
0.00000001
 46
10.0
 77
     1
 78
    12
 79
     3
140
17.0
143
0.03937
147
0.75
171
     3
172
     1
176
   256
177
   256
178
   256
271
     0
272
     0
274
     3
340
52C24
342
52C3E
371
    25
372
    25
1001
ACAD_DSTYLE_DIMBREAK
1070
   391
1040
3.75
1001
ACAD_DSTYLE_DIMJAG
1070
   388
1040
1.5
1001
ACAD_DSTYLE_DIMTALN
1070
   392
1070
     0
  0
DIMSTYLE
105
52CA2
102
{ACAD_REACTORS
330
55C8E
330
55C91
330
55C95
330
55C98
102
}
330
52BAE
100
AcDbSymbolTableRecord
100
AcDbDimStyleTableRecord
  2
abode-iso$0
 70
     0
 40
10.0
 41
1.25
 42
1.5
 43
6.0
 44
0.0
 45
0.00000001
 46
10.0
 77
     1
 78
    12
 79
     3
140
17.0
143
0.03937
147
0.75
171
     3
172
     1
176
   256
177
   256
178
   256
271
     0
272
     0
274
     3
340
52C24
342
52C3E
371
    25
372
    25
1001
ACAD_DSTYLE_DIMJAG
1070
   388
1040
1.5
1001
ACAD_DSTYLE_DIMTALN
1070
   392
1070
     0
  0
DIMSTYLE
105
5312A
102
{ACAD_REACTORS
330
55BE4
102
}
330
52BAE
100
AcDbSymbolTableRecord
100
AcDbDimStyleTableRecord
  2
AM_ANSI
 70
     0
  4
mm
 41
0.12
 42
0.05
 43
0.5
 44
0.1
 47
0.1
 48
0.1
 78
     7
 79
     2
 90
     1
140
0.12
141
0.0
146
0.71
147
0.06
176
   256
177
   256
178
   140
274
     4
284
     7
340
52C01
345
52C06
346
52C06
347
52C06
371
    -1
372
    -1
  0
DIMSTYLE
105
53138
330
52BAE
100
AcDbSymbolTableRecord
100
AcDbDimStyleTableRecord
  2
AM_ANSI$3
 70
     0
  4
mm
 41
0.12
 42
0.05
 43
0.5
 44
0.1
 47
0.1
 48
0.1
 78
     7
 79
     2
 90
     1
140
0.12
141
0.0
146
0.71
147
0.06
176
   256
177
   256
178
   140
274
     4
284
     7
288
     1
289
     0
340
52C01
345
52C06
346
52C06
347
52C06
371
    -1
372
    -1
  0
DIMSTYLE
105
53139
330
52BAE
100
AcDbSymbolTableRecord
100
AcDbDimStyleTableRecord
  2
AM_ANSI$4
 70
     0
  4
mm
 41
0.12
 42
0.05
 43
0.5
 44
0.1
 47
0.1
 48
0.1
 78
     7
 79
     2
 90
     1
140
0.12
141
0.0
146
0.71
147
0.06
176
   256
177
   256
178
   140
274
     4
284
     7
340
52C01
345
52C06
346
52C06
347
52C06
371
    -1
372
    -1
  0
DIMSTYLE
105
5313A
330
52BAE
100
AcDbSymbolTableRecord
100
AcDbDimStyleTableRecord
  2
AM_ANSI$7
 70
     0
  4
mm
 41
0.12
 42
0.05
 43
0.5
 44
0.1
 47
0.1
 48
0.1
 78
     7
 79
     2
 90
     1
140
0.12
141
0.0
146
0.71
147
0.06
176
   256
177
   256
178
   140
274
     4
284
     7
340
52C01
345
52C06
346
52C06
347
52C06
371
    -1
372
    -1
  0
DIMSTYLE
105
5313B
330
52BAE
100
AcDbSymbolTableRecord
100
AcDbDimStyleTableRecord
  2
AM_ANSI$SF
 70
     0
  4
mm
 41
0.12
 42
0.05
 43
0.5
 44
0.1
 47
0.1
 48
0.1
 75
     1
 76
     1
 78
     7
 79
     2
 90
     1
140
0.12
141
0.0
146
0.71
147
0.06
176
   256
177
   256
178
   140
274
     4
284
     7
340
52C01
345
52C06
346
52C06
347
52C06
371
    -1
372
    -1
  0
DIMSTYLE
105
53140
330
52BAE
100
AcDbSymbolTableRecord
100
AcDbDimStyleTableRecord
  2
AM_ANSI$SH
 70
     0
  4
mm
 41
0.12
 42
0.05
 43
0.5
 44
0.1
 47
0.1
 48
0.1
 75
     1
 76
     1
 78
     7
 79
     2
 90
     1
140
0.12
141
0.0
146
0.71
147
0.06
173
     1
176
   256
177
   256
178
   140
274
     4
284
     7
340
52C01
343
5313C
345
52C06
346
52C06
347
52C06
371
    -1
372
    -1
  0
DIMSTYLE
105
53182
330
52BAE
100
AcDbSymbolTableRecord
100
AcDbDimStyleTableRecord
  2
abode-iso$7
 70
     0
 40
10.0
 41
2.5
 42
1.5
 43
6.0
 44
3.174999999999998
 45
0.00000001
 46
10.0
 77
     1
 78
    12
 79
     3
140
2.5
143
0.03937
146
1.399999999999999
147
0.762
171
     3
172
     1
176
     7
177
   256
178
   256
271
     0
272
     0
274
     3
340
52C24
371
    25
372
    25
1001
ACAD_DSTYLE_DIMBREAK
1070
   391
1040
3.75
1001
ACAD_DSTYLE_DIMJAG
1070
   388
1040
1.5
1001
ACAD_DSTYLE_DIMTALN
1070
   392
1070
     0
  0
DIMSTYLE
105
53183
330
52BAE
100
AcDbSymbolTableRecord
100
AcDbDimStyleTableRecord
  2
abode-iso$2
 70
     0
 40
10.0
 41
1.25
 42
1.5
 43
6.0
 44
0.0
 45
0.00000001
 46
10.0
 77
     1
 78
    12
 79
     3
140
17.0
143
0.03937
147
0.75
171
     3
172
     1
176
   256
177
   256
178
   256
271
     0
272
     0
274
     3
340
52C24
342
52C3E
371
    25
372
    25
1001
ACAD_DSTYLE_DIMJAG
1070
   388
1040
1.5
1001
ACAD_DSTYLE_DIMTALN
1070
   392
1070
     0
  0
DIMSTYLE
105
53184
330
52BAE
100
AcDbSymbolTableRecord
100
AcDbDimStyleTableRecord
  2
abode-iso$3
 70
     0
 40
10.0
 41
1.25
 42
1.5
 43
6.0
 44
0.0
 45
0.00000001
 46
10.0
 77
     1
 78
    12
 79
     3
140
17.0
143
0.03937
147
0.75
171
     3
172
     1
176
   256
177
   256
178
   256
271
     0
272
     0
274
     3
340
52C24
342
52C3E
371
    25
372
    25
1001
ACAD_DSTYLE_DIMJAG
1070
   388
1040
1.5
1001
ACAD_DSTYLE_DIMTALN
1070
   392
1070
     0
  0
ENDTAB
  0
TABLE
  2
BLOCK_RECORD
  5
52BA5
330
0
100
AcDbSymbolTable
 70
    20
  0
BLOCK_RECORD
  5
52C18
330
52BA5
100
AcDbSymbolTableRecord
100
AcDbBlockTableRecord
  2
*Model_Space
340
52C1B
 70
     0
280
     1
281
     0
  0
BLOCK_RECORD
  5
52C14
330
52BA5
100
AcDbSymbolTableRecord
100
AcDbBlockTableRecord
  2
*Paper_Space
340
52C17
 70
     0
280
     1
281
     0
  0
BLOCK_RECORD
  5
52C3E
330
52BA5
100
AcDbSymbolTableRecord
100
AcDbBlockTableRecord
  2
FILLED-1
340
0
102
{BLKREFS
331
55B45
331
55B46
331
55B51
331
55B52
331
55B5D
331
55B5E
331
55B6A
331
55B74
331
55B75
331
55C0D
331
55C0E
331
55C19
331
55C1A
331
55C26
331
55C30
331
55C31
331
55C3C
331
55C3D
331
55CA3
331
55CA4
331
55CAF
331
55CB0
331
55CBC
331
55CC6
331
55CC7
331
55CD2
331
55CD3
102
}
 70
     0
280
     1
281
     0
  0
BLOCK_RECORD
  5
52C58
330
52BA5
100
AcDbSymbolTableRecord
100
AcDbBlockTableRecord
  2
*U1
340
0
102
{BLKREFS
331
4EFE9
102
}
 70
     0
280
     1
281
     0
  0
BLOCK_RECORD
  5
5313C
330
52BA5
100
AcDbSymbolTableRecord
100
AcDbBlockTableRecord
  2
GENAXEH
340
0
 70
     0
280
     1
281
     0
  0
BLOCK_RECORD
  5
55C9B
330
52BA5
100
AcDbSymbolTableRecord
100
AcDbBlockTableRecord
  2
*D15
340
0
 70
     0
280
     1
281
     0
  0
BLOCK_RECORD
  5
55CA9
330
52BA5
100
AcDbSymbolTableRecord
100
AcDbBlockTableRecord
  2
*D16
340
0
 70
     0
280
     1
281
     0
  0
BLOCK_RECORD
  5
55CB5
330
52BA5
100
AcDbSymbolTableRecord
100
AcDbBlockTableRecord
  2
*D17
340
0
 70
     0
280
     1
281
     0
  0
BLOCK_RECORD
  5
55CBF
330
52BA5
100
AcDbSymbolTableRecord
100
AcDbBlockTableRecord
  2
*D18
340
0
 70
     0
280
     1
281
     0
  0
BLOCK_RECORD
  5
55CCC
330
52BA5
100
AcDbSymbolTableRecord
100
AcDbBlockTableRecord
  2
*D19
340
0
 70
     0
280
     1
281
     0
  0
ENDTAB
  0
ENDSEC
  0
SECTION
  2
BLOCKS
  0
BLOCK
  5
52C19
330
52C18
100
AcDbEntity
  8
0
100
AcDbBlockBegin
  2
*Model_Space
 70
     0
 10
0.0
 20
0.0
 30
0.0
  3
*Model_Space
  1

  0
ENDBLK
  5
52C1A
330
52C18
100
AcDbEntity
  8
0
100
AcDbBlockEnd
  0
BLOCK
  5
52C15
330
52C14
100
AcDbEntity
 67
     1
  8
0
100
AcDbBlockBegin
  2
*Paper_Space
 70
     0
 10
0.0
 20
0.0
 30
0.0
  3
*Paper_Space
  1

  0
ENDBLK
  5
52C16
330
52C14
100
AcDbEntity
 67
     1
  8
0
100
AcDbBlockEnd
  0
BLOCK
  5
52C3F
330
52C3E
100
AcDbEntity
  8
0
100
AcDbBlockBegin
  2
FILLED-1
 70
     0
 10
0.0
 20
0.0
 30
0.0
  3
FILLED-1
  1

  0
LINE
  5
13A
330
52C3E
100
AcDbEntity
  8
0
 62
     0
100
AcDbLine
 10
-1.0
 20
0.0
 30
0.0
 11
0.0
 21
0.0
 31
0.0
  0
LWPOLYLINE
  5
13B
330
52C3E
100
AcDbEntity
  8
0
 62
     0
100
AcDbPolyline
 90
        4
 70
   128
 43
0.0
 10
-1.0
 20
-0.3333333333333333
 10
0.0
 20
0.0
 10
-1.0
 20
0.3333333333333333
 10
-1.0
 20
-0.3333333333333333
  0
SOLID
  5
141
330
52C3E
100
AcDbEntity
  8
0
 62
     0
100
AcDbTrace
 10
-1.0
 20
-0.3333333333333333
 30
0.0
 11
0.0
 21
0.0
 31
0.0
 12
-1.0
 22
0.3333333333333333
 32
0.0
 13
-1.0
 23
-0.3333333333333333
 33
0.0
  0
LINE
  5
142
330
52C3E
100
AcDbEntity
  8
0
 62
     0
100
AcDbLine
 10
-1.0
 20
-0.3333333333333333
 30
0.0
 11
0.0
 21
0.0
 31
0.0
  0
LINE
  5
143
330
52C3E
100
AcDbEntity
  8
0
 62
     0
100
AcDbLine
 10
0.0
 20
0.0
 30
0.0
 11
-1.0
 21
0.3333333333333333
 31
0.0
  0
LINE
  5
144
330
52C3E
100
AcDbEntity
  8
0
 62
     0
100
AcDbLine
 10
-1.0
 20
0.3333333333333333
 30
0.0
 11
-1.0
 21
-0.3333333333333333
 31
0.0
  0
ENDBLK
  5
145
330
52C3E
100
AcDbEntity
  8
0
100
AcDbBlockEnd
  0
BLOCK
  5
52C59
330
52C58
100
AcDbEntity
  8
0
100
AcDbBlockBegin
  2
*U1
 70
     1
 10
0.0
 20
0.0
 30
0.0
  3
*U1
  1

  0
TEXT
  5
51B8B
330
52C58
100
AcDbEntity
  8
0
 62
     1
100
AcDbText
 10
29068.05134894387
 20
25957.69496399888
 30
0.0
 40
8.0
  1
All details are provided in good faith and
  7
ACISOTS
100
AcDbText
  0
TEXT
  5
51B8C
330
52C58
100
AcDbEntity
  8
0
 62
     1
100
AcDbText
 10
29049.60334894387
 20
25944.36163066555
 30
0.0
 40
8.0
  1
within
  7
ACISOTS
100
AcDbText
  0
TEXT
  5
51B8D
330
52C58
100
AcDbEntity
  8
0
 62
     1
100
AcDbText
 10
29085.57434894387
 20
25931.02829733222
 30
0.0
 40
8.0
  1
the tolerances of the manufacturing process.
  7
ACISOTS
100
AcDbText
  0
TEXT
  5
51B8E
330
52C58
100
AcDbEntity
  8
0
 62
     1
100
AcDbText
 10
29050.90814894387
 20
25917.69496399888
 30
0.0
 40
8.0
  1
Note: the dimensions on ceramic fireclay
  7
ACISOTS
100
AcDbText
  0
TEXT
  5
51B8F
330
52C58
100
AcDbEntity
  8
0
 62
     1
100
AcDbText
 10
29049.60334894387
 20
25904.36163066556
 30
0.0
 40
8.0
  1
products
  7
ACISOTS
100
AcDbText
  0
TEXT
  5
51B90
330
52C58
100
AcDbEntity
  8
0
 62
     1
100
AcDbText
 10
29052.43194894387
 20
25891.02829733223
 30
0.0
 40
8.0
  1
are subject to wider tolerances due to the
  7
ACISOTS
100
AcDbText
  0
TEXT
  5
51B91
330
52C58
100
AcDbEntity
  8
0
 62
     1
100
AcDbText
 10
29049.60334894387
 20
25877.69496399888
 30
0.0
 40
8.0
  1
nature
  7
ACISOTS
100
AcDbText
  0
TEXT
  5
51B92
330
52C58
100
AcDbEntity
  8
0
 62
     1
100
AcDbText
 10
29074.14634894387
 20
25864.36163066556
 30
0.0
 40
8.0
  1
of this natural material and the firing
  7
ACISOTS
100
AcDbText
  0
TEXT
  5
51B93
330
52C58
100
AcDbEntity
  8
0
 62
     1
100
AcDbText
 10
29049.60334894387
 20
25851.02829733223
 30
0.0
 40
8.0
  1
process.
  7
ACISOTS
100
AcDbText
  0
TEXT
  5
51B94
330
52C58
100
AcDbEntity
  8
0
 62
     1
100
AcDbText
 10
29079.09834894386
 20
25824.36163066557
 30
0.0
 40
8.0
  1
We recommend that a test cutout is made in
  7
ACISOTS
100
AcDbText
  0
TEXT
  5
51B95
330
52C58
100
AcDbEntity
  8
0
 62
     1
100
AcDbText
 10
29054.71764894387
 20
25811.02829733223
 30
0.0
 40
8.0
  1
scrap timber and checked against the actual
  7
ACISOTS
100
AcDbText
  0
TEXT
  5
51B96
330
52C58
100
AcDbEntity
  8
0
 62
     1
100
AcDbText
 10
29049.60334894387
 20
25797.6949639989
 30
0.0
 40
8.0
  1
sink
  7
ACISOTS
100
AcDbText
  0
TEXT
  5
51B97
330
52C58
100
AcDbEntity
  8
0
 62
     1
100
AcDbText
 10
29105.76534894387
 20
25784.36163066557
 30
0.0
 40
8.0
  1
supplied before committing to cutting
  7
ACISOTS
100
AcDbText
  0
TEXT
  5
51B98
330
52C58
100
AcDbEntity
  8
0
 62
     1
100
AcDbText
 10
29049.60334894387
 20
25771.02829733223
 30
0.0
 40
8.0
  1
the
  7
ACISOTS
100
AcDbText
  0
TEXT
  5
51B99
330
52C58
100
AcDbEntity
  8
0
 62
     1
100
AcDbText
 10
29296.24334894387
 20
25757.6949639989
 30
0.0
 40
8.0
  1
worksurface.
  7
ACISOTS
100
AcDbText
  0
TEXT
  5
51B9A
330
52C58
100
AcDbEntity
  8
0
 62
     1
100
AcDbText
 10
29076.43234894387
 20
25731.02829733224
 30
0.0
 40
8.0
  1
Abode can not accept liability for problems
  7
ACISOTS
100
AcDbText
  0
TEXT
  5
51B9B
330
52C58
100
AcDbEntity
  8
0
 62
     1
100
AcDbText
 10
29049.60334894387
 20
25717.69496399891
 30
0.0
 40
8.0
  1
or
  7
ACISOTS
100
AcDbText
  0
TEXT
  5
51B9C
330
52C58
100
AcDbEntity
  8
0
 62
     1
100
AcDbText
 10
29080.62234894387
 20
25704.36163066557
 30
0.0
 40
8.0
  1
costs incurred by failure to follow this advise,
  7
ACISOTS
100
AcDbText
  0
TEXT
  5
51B9D
330
52C58
100
AcDbEntity
  8
0
 62
     1
100
AcDbText
 10
29073.38434894387
 20
25691.02829733224
 30
0.0
 40
8.0
  1
dimensions weights & measures are subject
  7
ACISOTS
100
AcDbText
  0
TEXT
  5
51B9E
330
52C58
100
AcDbEntity
  8
0
 62
     1
100
AcDbText
 10
29049.60334894387
 20
25677.69496399891
 30
0.0
 40
8.0
  1
to
  7
ACISOTS
100
AcDbText
  0
TEXT
  5
51B9F
330
52C58
100
AcDbEntity
  8
0
 62
     1
100
AcDbText
 10
29056.62234894387
 20
25664.36163066557
 30
0.0
 40
8.0
  1
change without prior notice. Errors and omissions
  7
ACISOTS
100
AcDbText
  0
TEXT
  5
51BA0
330
52C58
100
AcDbEntity
  8
0
 62
     1
100
AcDbText
 10
29317.19334894387
 20
25651.02829733225
 30
0.0
 40
8.0
  1
excepted
  7
ACISOTS
100
AcDbText
  0
ENDBLK
  5
51BA2
330
52C58
100
AcDbEntity
  8
0
100
AcDbBlockEnd
  0
BLOCK
  5
5313E
330
5313C
100
AcDbEntity
  8
0
100
AcDbBlockBegin
  2
GENAXEH
 70
     0
 10
0.0
 20
0.0
 30
0.0
  3
GENAXEH
  1

  0
LINE
  5
5313D
330
5313C
100
AcDbEntity
  8
0
100
AcDbLine
 10
-1.0
 20
0.0
 30
0.0
 11
1.0
 21
0.0
 31
0.0
  0
ENDBLK
  5
5313F
330
5313C
100
AcDbEntity
  8
0
100
AcDbBlockEnd
  0
BLOCK
  5
55C9C
330
55C9B
100
AcDbEntity
  8
0
100
AcDbBlockBegin
  2
*D15
 70
     1
 10
0.0
 20
0.0
 30
0.0
  3
*D15
  1

  0
LINE
  5
55C9E
330
55C9B
100
AcDbEntity
  8
DIMS SPECS
100
AcDbLine
 10
29618.766029697
 20
25727.80753060921
 30
0.0
 11
29618.766029697
 21
25685.14042395773
 31
0.0
  0
LINE
  5
55C9F
330
55C9B
100
AcDbEntity
  8
DIMS SPECS
100
AcDbLine
 10
29642.766029697
 20
25717.8075306092
 30
0.0
 11
29642.766029697
 21
25685.14042395773
 31
0.0
  0
LINE
  5
55CA0
330
55C9B
100
AcDbEntity
  8
DIMS SPECS
100
AcDbLine
 10
29655.26602969699
 20
25685.14042395773
 30
0.0
 11
29667.766029697
 21
25685.14042395773
 31
0.0
  0
LINE
  5
55CA1
330
55C9B
100
AcDbEntity
  8
DIMS SPECS
100
AcDbLine
 10
29606.266029697
 20
25685.14042395773
 30
0.0
 11
29555.96684546858
 21
25685.14042395773
 31
0.0
  0
LINE
  5
55CA2
330
55C9B
100
AcDbEntity
  8
DIMS SPECS
100
AcDbLine
 10
29642.766029697
 20
25685.14042395773
 30
0.0
 11
29618.766029697
 21
25685.14042395773
 31
0.0
  0
INSERT
  5
55CA3
330
55C9B
100
AcDbEntity
  8
DIMS SPECS
100
AcDbBlockReference
  2
FILLED-1
 10
29642.766029697
 20
25685.14042395773
 30
0.0
 41
12.5
 42
12.5
 43
12.5
 50
180.0
  0
INSERT
  5
55CA4
330
55C9B
100
AcDbEntity
  8
DIMS SPECS
100
AcDbBlockReference
  2
FILLED-1
 10
29618.766029697
 20
25685.14042395773
 30
0.0
 41
12.5
 42
12.5
 43
12.5
  0
MTEXT
  5
55CA5
330
55C9B
100
AcDbEntity
  8
DIMS SPECS
100
AcDbMText
 10
29574.86643758279
 20
25701.3542240937
 30
0.0
 40
17.0
 41
0.0
 46
0.0
 71
     5
 72
     1
  1
\A1;24
  7
Abode ISO Bold
 73
     1
 44
1.0
  0
POINT
  5
55CA6
330
55C9B
100
AcDbEntity
  8
DEFPOINTS
 62
     0
100
AcDbPoint
 10
29618.766029697
 20
25742.80753060921
 30
0.0
  0
POINT
  5
55CA7
330
55C9B
100
AcDbEntity
  8
DEFPOINTS
 62
     0
100
AcDbPoint
 10
29642.766029697
 20
25732.8075306092
 30
0.0
  0
POINT
  5
55CA8
330
55C9B
100
AcDbEntity
  8
DEFPOINTS
 62
     0
100
AcDbPoint
 10
29642.766029697
 20
25685.14042395773
 30
0.0
  0
ENDBLK
  5
55C9D
330
55C9B
100
AcDbEntity
  8
0
100
AcDbBlockEnd
  0
BLOCK
  5
55CAA
330
55CA9
100
AcDbEntity
  8
0
100
AcDbBlockBegin
  2
*D16
 70
     1
 10
0.0
 20
0.0
 30
0.0
  3
*D16
  1

  0
LINE
  5
55CAC
330
55CA9
100
AcDbEntity
  8
DIMS SPECS
100
AcDbLine
 10
29642.766029697
 20
25717.8075306092
 30
0.0
 11
29642.766029697
 21
25685.14042395773
 31
0.0
  0
LINE
  5
55CAD
330
55CA9
100
AcDbEntity
  8
DIMS SPECS
100
AcDbLine
 10
30232.766029697
 20
25717.8075306092
 30
0.0
 11
30232.766029697
 21
25685.14042395773
 31
0.0
  0
LINE
  5
55CAE
330
55CA9
100
AcDbEntity
  8
DIMS SPECS
100
AcDbLine
 10
29655.26602969699
 20
25685.14042395773
 30
0.0
 11
30220.266029697
 21
25685.14042395773
 31
0.0
  0
INSERT
  5
55CAF
330
55CA9
100
AcDbEntity
  8
DIMS SPECS
100
AcDbBlockReference
  2
FILLED-1
 10
29642.766029697
 20
25685.14042395773
 30
0.0
 41
12.5
 42
12.5
 43
12.5
 50
180.0
  0
INSERT
  5
55CB0
330
55CA9
100
AcDbEntity
  8
DIMS SPECS
100
AcDbBlockReference
  2
FILLED-1
 10
30232.766029697
 20
25685.14042395773
 30
0.0
 41
12.5
 42
12.5
 43
12.5
  0
MTEXT
  5
55CB1
330
55CA9
100
AcDbEntity
  8
DIMS SPECS
100
AcDbMText
 10
29934.4721030107
 20
25701.56802422966
 30
0.0
 40
17.0
 41
0.0
 46
0.0
 71
     5
 72
     1
  1
\A1;590
  7
Abode ISO Bold
 73
     1
 44
1.0
  0
POINT
  5
55CB2
330
55CA9
100
AcDbEntity
  8
DEFPOINTS
 62
     0
100
AcDbPoint
 10
29642.766029697
 20
25732.8075306092
 30
0.0
  0
POINT
  5
55CB3
330
55CA9
100
AcDbEntity
  8
DEFPOINTS
 62
     0
100
AcDbPoint
 10
30232.766029697
 20
25732.8075306092
 30
0.0
  0
POINT
  5
55CB4
330
55CA9
100
AcDbEntity
  8
DEFPOINTS
 62
     0
100
AcDbPoint
 10
30232.766029697
 20
25685.14042395773
 30
0.0
  0
ENDBLK
  5
55CAB
330
55CA9
100
AcDbEntity
  8
0
100
AcDbBlockEnd
  0
BLOCK
  5
55CB6
330
55CB5
100
AcDbEntity
  8
0
100
AcDbBlockBegin
  2
*D17
 70
     1
 10
0.0
 20
0.0
 30
0.0
  3
*D17
  1

  0
LINE
  5
55CB8
330
55CB5
100
AcDbEntity
  8
DIMS SPECS
100
AcDbLine
 10
30696.85261698799
 20
25676.83712971736
 30
0.0
 11
30655.67389503013
 21
25676.83712971736
 31
0.0
  0
LINE
  5
55CB9
330
55CB5
100
AcDbEntity
  8
DIMS SPECS
100
AcDbLine
 10
30655.67389503013
 20
25676.83712971736
 30
0.0
 11
30604.78777889941
 21
25727.0102665266
 31
0.0
  0
MTEXT
  5
55CBA
330
55CB5
100
AcDbEntity
  8
DIMS SPECS
100
AcDbMText
 10
30680.01325600906
 20
25693.26472998928
 30
0.0
 40
17.0
 41
0.0
 46
0.0
 71
     5
 72
     1
  1
\A1;R10
  7
Abode ISO Bold
 73
     1
 44
1.0
  0
LINE
  5
55CBB
330
55CB5
100
AcDbEntity
  8
DIMS SPECS
100
AcDbLine
 10
30588.76602969701
 20
25742.80753060921
 30
0.0
 11
30595.8868071203
 21
25735.78652435027
 31
0.0
  0
INSERT
  5
55CBC
330
55CB5
100
AcDbEntity
  8
DIMS SPECS
100
AcDbBlockReference
  2
FILLED-1
 10
30595.8868071203
 20
25735.78652435027
 30
0.0
 41
12.5
 42
12.5
 43
12.5
 50
135.404218585296
  0
POINT
  5
55CBD
330
55CB5
100
AcDbEntity
  8
DEFPOINTS
 62
     0
100
AcDbPoint
 10
30595.8868071203
 20
25735.78652435027
 30
0.0
  0
POINT
  5
55CBE
330
55CB5
100
AcDbEntity
  8
DEFPOINTS
 62
     0
100
AcDbPoint
 10
30588.76602969701
 20
25742.80753060921
 30
0.0
  0
ENDBLK
  5
55CB7
330
55CB5
100
AcDbEntity
  8
0
100
AcDbBlockEnd
  0
BLOCK
  5
55CC0
330
55CBF
100
AcDbEntity
  8
0
100
AcDbBlockBegin
  2
*D18
 70
     1
 10
0.0
 20
0.0
 30
0.0
  3
*D18
  1

  0
LINE
  5
55CC2
330
55CBF
100
AcDbEntity
  8
DIMS SPECS
100
AcDbLine
 10
30603.766029697
 20
25732.8075306092
 30
0.0
 11
30670.20914091281
 21
25732.8075306092
 31
0.0
  0
LINE
  5
55CC3
330
55CBF
100
AcDbEntity
  8
DIMS SPECS
100
AcDbLine
 10
30603.766029697
 20
26212.8075306092
 30
0.0
 11
30670.20914091281
 21
26212.8075306092
 31
0.0
  0
LINE
  5
55CC4
330
55CBF
100
AcDbEntity
  8
DIMS SPECS
100
AcDbLine
 10
30670.20914091281
 20
25745.3075306092
 30
0.0
 11
30670.20914091281
 21
25956.37993033728
 31
0.0
  0
LINE
  5
55CC5
330
55CBF
100
AcDbEntity
  8
DIMS SPECS
100
AcDbLine
 10
30670.20914091281
 20
26200.30753060921
 30
0.0
 11
30670.20914091281
 21
25989.23513088113
 31
0.0
  0
INSERT
  5
55CC6
330
55CBF
100
AcDbEntity
  8
DIMS SPECS
100
AcDbBlockReference
  2
FILLED-1
 10
30670.20914091281
 20
25732.8075306092
 30
0.0
 41
12.5
 42
12.5
 43
12.5
 50
270.0
  0
INSERT
  5
55CC7
330
55CBF
100
AcDbEntity
  8
DIMS SPECS
100
AcDbBlockReference
  2
FILLED-1
 10
30670.20914091281
 20
26212.8075306092
 30
0.0
 41
12.5
 42
12.5
 43
12.5
 50
90.0
  0
MTEXT
  5
55CC8
330
55CBF
100
AcDbEntity
  8
DIMS SPECS
100
AcDbMText
 10
30670.20914091281
 20
25972.80753060921
 30
0.0
 40
17.0
 41
0.0
 46
0.0
 71
     5
 72
     1
  1
\A1;480
  7
Abode ISO Bold
 73
     1
 44
1.0
  0
POINT
  5
55CC9
330
55CBF
100
AcDbEntity
  8
DEFPOINTS
 62
     0
100
AcDbPoint
 10
30588.766029697
 20
25732.8075306092
 30
0.0
  0
POINT
  5
55CCA
330
55CBF
100
AcDbEntity
  8
DEFPOINTS
 62
     0
100
AcDbPoint
 10
30588.766029697
 20
26212.8075306092
 30
0.0
  0
POINT
  5
55CCB
330
55CBF
100
AcDbEntity
  8
DEFPOINTS
 62
     0
100
AcDbPoint
 10
30670.20914091281
 20
26212.8075306092
 30
0.0
  0
ENDBLK
  5
55CC1
330
55CBF
100
AcDbEntity
  8
0
100
AcDbBlockEnd
  0
BLOCK
  5
55CCD
330
55CCC
100
AcDbEntity
  8
0
100
AcDbBlockBegin
  2
*D19
 70
     1
 10
0.0
 20
0.0
 30
0.0
  3
*D19
  1

  0
LINE
  5
55CCF
330
55CCC
100
AcDbEntity
  8
DIMS SPECS
100
AcDbLine
 10
29618.766029697
 20
25727.80753060921
 30
0.0
 11
29618.766029697
 21
25628.5580605151
 31
0.0
  0
LINE
  5
55CD0
330
55CCC
100
AcDbEntity
  8
DIMS SPECS
100
AcDbLine
 10
30598.76602969699
 20
25727.80753060921
 30
0.0
 11
30598.76602969699
 21
25628.5580605151
 31
0.0
  0
LINE
  5
55CD1
330
55CCC
100
AcDbEntity
  8
DIMS SPECS
100
AcDbLine
 10
29631.266029697
 20
25628.5580605151
 30
0.0
 11
30586.266029697
 21
25628.5580605151
 31
0.0
  0
INSERT
  5
55CD2
330
55CCC
100
AcDbEntity
  8
DIMS SPECS
100
AcDbBlockReference
  2
FILLED-1
 10
29618.766029697
 20
25628.5580605151
 30
0.0
 41
12.5
 42
12.5
 43
12.5
 50
180.0
  0
INSERT
  5
55CD3
330
55CCC
100
AcDbEntity
  8
DIMS SPECS
100
AcDbBlockReference
  2
FILLED-1
 10
30598.76602969699
 20
25628.5580605151
 30
0.0
 41
12.5
 42
12.5
 43
12.5
  0
MTEXT
  5
55CD4
330
55CCC
100
AcDbEntity
  8
DIMS SPECS
100
AcDbMText
 10
30108.766029697
 20
25644.98566078702
 30
0.0
 40
17.0
 41
0.0
 46
0.0
 71
     5
 72
     1
  1
\A1;980
  7
Abode ISO Bold
 73
     1
 44
1.0
  0
POINT
  5
55CD5
330
55CCC
100
AcDbEntity
  8
DEFPOINTS
 62
     0
100
AcDbPoint
 10
29618.766029697
 20
25742.80753060921
 30
0.0
  0
POINT
  5
55CD6
330
55CCC
100
AcDbEntity
  8
DEFPOINTS
 62
     0
100
AcDbPoint
 10
30598.76602969699
 20
25742.80753060921
 30
0.0
  0
POINT
  5
55CD7
330
55CCC
100
AcDbEntity
  8
DEFPOINTS
 62
     0
100
AcDbPoint
 10
30598.76602969699
 20
25628.5580605151
 30
0.0
  0
ENDBLK
  5
55CCE
330
55CCC
100
AcDbEntity
  8
0
100
AcDbBlockEnd
  0
ENDSEC
  0
SECTION
  2
ENTITIES
  0
TEXT
  5
4EFD5
330
52C18
100
AcDbEntity
  8
LAYER1
100
AcDbText
 10
29536.60103082985
 20
26533.84198875161
 30
0.0
 40
150.0
  1
AW1041
100
AcDbText
  0
INSERT
  5
4EFE9
330
52C18
100
AcDbEntity
  8
0
100
AcDbBlockReference
  2
*U1
 10
0.0
 20
0.0
 30
0.0
  0
TEXT
  5
4EFEA
330
52C18
100
AcDbEntity
  8
LAYER1
100
AcDbText
 10
29141.6042719676
 20
25696.20060721863
 30
0.0
 40
30.0
  1
file version 1
100
AcDbText
  0
LINE
  5
55C81
330
52C18
100
AcDbEntity
  8
CUTOUT
100
AcDbLine
 10
29628.766029697
 20
26212.8075306092
 30
0.0
 11
30588.766029697
 21
26212.8075306092
 31
0.0
  0
ARC
  5
55C82
330
52C18
100
AcDbEntity
  8
CUTOUT
100
AcDbCircle
 10
29628.766029697
 20
26202.8075306092
 30
0.0
 40
10.0
100
AcDbArc
 50
90.0
 51
180.0
  0
LINE
  5
55C83
330
52C18
100
AcDbEntity
  8
CUTOUT
100
AcDbLine
 10
30598.76602969699
 20
26202.8075306092
 30
0.0
 11
30598.76602969699
 21
25742.80753060921
 31
0.0
  0
ARC
  5
55C84
102
{ACAD_REACTORS
330
55C97
102
}
330
52C18
100
AcDbEntity
  8
CUTOUT
100
AcDbCircle
 10
30588.766029697
 20
26202.8075306092
 30
0.0
 40
10.0
100
AcDbArc
 50
0.0
 51
90.0
  0
LINE
  5
55C85
102
{ACAD_REACTORS
330
55C93
102
}
330
52C18
100
AcDbEntity
  8
CUTOUT
100
AcDbLine
 10
30588.766029697
 20
25732.8075306092
 30
0.0
 11
29628.766029697
 21
25732.8075306092
 31
0.0
  0
ARC
  5
55C86
102
{ACAD_REACTORS
330
55C97
330
55C9A
102
}
330
52C18
100
AcDbEntity
  8
CUTOUT
100
AcDbCircle
 10
30588.766029697
 20
25742.80753060921
 30
0.0
 40
10.0
100
AcDbArc
 50
270.0
 51
0.0
  0
LINE
  5
55C87
330
52C18
100
AcDbEntity
  8
CUTOUT
100
AcDbLine
 10
29618.766029697
 20
25742.80753060921
 30
0.0
 11
29618.766029697
 21
26202.8075306092
 31
0.0
  0
LINE
  5
55C88
102
{ACAD_REACTORS
330
55C90
102
}
330
52C18
100
AcDbEntity
  8
CUTOUT
  6
DASHED2
 48
5.0
100
AcDbLine
 10
29642.766029697
 20
25732.8075306092
 30
0.0
 11
29642.766029697
 21
26212.8075306092
 31
0.0
  0
LINE
  5
55C89
102
{ACAD_REACTORS
330
55C93
102
}
330
52C18
100
AcDbEntity
  8
CUTOUT
  6
DASHED2
 48
5.0
100
AcDbLine
 10
30232.766029697
 20
25732.8075306092
 30
0.0
 11
30232.766029697
 21
26212.8075306092
 31
0.0
  0
ARC
  5
55C8A
102
{ACAD_REACTORS
330
55C90
102
}
330
52C18
100
AcDbEntity
  8
CUTOUT
100
AcDbCircle
 10
29628.766029697
 20
25742.80753060921
 30
0.0
 40
10.0
100
AcDbArc
 50
180.0
 51
270.0
  0
MTEXT
  5
55C8B
102
{ACAD_XDICTIONARY
360
55CDE
102
}
330
52C18
100
AcDbEntity
  8
CUTOUT
100
AcDbMText
 10
30220.39783540918
 20
26070.99357773121
 30
0.0
 40
40.0
 41
559.4757407245924
 46
0.0
 71
     3
 72
     5
  1
BOWL(S), \POVERFLOW,\PTAP AREA
 73
     1
 44
1.0
  0
LWPOLYLINE
  5
55C8C
330
52C18
100
AcDbEntity
  8
CUTOUT
  6
DASHED2
 48
5.0
100
AcDbPolyline
 90
        8
 70
     1
 43
0.0
 10
29815.78605579135
 20
26082.97893932549
 10
30068.94632981422
 20
26082.97893932549
 42
-0.4142135623730951
 10
30088.94632981422
 20
26062.97893932549
 10
30088.94632981422
 20
25895.02098459261
 42
-0.4142135623730951
 10
30068.94632981422
 20
25875.02098459261
 10
29815.78605579135
 20
25875.02098459261
 42
-0.4142135623730951
 10
29795.78605579135
 20
25895.02098459261
 10
29795.78605579135
 20
26062.97893932549
 42
-0.4142135623730951
1001
GENIUS_GENREC_14
1002
{
1000
PYDIR
1011
29795.78605579135
1021
25875.02098459261
1031
0.0
1002
}
1002
{
1000
PXDIR
1011
30088.94632981422
1021
26082.97893932549
1031
0.0
1002
}
1002
{
1000
PORI
1011
29795.78605579135
1021
26082.97893932549
1031
0.0
1002
}
1002
{
1000
PINS
1011
29795.78605579135
1021
26082.97893932549
1031
0.0
1002
}
1002
{
1000
PINS2
1011
30088.94632981422
1021
25875.02098459261
1031
0.0
1002
}
1002
{
1000
C
1070
     1
1002
}
1001
GENIUS_GENOBJ-N-REC_13
1002
{
1000
OWNER
1000
GEN
1002
}
1001
GENIUS_GENODEF_13
1002
{
1000
HIER
1070
     0
1002
}
1002
{
1000
MANEDIT
1070
     0
1002
}
1002
{
1000
NOSEL
1070
     0
1002
}
1002
{
1000
BEHIND
1070
     0
1002
}
1002
{
1000
OTHER
1070
     0
1002
}
1002
{
1000
REACTOR
1002
}
  0
MTEXT
  5
55C8D
102
{ACAD_XDICTIONARY
360
55CE0
102
}
330
52C18
100
AcDbEntity
  8
CUTOUT
100
AcDbMText
 10
30356.90242919793
 20
26301.56910673452
 30
0.0
 40
40.0
 41
559.4757407245924
 46
0.0
 71
     3
 72
     5
  1
INSET CUT OUT
 73
     1
 44
1.0
  0
DIMENSION
  5
55C8E
102
{ACAD_XDICTIONARY
360
55C8F
102
}
102
{ACAD_REACTORS
330
55C90
102
}
330
52C18
100
AcDbEntity
  8
DIMS SPECS
100
AcDbDimension
  2
*D15
 10
29642.766029697
 20
25685.14042395773
 30
0.0
 11
29574.86643758279
 21
25685.14042395773
 31
0.0
 70
   160
 71
     5
 42
24.0
 73
     0
 74
     0
 75
     0
  3
abode-iso$0
100
AcDbAlignedDimension
 13
29618.766029697
 23
25742.80753060921
 33
0.0
 14
29642.766029697
 24
25732.8075306092
 34
0.0
100
AcDbRotatedDimension
1001
ACAD_DSTYLE_DIMINSPECT
1070
   396
1000
100%
1070
   395
1000

1070
   394
1070
    33
1070
   393
1070
     0
1001
ACAD
1000
DSTYLE
1002
{
1070
   340
1005
53181
1070
   371
1070
    -1
1070
   372
1070
    -1
1002
}
  0
DIMENSION
  5
55C91
102
{ACAD_XDICTIONARY
360
55C92
102
}
102
{ACAD_REACTORS
330
55C93
102
}
330
52C18
100
AcDbEntity
  8
DIMS SPECS
100
AcDbDimension
  2
*D16
 10
30232.766029697
 20
25685.14042395773
 30
0.0
 11
29934.4721030107
 21
25685.14042395773
 31
0.0
 70
   160
 71
     5
 42
590.0
 73
     0
 74
     0
 75
     0
  3
abode-iso$0
100
AcDbAlignedDimension
 13
29642.766029697
 23
25732.8075306092
 33
0.0
 14
30232.766029697
 24
25732.8075306092
 34
0.0
100
AcDbRotatedDimension
1001
ACAD_DSTYLE_DIMINSPECT
1070
   396
1000
100%
1070
   395
1000

1070
   394
1070
    33
1070
   393
1070
     0
1001
ACAD
1000
DSTYLE
1002
{
1070
   340
1005
53181
1070
   371
1070
    -1
1070
   372
1070
    -1
1002
}
  0
DIMENSION
  5
55C94
330
52C18
100
AcDbEntity
  8
DIMS SPECS
100
AcDbDimension
  2
*D17
 10
30588.76602969701
 20
25742.80753060921
 30
0.0
 11
30680.01325600906
 21
25676.83712971736
 31
0.0
 70
   164
 71
     5
 42
10.00000000000727
 73
     0
 74
     0
 75
     0
  3
abode-iso$4
100
AcDbRadialDimension
 15
30595.8868071203
 25
25735.78652435027
 35
0.0
 40
0.0
1001
ACAD_DSTYLE_DIMINSPECT
1070
   396
1000
100%
1070
   395
1000

1070
   394
1070
    33
1070
   393
1070
     0
1001
ACAD_DSTYLE_DIMRADIAL_EXTENSION
1070
   387
1070
     1
1070
   388
1040
4.71238898038469
1070
   390
1040
0.0
1001
ACAD
1000
DSTYLE
1002
{
1070
   340
1005
53181
1070
   371
1070
    -1
1070
   372
1070
    -1
1002
}
  0
DIMENSION
  5
55C95
102
{ACAD_XDICTIONARY
360
55C96
102
}
102
{ACAD_REACTORS
330
55C97
102
}
330
52C18
100
AcDbEntity
  8
DIMS SPECS
100
AcDbDimension
  2
*D18
 10
30670.20914091281
 20
26212.8075306092
 30
0.0
 11
30670.20914091281
 21
25972.80753060921
 31
0.0
 70
    32
 71
     5
 42
480.0
 73
     0
 74
     0
 75
     0
  3
abode-iso$0
100
AcDbAlignedDimension
 13
30588.766029697
 23
25732.8075306092
 33
0.0
 14
30588.766029697
 24
26212.8075306092
 34
0.0
 50
90.0
100
AcDbRotatedDimension
1001
ACAD_DSTYLE_DIMINSPECT
1070
   396
1000
100%
1070
   395
1000

1070
   394
1070
    33
1070
   393
1070
     0
1001
ACAD
1000
DSTYLE
1002
{
1070
   340
1005
53181
1070
   371
1070
    -1
1070
   372
1070
    -1
1002
}
  0
DIMENSION
  5
55C98
102
{ACAD_XDICTIONARY
360
55C99
102
}
102
{ACAD_REACTORS
330
55C9A
102
}
330
52C18
100
AcDbEntity
  8
DIMS SPECS
100
AcDbDimension
  2
*D19
 10
30598.76602969699
 20
25628.5580605151
 30
0.0
 11
30108.766029697
 21
25644.98566078702
 31
0.0
 70
    32
 71
     5
 42
980.0
 73
     0
 74
     0
 75
     0
  3
abode-iso$0
100
AcDbAlignedDimension
 13
29618.766029697
 23
25742.80753060921
 33
0.0
 14
30598.76602969699
 24
25742.80753060921
 34
0.0
100
AcDbRotatedDimension
1001
ACAD_DSTYLE_DIMINSPECT
1070
   396
1000
100%
1070
   395
1000

1070
   394
1070
    33
1070
   393
1070
     0
1001
ACAD
1000
DSTYLE
1002
{
1070
   340
1005
53181
1070
   371
1070
    -1
1070
   372
1070
    -1
1002
}
  0
ENDSEC
  0
SECTION
  2
OBJECTS
  0
DICTIONARY
  5
52BB0
330
0
100
AcDbDictionary
281
     1
  3
ACAD_COLOR
350
52C0E
  3
ACAD_GROUP
350
52BB1
  3
ACAD_LAYOUT
350
52C0D
  3
ACAD_MATERIAL
350
52BB4
  3
ACAD_MLEADERSTYLE
350
52C11
  3
ACAD_MLINESTYLE
350
52C0A
  3
ACAD_PLOTSETTINGS
350
52C0C
  3
ACAD_PLOTSTYLENAME
350
52BB2
  3
ACAD_SCALELIST
350
52BDE
  3
ACAD_TABLESTYLE
350
52C0F
  3
ACAD_VISUALSTYLE
350
52BCD
  3
ACDB_RECOMPOSE_DATA
350
52DBE
  3
AcDbVariableDictionary
350
52DB0
  3
AcmDictionary
350
5310E
  3
AMG
350
530B8
  3
AMGSNAPSETTINGS
350
53296
  0
DICTIONARY
  5
52CA6
330
52BA6
100
AcDbDictionary
280
     1
281
     1
  3
ACAD_LAYERSTATES
360
52CA7
  0
DICTIONARY
  5
52DA2
330
52C00
100
AcDbDictionary
280
     1
281
     1
  3
ADSK_XREC_LAYER_RECONCILED
360
52DA3
  0
DICTIONARY
  5
52DA4
330
52C1E
100
AcDbDictionary
280
     1
281
     1
  3
ADSK_XREC_LAYER_RECONCILED
360
52DA5
  0
DICTIONARY
  5
52DA8
330
52C21
100
AcDbDictionary
280
     1
281
     1
  3
ADSK_XREC_LAYER_RECONCILED
360
52DA9
  0
DICTIONARY
  5
52DAC
330
52C9C
100
AcDbDictionary
280
     1
281
     1
  3
ADSK_XREC_LAYER_RECONCILED
360
52DAD
  0
DICTIONARY
  5
55CDE
330
55C8B
100
AcDbDictionary
280
     1
281
     1
  3
ACAD_MTEXT_2008_RT
360
55CDF
  0
DICTIONARY
  5
55CE0
330
55C8D
100
AcDbDictionary
280
     1
281
     1
  3
ACAD_MTEXT_2008_RT
360
55CE1
  0
DICTIONARY
  5
55C8F
330
55C8E
100
AcDbDictionary
280
     1
281
     1
  3
ACAD_DIMASSOC
360
55C90
  0
DICTIONARY
  5
55C92
330
55C91
100
AcDbDictionary
280
     1
281
     1
  3
ACAD_DIMASSOC
360
55C93
  0
DICTIONARY
  5
55C96
330
55C95
100
AcDbDictionary
280
     1
281
     1
  3
ACAD_DIMASSOC
360
55C97
  0
DICTIONARY
  5
55C99
330
55C98
100
AcDbDictionary
280
     1
281
     1
  3
ACAD_DIMASSOC
360
55C9A
  0
DICTIONARY
  5
52C0E
102
{ACAD_REACTORS
330
52BB0
102
}
330
52BB0
100
AcDbDictionary
281
     1
  0
DICTIONARY
  5
52BB1
102
{ACAD_REACTORS
330
52BB0
102
}
330
52BB0
100
AcDbDictionary
281
     1
  0
DICTIONARY
  5
52C0D
102
{ACAD_REACTORS
330
52BB0
102
}
330
52BB0
100
AcDbDictionary
281
     1
  3
Layout1
350
52C17
  3
Model
350
52C1B
  0
DICTIONARY
  5
52BB4
102
{ACAD_REACTORS
330
52BB0
102
}
330
52BB0
100
AcDbDictionary
281
     1
  3
ByBlock
350
52BBD
  3
ByLayer
350
52BB5
  3
Global
350
52BC5
  0
DICTIONARY
  5
52C11
102
{ACAD_REACTORS
330
52BB0
102
}
330
52BB0
100
AcDbDictionary
281
     1
  3
Standard
350
52C12
  0
DICTIONARY
  5
52C0A
102
{ACAD_REACTORS
330
52BB0
102
}
330
52BB0
100
AcDbDictionary
281
     1
  3
Standard
350
52C0B
  0
DICTIONARY
  5
52C0C
102
{ACAD_REACTORS
330
52BB0
102
}
330
52BB0
100
AcDbDictionary
281
     1
  0
ACDBDICTIONARYWDFLT
  5
52BB2
102
{ACAD_REACTORS
330
52BB0
102
}
330
52BB0
100
AcDbDictionary
281
     1
  3
Normal
350
52BB3
100
AcDbDictionaryWithDefault
340
52BB3
  0
DICTIONARY
  5
52BDE
102
{ACAD_REACTORS
330
52BB0
102
}
330
52BB0
100
AcDbDictionary
281
     1
  3
A0
350
52BDF
  3
A1
350
52BE0
  3
A2
350
52BE1
  3
A3
350
52BE2
  3
A4
350
52BE3
  3
A5
350
52BE4
  3
A6
350
52BE5
  3
A7
350
52BE6
  3
A8
350
52BE7
  3
A9
350
52BE8
  3
B0
350
52BE9
  3
B1
350
52BEA
  3
B2
350
52BEB
  3
B3
350
52BEC
  3
B4
350
52BED
  3
B5
350
52BEE
  3
B6
350
52BEF
  3
B7
350
52BF0
  3
B8
350
52BF1
  3
B9
350
52BF2
  3
C0
350
52BF3
  3
C1
350
52BF4
  3
C2
350
52BF5
  3
C3
350
52BF6
  3
C4
350
52BF7
  3
C5
350
52BF8
  3
C6
350
52BF9
  3
C7
350
52BFA
  3
C8
350
52BFB
  3
C9
350
52BFC
  3
D0
350
52BFD
  3
D1
350
52BFE
  3
D2
350
52BFF
  0
DICTIONARY
  5
52C0F
102
{ACAD_REACTORS
330
52BB0
102
}
330
52BB0
100
AcDbDictionary
281
     1
  3
Standard
350
52C10
  0
DICTIONARY
  5
52BCD
102
{ACAD_REACTORS
330
52BB0
102
}
330
52BB0
100
AcDbDictionary
281
     1
  3
2dWireframe
350
52BD3
  3
3D Hidden
350
52BD5
  3
3dWireframe
350
52BD4
  3
Basic
350
52BD2
  3
Brighten
350
52BD9
  3
ColorChange
350
52BDD
  3
Conceptual
350
52BD6
  3
Dim
350
52BD8
  3
Facepattern
350
52BDC
  3
Flat
350
52BCE
  3
FlatWithEdges
350
52BCF
  3
Gouraud
350
52BD0
  3
GouraudWithEdges
350
52BD1
  3
Linepattern
350
52BDB
  3
Realistic
350
52BD7
  3
Thicken
350
52BDA
  0
XRECORD
  5
52DBE
102
{ACAD_REACTORS
330
52BB0
102
}
330
52BB0
100
AcDbXrecord
280
     1
 90
        1
330
52C10
330
55C8B
330
55C8D
  0
DICTIONARY
  5
52DB0
102
{ACAD_REACTORS
330
52BB0
102
}
330
52BB0
100
AcDbDictionary
281
     1
  3
CANNOSCALE
350
52DB4
  3
CMLEADERSTYLE
350
52DB2
  3
CTABLESTYLE
350
52DB1
  3
LAYEREVAL
350
52DB6
  3
LAYERNOTIFY
350
52DB7
  3
LIGHTINGUNITS
350
52DB5
  3
MSLTSCALE
350
52DB3
  0
DICTIONARY
  5
5310E
102
{ACAD_REACTORS
330
52BB0
102
}
330
52BB0
100
AcDbDictionary
281
     1
  3
AcmStdDictionary
350
53119
  0
DICTIONARY
  5
530B8
102
{ACAD_REACTORS
330
52BB0
102
}
330
52BB0
100
AcDbDictionary
281
     1
  0
DICTIONARY
  5
53296
102
{ACAD_REACTORS
330
52BB0
102
}
330
52BB0
100
AcDbDictionary
281
     1
  0
DICTIONARY
  5
52CA7
102
{ACAD_REACTORS
330
52CA6
102
}
330
52CA6
100
AcDbDictionary
281
     1
  0
XRECORD
  5
52DA3
102
{ACAD_REACTORS
330
52DA2
102
}
330
52DA2
100
AcDbXrecord
280
     1
290
     1
  0
XRECORD
  5
52DA5
102
{ACAD_REACTORS
330
52DA4
102
}
330
52DA4
100
AcDbXrecord
280
     1
290
     1
  0
XRECORD
  5
52DA9
102
{ACAD_REACTORS
330
52DA8
102
}
330
52DA8
100
AcDbXrecord
280
     1
290
     1
  0
XRECORD
  5
52DAD
102
{ACAD_REACTORS
330
52DAC
102
}
330
52DAC
100
AcDbXrecord
280
     1
290
     1
  0
XRECORD
  5
55CDF
102
{ACAD_REACTORS
330
55CDE
102
}
330
55CDE
100
AcDbXrecord
280
     1
 40
32861.0
  1
\pxqc;BOWL(S), \POVERFLOW,\PTAP AREA
  0
XRECORD
  5
55CE1
102
{ACAD_REACTORS
330
55CE0
102
}
330
55CE0
100
AcDbXrecord
280
     1
 40
6572.0
  1
\pxqc;INSET CUT OUT
  0
DIMASSOC
  5
55C90
102
{ACAD_REACTORS
330
55C8F
102
}
330
55C8F
100
AcDbDimAssoc
330
55C8E
 90
        3
 70
     0
 71
     0
  1
AcDbOsnapPointRef
 72
    13
331
55C8A
 73
     0
 91
        0
 40
0.0
 10
0.0
 20
0.0
 30
2.000000000000000E+50
 75
     0
  1
AcDbOsnapPointRef
 72
    13
331
55C88
 73
     0
 91
        0
 40
0.0
 10
0.0
 20
0.0
 30
2.000000000000000E+50
 75
     0
  0
DIMASSOC
  5
55C93
102
{ACAD_REACTORS
330
55C92
102
}
330
55C92
100
AcDbDimAssoc
330
55C91
 90
        2
 70
     0
 71
     0
  1
AcDbOsnapPointRef
 72
     6
331
55C85
 73
     0
 91
        0
 40
0.3708333333333333
 10
0.0
 20
0.0
 30
0.0
332
55C89
 74
     0
 92
        0
 75
     0
  0
DIMASSOC
  5
55C97
102
{ACAD_REACTORS
330
55C96
102
}
330
55C96
100
AcDbDimAssoc
330
55C95
 90
        3
 70
     0
 71
     0
  1
AcDbOsnapPointRef
 72
    13
331
55C86
 73
     0
 91
        0
 40
0.0
 10
0.0
 20
0.0
 30
2.000000000000000E+50
 75
     0
  1
AcDbOsnapPointRef
 72
     1
331
55C84
 73
     0
 91
        0
 40
0.0
 10
0.0
 20
0.0
 30
2.000000000000000E+50
 75
     0
  0
DIMASSOC
  5
55C9A
102
{ACAD_REACTORS
330
55C99
102
}
330
55C99
100
AcDbDimAssoc
330
55C98
 90
        2
 70
     0
 71
     0
  1
AcDbOsnapPointRef
 72
     1
331
55C86
 73
     0
 91
        0
 40
0.0
 10
0.0
 20
0.0
 30
2.000000000000000E+50
 75
     0
  0
LAYOUT
  5
52C17
102
{ACAD_REACTORS
330
52C0D
102
}
330
52C0D
100
AcDbPlotSettings
  1

  2
\\ABODESERVER\upstairs
  4

  6

 40
0.0
 41
0.0
 42
0.0
 43
0.0
 44
0.0
 45
0.0
 46
0.0
 47
0.0
 48
0.0
 49
0.0
140
0.0
141
0.0
142
1.0
143
1.0
 70
   688
 72
     0
 73
     0
 74
     5
  7

 75
    16
147
1.0
 76
     0
 77
     2
 78
   300
148
0.0
149
0.0
100
AcDbLayout
  1
Layout1
 70
     1
 71
     1
 10
0.0
 20
0.0
 11
420.0
 21
297.0
 12
0.0
 22
0.0
 32
0.0
 14
1.000000000000000E+20
 24
1.000000000000000E+20
 34
1.000000000000000E+20
 15
-1.000000000000000E+20
 25
-1.000000000000000E+20
 35
-1.000000000000000E+20
146
0.0
 13
0.0
 23
0.0
 33
0.0
 16
1.0
 26
0.0
 36
0.0
 17
0.0
 27
1.0
 37
0.0
 76
     0
330
52C14
  0
LAYOUT
  5
52C1B
102
{ACAD_REACTORS
330
52C0D
102
}
330
52C0D
100
AcDbPlotSettings
  1

  2
\\ABODESERVER\upstairs
  4

  6

 40
0.0
 41
0.0
 42
0.0
 43
0.0
 44
0.0
 45
0.0
 46
0.0
 47
0.0
 48
0.0
 49
0.0
140
0.0
141
0.0
142
1.0
143
1.0
 70
  1712
 72
     0
 73
     0
 74
     0
  7

 75
     0
147
1.0
 76
     0
 77
     2
 78
   300
148
0.0
149
0.0
100
AcDbLayout
  1
Model
 70
     1
 71
     0
 10
0.0
 20
0.0
 11
12.0
 21
9.0
 12
0.0
 22
0.0
 32
0.0
 14
0.0
 24
0.0
 34
0.0
 15
0.0
 25
0.0
 35
0.0
146
0.0
 13
0.0
 23
0.0
 33
0.0
 16
1.0
 26
0.0
 36
0.0
 17
0.0
 27
1.0
 37
0.0
 76
     0
330
52C18
331
52C1C
  0
MATERIAL
  5
52BBD
102
{ACAD_XDICTIONARY
360
52BBE
102
}
102
{ACAD_REACTORS
330
52BB4
102
}
330
52BB4
100
AcDbMaterial
  1
ByBlock
 72
     0
 43
0.0208333333333333
 43
0.0
 43
0.0
 43
0.0
 43
0.0
 43
0.0208333333333333
 43
0.0
 43
0.0
 43
0.0
 43
0.0
 43
1.0
 43
0.0
 43
0.0
 43
0.0
 43
0.0
 43
1.0
 77
     0
 47
0.0208333333333333
 47
0.0
 47
0.0
 47
0.0
 47
0.0
 47
0.0208333333333333
 47
0.0
 47
0.0
 47
0.0
 47
0.0
 47
1.0
 47
0.0
 47
0.0
 47
0.0
 47
0.0
 47
1.0
171
     0
 49
0.0208333333333333
 49
0.0
 49
0.0
 49
0.0
 49
0.0
 49
0.0208333333333333
 49
0.0
 49
0.0
 49
0.0
 49
0.0
 49
1.0
 49
0.0
 49
0.0
 49
0.0
 49
0.0
 49
1.0
175
     0
142
0.0208333333333333
142
0.0
142
0.0
142
0.0
142
0.0
142
0.0208333333333333
142
0.0
142
0.0
142
0.0
142
0.0
142
1.0
142
0.0
142
0.0
142
0.0
142
0.0
142
1.0
179
     0
144
0.0208333333333333
144
0.0
144
0.0
144
0.0
144
0.0
144
0.0208333333333333
144
0.0
144
0.0
144
0.0
144
0.0
144
1.0
144
0.0
144
0.0
144
0.0
144
0.0
144
1.0
147
0.0208333333333333
147
0.0
147
0.0
147
0.0
147
0.0
147
0.0208333333333333
147
0.0
147
0.0
147
0.0
147
0.0
147
1.0
147
0.0
147
0.0
147
0.0
147
0.0
147
1.0
  0
MATERIAL
  5
52BB5
102
{ACAD_XDICTIONARY
360
52BB6
102
}
102
{ACAD_REACTORS
330
52BB4
102
}
330
52BB4
100
AcDbMaterial
  1
ByLayer
 72
     0
 43
0.0208333333333333
 43
0.0
 43
0.0
 43
0.0
 43
0.0
 43
0.0208333333333333
 43
0.0
 43
0.0
 43
0.0
 43
0.0
 43
1.0
 43
0.0
 43
0.0
 43
0.0
 43
0.0
 43
1.0
 77
     0
 47
0.0208333333333333
 47
0.0
 47
0.0
 47
0.0
 47
0.0
 47
0.0208333333333333
 47
0.0
 47
0.0
 47
0.0
 47
0.0
 47
1.0
 47
0.0
 47
0.0
 47
0.0
 47
0.0
 47
1.0
171
     0
 49
0.0208333333333333
 49
0.0
 49
0.0
 49
0.0
 49
0.0
 49
0.0208333333333333
 49
0.0
 49
0.0
 49
0.0
 49
0.0
 49
1.0
 49
0.0
 49
0.0
 49
0.0
 49
0.0
 49
1.0
175
     0
142
0.0208333333333333
142
0.0
142
0.0
142
0.0
142
0.0
142
0.0208333333333333
142
0.0
142
0.0
142
0.0
142
0.0
142
1.0
142
0.0
142
0.0
142
0.0
142
0.0
142
1.0
179
     0
144
0.0208333333333333
144
0.0
144
0.0
144
0.0
144
0.0
144
0.0208333333333333
144
0.0
144
0.0
144
0.0
144
0.0
144
1.0
144
0.0
144
0.0
144
0.0
144
0.0
144
1.0
147
0.0208333333333333
147
0.0
147
0.0
147
0.0
147
0.0
147
0.0208333333333333
147
0.0
147
0.0
147
0.0
147
0.0
147
1.0
147
0.0
147
0.0
147
0.0
147
0.0
147
1.0
  0
MATERIAL
  5
52BC5
102
{ACAD_XDICTIONARY
360
52BC6
102
}
102
{ACAD_REACTORS
330
52BB4
102
}
330
52BB4
100
AcDbMaterial
  1
Global
 72
     0
 43
0.0208333333333333
 43
0.0
 43
0.0
 43
0.0
 43
0.0
 43
0.0208333333333333
 43
0.0
 43
0.0
 43
0.0
 43
0.0
 43
1.0
 43
0.0
 43
0.0
 43
0.0
 43
0.0
 43
1.0
 77
     0
 47
0.0208333333333333
 47
0.0
 47
0.0
 47
0.0
 47
0.0
 47
0.0208333333333333
 47
0.0
 47
0.0
 47
0.0
 47
0.0
 47
1.0
 47
0.0
 47
0.0
 47
0.0
 47
0.0
 47
1.0
171
     0
 49
0.0208333333333333
 49
0.0
 49
0.0
 49
0.0
 49
0.0
 49
0.0208333333333333
 49
0.0
 49
0.0
 49
0.0
 49
0.0
 49
1.0
 49
0.0
 49
0.0
 49
0.0
 49
0.0
 49
1.0
175
     0
142
0.0208333333333333
142
0.0
142
0.0
142
0.0
142
0.0
142
0.0208333333333333
142
0.0
142
0.0
142
0.0
142
0.0
142
1.0
142
0.0
142
0.0
142
0.0
142
0.0
142
1.0
179
     0
144
0.0208333333333333
144
0.0
144
0.0
144
0.0
144
0.0
144
0.0208333333333333
144
0.0
144
0.0
144
0.0
144
0.0
144
1.0
144
0.0
144
0.0
144
0.0
144
0.0
144
1.0
147
0.0208333333333333
147
0.0
147
0.0
147
0.0
147
0.0
147
0.0208333333333333
147
0.0
147
0.0
147
0.0
147
0.0
147
1.0
147
0.0
147
0.0
147
0.0
147
0.0
147
1.0
  0
MLEADERSTYLE
  5
52C12
102
{ACAD_REACTORS
330
52C11
102
}
330
52C11
100
AcDbMLeaderStyle
170
     2
171
     1
172
     0
 90
        2
 40
0.0
 41
0.0
173
     1
 91
-1056964608
340
52C06
 92
       -2
290
     1
 42
0.09
291
     1
 43
0.36
  3
Standard
 44
0.18
300

342
52C01
174
     1
178
     6
175
     1
176
     0
 93
-1056964608
 45
0.18
292
     0
297
     0
 46
0.18
 94
-1056964608
 47
1.0
 49
1.0
140
1.0
293
     1
141
0.0
294
     1
177
     0
142
1.0
295
     0
296
     0
143
0.125
1001
ACAD_MLEADERVER
1070
     2
  0
MLINESTYLE
  5
52C0B
102
{ACAD_REACTORS
330
52C0A
102
}
330
52C0A
100
AcDbMlineStyle
  2
STANDARD
 70
     0
  3

 62
   256
 51
90.0
 52
90.0
 71
     2
 49
0.5
 62
   256
  6
BYLAYER
 49
-0.5
 62
   256
  6
BYLAYER
  0
ACDBPLACEHOLDER
  5
52BB3
102
{ACAD_REACTORS
330
52BB2
102
}
330
52BB2
  0
SCALE
  5
52BDF
102
{ACAD_REACTORS
330
52BDE
102
}
330
52BDE
100
AcDbScale
 70
     0
300
1:1
140
1.0
141
1.0
290
     1
  0
SCALE
  5
52BE0
102
{ACAD_REACTORS
330
52BDE
102
}
330
52BDE
100
AcDbScale
 70
     0
300
1:2
140
1.0
141
2.0
290
     0
  0
SCALE
  5
52BE1
102
{ACAD_REACTORS
330
52BDE
102
}
330
52BDE
100
AcDbScale
 70
     0
300
1:4
140
1.0
141
4.0
290
     0
  0
SCALE
  5
52BE2
102
{ACAD_REACTORS
330
52BDE
102
}
330
52BDE
100
AcDbScale
 70
     0
300
1:5
140
1.0
141
5.0
290
     0
  0
SCALE
  5
52BE3
102
{ACAD_REACTORS
330
52BDE
102
}
330
52BDE
100
AcDbScale
 70
     0
300
1:8
140
1.0
141
8.0
290
     0
  0
SCALE
  5
52BE4
102
{ACAD_REACTORS
330
52BDE
102
}
330
52BDE
100
AcDbScale
 70
     0
300
1:10
140
1.0
141
10.0
290
     0
  0
SCALE
  5
52BE5
102
{ACAD_REACTORS
330
52BDE
102
}
330
52BDE
100
AcDbScale
 70
     0
300
1:16
140
1.0
141
16.0
290
     0
  0
SCALE
  5
52BE6
102
{ACAD_REACTORS
330
52BDE
102
}
330
52BDE
100
AcDbScale
 70
     0
300
1:20
140
1.0
141
20.0
290
     0
  0
SCALE
  5
52BE7
102
{ACAD_REACTORS
330
52BDE
102
}
330
52BDE
100
AcDbScale
 70
     0
300
1:30
140
1.0
141
30.0
290
     0
  0
SCALE
  5
52BE8
102
{ACAD_REACTORS
330
52BDE
102
}
330
52BDE
100
AcDbScale
 70
     0
300
1:40
140
1.0
141
40.0
290
     0
  0
SCALE
  5
52BE9
102
{ACAD_REACTORS
330
52BDE
102
}
330
52BDE
100
AcDbScale
 70
     0
300
1:50
140
1.0
141
50.0
290
     0
  0
SCALE
  5
52BEA
102
{ACAD_REACTORS
330
52BDE
102
}
330
52BDE
100
AcDbScale
 70
     0
300
1:100
140
1.0
141
100.0
290
     0
  0
SCALE
  5
52BEB
102
{ACAD_REACTORS
330
52BDE
102
}
330
52BDE
100
AcDbScale
 70
     0
300
2:1
140
2.0
141
1.0
290
     0
  0
SCALE
  5
52BEC
102
{ACAD_REACTORS
330
52BDE
102
}
330
52BDE
100
AcDbScale
 70
     0
300
4:1
140
4.0
141
1.0
290
     0
  0
SCALE
  5
52BED
102
{ACAD_REACTORS
330
52BDE
102
}
330
52BDE
100
AcDbScale
 70
     0
300
8:1
140
8.0
141
1.0
290
     0
  0
SCALE
  5
52BEE
102
{ACAD_REACTORS
330
52BDE
102
}
330
52BDE
100
AcDbScale
 70
     0
300
10:1
140
10.0
141
1.0
290
     0
  0
SCALE
  5
52BEF
102
{ACAD_REACTORS
330
52BDE
102
}
330
52BDE
100
AcDbScale
 70
     0
300
100:1
140
100.0
141
1.0
290
     0
  0
SCALE
  5
52BF0
102
{ACAD_REACTORS
330
52BDE
102
}
330
52BDE
100
AcDbScale
 70
     0
300
1/128" = 1'-0"
140
0.0078125
141
12.0
290
     0
  0
SCALE
  5
52BF1
102
{ACAD_REACTORS
330
52BDE
102
}
330
52BDE
100
AcDbScale
 70
     0
300
1/64" = 1'-0"
140
0.015625
141
12.0
290
     0
  0
SCALE
  5
52BF2
102
{ACAD_REACTORS
330
52BDE
102
}
330
52BDE
100
AcDbScale
 70
     0
300
1/32" = 1'-0"
140
0.03125
141
12.0
290
     0
  0
SCALE
  5
52BF3
102
{ACAD_REACTORS
330
52BDE
102
}
330
52BDE
100
AcDbScale
 70
     0
300
1/16" = 1'-0"
140
0.0625
141
12.0
290
     0
  0
SCALE
  5
52BF4
102
{ACAD_REACTORS
330
52BDE
102
}
330
52BDE
100
AcDbScale
 70
     0
300
3/32" = 1'-0"
140
0.09375
141
12.0
290
     0
  0
SCALE
  5
52BF5
102
{ACAD_REACTORS
330
52BDE
102
}
330
52BDE
100
AcDbScale
 70
     0
300
1/8" = 1'-0"
140
0.125
141
12.0
290
     0
  0
SCALE
  5
52BF6
102
{ACAD_REACTORS
330
52BDE
102
}
330
52BDE
100
AcDbScale
 70
     0
300
3/16" = 1'-0"
140
0.1875
141
12.0
290
     0
  0
SCALE
  5
52BF7
102
{ACAD_REACTORS
330
52BDE
102
}
330
52BDE
100
AcDbScale
 70
     0
300
1/4" = 1'-0"
140
0.25
141
12.0
290
     0
  0
SCALE
  5
52BF8
102
{ACAD_REACTORS
330
52BDE
102
}
330
52BDE
100
AcDbScale
 70
     0
300
3/8" = 1'-0"
140
0.375
141
12.0
290
     0
  0
SCALE
  5
52BF9
102
{ACAD_REACTORS
330
52BDE
102
}
330
52BDE
100
AcDbScale
 70
     0
300
1/2" = 1'-0"
140
0.5
141
12.0
290
     0
  0
SCALE
  5
52BFA
102
{ACAD_REACTORS
330
52BDE
102
}
330
52BDE
100
AcDbScale
 70
     0
300
3/4" = 1'-0"
140
0.75
141
12.0
290
     0
  0
SCALE
  5
52BFB
102
{ACAD_REACTORS
330
52BDE
102
}
330
52BDE
100
AcDbScale
 70
     0
300
1" = 1'-0"
140
1.0
141
12.0
290
     0
  0
SCALE
  5
52BFC
102
{ACAD_REACTORS
330
52BDE
102
}
330
52BDE
100
AcDbScale
 70
     0
300
1-1/2" = 1'-0"
140
1.5
141
12.0
290
     0
  0
SCALE
  5
52BFD
102
{ACAD_REACTORS
330
52BDE
102
}
330
52BDE
100
AcDbScale
 70
     0
300
3" = 1'-0"
140
3.0
141
12.0
290
     0
  0
SCALE
  5
52BFE
102
{ACAD_REACTORS
330
52BDE
102
}
330
52BDE
100
AcDbScale
 70
     0
300
6" = 1'-0"
140
6.0
141
12.0
290
     0
  0
SCALE
  5
52BFF
102
{ACAD_REACTORS
330
52BDE
102
}
330
52BDE
100
AcDbScale
 70
     0
300
1'-0" = 1'-0"
140
12.0
141
12.0
290
     0
  0
TABLESTYLE
  5
52C10
102
{ACAD_XDICTIONARY
360
52DB8
102
}
102
{ACAD_REACTORS
330
52C0F
102
}
330
52C0F
100
AcDbTableStyle
  3
Standard
 70
     0
 71
     0
 40
0.06
 41
0.06
280
     0
281
     0
  7
STANDARD
140
0.18
170
     2
 62
     0
 63
     7
283
     0
 90
      512
 91
        0
  1

274
    -2
284
     1
 64
     0
275
    -2
285
     1
 65
     0
276
    -2
286
     1
 66
     0
277
    -2
287
     1
 67
     0
278
    -2
288
     1
 68
     0
279
    -2
289
     1
 69
     0
  7
STANDARD
140
0.25
170
     5
 62
     0
 63
     7
283
     0
 90
      512
 91
        0
  1

274
    -2
284
     1
 64
     0
275
    -2
285
     1
 65
     0
276
    -2
286
     1
 66
     0
277
    -2
287
     1
 67
     0
278
    -2
288
     1
 68
     0
279
    -2
289
     1
 69
     0
  7
STANDARD
140
0.18
170
     5
 62
     0
 63
     7
283
     0
 90
      512
 91
        0
  1

274
    -2
284
     1
 64
     0
275
    -2
285
     1
 65
     0
276
    -2
286
     1
 66
     0
277
    -2
287
     1
 67
     0
278
    -2
288
     1
 68
     0
279
    -2
289
     1
 69
     0
  0
VISUALSTYLE
  5
52BD3
102
{ACAD_REACTORS
330
52BCD
102
}
330
52BCD
100
AcDbVisualStyle
  2
2dWireframe
 70
     4
 71
     0
 72
     2
 73
     0
 90
        0
 40
-0.6
 41
-30.0
 62
     5
 63
     7
421
 16777215
 74
     1
 91
        4
 64
     7
 65
   257
 75
     1
175
     1
 42
1.0
 92
        0
 66
   257
 43
1.0
 76
     1
 77
     6
 78
     2
 67
     7
 79
     5
170
     0
171
     0
290
     0
174
     0
 93
        1
 44
0.0
173
     0
291
     0
 45
0.0
  0
VISUALSTYLE
  5
52BD5
102
{ACAD_REACTORS
330
52BCD
102
}
330
52BCD
100
AcDbVisualStyle
  2
3D Hidden
 70
     6
 71
     1
 72
     2
 73
     2
 90
        0
 40
-0.6
 41
-30.0
 62
     5
 63
     7
421
 16777215
 74
     2
 91
        2
 64
     7
 65
   257
 75
     2
175
     1
 42
40.0
 92
        0
 66
   257
 43
1.0
 76
     1
 77
     6
 78
     2
 67
     7
 79
     3
170
     0
171
     0
290
     0
174
     0
 93
        1
 44
0.0
173
     0
291
     0
 45
0.0
  0
VISUALSTYLE
  5
52BD4
102
{ACAD_REACTORS
330
52BCD
102
}
330
52BCD
100
AcDbVisualStyle
  2
3dWireframe
 70
     5
 71
     0
 72
     2
 73
     0
 90
        0
 40
-0.6
 41
-30.0
 62
     5
 63
     7
421
 16777215
 74
     1
 91
        4
 64
     7
 65
   257
 75
     1
175
     1
 42
1.0
 92
        0
 66
   257
 43
1.0
 76
     1
 77
     6
 78
     2
 67
     7
 79
     5
170
     0
171
     0
290
     0
174
     0
 93
        1
 44
0.0
173
     0
291
     0
 45
0.0
  0
VISUALSTYLE
  5
52BD2
102
{ACAD_REACTORS
330
52BCD
102
}
330
52BCD
100
AcDbVisualStyle
  2
Basic
 70
     7
 71
     1
 72
     0
 73
     1
 90
        0
 40
-0.6
 41
-30.0
 62
     5
 63
     7
421
 16777215
 74
     0
 91
        4
 64
     7
 65
   257
 75
     1
175
     1
 42
1.0
 92
        8
 66
     7
 43
1.0
 76
     1
 77
     6
 78
     2
 67
     7
 79
     5
170
     0
171
     0
290
     0
174
     0
 93
        1
 44
0.0
173
     0
291
     1
 45
0.0
  0
VISUALSTYLE
  5
52BD9
102
{ACAD_REACTORS
330
52BCD
102
}
330
52BCD
100
AcDbVisualStyle
  2
Brighten
 70
    12
 71
     2
 72
     2
 73
     0
 90
        0
 40
-0.6
 41
-30.0
 62
     5
 63
     7
421
 16777215
 74
     1
 91
        4
 64
     7
 65
   257
 75
     1
175
     1
 42
1.0
 92
        8
 66
     7
 43
1.0
 76
     1
 77
     6
 78
     2
 67
     7
 79
     5
170
     0
171
     0
290
     0
174
     0
 93
        1
 44
50.0
173
     0
291
     1
 45
0.0
  0
VISUALSTYLE
  5
52BDD
102
{ACAD_REACTORS
330
52BCD
102
}
330
52BCD
100
AcDbVisualStyle
  2
ColorChange
 70
    16
 71
     2
 72
     2
 73
     3
 90
        0
 40
-0.6
 41
-30.0
 62
     5
 63
     8
421
  8421504
 74
     1
 91
        4
 64
     7
 65
   257
 75
     1
175
     1
 42
1.0
 92
        8
 66
     8
424
  8421504
 43
1.0
 76
     1
 77
     6
 78
     2
 67
     7
 79
     5
170
     0
171
     0
290
     0
174
     0
 93
        1
 44
0.0
173
     0
291
     1
 45
0.0
  0
VISUALSTYLE
  5
52BD6
102
{ACAD_REACTORS
330
52BCD
102
}
330
52BCD
100
AcDbVisualStyle
  2
Conceptual
 70
     9
 71
     3
 72
     2
 73
     0
 90
        0
 40
-0.6
 41
-30.0
 62
     5
 63
     7
421
 16777215
 74
     2
 91
        2
 64
     7
 65
   257
 75
     1
175
     1
 42
40.0
 92
        8
 66
     7
 43
1.0
 76
     1
 77
     6
 78
     2
 67
     7
 79
     3
170
     0
171
     0
290
     0
174
     0
 93
        1
 44
0.0
173
     0
291
     0
 45
0.0
  0
VISUALSTYLE
  5
52BD8
102
{ACAD_REACTORS
330
52BCD
102
}
330
52BCD
100
AcDbVisualStyle
  2
Dim
 70
    11
 71
     2
 72
     2
 73
     0
 90
        0
 40
-0.6
 41
-30.0
 62
     5
 63
     7
421
 16777215
 74
     1
 91
        4
 64
     7
 65
   257
 75
     1
175
     1
 42
1.0
 92
        8
 66
     7
 43
1.0
 76
     1
 77
     6
 78
     2
 67
     7
 79
     5
170
     0
171
     0
290
     0
174
     0
 93
        1
 44
-50.0
173
     0
291
     1
 45
0.0
  0
VISUALSTYLE
  5
52BDC
102
{ACAD_REACTORS
330
52BCD
102
}
330
52BCD
100
AcDbVisualStyle
  2
Facepattern
 70
    15
 71
     2
 72
     2
 73
     0
 90
        0
 40
-0.6
 41
-30.0
 62
     5
 63
     7
421
 16777215
 74
     1
 91
        4
 64
     7
 65
   257
 75
     1
175
     1
 42
1.0
 92
        8
 66
     7
 43
1.0
 76
     1
 77
     6
 78
     2
 67
     7
 79
     5
170
     0
171
     0
290
     0
174
     0
 93
        1
 44
0.0
173
     0
291
     1
 45
0.0
  0
VISUALSTYLE
  5
52BCE
102
{ACAD_REACTORS
330
52BCD
102
}
330
52BCD
100
AcDbVisualStyle
  2
Flat
 70
     0
 71
     2
 72
     1
 73
     1
 90
        2
 40
-0.6
 41
30.0
 62
     5
 63
     7
421
 16777215
 74
     0
 91
        4
 64
     7
 65
   257
 75
     1
175
     1
 42
1.0
 92
        8
 66
     7
 43
1.0
 76
     1
 77
     6
 78
     2
 67
     7
 79
     5
170
     0
171
     0
290
     0
174
     0
 93
       13
 44
0.0
173
     0
291
     1
 45
0.0
  0
VISUALSTYLE
  5
52BCF
102
{ACAD_REACTORS
330
52BCD
102
}
330
52BCD
100
AcDbVisualStyle
  2
FlatWithEdges
 70
     1
 71
     2
 72
     1
 73
     1
 90
        2
 40
-0.6
 41
30.0
 62
     5
 63
     7
421
 16777215
 74
     1
 91
        4
 64
     7
 65
   257
 75
     1
175
     1
 42
1.0
 92
        0
 66
   257
 43
1.0
 76
     1
 77
     6
 78
     2
 67
     7
 79
     5
170
     0
171
     0
290
     0
174
     0
 93
       13
 44
0.0
173
     0
291
     1
 45
0.0
  0
VISUALSTYLE
  5
52BD0
102
{ACAD_REACTORS
330
52BCD
102
}
330
52BCD
100
AcDbVisualStyle
  2
Gouraud
 70
     2
 71
     2
 72
     2
 73
     1
 90
        2
 40
-0.6
 41
30.0
 62
     5
 63
     7
421
 16777215
 74
     0
 91
        4
 64
     7
 65
   257
 75
     1
175
     1
 42
1.0
 92
        0
 66
     7
 43
1.0
 76
     1
 77
     6
 78
     2
 67
     7
 79
     5
170
     0
171
     0
290
     0
174
     0
 93
       13
 44
0.0
173
     0
291
     1
 45
0.0
  0
VISUALSTYLE
  5
52BD1
102
{ACAD_REACTORS
330
52BCD
102
}
330
52BCD
100
AcDbVisualStyle
  2
GouraudWithEdges
 70
     3
 71
     2
 72
     2
 73
     1
 90
        2
 40
-0.6
 41
30.0
 62
     5
 63
     7
421
 16777215
 74
     1
 91
        4
 64
     7
 65
   257
 75
     1
175
     1
 42
1.0
 92
        0
 66
   257
 43
1.0
 76
     1
 77
     6
 78
     2
 67
     7
 79
     5
170
     0
171
     0
290
     0
174
     0
 93
       13
 44
0.0
173
     0
291
     1
 45
0.0
  0
VISUALSTYLE
  5
52BDB
102
{ACAD_REACTORS
330
52BCD
102
}
330
52BCD
100
AcDbVisualStyle
  2
Linepattern
 70
    14
 71
     2
 72
     2
 73
     0
 90
        0
 40
-0.6
 41
-30.0
 62
     5
 63
     7
421
 16777215
 74
     1
 91
        4
 64
     7
 65
   257
 75
     7
175
     7
 42
1.0
 92
        8
 66
     7
 43
1.0
 76
     1
 77
     6
 78
     2
 67
     7
 79
     5
170
     0
171
     0
290
     0
174
     0
 93
        1
 44
0.0
173
     0
291
     1
 45
0.0
  0
VISUALSTYLE
  5
52BD7
102
{ACAD_REACTORS
330
52BCD
102
}
330
52BCD
100
AcDbVisualStyle
  2
Realistic
 70
     8
 71
     2
 72
     2
 73
     0
 90
        0
 40
-0.6
 41
-30.0
 62
     5
 63
     7
421
 16777215
 74
     1
 91
        0
 64
     7
 65
   257
 75
     1
175
     1
 42
1.0
 92
        8
 66
     8
424
  7895160
 43
1.0
 76
     1
 77
     6
 78
     2
 67
     7
 79
     5
170
     0
171
     0
290
     0
174
     0
 93
       13
 44
0.0
173
     0
291
     0
 45
0.0
  0
VISUALSTYLE
  5
52BDA
102
{ACAD_REACTORS
330
52BCD
102
}
330
52BCD
100
AcDbVisualStyle
  2
Thicken
 70
    13
 71
     2
 72
     2
 73
     0
 90
        0
 40
-0.6
 41
-30.0
 62
     5
 63
     7
421
 16777215
 74
     1
 91
        4
 64
     7
 65
   257
 75
     1
175
     1
 42
1.0
 92
       12
 66
     7
 43
1.0
 76
     1
 77
     6
 78
     2
 67
     7
 79
     5
170
     0
171
     0
290
     0
174
     0
 93
        1
 44
0.0
173
     0
291
     1
 45
0.0
  0
DICTIONARYVAR
  5
52DB4
102
{ACAD_REACTORS
330
52DB0
102
}
330
52DB0
100
DictionaryVariables
280
     0
  1
1:1
  0
DICTIONARYVAR
  5
52DB2
102
{ACAD_REACTORS
330
52DB0
102
}
330
52DB0
100
DictionaryVariables
280
     0
  1
STANDARD
  0
DICTIONARYVAR
  5
52DB1
102
{ACAD_REACTORS
330
52DB0
102
}
330
52DB0
100
DictionaryVariables
280
     0
  1
STANDARD
  0
DICTIONARYVAR
  5
52DB6
102
{ACAD_REACTORS
330
52DB0
102
}
330
52DB0
100
DictionaryVariables
280
     0
  1
1
  0
DICTIONARYVAR
  5
52DB7
102
{ACAD_REACTORS
330
52DB0
102
}
330
52DB0
100
DictionaryVariables
280
     0
  1
15
  0
DICTIONARYVAR
  5
52DB5
102
{ACAD_REACTORS
330
52DB0
102
}
330
52DB0
100
DictionaryVariables
280
     0
  1
0
  0
DICTIONARYVAR
  5
52DB3
102
{ACAD_REACTORS
330
52DB0
102
}
330
52DB0
100
DictionaryVariables
280
     0
  1
0
  0
DICTIONARY
  5
53119
102
{ACAD_REACTORS
330
5310E
102
}
330
5310E
100
AcDbDictionary
281
     1
  0
DICTIONARY
  5
52BBE
330
52BBD
100
AcDbDictionary
280
     1
281
     1
  3
BUMPTILE
360
52BC0
  3
DIFFUSETILE
360
52BBF
  3
OPACITYTILE
360
52BC3
  3
REFLECTIONTILE
360
52BC2
  3
REFRACTIONTILE
360
52BC4
  3
SPECULARTILE
360
52BC1
  0
DICTIONARY
  5
52BB6
330
52BB5
100
AcDbDictionary
280
     1
281
     1
  3
BUMPTILE
360
52BB8
  3
DIFFUSETILE
360
52BB7
  3
OPACITYTILE
360
52BBB
  3
REFLECTIONTILE
360
52BBA
  3
REFRACTIONTILE
360
52BBC
  3
SPECULARTILE
360
52BB9
  0
DICTIONARY
  5
52BC6
330
52BC5
100
AcDbDictionary
280
     1
281
     1
  3
BUMPTILE
360
52BC8
  3
DIFFUSETILE
360
52BC7
  3
OPACITYTILE
360
52BCB
  3
REFLECTIONTILE
360
52BCA
  3
REFRACTIONTILE
360
52BCC
  3
SPECULARTILE
360
52BC9
  0
DICTIONARY
  5
52DB8
330
52C10
100
AcDbDictionary
280
     1
281
     1
  3
ACAD_ROUNDTRIP_2008_TABLESTYLE_CELLSTYLEMAP
360
55CDD
  0
XRECORD
  5
52BC0
102
{ACAD_REACTORS
330
52BBE
102
}
330
52BBE
100
AcDbXrecord
280
     1
270
     1
271
     1
  0
XRECORD
  5
52BBF
102
{ACAD_REACTORS
330
52BBE
102
}
330
52BBE
100
AcDbXrecord
280
     1
270
     1
271
     1
  0
XRECORD
  5
52BC3
102
{ACAD_REACTORS
330
52BBE
102
}
330
52BBE
100
AcDbXrecord
280
     1
270
     1
271
     1
  0
XRECORD
  5
52BC2
102
{ACAD_REACTORS
330
52BBE
102
}
330
52BBE
100
AcDbXrecord
280
     1
270
     1
271
     1
  0
XRECORD
  5
52BC4
102
{ACAD_REACTORS
330
52BBE
102
}
330
52BBE
100
AcDbXrecord
280
     1
270
     1
271
     1
  0
XRECORD
  5
52BC1
102
{ACAD_REACTORS
330
52BBE
102
}
330
52BBE
100
AcDbXrecord
280
     1
270
     1
271
     1
  0
XRECORD
  5
52BB8
102
{ACAD_REACTORS
330
52BB6
102
}
330
52BB6
100
AcDbXrecord
280
     1
270
     1
271
     1
  0
XRECORD
  5
52BB7
102
{ACAD_REACTORS
330
52BB6
102
}
330
52BB6
100
AcDbXrecord
280
     1
270
     1
271
     1
  0
XRECORD
  5
52BBB
102
{ACAD_REACTORS
330
52BB6
102
}
330
52BB6
100
AcDbXrecord
280
     1
270
     1
271
     1
  0
XRECORD
  5
52BBA
102
{ACAD_REACTORS
330
52BB6
102
}
330
52BB6
100
AcDbXrecord
280
     1
270
     1
271
     1
  0
XRECORD
  5
52BBC
102
{ACAD_REACTORS
330
52BB6
102
}
330
52BB6
100
AcDbXrecord
280
     1
270
     1
271
     1
  0
XRECORD
  5
52BB9
102
{ACAD_REACTORS
330
52BB6
102
}
330
52BB6
100
AcDbXrecord
280
     1
270
     1
271
     1
  0
XRECORD
  5
52BC8
102
{ACAD_REACTORS
330
52BC6
102
}
330
52BC6
100
AcDbXrecord
280
     1
270
     1
271
     1
  0
XRECORD
  5
52BC7
102
{ACAD_REACTORS
330
52BC6
102
}
330
52BC6
100
AcDbXrecord
280
     1
270
     1
271
     1
  0
XRECORD
  5
52BCB
102
{ACAD_REACTORS
330
52BC6
102
}
330
52BC6
100
AcDbXrecord
280
     1
270
     1
271
     1
  0
XRECORD
  5
52BCA
102
{ACAD_REACTORS
330
52BC6
102
}
330
52BC6
100
AcDbXrecord
280
     1
270
     1
271
     1
  0
XRECORD
  5
52BCC
102
{ACAD_REACTORS
330
52BC6
102
}
330
52BC6
100
AcDbXrecord
280
     1
270
     1
271
     1
  0
XRECORD
  5
52BC9
102
{ACAD_REACTORS
330
52BC6
102
}
330
52BC6
100
AcDbXrecord
280
     1
270
     1
271
     1
  0
CELLSTYLEMAP
  5
55CDD
102
{ACAD_REACTORS
330
52DB8
102
}
330
52DB8
100
AcDbCellStyleMap
 90
        3
300
CELLSTYLE
  1
TABLEFORMAT_BEGIN
 90
        5
170
     1
 91
        0
 92
    32768
 62
   257
 93
        1
300
CONTENTFORMAT
  1
CONTENTFORMAT_BEGIN
 90
        0
 91
        0
 92
      512
 93
        0
300

 40
0.0
140
1.0
 94
        5
 62
     0
340
52C01
144
0.25
309
CONTENTFORMAT_END
171
     1
301
MARGIN
  1
CELLMARGIN_BEGIN
 40
0.06
 40
0.06
 40
0.06
 40
0.06
 40
0.18
 40
0.18
309
CELLMARGIN_END
 94
        6
 95
        1
302
GRIDFORMAT
  1
GRIDFORMAT_BEGIN
 90
        0
 91
        1
 62
     0
 92
       -2
340
0
 93
        0
 40
0.045
309
GRIDFORMAT_END
 95
        2
302
GRIDFORMAT
  1
GRIDFORMAT_BEGIN
 90
        0
 91
        1
 62
     0
 92
       -2
340
0
 93
        0
 40
0.045
309
GRIDFORMAT_END
 95
        4
302
GRIDFORMAT
  1
GRIDFORMAT_BEGIN
 90
        0
 91
        1
 62
     0
 92
       -2
340
0
 93
        0
 40
0.045
309
GRIDFORMAT_END
 95
        8
302
GRIDFORMAT
  1
GRIDFORMAT_BEGIN
 90
        0
 91
        1
 62
     0
 92
       -2
340
0
 93
        0
 40
0.045
309
GRIDFORMAT_END
 95
       16
302
GRIDFORMAT
  1
GRIDFORMAT_BEGIN
 90
        0
 91
        1
 62
     0
 92
       -2
340
0
 93
        0
 40
0.045
309
GRIDFORMAT_END
 95
       32
302
GRIDFORMAT
  1
GRIDFORMAT_BEGIN
 90
        0
 91
        1
 62
     0
 92
       -2
340
0
 93
        0
 40
0.045
309
GRIDFORMAT_END
309
TABLEFORMAT_END
  1
CELLSTYLE_BEGIN
 90
        1
 91
        1
300
_TITLE
309
CELLSTYLE_END
300
CELLSTYLE
  1
TABLEFORMAT_BEGIN
 90
        5
170
     1
 91
        0
 92
        0
 62
   257
 93
        1
300
CONTENTFORMAT
  1
CONTENTFORMAT_BEGIN
 90
        0
 91
        0
 92
      512
 93
        0
300

 40
0.0
140
1.0
 94
        5
 62
     0
340
52C01
144
0.18
309
CONTENTFORMAT_END
171
     1
301
MARGIN
  1
CELLMARGIN_BEGIN
 40
0.06
 40
0.06
 40
0.06
 40
0.06
 40
0.18
 40
0.18
309
CELLMARGIN_END
 94
        6
 95
        1
302
GRIDFORMAT
  1
GRIDFORMAT_BEGIN
 90
        0
 91
        1
 62
     0
 92
       -2
340
0
 93
        0
 40
0.045
309
GRIDFORMAT_END
 95
        2
302
GRIDFORMAT
  1
GRIDFORMAT_BEGIN
 90
        0
 91
        1
 62
     0
 92
       -2
340
0
 93
        0
 40
0.045
309
GRIDFORMAT_END
 95
        4
302
GRIDFORMAT
  1
GRIDFORMAT_BEGIN
 90
        0
 91
        1
 62
     0
 92
       -2
340
0
 93
        0
 40
0.045
309
GRIDFORMAT_END
 95
        8
302
GRIDFORMAT
  1
GRIDFORMAT_BEGIN
 90
        0
 91
        1
 62
     0
 92
       -2
340
0
 93
        0
 40
0.045
309
GRIDFORMAT_END
 95
       16
302
GRIDFORMAT
  1
GRIDFORMAT_BEGIN
 90
        0
 91
        1
 62
     0
 92
       -2
340
0
 93
        0
 40
0.045
309
GRIDFORMAT_END
 95
       32
302
GRIDFORMAT
  1
GRIDFORMAT_BEGIN
 90
        0
 91
        1
 62
     0
 92
       -2
340
0
 93
        0
 40
0.045
309
GRIDFORMAT_END
309
TABLEFORMAT_END
  1
CELLSTYLE_BEGIN
 90
        2
 91
        1
300
_HEADER
309
CELLSTYLE_END
300
CELLSTYLE
  1
TABLEFORMAT_BEGIN
 90
        5
170
     1
 91
        0
 92
        0
 62
   257
 93
        1
300
CONTENTFORMAT
  1
CONTENTFORMAT_BEGIN
 90
        0
 91
        0
 92
      512
 93
        0
300

 40
0.0
140
1.0
 94
        2
 62
     0
340
52C01
144
0.18
309
CONTENTFORMAT_END
171
     1
301
MARGIN
  1
CELLMARGIN_BEGIN
 40
0.06
 40
0.06
 40
0.06
 40
0.06
 40
0.18
 40
0.18
309
CELLMARGIN_END
 94
        6
 95
        1
302
GRIDFORMAT
  1
GRIDFORMAT_BEGIN
 90
        0
 91
        1
 62
     0
 92
       -2
340
0
 93
        0
 40
0.045
309
GRIDFORMAT_END
 95
        2
302
GRIDFORMAT
  1
GRIDFORMAT_BEGIN
 90
        0
 91
        1
 62
     0
 92
       -2
340
0
 93
        0
 40
0.045
309
GRIDFORMAT_END
 95
        4
302
GRIDFORMAT
  1
GRIDFORMAT_BEGIN
 90
        0
 91
        1
 62
     0
 92
       -2
340
0
 93
        0
 40
0.045
309
GRIDFORMAT_END
 95
        8
302
GRIDFORMAT
  1
GRIDFORMAT_BEGIN
 90
        0
 91
        1
 62
     0
 92
       -2
340
0
 93
        0
 40
0.045
309
GRIDFORMAT_END
 95
       16
302
GRIDFORMAT
  1
GRIDFORMAT_BEGIN
 90
        0
 91
        1
 62
     0
 92
       -2
340
0
 93
        0
 40
0.045
309
GRIDFORMAT_END
 95
       32
302
GRIDFORMAT
  1
GRIDFORMAT_BEGIN
 90
        0
 91
        1
 62
     0
 92
       -2
340
0
 93
        0
 40
0.045
309
GRIDFORMAT_END
309
TABLEFORMAT_END
  1
CELLSTYLE_BEGIN
 90
        3
 91
        2
300
_DATA
309
CELLSTYLE_END
  0
ENDSEC
  0
EOF
