  0
SECTION
  2
HEADER
  9
$ACADVER
  1
AC1021
  9
$ACADMAINTVER
 70
    50
  9
$DWGCODEPAGE
  3
ANSI_1252
  9
$LASTSAVEDBY
  1
mstaweczny
  9
$INSBASE
 10
0.0
 20
0.0
 30
0.0
  9
$EXTMIN
 10
29050.77647794923
 20
25614.50960762784
 30
0.0
  9
$EXTMAX
 10
31070.05526615188
 20
26676.40104386973
 30
0.0
  9
$LIMMIN
 10
0.0
 20
0.0
  9
$LIMMAX
 10
420.0
 20
297.0
  9
$ORTHOMODE
 70
     0
  9
$REGENMODE
 70
     1
  9
$FILLMODE
 70
     1
  9
$QTEXTMODE
 70
     0
  9
$MIRRTEXT
 70
     0
  9
$LTSCALE
 40
1.0
  9
$ATTMODE
 70
     1
  9
$TEXTSIZE
 40
2.5
  9
$TRACEWID
 40
1.0
  9
$TEXTSTYLE
  7
STANDARD
  9
$CLAYER
  8
0
  9
$CELTYPE
  6
ByLayer
  9
$CECOLOR
 62
   256
  9
$CELTSCALE
 40
1.0
  9
$DISPSILH
 70
     0
  9
$DIMSCALE
 40
1.0
  9
$DIMASZ
 40
0.12
  9
$DIMEXO
 40
0.05
  9
$DIMDLI
 40
0.5
  9
$DIMRND
 40
0.0
  9
$DIMDLE
 40
0.0
  9
$DIMEXE
 40
0.1
  9
$DIMTP
 40
0.1
  9
$DIMTM
 40
0.1
  9
$DIMTXT
 40
0.12
  9
$DIMCEN
 40
0.0
  9
$DIMTSZ
 40
0.0
  9
$DIMTOL
 70
     0
  9
$DIMLIM
 70
     0
  9
$DIMTIH
 70
     1
  9
$DIMTOH
 70
     1
  9
$DIMSE1
 70
     0
  9
$DIMSE2
 70
     0
  9
$DIMTAD
 70
     0
  9
$DIMZIN
 70
     7
  9
$DIMBLK
  1

  9
$DIMASO
 70
     1
  9
$DIMSHO
 70
     1
  9
$DIMPOST
  1

  9
$DIMAPOST
  1
mm
  9
$DIMALT
 70
     0
  9
$DIMALTD
 70
     2
  9
$DIMALTF
 40
25.4
  9
$DIMLFAC
 40
1.0
  9
$DIMTOFL
 70
     0
  9
$DIMTVP
 40
0.0
  9
$DIMTIX
 70
     0
  9
$DIMSOXD
 70
     0
  9
$DIMSAH
 70
     0
  9
$DIMBLK1
  1

  9
$DIMBLK2
  1

  9
$DIMSTYLE
  2
AM_ANSI
  9
$DIMCLRD
 70
   256
  9
$DIMCLRE
 70
   256
  9
$DIMCLRT
 70
   140
  9
$DIMTFAC
 40
0.71
  9
$DIMGAP
 40
0.06
  9
$DIMJUST
 70
     0
  9
$DIMSD1
 70
     0
  9
$DIMSD2
 70
     0
  9
$DIMTOLJ
 70
     1
  9
$DIMTZIN
 70
     7
  9
$DIMALTZ
 70
     0
  9
$DIMALTTZ
 70
     0
  9
$DIMUPT
 70
     0
  9
$DIMDEC
 70
     4
  9
$DIMTDEC
 70
     4
  9
$DIMALTU
 70
     2
  9
$DIMALTTD
 70
     4
  9
$DIMTXSTY
  7
STANDARD
  9
$DIMAUNIT
 70
     0
  9
$DIMADEC
 70
     0
  9
$DIMALTRND
 40
0.0
  9
$DIMAZIN
 70
     2
  9
$DIMDSEP
 70
    46
  9
$DIMATFIT
 70
     3
  9
$DIMFRAC
 70
     0
  9
$DIMLDRBLK
  1

  9
$DIMLUNIT
 70
     2
  9
$DIMLWD
 70
    -1
  9
$DIMLWE
 70
    -1
  9
$DIMTMOVE
 70
     0
  9
$DIMFXL
 40
1.0
  9
$DIMFXLON
 70
     0
  9
$DIMJOGANG
 40
0.7853981633974483
  9
$DIMTFILL
 70
     0
  9
$DIMTFILLCLR
 70
     0
  9
$DIMARCSYM
 70
     1
  9
$DIMLTYPE
  6
ByBlock
  9
$DIMLTEX1
  6
ByBlock
  9
$DIMLTEX2
  6
ByBlock
  9
$LUNITS
 70
     2
  9
$LUPREC
 70
     2
  9
$SKETCHINC
 40
1.0
  9
$FILLETRAD
 40
2.5
  9
$AUNITS
 70
     0
  9
$AUPREC
 70
     0
  9
$MENU
  1
.
  9
$ELEVATION
 40
0.0
  9
$PELEVATION
 40
0.0
  9
$THICKNESS
 40
0.0
  9
$LIMCHECK
 70
     0
  9
$CHAMFERA
 40
2.5
  9
$CHAMFERB
 40
2.5
  9
$CHAMFERC
 40
0.0
  9
$CHAMFERD
 40
0.0
  9
$SKPOLY
 70
     0
  9
$TDCREATE
 40
2455251.684584873
  9
$TDUCREATE
 40
2455251.642918206
  9
$TDUPDATE
 40
2458305.393370521
  9
$TDUUPDATE
 40
2458305.351703855
  9
$TDINDWG
 40
0.0588317361
  9
$TDUSRTIMER
 40
0.0588310417
  9
$USRTIMER
 70
     1
  9
$ANGBASE
 50
0.0
  9
$ANGDIR
 70
     0
  9
$PDMODE
 70
     0
  9
$PDSIZE
 40
0.0
  9
$PLINEWID
 40
0.0
  9
$SPLFRAME
 70
     0
  9
$SPLINETYPE
 70
     6
  9
$SPLINESEGS
 70
     8
  9
$HANDSEED
  5
55521
  9
$SURFTAB1
 70
     6
  9
$SURFTAB2
 70
     6
  9
$SURFTYPE
 70
     6
  9
$SURFU
 70
     6
  9
$SURFV
 70
     6
  9
$UCSBASE
  2

  9
$UCSNAME
  2

  9
$UCSORG
 10
0.0
 20
0.0
 30
0.0
  9
$UCSXDIR
 10
1.0
 20
0.0
 30
0.0
  9
$UCSYDIR
 10
0.0
 20
1.0
 30
0.0
  9
$UCSORTHOREF
  2

  9
$UCSORTHOVIEW
 70
     0
  9
$UCSORGTOP
 10
0.0
 20
0.0
 30
0.0
  9
$UCSORGBOTTOM
 10
0.0
 20
0.0
 30
0.0
  9
$UCSORGLEFT
 10
0.0
 20
0.0
 30
0.0
  9
$UCSORGRIGHT
 10
0.0
 20
0.0
 30
0.0
  9
$UCSORGFRONT
 10
0.0
 20
0.0
 30
0.0
  9
$UCSORGBACK
 10
0.0
 20
0.0
 30
0.0
  9
$PUCSBASE
  2

  9
$PUCSNAME
  2

  9
$PUCSORG
 10
0.0
 20
0.0
 30
0.0
  9
$PUCSXDIR
 10
1.0
 20
0.0
 30
0.0
  9
$PUCSYDIR
 10
0.0
 20
1.0
 30
0.0
  9
$PUCSORTHOREF
  2

  9
$PUCSORTHOVIEW
 70
     0
  9
$PUCSORGTOP
 10
0.0
 20
0.0
 30
0.0
  9
$PUCSORGBOTTOM
 10
0.0
 20
0.0
 30
0.0
  9
$PUCSORGLEFT
 10
0.0
 20
0.0
 30
0.0
  9
$PUCSORGRIGHT
 10
0.0
 20
0.0
 30
0.0
  9
$PUCSORGFRONT
 10
0.0
 20
0.0
 30
0.0
  9
$PUCSORGBACK
 10
0.0
 20
0.0
 30
0.0
  9
$USERI1
 70
     0
  9
$USERI2
 70
     0
  9
$USERI3
 70
     0
  9
$USERI4
 70
     0
  9
$USERI5
 70
     0
  9
$USERR1
 40
0.0
  9
$USERR2
 40
0.0
  9
$USERR3
 40
0.0
  9
$USERR4
 40
0.0
  9
$USERR5
 40
0.0
  9
$WORLDVIEW
 70
     1
  9
$SHADEDGE
 70
     3
  9
$SHADEDIF
 70
    70
  9
$TILEMODE
 70
     1
  9
$MAXACTVP
 70
    64
  9
$PINSBASE
 10
0.0
 20
0.0
 30
0.0
  9
$PLIMCHECK
 70
     0
  9
$PEXTMIN
 10
1.000000000000000E+20
 20
1.000000000000000E+20
 30
1.000000000000000E+20
  9
$PEXTMAX
 10
-1.000000000000000E+20
 20
-1.000000000000000E+20
 30
-1.000000000000000E+20
  9
$PLIMMIN
 10
0.0
 20
0.0
  9
$PLIMMAX
 10
420.0
 20
297.0
  9
$UNITMODE
 70
     0
  9
$VISRETAIN
 70
     1
  9
$PLINEGEN
 70
     0
  9
$PSLTSCALE
 70
     1
  9
$TREEDEPTH
 70
  3020
  9
$CMLSTYLE
  2
Standard
  9
$CMLJUST
 70
     0
  9
$CMLSCALE
 40
1.0
  9
$PROXYGRAPHICS
 70
     1
  9
$MEASUREMENT
 70
     0
  9
$CELWEIGHT
370
    -1
  9
$ENDCAPS
280
     0
  9
$JOINSTYLE
280
     0
  9
$LWDISPLAY
290
     0
  9
$INSUNITS
 70
     0
  9
$HYPERLINKBASE
  1

  9
$STYLESHEET
  1

  9
$XEDIT
290
     1
  9
$CEPSNTYPE
380
     0
  9
$PSTYLEMODE
290
     1
  9
$FINGERPRINTGUID
  2
{7CA7D69D-36B4-42EF-92E2-8442B4B9647F}
  9
$VERSIONGUID
  2
{68EF49C5-033D-4263-AF14-C26F80D788A7}
  9
$EXTNAMES
290
     1
  9
$PSVPSCALE
 40
0.0
  9
$OLESTARTUP
290
     0
  9
$SORTENTS
280
   127
  9
$INDEXCTL
280
     0
  9
$HIDETEXT
280
     0
  9
$XCLIPFRAME
290
     0
  9
$HALOGAP
280
     0
  9
$OBSCOLOR
 70
   257
  9
$OBSLTYPE
280
     0
  9
$INTERSECTIONDISPLAY
280
     0
  9
$INTERSECTIONCOLOR
 70
   257
  9
$DIMASSOC
280
     1
  9
$PROJECTNAME
  1

  9
$CAMERADISPLAY
290
     0
  9
$LENSLENGTH
 40
50.0
  9
$CAMERAHEIGHT
 40
0.0
  9
$STEPSPERSEC
 40
2.0
  9
$STEPSIZE
 40
6.0
  9
$3DDWFPREC
 40
2.0
  9
$PSOLWIDTH
 40
0.25
  9
$PSOLHEIGHT
 40
4.0
  9
$LOFTANG1
 40
1.570796326794896
  9
$LOFTANG2
 40
1.570796326794896
  9
$LOFTMAG1
 40
0.0
  9
$LOFTMAG2
 40
0.0
  9
$LOFTPARAM
 70
     7
  9
$LOFTNORMALS
280
     1
  9
$LATITUDE
 40
37.795
  9
$LONGITUDE
 40
-122.394
  9
$NORTHDIRECTION
 40
0.0
  9
$TIMEZONE
 70
 -8000
  9
$LIGHTGLYPHDISPLAY
280
     1
  9
$TILEMODELIGHTSYNCH
280
     1
  9
$CMATERIAL
347
52BB5
  9
$SOLIDHIST
280
     1
  9
$SHOWHIST
280
     1
  9
$DWFFRAME
280
     2
  9
$DGNFRAME
280
     0
  9
$REALWORLDSCALE
290
     1
  9
$INTERFERECOLOR
 62
     1
  9
$INTERFEREOBJVS
345
52BD7
  9
$INTERFEREVPVS
346
52BD4
  9
$CSHADOW
280
     0
  9
$SHADOWPLANELOCATION
 40
0.0
  0
ENDSEC
  0
SECTION
  2
CLASSES
  0
CLASS
  1
ACDBDICTIONARYWDFLT
  2
AcDbDictionaryWithDefault
  3
ObjectDBX Classes
 90
        0
 91
        1
280
     0
281
     0
  0
CLASS
  1
MATERIAL
  2
AcDbMaterial
  3
ObjectDBX Classes
 90
     1153
 91
        3
280
     0
281
     0
  0
CLASS
  1
VISUALSTYLE
  2
AcDbVisualStyle
  3
ObjectDBX Classes
 90
     4095
 91
       16
280
     0
281
     0
  0
CLASS
  1
SCALE
  2
AcDbScale
  3
ObjectDBX Classes
 90
     1153
 91
       33
280
     0
281
     0
  0
CLASS
  1
TABLESTYLE
  2
AcDbTableStyle
  3
ObjectDBX Classes
 90
     4095
 91
        1
280
     0
281
     0
  0
CLASS
  1
MLEADERSTYLE
  2
AcDbMLeaderStyle
  3
ACDB_MLEADERSTYLE_CLASS
 90
     4095
 91
        1
280
     0
281
     0
  0
CLASS
  1
EXACXREFPANELOBJECT
  2
ExAcXREFPanelObject
  3
EXAC_ESW
 90
     1025
 91
        1
280
     0
281
     0
  0
CLASS
  1
NPOCOLLECTION
  2
AcDbImpNonPersistentObjectsCollection
  3
ObjectDBX Classes
 90
     1153
 91
        1
280
     0
281
     0
  0
CLASS
  1
DIMASSOC
  2
AcDbDimAssoc
  3
"AcDbDimAssoc|Product Desc:     AcDim ARX App For Dimension|Company:          Autodesk, Inc.|WEB Address:      www.autodesk.com"
 90
        0
 91
       14
280
     0
281
     0
  0
CLASS
  1
SORTENTSTABLE
  2
AcDbSortentsTable
  3
ObjectDBX Classes
 90
        0
 91
        1
280
     0
281
     0
  0
CLASS
  1
DICTIONARYVAR
  2
AcDbDictionaryVar
  3
ObjectDBX Classes
 90
        0
 91
        7
280
     0
281
     0
  0
CLASS
  1
CELLSTYLEMAP
  2
AcDbCellStyleMap
  3
ObjectDBX Classes
 90
     1152
 91
        3
280
     0
281
     0
  0
CLASS
  1
AMGSETTINGSOBJ
  2
AmgSettingsObj
  3
"AcadM|Product Description: AutoCAD Mechanical|Company: Autodesk, Inc."
 90
     1024
 91
        2
280
     0
281
     0
  0
CLASS
  1
ACME_DOCUMENT
  2
AcMeDbDoc
  3
AcMeServices
 90
     1024
 91
        1
280
     0
281
     0
  0
CLASS
  1
ACMESCOPE
  2
AcMeScope
  3
AcMeServices
 90
     1024
 91
        1
280
     0
281
     0
  0
CLASS
  1
ACMECOMMANDHISTORY
  2
AcMeCommandHistory
  3
AcMeServices
 90
     1024
 91
        1
280
     0
281
     0
  0
CLASS
  1
ACIMSYSVARMAN
  2
AcImSysVarManager
  3
AcMeServices
 90
     1024
 91
        5
280
     0
281
     0
  0
CLASS
  1
ACIMINTSYSVAR
  2
AcImIntSysVar
  3
AcMeServices
 90
     1024
 91
       27
280
     0
281
     0
  0
CLASS
  1
ACMEDRAWINGMAN
  2
AcMeDrawingMan
  3
AcMeServices
 90
     1024
 91
        1
280
     0
281
     0
  0
CLASS
  1
ACMEVIEW
  2
AcMeView
  3
AcMeServices
 90
     1024
 91
        1
280
     0
281
     0
  0
CLASS
  1
ACDBENTITYCACHE
  2
AcMeEntityCache
  3
AcMeServices
 90
     1024
 91
        1
280
     0
281
     0
  0
CLASS
  1
GSMANAGER
  2
AcMeGSManager
  3
AcMeServices
 90
     1024
 91
        1
280
     0
281
     0
  0
CLASS
  1
AMDTINTERNALREACTOR
  2
AmdtInternalReactor
  3
AcMeServices
 90
     1024
 91
        2
280
     0
281
     0
  0
CLASS
  1
ACMESTATEMGR
  2
AcMeStateMgr
  3
AcMeServices
 90
     1024
 91
        1
280
     0
281
     0
  0
CLASS
  1
ACGREFMASTER
  2
AcGrefMaster
  3
AcAttribServices
 90
     1024
 91
        1
280
     0
281
     0
  0
CLASS
  1
AM_DRAWING_MGR
  2
AcDmDwgMgr
  3
AcMechDwgViewMgmt
 90
     1024
 91
        1
280
     0
281
     0
  0
CLASS
  1
AM_DWG_DOCUMENT
  2
AcDmDwgDocument
  3
AcMechDwgViewMgmt
 90
     1024
 91
        1
280
     0
281
     0
  0
CLASS
  1
AM_DWG_SHEET
  2
AcDmSheet
  3
AcMechDwgViewMgmt
 90
     1024
 91
        1
280
     0
281
     0
  0
CLASS
  1
AM_VIEWDIMPARMAP
  2
AcDmViewDimParMap
  3
AcMechDwgViewMgmt
 90
     1024
 91
        1
280
     0
281
     0
  0
CLASS
  1
ACIMREALSYSVAR
  2
AcImRealSysVar
  3
AcMeServices
 90
     1024
 91
        1
280
     0
281
     0
  0
CLASS
  1
AM_DWGMGR_NAME
  2
AcDmDwgMgrName
  3
AcMechDwgViewMgmt
 90
     1024
 91
        1
280
     0
281
     0
  0
CLASS
  1
ACME_DATABASE
  2
AcMeDbDatabase
  3
AcMeServices
 90
     1024
 91
        2
280
     0
281
     0
  0
CLASS
  1
ACRFINSADJUSTERMGR
  2
AcRfInsAdjusterMgr
  3
AcMeServices
 90
     1024
 91
        1
280
     0
281
     0
  0
CLASS
  1
ACGREFACADMASTER
  2
AcGrefacadMaster
  3
AcGrefServices
 90
     1024
 91
        1
280
     0
281
     0
  0
CLASS
  1
AMDTMENUSTATEMGR
  2
AmdtMenuStateMgr
  3
McadcomServices
 90
     1024
 91
        1
280
     0
281
     0
  0
CLASS
  1
AMDTMCOMMENUSTATE
  2
AmdtMcomMenuState
  3
McadcomServices
 90
     1024
 91
        1
280
     0
281
     0
  0
CLASS
  1
AMIMASTER
  2
AmiMaster
  3
AmiServices
 90
     1024
 91
        1
280
     0
281
     0
  0
CLASS
  1
MAPIAMMOUDLE
  2
MApiAmModule
  3
MApiAmServices
 90
     1024
 91
        1
280
     0
281
     0
  0
CLASS
  1
ACIMSTRSYSVAR
  2
AcImStrSysVar
  3
AcMeServices
 90
     1024
 91
        5
280
     0
281
     0
  0
CLASS
  1
AMDTADMENUSTATE
  2
AmdtAdMenuState
  3
DesignerServices
 90
     1024
 91
        1
280
     0
281
     0
  0
CLASS
  1
ADAPPL
  2
AcAdAppl
  3
DesignerServices
 90
     1024
 91
        1
280
     0
281
     0
  0
CLASS
  1
DEPMGR
  2
AcAdDepMgr
  3
DesignerServices
 90
     1024
 91
        1
280
     0
281
     0
  0
CLASS
  1
PARAMMGR
  2
AcAdParamMgr
  3
DesignerServices
 90
     1024
 91
        1
280
     0
281
     0
  0
CLASS
  1
PARAMSCOPE
  2
AcAdParamScope
  3
DesignerServices
 90
     1024
 91
        1
280
     0
281
     0
  0
CLASS
  1
NAMEDAPPL
  2
AcAdNamedAppl
  3
DesignerServices
 90
     1024
 91
        1
280
     0
281
     0
  0
CLASS
  1
AMDTDMMENUSTATE
  2
AmdtDmMenuState
  3
AcMechDwgViewMgmt
 90
     1024
 91
        1
280
     0
281
     0
  0
CLASS
  1
AMDTAMMENUSTATE
  2
AmdtAmMenuState
  3
DesignerAssemblies
 90
     1024
 91
        1
280
     0
281
     0
  0
CLASS
  1
ACAMPROJECT
  2
AcAmProject
  3
DesignerAssemblies
 90
     1024
 91
        1
280
     0
281
     0
  0
CLASS
  1
ACAMGRCOMPDEF
  2
AcAmGrCompDef
  3
DesignerAssemblies
 90
     1024
 91
        1
280
     0
281
     0
  0
CLASS
  1
ACCMCONTEXT
  2
AcCmContext
  3
DesignerAssemblies
 90
     1024
 91
        1
280
     0
281
     0
  0
CLASS
  1
ACAMCOMPDEF
  2
AcAmCompDef
  3
DesignerAssemblies
 90
     1024
 91
        1
280
     0
281
     0
  0
CLASS
  1
ACAMCOMPDEFMGR
  2
AcAmCompDefMgr
  3
DesignerAssemblies
 90
     1024
 91
        1
280
     0
281
     0
  0
CLASS
  1
AMCONTEXTMGR
  2
AcAmContextMgr
  3
DesignerAssemblies
 90
     1024
 91
        1
280
     0
281
     0
  0
CLASS
  1
ACAMCONTEXTMODELER
  2
AcAmContextModeler
  3
DesignerAssemblies
 90
     1024
 91
        1
280
     0
281
     0
  0
CLASS
  1
ACMDATADICTIONARY
  2
AcmDataDictionary
  3
"AcmSymBB|Product Description: AutoCAD Mechanical|Company: Autodesk, Inc."
 90
     1024
 91
        1
280
     0
281
     0
  0
CLASS
  1
CATALOGSTATE
  2
AcAmCatalogState
  3
DesignerAssemblies
 90
     1024
 91
        1
280
     0
281
     0
  0
CLASS
  1
ACAMGRCOMPDEFSET
  2
AcAmGrCompDefSet
  3
DesignerAssemblies
 90
     1024
 91
        1
280
     0
281
     0
  0
CLASS
  1
AMDTBROWSERDBTAB
  2
AmdtBrowserDbTab
  3
McadcomServices
 90
     1024
 91
        1
280
     0
281
     0
  0
CLASS
  1
CBROWSERAPPOBJECT
  2
CBrowserAppObject
  3
McadcomServices
 90
     1024
 91
        3
280
     0
281
     0
  0
CLASS
  1
DM_PLACEHOLDER
  2
AcDmSelsetPlaceholder
  3
AcMechDwgViewMgmt
 90
     1024
 91
        1
280
     0
281
     0
  0
CLASS
  1
ACMSTANDARDANSI
  2
AcmStandardANSI
  3
"Amdt_StdImp|Product Description: AutoCAD Mechanical|Company: Autodesk, Inc."
 90
     1024
 91
        1
280
     0
281
     0
  0
CLASS
  1
ACMSURFSTANDARDANSI
  2
AcmSurfTextStdANSI
  3
"Amdt_StdImp|Product Description: AutoCAD Mechanical|Company: Autodesk, Inc."
 90
     1024
 91
        1
280
     0
281
     0
  0
CLASS
  1
ACMFCFSTANDARDANSI
  2
AcmFCFStdANSI
  3
"Amdt_StdImp|Product Description: AutoCAD Mechanical|Company: Autodesk, Inc."
 90
     1024
 91
        1
280
     0
281
     0
  0
CLASS
  1
ACMWELDSTANDARDANSI
  2
AcmWeldingStdANSI
  3
"Amdt_StdImp|Product Description: AutoCAD Mechanical|Company: Autodesk, Inc."
 90
     1024
 91
        1
280
     0
281
     0
  0
CLASS
  1
ACMIDSTANDARDANSI
  2
AcmIdStdANSI
  3
"Amdt_StdImp|Product Description: AutoCAD Mechanical|Company: Autodesk, Inc."
 90
     1024
 91
        1
280
     0
281
     0
  0
CLASS
  1
ACMDATUMSTANDARDANSI
  2
AcmDatumStdANSI
  3
"Amdt_StdImp|Product Description: AutoCAD Mechanical|Company: Autodesk, Inc."
 90
     1024
 91
        1
280
     0
281
     0
  0
CLASS
  1
ACMBOMSTANDARDANSI
  2
AcmBOMStdANSI
  3
"Amdt_StdImp|Product Description: AutoCAD Mechanical|Company: Autodesk, Inc."
 90
     1024
 91
        1
280
     0
281
     0
  0
CLASS
  1
ACMDETAILSTANDARDANSI
  2
AmdtDetailSymStdANSI
  3
"Amdt_StdImp|Product Description: AutoCAD Mechanical|Company: Autodesk, Inc."
 90
     1024
 91
        1
280
     0
281
     0
  0
CLASS
  1
ACMSECTIONSTANDARDANSI
  2
AmdtSectionSymStdANSI
  3
"Amdt_StdImp|Product Description: AutoCAD Mechanical|Company: Autodesk, Inc."
 90
     1024
 91
        1
280
     0
281
     0
  0
CLASS
  1
ACMCENTERLINESTANDARDANSI
  2
AmdtCenterLineStdANSI
  3
"Amdt_StdImp|Product Description: AutoCAD Mechanical|Company: Autodesk, Inc."
 90
     1024
 91
        1
280
     0
281
     0
  0
CLASS
  1
ACMTHREADLINESTANDARDANSI
  2
AmdtThreadLineStdANSI
  3
"Amdt_StdImp|Product Description: AutoCAD Mechanical|Company: Autodesk, Inc."
 90
     1024
 91
        1
280
     0
281
     0
  0
CLASS
  1
ACMNOTESTANDARDANSI
  2
AmdtNoteStdANSI
  3
"Amdt_StdImp|Product Description: AutoCAD Mechanical|Company: Autodesk, Inc."
 90
     1024
 91
        1
280
     0
281
     0
  0
CLASS
  1
ACMTAPERSTANDARDANSI
  2
AcmTaperStdANSI
  3
"Amdt_StdImp|Product Description: AutoCAD Mechanical|Company: Autodesk, Inc."
 90
     1024
 91
        1
280
     0
281
     0
  0
CLASS
  1
ACMANOOTATIONVIEWSTANDARDANSI
  2
AmdtAnViewStdANSI
  3
"Amdt_StdImp|Product Description: AutoCAD Mechanical|Company: Autodesk, Inc."
 90
     1024
 91
        1
280
     0
281
     0
  0
CLASS
  1
ACAMGLAYSTD
  2
AcAmgLayStd
  3
"AmgLay|Product Description: AutoCAD Mechanical|Company: Autodesk, Inc."
 90
     1024
 91
        2
280
     0
281
     0
  0
CLASS
  1
ACAMGDIMSTD
  2
AcAmgDimStd
  3
"AmgDim|Product Description: AutoCAD Mechanical|Company: Autodesk, Inc."
 90
     1024
 91
        2
280
     0
281
     0
  0
CLASS
  1
AMGOBJPROPCFG
  2
AmgObjPropCfg
  3
"AmgLay|Product Description: AutoCAD Mechanical|Company: Autodesk, Inc."
 90
     1025
 91
        1
280
     0
281
     0
  0
CLASS
  1
ACAMGHOLECHARTSTDANSI
  2
AcAmgHoleChartStdANSI
  3
AmgDim|Product Description: AutoCAD Mechanical|Company: Autodesk, Inc.
 90
     1024
 91
        1
280
     0
281
     0
  0
CLASS
  1
ACAMGTITLESTD
  2
AcAmgTitleStd
  3
"AmgTitle|Product Description: AutoCAD Mechanical|Company: Autodesk, Inc."
 90
     4095
 91
        2
280
     0
281
     0
  0
CLASS
  1
AMDTNOTETEMPLATEDB
  2
AmdtNoteTemplateDB
  3
AcmSymBB|Product Description: AutoCAD Mechanical|Company: Autodesk, Inc.
 90
     1024
 91
       12
280
     0
281
     0
  0
CLASS
  1
ACMSTANDARDISO
  2
AcmStandardISO
  3
"Amdt_StdImp|Product Description: AutoCAD Mechanical|Company: Autodesk, Inc."
 90
     1024
 91
        1
280
     0
281
     0
  0
CLASS
  1
ACMSURFSTANDARDISO2002
  2
AcmSurfTextStdISO2002
  3
"Amdt_StdImp|Product Description: AutoCAD Mechanical|Company: Autodesk, Inc."
 90
     1024
 91
        1
280
     0
281
     0
  0
CLASS
  1
ACMFCFSTANDARDISO
  2
AcmFCFStdISO
  3
"Amdt_StdImp|Product Description: AutoCAD Mechanical|Company: Autodesk, Inc."
 90
     1024
 91
        1
280
     0
281
     0
  0
CLASS
  1
ACMWELDSTANDARDISO
  2
AcmWeldingStdISO
  3
"Amdt_StdImp|Product Description: AutoCAD Mechanical|Company: Autodesk, Inc."
 90
     1024
 91
        1
280
     0
281
     0
  0
CLASS
  1
ACMIDSTANDARDISO
  2
AcmIdStdISO
  3
"Amdt_StdImp|Product Description: AutoCAD Mechanical|Company: Autodesk, Inc."
 90
     1024
 91
        1
280
     0
281
     0
  0
CLASS
  1
ACMDATUMSTANDARDISO
  2
AcmDatumStdISO
  3
"Amdt_StdImp|Product Description: AutoCAD Mechanical|Company: Autodesk, Inc."
 90
     1024
 91
        1
280
     0
281
     0
  0
CLASS
  1
ACMBOMSTANDARDISO
  2
AcmBOMStdISO
  3
"Amdt_StdImp|Product Description: AutoCAD Mechanical|Company: Autodesk, Inc."
 90
     1024
 91
        1
280
     0
281
     0
  0
CLASS
  1
ACMDETAILSTANDARDISO
  2
AmdtDetailSymStdISO
  3
"Amdt_StdImp|Product Description: AutoCAD Mechanical|Company: Autodesk, Inc."
 90
     1024
 91
        1
280
     0
281
     0
  0
CLASS
  1
ACMSECTIONSTANDARDISO2001
  2
AmdtSectionSymStdISO2001
  3
"Amdt_StdImp|Product Description: AutoCAD Mechanical|Company: Autodesk, Inc."
 90
     1024
 91
        1
280
     0
281
     0
  0
CLASS
  1
ACMCENTERLINESTANDARDISO
  2
AmdtCenterLineStdISO
  3
"Amdt_StdImp|Product Description: AutoCAD Mechanical|Company: Autodesk, Inc."
 90
     1024
 91
        1
280
     0
281
     0
  0
CLASS
  1
ACMNOTESTANDARDISO
  2
AmdtNoteStdISO
  3
"Amdt_StdImp|Product Description: AutoCAD Mechanical|Company: Autodesk, Inc."
 90
     1024
 91
        1
280
     0
281
     0
  0
CLASS
  1
ACAMGHOLECHARTSTDISO
  2
AcAmgHoleChartStdISO
  3
AmgDim|Product Description: AutoCAD Mechanical|Company: Autodesk, Inc.
 90
     1024
 91
        1
280
     0
281
     0
  0
CLASS
  1
ACMTHREADLINESTANDARDISO
  2
AmdtThreadLineStdISO
  3
"Amdt_StdImp|Product Description: AutoCAD Mechanical|Company: Autodesk, Inc."
 90
     1024
 91
        1
280
     0
281
     0
  0
CLASS
  1
ACMTAPERSTANDARDISO
  2
AcmTaperStdISO
  3
"Amdt_StdImp|Product Description: AutoCAD Mechanical|Company: Autodesk, Inc."
 90
     1024
 91
        1
280
     0
281
     0
  0
CLASS
  1
ACMANOOTATIONVIEWSTANDARDISO
  2
AmdtAnViewStdISO
  3
"Amdt_StdImp|Product Description: AutoCAD Mechanical|Company: Autodesk, Inc."
 90
     1024
 91
        1
280
     0
281
     0
  0
CLASS
  1
AMDTEDGESTANDARDISO13715
  2
AmdtEdgeStdISO13715
  3
"Amdt_StdImp|Product Description: AutoCAD Mechanical|Company: Autodesk, Inc."
 90
     1024
 91
        1
280
     0
281
     0
  0
CLASS
  1
ACMDATAENTRYBLOCK
  2
AcmDataEntryBlock
  3
AcmSymBB|Product Description: AutoCAD Mechanical|Company: Autodesk, Inc.
 90
     1024
 91
        1
280
     0
281
     0
  0
CLASS
  1
ACAMGFILTERDAT
  2
AcAmgFilterDat
  3
"AcadM|Product Description: AutoCAD Mechanical|Company: Autodesk, Inc."
 90
     1024
 91
        0
280
     0
281
     0
  0
ENDSEC
  0
SECTION
  2
TABLES
  0
TABLE
  2
VPORT
  5
52BAC
330
0
100
AcDbSymbolTable
 70
     1
  0
VPORT
  5
52C1C
330
52BAC
100
AcDbSymbolTableRecord
100
AcDbViewportTableRecord
  2
*ACTIVE
 70
     0
 10
0.0
 20
0.0
 11
1.0
 21
1.0
 12
30484.49413138683
 22
25937.61552692825
 13
0.0
 23
0.0
 14
2.5
 24
2.5
 15
10.0
 25
10.0
 16
0.0
 26
0.0
 36
1.0
 17
0.0
 27
0.0
 37
0.0
 40
2123.175726221295
 41
1.929455445544554
 42
50.0
 43
0.0
 44
0.0
 50
0.0
 51
0.0
 71
     0
 72
  1000
 73
     1
 74
     3
 75
     0
 76
     0
 77
     0
 78
     0
281
     0
 65
     0
110
0.0
120
0.0
130
0.0
111
1.0
121
0.0
131
0.0
112
0.0
122
1.0
132
0.0
 79
     0
146
0.0
348
52BD3
 60
     3
 61
     5
292
     1
282
     0
141
0.0
142
0.0
 63
   250
421
  3355443
  0
ENDTAB
  0
TABLE
  2
LTYPE
  5
52BA9
330
0
100
AcDbSymbolTable
 70
    23
  0
LTYPE
  5
52C06
330
52BA9
100
AcDbSymbolTableRecord
100
AcDbLinetypeTableRecord
  2
ByBlock
 70
     0
  3

 72
    65
 73
     0
 40
0.0
  0
LTYPE
  5
52C07
330
52BA9
100
AcDbSymbolTableRecord
100
AcDbLinetypeTableRecord
  2
ByLayer
 70
     0
  3

 72
    65
 73
     0
 40
0.0
  0
LTYPE
  5
52C08
330
52BA9
100
AcDbSymbolTableRecord
100
AcDbLinetypeTableRecord
  2
CONTINUOUS
 70
     0
  3
Solid line
 72
    65
 73
     0
 40
0.0
  0
LTYPE
  5
52C1D
330
52BA9
100
AcDbSymbolTableRecord
100
AcDbLinetypeTableRecord
  2
DASHED2
 70
     0
  3
Dashed (.5x) _ _ _ _ _ _ _ _ _ _ _ _ _ _ _ _ _
 72
    65
 73
     2
 40
9.524999999999996
 49
6.349999999999997
 74
     0
 49
-3.174999999999998
 74
     0
  0
LTYPE
  5
530E8
330
52BA9
100
AcDbSymbolTableRecord
100
AcDbLinetypeTableRecord
  2
HIDDEN
 70
     0
  3
Hidden __ __ __ __ __ __ __ __ __ __ __ __ __ _
 72
    65
 73
     2
 40
0.375
 49
0.25
 74
     0
 49
-0.125
 74
     0
  0
LTYPE
  5
530E9
330
52BA9
100
AcDbSymbolTableRecord
100
AcDbLinetypeTableRecord
  2
PHANTOM2
 70
     0
  3
Phantom (.5x) ___ _ _ ___ _ _ ___ _ _ ___ _ _
 72
    65
 73
     6
 40
1.25
 49
0.625
 74
     0
 49
-0.125
 74
     0
 49
0.125
 74
     0
 49
-0.125
 74
     0
 49
0.125
 74
     0
 49
-0.125
 74
     0
  0
LTYPE
  5
530EA
330
52BA9
100
AcDbSymbolTableRecord
100
AcDbLinetypeTableRecord
  2
CENTER
 70
     0
  3
Center ____ _ ____ _ ____ _ ____ _ ____ _ ____
 72
    65
 73
     4
 40
2.0
 49
1.25
 74
     0
 49
-0.25
 74
     0
 49
0.25
 74
     0
 49
-0.25
 74
     0
  0
LTYPE
  5
5312F
330
52BA9
100
AcDbSymbolTableRecord
100
AcDbLinetypeTableRecord
  2
Amconstr
 70
     0
  3
_______________________
 72
    65
 73
     2
 40
9999.0
 49
9999.0
 74
     0
 49
0.0
 74
     0
  0
LTYPE
  5
53135
330
52BA9
100
AcDbSymbolTableRecord
100
AcDbLinetypeTableRecord
  2
CENTER2
 70
     0
  3
Center (.5x) ___ _ ___ _ ___ _ ___ _ ___ _ ___
 72
    65
 73
     4
 40
1.125
 49
0.75
 74
     0
 49
-0.125
 74
     0
 49
0.125
 74
     0
 49
-0.125
 74
     0
  0
LTYPE
  5
53136
330
52BA9
100
AcDbSymbolTableRecord
100
AcDbLinetypeTableRecord
  2
HIDDEN2
 70
     0
  3
Hidden (.5x) _ _ _ _ _ _ _ _ _ _ _ _ _ _ _ _ _
 72
    65
 73
     2
 40
0.1875
 49
0.125
 74
     0
 49
-0.0625
 74
     0
  0
LTYPE
  5
53137
330
52BA9
100
AcDbSymbolTableRecord
100
AcDbLinetypeTableRecord
  2
Amzigzag2
 70
     0
  3
/\/-/\/-/\/-/\/-/\/-/\/
 72
    65
 73
     2
 40
0.4401
 49
0.0001
 74
     4
 75
   136
340
53133
 46
0.0016
 50
0.0
 44
0.0
 45
0.0
 49
-0.4400000000000003
 74
     0
  0
LTYPE
  5
53145
330
52BA9
100
AcDbSymbolTableRecord
100
AcDbLinetypeTableRecord
  2
ACANSTGB
 70
     0
  3
__ . . __ . .
 72
    65
 73
     6
 40
0.35433070866
 49
0.15748031496
 74
     0
 49
-0.03937007874
 74
     0
 49
0.03937007874
 74
     0
 49
-0.03937007874
 74
     0
 49
0.03937007874
 74
     0
 49
-0.03937007874
 74
     0
  0
LTYPE
  5
53146
330
52BA9
100
AcDbSymbolTableRecord
100
AcDbLinetypeTableRecord
  2
ACANSTGL
 70
     0
  3
_ _ _ _ _
 72
    65
 73
     2
 40
0.11811023622
 49
0.07874015748
 74
     0
 49
-0.03937007874
 74
     0
  0
LTYPE
  5
5317A
330
52BA9
100
AcDbSymbolTableRecord
100
AcDbLinetypeTableRecord
  2
ACISOWELD
 70
     0
  3
_ _ _ _ _
 72
    65
 73
     2
 40
2.0
 49
2.0
 74
     0
 49
-1.0
 74
     0
  0
LTYPE
  5
5317B
330
52BA9
100
AcDbSymbolTableRecord
100
AcDbLinetypeTableRecord
  2
ACISOTGB
 70
     0
  3
__ . . __ . .
 72
    65
 73
     6
 40
9.0
 49
4.0
 74
     0
 49
-1.0
 74
     0
 49
1.0
 74
     0
 49
-1.0
 74
     0
 49
1.0
 74
     0
 49
-1.0
 74
     0
  0
LTYPE
  5
5317C
330
52BA9
100
AcDbSymbolTableRecord
100
AcDbLinetypeTableRecord
  2
ACISOTGL
 70
     0
  3
_ _ _ _ _
 72
    65
 73
     2
 40
3.0
 49
2.0
 74
     0
 49
-1.0
 74
     0
  0
LTYPE
  5
55230
330
52BA9
100
AcDbSymbolTableRecord
100
AcDbLinetypeTableRecord
  2
AM_ISO02W050
 70
     0
  3
__ __ __ __ __ __ __ __ __ __ __ __ __ __ __
 72
    65
 73
     2
 40
7.5
 49
6.0
 74
     0
 49
-1.5
 74
     0
  0
LTYPE
  5
55231
330
52BA9
100
AcDbSymbolTableRecord
100
AcDbLinetypeTableRecord
  2
AM_ISO08W050
 70
     0
  3
____ . ____ . ____ . ____ . ____ . ____ . ____
 72
    65
 73
     4
 40
18.0
 49
12.0
 74
     0
 49
-1.5
 74
     0
 49
3.0
 74
     0
 49
-1.5
 74
     0
  0
LTYPE
  5
55232
330
52BA9
100
AcDbSymbolTableRecord
100
AcDbLinetypeTableRecord
  2
AM_ISO09W050
 70
     0
  3
_____ . . _____ . . _____ . . ____ .. ____
 72
    65
 73
     6
 40
22.5
 49
12.0
 74
     0
 49
-1.5
 74
     0
 49
3.0
 74
     0
 49
-1.5
 74
     0
 49
3.0
 74
     0
 49
-1.5
 74
     0
  0
LTYPE
  5
55233
330
52BA9
100
AcDbSymbolTableRecord
100
AcDbLinetypeTableRecord
  2
AM_ISO08W050x2
 70
     0
  3
__ . __ . __ . __ . __ . __
 72
    65
 73
     4
 40
9.0
 49
6.0
 74
     0
 49
-0.75
 74
     0
 49
1.5
 74
     0
 49
-0.75
 74
     0
  0
LTYPE
  5
55234
330
52BA9
100
AcDbSymbolTableRecord
100
AcDbLinetypeTableRecord
  2
AM_ISO02W050x2
 70
     0
  3
 _ _ _ _ _ _ _ _ _ _ _ _
 72
    65
 73
     2
 40
3.75
 49
3.0
 74
     0
 49
-0.75
 74
     0
  0
LTYPE
  5
55235
330
52BA9
100
AcDbSymbolTableRecord
100
AcDbLinetypeTableRecord
  2
Amzigzag
 70
     0
  3
/\/-/\/-/\/-/\/-/\/-/\/
 72
    65
 73
     2
 40
11.0001
 49
0.0001
 74
     4
 75
   136
340
53133
 46
0.04
 50
0.0
 44
0.0
 45
0.0
 49
-11.0
 74
     0
  0
LTYPE
  5
55286
330
52BA9
100
AcDbSymbolTableRecord
100
AcDbLinetypeTableRecord
  2
DASHDOT
 70
     0
  3
Dash dot __ . __ . __ . __ . __ . __ . __ . __
 72
    65
 73
     4
 40
25.4
 49
12.7
 74
     0
 49
-6.349999999999998
 74
     0
 49
0.0
 74
     0
 49
-6.349999999999998
 74
     0
  0
LTYPE
  5
55287
330
52BA9
100
AcDbSymbolTableRecord
100
AcDbLinetypeTableRecord
  2
ACAD_ISO02W100
 70
     0
  3
ISO dash __ __ __ __ __ __ __ __ __ __ __ __ __
 72
    65
 73
     2
 40
15.0
 49
12.0
 74
     0
 49
-3.0
 74
     0
  0
ENDTAB
  0
TABLE
  2
LAYER
  5
52BA6
102
{ACAD_XDICTIONARY
360
52CA6
102
}
330
0
100
AcDbSymbolTable
 70
     8
  0
LAYER
  5
52C00
102
{ACAD_XDICTIONARY
360
52DA2
102
}
330
52BA6
100
AcDbSymbolTableRecord
100
AcDbLayerTableRecord
  2
0
 70
     0
 62
     7
  6
CONTINUOUS
370
    -3
390
52BB3
347
52BC5
  0
LAYER
  5
52C1E
102
{ACAD_XDICTIONARY
360
52DA4
102
}
330
52BA6
100
AcDbSymbolTableRecord
100
AcDbLayerTableRecord
  2
LAYER1
 70
     0
 62
     1
  6
CONTINUOUS
370
    -3
390
52BB3
347
52BC5
  0
LAYER
  5
52C1F
330
52BA6
100
AcDbSymbolTableRecord
100
AcDbLayerTableRecord
  2
DEFPOINTS
 70
     0
 62
     7
  6
CONTINUOUS
290
     0
370
    -3
390
52BB3
347
52BC5
  0
LAYER
  5
52C21
102
{ACAD_XDICTIONARY
360
52DA8
102
}
330
52BA6
100
AcDbSymbolTableRecord
100
AcDbLayerTableRecord
  2
CUTOUT
 70
     0
 62
    60
  6
CONTINUOUS
370
    -3
390
52BB3
347
52BC5
  0
LAYER
  5
52C9C
102
{ACAD_XDICTIONARY
360
52DAC
102
}
330
52BA6
100
AcDbSymbolTableRecord
100
AcDbLayerTableRecord
  2
DIMS SPECS
 70
     0
 62
    41
  6
CONTINUOUS
370
    35
390
52BB3
347
52BC5
  0
LAYER
  5
5317E
330
52BA6
100
AcDbSymbolTableRecord
100
AcDbLayerTableRecord
  2
sink_label
 70
     0
 62
    80
  6
CONTINUOUS
370
    -3
390
52BB3
347
52BC5
1001
ACAECLAYERSTANDARD
1000

1000

  0
LAYER
  5
53490
330
52BA6
100
AcDbSymbolTableRecord
100
AcDbLayerTableRecord
  2
sink_specs
 70
     0
 62
   254
  6
CONTINUOUS
370
    35
390
52BB3
347
52BC5
1001
ACAECLAYERSTANDARD
1000

1000

  0
LAYER
  5
55288
330
52BA6
100
AcDbSymbolTableRecord
100
AcDbLayerTableRecord
  2
overflow part
 70
     0
 62
    40
  6
CONTINUOUS
290
     0
370
    30
390
52BB3
347
52BC5
1001
ACAECLAYERSTANDARD
1000

1000

  0
ENDTAB
  0
TABLE
  2
STYLE
  5
52BA7
330
0
100
AcDbSymbolTable
 70
     8
  0
STYLE
  5
52C01
330
52BA7
100
AcDbSymbolTableRecord
100
AcDbTextStyleTableRecord
  2
STANDARD
 70
     0
 40
0.0
 41
1.0
 50
0.0
 71
     0
 42
2.5
  3
ISOCP.SHX
  4

  0
STYLE
  5
52C23
330
52BA7
100
AcDbSymbolTableRecord
100
AcDbTextStyleTableRecord
  2
ACISOTS
 70
     0
 40
1.0
 41
1.0
 50
0.0
 71
     0
 42
2.5
  3
isocp.shx
  4

  0
STYLE
  5
52C24
330
52BA7
100
AcDbSymbolTableRecord
100
AcDbTextStyleTableRecord
  2
ABODE-ISO
 70
     0
 40
17.0
 41
0.9
 50
0.0
 71
     0
 42
0.2
  3
txt
  4

  0
STYLE
  5
53133
330
52BA7
100
AcDbSymbolTableRecord
100
AcDbTextStyleTableRecord
  2

 70
     1
 40
0.0
 41
1.0
 50
0.0
 71
     0
 42
2.5
  3
genltshp.shx
  4

  0
STYLE
  5
53144
330
52BA7
100
AcDbSymbolTableRecord
100
AcDbTextStyleTableRecord
  2
ACANSGDT
 70
     0
 40
0.0
 41
1.0
 50
0.0
 71
     0
 42
2.5
  3
amgdt.shx
  4

  0
STYLE
  5
53180
330
52BA7
100
AcDbSymbolTableRecord
100
AcDbTextStyleTableRecord
  2
ACISOGDT
 70
     0
 40
0.0
 41
1.0
 50
0.0
 71
     0
 42
2.5
  3
amgdt.shx
  4

  0
STYLE
  5
53181
330
52BA7
100
AcDbSymbolTableRecord
100
AcDbTextStyleTableRecord
  2
Abode ISO Bold
 70
     0
 40
17.0
 41
0.9
 50
0.0
 71
     0
 42
1.0
  3
GOTHICB.TTF
  4

1001
ACAD
1000
Century Gothic
1071
 33554466
  0
STYLE
  5
55237
330
52BA7
100
AcDbSymbolTableRecord
100
AcDbTextStyleTableRecord
  2
ACANSTS
 70
     0
 40
1.0
 41
1.0
 50
0.0
 71
     0
 42
2.5
  3
romans.shx
  4

  0
ENDTAB
  0
TABLE
  2
VIEW
  5
52BAA
330
0
100
AcDbSymbolTable
 70
     0
  0
ENDTAB
  0
TABLE
  2
UCS
  5
52BAB
330
0
100
AcDbSymbolTable
 70
     0
  0
ENDTAB
  0
TABLE
  2
APPID
  5
52BAD
330
0
100
AcDbSymbolTable
 70
    23
  0
APPID
  5
52C02
330
52BAD
100
AcDbSymbolTableRecord
100
AcDbRegAppTableRecord
  2
ACAD
 70
     0
  0
APPID
  5
52C09
330
52BAD
100
AcDbSymbolTableRecord
100
AcDbRegAppTableRecord
  2
ACADANNOTATIVE
 70
     0
  0
APPID
  5
52C13
330
52BAD
100
AcDbSymbolTableRecord
100
AcDbRegAppTableRecord
  2
ACAD_MLEADERVER
 70
     0
  0
APPID
  5
52C25
330
52BAD
100
AcDbSymbolTableRecord
100
AcDbRegAppTableRecord
  2
MCAD_NO_VIS
 70
     0
  0
APPID
  5
52C26
330
52BAD
100
AcDbSymbolTableRecord
100
AcDbRegAppTableRecord
  2
ACAD_TEMP_GRAPHIC
 70
     0
  0
APPID
  5
52C27
330
52BAD
100
AcDbSymbolTableRecord
100
AcDbRegAppTableRecord
  2
AD_DRAW
 70
     0
  0
APPID
  5
52C28
330
52BAD
100
AcDbSymbolTableRecord
100
AcDbRegAppTableRecord
  2
ACATTRIBSERVICES
 70
     0
  0
APPID
  5
52C29
330
52BAD
100
AcDbSymbolTableRecord
100
AcDbRegAppTableRecord
  2
DESIGNERASSEMBLIES
 70
     0
  0
APPID
  5
52C2A
330
52BAD
100
AcDbSymbolTableRecord
100
AcDbRegAppTableRecord
  2
ACADM_DIM_EDIT
 70
     0
  0
APPID
  5
52C2B
330
52BAD
100
AcDbSymbolTableRecord
100
AcDbRegAppTableRecord
  2
AMDT_DM_ADJ
 70
     0
  0
APPID
  5
52C2C
330
52BAD
100
AcDbSymbolTableRecord
100
AcDbRegAppTableRecord
  2
ACAD_DSTYLE_DIMJOGGED_JOGA
 70
     0
  0
APPID
  5
52C2D
330
52BAD
100
AcDbSymbolTableRecord
100
AcDbRegAppTableRecord
  2
ACAECLAYERSTANDARD
 70
     0
  0
APPID
  5
52C2E
330
52BAD
100
AcDbSymbolTableRecord
100
AcDbRegAppTableRecord
  2
ACAD_PSEXT
 70
     0
  0
APPID
  5
52C2F
330
52BAD
100
AcDbSymbolTableRecord
100
AcDbRegAppTableRecord
  2
ACAD_DSTYLE_DIMJAG
 70
     0
  0
APPID
  5
52C30
330
52BAD
100
AcDbSymbolTableRecord
100
AcDbRegAppTableRecord
  2
ACAD_DSTYLE_DIMTALN
 70
     0
  0
APPID
  5
52C31
330
52BAD
100
AcDbSymbolTableRecord
100
AcDbRegAppTableRecord
  2
GENIUS_GENODEF_13
 70
     0
  0
APPID
  5
52C32
330
52BAD
100
AcDbSymbolTableRecord
100
AcDbRegAppTableRecord
  2
ACAD_DSTYLE_DIMINSPECT
 70
     0
  0
APPID
  5
52C33
330
52BAD
100
AcDbSymbolTableRecord
100
AcDbRegAppTableRecord
  2
GENIUS_GENREC_14
 70
     0
  0
APPID
  5
52C34
330
52BAD
100
AcDbSymbolTableRecord
100
AcDbRegAppTableRecord
  2
GENIUS_GENOBJ-N-REC_13
 70
     0
  0
APPID
  5
52C35
330
52BAD
100
AcDbSymbolTableRecord
100
AcDbRegAppTableRecord
  2
ACAD_DSTYLE_DIMRADIAL_EXTENSION
 70
     0
  0
APPID
  5
52C36
330
52BAD
100
AcDbSymbolTableRecord
100
AcDbRegAppTableRecord
  2
ACAD_DSTYLE_DIMBREAK
 70
     0
  0
APPID
  5
52C5D
330
52BAD
100
AcDbSymbolTableRecord
100
AcDbRegAppTableRecord
  2
ACAD_EXEMPT_FROM_CAD_STANDARDS
 70
     0
  0
APPID
  5
53185
330
52BAD
100
AcDbSymbolTableRecord
100
AcDbRegAppTableRecord
  2
ACAD_DSTYLE_DIMJOGGED_JOGANGLE_SYMBOL
 70
     0
  0
ENDTAB
  0
TABLE
  2
DIMSTYLE
  5
52BAE
330
0
100
AcDbSymbolTable
 70
    15
100
AcDbDimStyleTable
 71
     1
340
5312A
  0
DIMSTYLE
105
52C03
330
52BAE
100
AcDbSymbolTableRecord
100
AcDbDimStyleTableRecord
  2
STANDARD
 70
     0
271
     2
272
     2
279
     2
284
     8
285
     8
286
     8
340
52C01
  0
DIMSTYLE
105
52C37
330
52BAE
100
AcDbSymbolTableRecord
100
AcDbDimStyleTableRecord
  2
AM_ISO
 70
     0
  4
"
 41
3.5
 42
1.0
 43
10.0
 44
1.0
 47
0.1
 48
0.1
 73
     0
 74
     0
 77
     1
 78
     8
140
3.5
141
0.0
143
0.0393701
146
0.71
147
1.5
172
     1
176
   256
177
   256
178
     2
271
     2
272
     2
279
     2
284
     8
285
     8
286
     8
340
52C01
  0
DIMSTYLE
105
52CA0
330
52BAE
100
AcDbSymbolTableRecord
100
AcDbDimStyleTableRecord
  2
abode-iso
 70
     0
 40
10.0
 41
1.25
 42
1.5
 43
6.0
 44
0.0
 45
0.00000001
 46
10.0
 77
     1
 78
    12
 79
     3
140
17.0
143
0.03937
147
0.75
171
     3
172
     1
176
   256
177
   256
178
   256
271
     0
272
     0
274
     3
340
52C24
342
52C3E
371
    25
372
    25
1001
ACAD_DSTYLE_DIMJAG
1070
   388
1040
1.5
1001
ACAD_DSTYLE_DIMTALN
1070
   392
1070
     0
  0
DIMSTYLE
105
52CA1
102
{ACAD_REACTORS
330
554BD
330
554C0
102
}
330
52BAE
100
AcDbSymbolTableRecord
100
AcDbDimStyleTableRecord
  2
abode-iso$4
 70
     0
 40
10.0
 41
1.25
 42
1.5
 43
6.0
 44
0.0
 45
0.00000001
 46
10.0
 77
     1
 78
    12
 79
     3
140
17.0
143
0.03937
147
0.75
171
     3
172
     1
176
   256
177
   256
178
   256
271
     0
272
     0
274
     3
340
52C24
342
52C3E
371
    25
372
    25
1001
ACAD_DSTYLE_DIMBREAK
1070
   391
1040
3.75
1001
ACAD_DSTYLE_DIMJAG
1070
   388
1040
1.5
1001
ACAD_DSTYLE_DIMTALN
1070
   392
1070
     0
  0
DIMSTYLE
105
52CA2
102
{ACAD_REACTORS
330
554AB
330
554B5
330
554B8
330
554A8
102
}
330
52BAE
100
AcDbSymbolTableRecord
100
AcDbDimStyleTableRecord
  2
abode-iso$0
 70
     0
 40
10.0
 41
1.25
 42
1.5
 43
6.0
 44
0.0
 45
0.00000001
 46
10.0
 77
     1
 78
    12
 79
     3
140
17.0
143
0.03937
147
0.75
171
     3
172
     1
176
   256
177
   256
178
   256
271
     0
272
     0
274
     3
340
52C24
342
52C3E
371
    25
372
    25
1001
ACAD_DSTYLE_DIMJAG
1070
   388
1040
1.5
1001
ACAD_DSTYLE_DIMTALN
1070
   392
1070
     0
  0
DIMSTYLE
105
5312A
102
{ACAD_REACTORS
330
553CC
102
}
330
52BAE
100
AcDbSymbolTableRecord
100
AcDbDimStyleTableRecord
  2
AM_ANSI
 70
     0
  4
mm
 41
0.12
 42
0.05
 43
0.5
 44
0.1
 47
0.1
 48
0.1
 78
     7
 79
     2
 90
     1
140
0.12
141
0.0
146
0.71
147
0.06
176
   256
177
   256
178
   140
274
     4
284
     7
340
52C01
345
52C06
346
52C06
347
52C06
371
    -1
372
    -1
  0
DIMSTYLE
105
53138
330
52BAE
100
AcDbSymbolTableRecord
100
AcDbDimStyleTableRecord
  2
AM_ANSI$3
 70
     0
  4
mm
 41
0.12
 42
0.05
 43
0.5
 44
0.1
 47
0.1
 48
0.1
 78
     7
 79
     2
 90
     1
140
0.12
141
0.0
146
0.71
147
0.06
176
   256
177
   256
178
   140
274
     4
284
     7
288
     1
289
     0
340
52C01
345
52C06
346
52C06
347
52C06
371
    -1
372
    -1
  0
DIMSTYLE
105
53139
330
52BAE
100
AcDbSymbolTableRecord
100
AcDbDimStyleTableRecord
  2
AM_ANSI$4
 70
     0
  4
mm
 41
0.12
 42
0.05
 43
0.5
 44
0.1
 47
0.1
 48
0.1
 78
     7
 79
     2
 90
     1
140
0.12
141
0.0
146
0.71
147
0.06
176
   256
177
   256
178
   140
274
     4
284
     7
340
52C01
345
52C06
346
52C06
347
52C06
371
    -1
372
    -1
  0
DIMSTYLE
105
5313A
330
52BAE
100
AcDbSymbolTableRecord
100
AcDbDimStyleTableRecord
  2
AM_ANSI$7
 70
     0
  4
mm
 41
0.12
 42
0.05
 43
0.5
 44
0.1
 47
0.1
 48
0.1
 78
     7
 79
     2
 90
     1
140
0.12
141
0.0
146
0.71
147
0.06
176
   256
177
   256
178
   140
274
     4
284
     7
340
52C01
345
52C06
346
52C06
347
52C06
371
    -1
372
    -1
  0
DIMSTYLE
105
5313B
330
52BAE
100
AcDbSymbolTableRecord
100
AcDbDimStyleTableRecord
  2
AM_ANSI$SF
 70
     0
  4
mm
 41
0.12
 42
0.05
 43
0.5
 44
0.1
 47
0.1
 48
0.1
 75
     1
 76
     1
 78
     7
 79
     2
 90
     1
140
0.12
141
0.0
146
0.71
147
0.06
176
   256
177
   256
178
   140
274
     4
284
     7
340
52C01
345
52C06
346
52C06
347
52C06
371
    -1
372
    -1
  0
DIMSTYLE
105
53140
330
52BAE
100
AcDbSymbolTableRecord
100
AcDbDimStyleTableRecord
  2
AM_ANSI$SH
 70
     0
  4
mm
 41
0.12
 42
0.05
 43
0.5
 44
0.1
 47
0.1
 48
0.1
 75
     1
 76
     1
 78
     7
 79
     2
 90
     1
140
0.12
141
0.0
146
0.71
147
0.06
173
     1
176
   256
177
   256
178
   140
274
     4
284
     7
340
52C01
343
5313C
345
52C06
346
52C06
347
52C06
371
    -1
372
    -1
  0
DIMSTYLE
105
53182
330
52BAE
100
AcDbSymbolTableRecord
100
AcDbDimStyleTableRecord
  2
abode-iso$7
 70
     0
 40
10.0
 41
2.5
 42
1.5
 43
6.0
 44
3.174999999999998
 45
0.00000001
 46
10.0
 77
     1
 78
    12
 79
     3
140
2.5
143
0.03937
146
1.399999999999999
147
0.762
171
     3
172
     1
176
     7
177
   256
178
   256
271
     0
272
     0
274
     3
340
52C24
371
    25
372
    25
1001
ACAD_DSTYLE_DIMBREAK
1070
   391
1040
3.75
1001
ACAD_DSTYLE_DIMJAG
1070
   388
1040
1.5
1001
ACAD_DSTYLE_DIMTALN
1070
   392
1070
     0
  0
DIMSTYLE
105
53183
330
52BAE
100
AcDbSymbolTableRecord
100
AcDbDimStyleTableRecord
  2
abode-iso$2
 70
     0
 40
10.0
 41
1.25
 42
1.5
 43
6.0
 44
0.0
 45
0.00000001
 46
10.0
 77
     1
 78
    12
 79
     3
140
17.0
143
0.03937
147
0.75
171
     3
172
     1
176
   256
177
   256
178
   256
271
     0
272
     0
274
     3
340
52C24
342
52C3E
371
    25
372
    25
1001
ACAD_DSTYLE_DIMJAG
1070
   388
1040
1.5
1001
ACAD_DSTYLE_DIMTALN
1070
   392
1070
     0
  0
DIMSTYLE
105
53184
330
52BAE
100
AcDbSymbolTableRecord
100
AcDbDimStyleTableRecord
  2
abode-iso$3
 70
     0
 40
10.0
 41
1.25
 42
1.5
 43
6.0
 44
0.0
 45
0.00000001
 46
10.0
 77
     1
 78
    12
 79
     3
140
17.0
143
0.03937
147
0.75
171
     3
172
     1
176
   256
177
   256
178
   256
271
     0
272
     0
274
     3
340
52C24
342
52C3E
371
    25
372
    25
1001
ACAD_DSTYLE_DIMJAG
1070
   388
1040
1.5
1001
ACAD_DSTYLE_DIMTALN
1070
   392
1070
     0
  0
DIMSTYLE
105
55289
330
52BAE
100
AcDbSymbolTableRecord
100
AcDbDimStyleTableRecord
  2
ISO-25
 70
     0
 41
2.5
 42
0.625
 43
3.75
 44
1.25
 73
     0
 74
     0
 77
     1
 78
     8
140
2.5
141
2.5
143
0.03937007874016
147
0.625
171
     3
172
     1
271
     2
272
     2
274
     3
278
    44
283
     0
284
     8
340
52C01
  0
ENDTAB
  0
TABLE
  2
BLOCK_RECORD
  5
52BA5
330
0
100
AcDbSymbolTable
 70
    39
  0
BLOCK_RECORD
  5
52C18
330
52BA5
100
AcDbSymbolTableRecord
100
AcDbBlockTableRecord
  2
*Model_Space
340
52C1B
 70
     0
280
     1
281
     0
  0
BLOCK_RECORD
  5
52C14
330
52BA5
100
AcDbSymbolTableRecord
100
AcDbBlockTableRecord
  2
*Paper_Space
340
52C17
 70
     0
280
     1
281
     0
  0
BLOCK_RECORD
  5
52C3E
330
52BA5
100
AcDbSymbolTableRecord
100
AcDbBlockTableRecord
  2
FILLED-1
340
0
102
{BLKREFS
331
55108
331
55109
331
5511E
331
55132
331
5513D
331
5513E
331
5514A
331
5514B
331
55157
331
55158
331
5518A
331
55190
331
55197
331
551A5
331
551A6
331
5525E
331
5525F
331
5526B
331
5526C
331
55245
331
55246
331
55252
331
55253
331
55278
331
55282
331
55322
331
5532C
331
55335
331
55336
331
55342
331
55343
331
5534E
331
5534F
331
5535B
331
5535C
331
553EC
331
553ED
331
553F9
331
553FA
331
55406
331
55407
331
55412
331
55413
331
5541F
331
55429
331
554CA
331
554CB
331
554D7
331
554D8
331
554E3
331
554E4
331
55503
331
55504
331
5550D
331
55514
102
}
 70
     0
280
     1
281
     0
  0
BLOCK_RECORD
  5
52C58
330
52BA5
100
AcDbSymbolTableRecord
100
AcDbBlockTableRecord
  2
*U1
340
0
102
{BLKREFS
331
4EFE9
102
}
 70
     0
280
     1
281
     0
  0
BLOCK_RECORD
  5
5313C
330
52BA5
100
AcDbSymbolTableRecord
100
AcDbBlockTableRecord
  2
GENAXEH
340
0
 70
     0
280
     1
281
     0
  0
BLOCK_RECORD
  5
55102
330
52BA5
100
AcDbSymbolTableRecord
100
AcDbBlockTableRecord
  2
*D3
340
0
 70
     0
280
     1
281
     0
  0
BLOCK_RECORD
  5
5510E
330
52BA5
100
AcDbSymbolTableRecord
100
AcDbBlockTableRecord
  2
*D4
340
0
 70
     0
280
     1
281
     0
  0
BLOCK_RECORD
  5
55117
330
52BA5
100
AcDbSymbolTableRecord
100
AcDbBlockTableRecord
  2
*D5
340
0
 70
     0
280
     1
281
     0
  0
BLOCK_RECORD
  5
55121
330
52BA5
100
AcDbSymbolTableRecord
100
AcDbBlockTableRecord
  2
*D6
340
0
 70
     0
280
     1
281
     0
  0
BLOCK_RECORD
  5
5512B
330
52BA5
100
AcDbSymbolTableRecord
100
AcDbBlockTableRecord
  2
*D7
340
0
 70
     0
280
     1
281
     0
  0
BLOCK_RECORD
  5
55135
330
52BA5
100
AcDbSymbolTableRecord
100
AcDbBlockTableRecord
  2
*D8
340
0
 70
     0
280
     1
281
     0
  0
BLOCK_RECORD
  5
55143
330
52BA5
100
AcDbSymbolTableRecord
100
AcDbBlockTableRecord
  2
*D9
340
0
 70
     0
280
     1
281
     0
  0
BLOCK_RECORD
  5
55150
330
52BA5
100
AcDbSymbolTableRecord
100
AcDbBlockTableRecord
  2
*D10
340
0
 70
     0
280
     1
281
     0
  0
BLOCK_RECORD
  5
5515D
330
52BA5
100
AcDbSymbolTableRecord
100
AcDbBlockTableRecord
  2
*D11
340
0
 70
     0
280
     1
281
     0
  0
BLOCK_RECORD
  5
55184
330
52BA5
100
AcDbSymbolTableRecord
100
AcDbBlockTableRecord
  2
*D12
340
0
 70
     0
280
     1
281
     0
  0
BLOCK_RECORD
  5
55240
330
52BA5
100
AcDbSymbolTableRecord
100
AcDbBlockTableRecord
  2
*D13
340
0
 70
     0
280
     1
281
     0
  0
BLOCK_RECORD
  5
5524C
330
52BA5
100
AcDbSymbolTableRecord
100
AcDbBlockTableRecord
  2
*D14
340
0
 70
     0
280
     1
281
     0
  0
BLOCK_RECORD
  5
55259
330
52BA5
100
AcDbSymbolTableRecord
100
AcDbBlockTableRecord
  2
*D15
340
0
 70
     0
280
     1
281
     0
  0
BLOCK_RECORD
  5
55265
330
52BA5
100
AcDbSymbolTableRecord
100
AcDbBlockTableRecord
  2
*D16
340
0
 70
     0
280
     1
281
     0
  0
BLOCK_RECORD
  5
55272
330
52BA5
100
AcDbSymbolTableRecord
100
AcDbBlockTableRecord
  2
*D17
340
0
 70
     0
280
     1
281
     0
  0
BLOCK_RECORD
  5
5527C
330
52BA5
100
AcDbSymbolTableRecord
100
AcDbBlockTableRecord
  2
*D18
340
0
 70
     0
280
     1
281
     0
  0
BLOCK_RECORD
  5
5531B
330
52BA5
100
AcDbSymbolTableRecord
100
AcDbBlockTableRecord
  2
*D19
340
0
 70
     0
280
     1
281
     0
  0
BLOCK_RECORD
  5
55325
330
52BA5
100
AcDbSymbolTableRecord
100
AcDbBlockTableRecord
  2
*D20
340
0
 70
     0
280
     1
281
     0
  0
BLOCK_RECORD
  5
5532F
330
52BA5
100
AcDbSymbolTableRecord
100
AcDbBlockTableRecord
  2
*D21
340
0
 70
     0
280
     1
281
     0
  0
BLOCK_RECORD
  5
5533B
330
52BA5
100
AcDbSymbolTableRecord
100
AcDbBlockTableRecord
  2
*D22
340
0
 70
     0
280
     1
281
     0
  0
BLOCK_RECORD
  5
55348
330
52BA5
100
AcDbSymbolTableRecord
100
AcDbBlockTableRecord
  2
*D23
340
0
 70
     0
280
     1
281
     0
  0
BLOCK_RECORD
  5
55354
330
52BA5
100
AcDbSymbolTableRecord
100
AcDbBlockTableRecord
  2
*D24
340
0
 70
     0
280
     1
281
     0
  0
BLOCK_RECORD
  5
553E7
330
52BA5
100
AcDbSymbolTableRecord
100
AcDbBlockTableRecord
  2
*D26
340
0
 70
     0
280
     1
281
     0
  0
BLOCK_RECORD
  5
553F3
330
52BA5
100
AcDbSymbolTableRecord
100
AcDbBlockTableRecord
  2
*D27
340
0
 70
     0
280
     1
281
     0
  0
BLOCK_RECORD
  5
55400
330
52BA5
100
AcDbSymbolTableRecord
100
AcDbBlockTableRecord
  2
*D28
340
0
 70
     0
280
     1
281
     0
  0
BLOCK_RECORD
  5
5540D
330
52BA5
100
AcDbSymbolTableRecord
100
AcDbBlockTableRecord
  2
*D29
340
0
 70
     0
280
     1
281
     0
  0
BLOCK_RECORD
  5
55419
330
52BA5
100
AcDbSymbolTableRecord
100
AcDbBlockTableRecord
  2
*D30
340
0
 70
     0
280
     1
281
     0
  0
BLOCK_RECORD
  5
55423
330
52BA5
100
AcDbSymbolTableRecord
100
AcDbBlockTableRecord
  2
*D31
340
0
 70
     0
280
     1
281
     0
  0
BLOCK_RECORD
  5
554C3
330
52BA5
100
AcDbSymbolTableRecord
100
AcDbBlockTableRecord
  2
*D33
340
0
 70
     0
280
     1
281
     0
  0
BLOCK_RECORD
  5
554D0
330
52BA5
100
AcDbSymbolTableRecord
100
AcDbBlockTableRecord
  2
*D34
340
0
 70
     0
280
     1
281
     0
  0
BLOCK_RECORD
  5
554DD
330
52BA5
100
AcDbSymbolTableRecord
100
AcDbBlockTableRecord
  2
*D35
340
0
 70
     0
280
     1
281
     0
  0
BLOCK_RECORD
  5
554E9
330
52BA5
100
AcDbSymbolTableRecord
100
AcDbBlockTableRecord
  2
*D36
340
0
 70
     0
280
     1
281
     0
  0
BLOCK_RECORD
  5
554F3
330
52BA5
100
AcDbSymbolTableRecord
100
AcDbBlockTableRecord
  2
*D37
340
0
 70
     0
280
     1
281
     0
  0
BLOCK_RECORD
  5
554FD
330
52BA5
100
AcDbSymbolTableRecord
100
AcDbBlockTableRecord
  2
*D38
340
0
 70
     0
280
     1
281
     0
  0
ENDTAB
  0
ENDSEC
  0
SECTION
  2
BLOCKS
  0
BLOCK
  5
52C19
330
52C18
100
AcDbEntity
  8
0
100
AcDbBlockBegin
  2
*Model_Space
 70
     0
 10
0.0
 20
0.0
 30
0.0
  3
*Model_Space
  1

  0
ENDBLK
  5
52C1A
330
52C18
100
AcDbEntity
  8
0
100
AcDbBlockEnd
  0
BLOCK
  5
52C15
330
52C14
100
AcDbEntity
 67
     1
  8
0
100
AcDbBlockBegin
  2
*Paper_Space
 70
     0
 10
0.0
 20
0.0
 30
0.0
  3
*Paper_Space
  1

  0
ENDBLK
  5
52C16
330
52C14
100
AcDbEntity
 67
     1
  8
0
100
AcDbBlockEnd
  0
BLOCK
  5
52C3F
330
52C3E
100
AcDbEntity
  8
0
100
AcDbBlockBegin
  2
FILLED-1
 70
     0
 10
0.0
 20
0.0
 30
0.0
  3
FILLED-1
  1

  0
LINE
  5
13A
330
52C3E
100
AcDbEntity
  8
0
 62
     0
100
AcDbLine
 10
-1.0
 20
0.0
 30
0.0
 11
0.0
 21
0.0
 31
0.0
  0
LWPOLYLINE
  5
13B
330
52C3E
100
AcDbEntity
  8
0
 62
     0
100
AcDbPolyline
 90
        4
 70
   128
 43
0.0
 10
-1.0
 20
-0.3333333333333333
 10
0.0
 20
0.0
 10
-1.0
 20
0.3333333333333333
 10
-1.0
 20
-0.3333333333333333
  0
SOLID
  5
141
330
52C3E
100
AcDbEntity
  8
0
 62
     0
100
AcDbTrace
 10
-1.0
 20
-0.3333333333333333
 30
0.0
 11
0.0
 21
0.0
 31
0.0
 12
-1.0
 22
0.3333333333333333
 32
0.0
 13
-1.0
 23
-0.3333333333333333
 33
0.0
  0
LINE
  5
142
330
52C3E
100
AcDbEntity
  8
0
 62
     0
100
AcDbLine
 10
-1.0
 20
-0.3333333333333333
 30
0.0
 11
0.0
 21
0.0
 31
0.0
  0
LINE
  5
143
330
52C3E
100
AcDbEntity
  8
0
 62
     0
100
AcDbLine
 10
0.0
 20
0.0
 30
0.0
 11
-1.0
 21
0.3333333333333333
 31
0.0
  0
LINE
  5
144
330
52C3E
100
AcDbEntity
  8
0
 62
     0
100
AcDbLine
 10
-1.0
 20
0.3333333333333333
 30
0.0
 11
-1.0
 21
-0.3333333333333333
 31
0.0
  0
ENDBLK
  5
145
330
52C3E
100
AcDbEntity
  8
0
100
AcDbBlockEnd
  0
BLOCK
  5
52C59
330
52C58
100
AcDbEntity
  8
0
100
AcDbBlockBegin
  2
*U1
 70
     1
 10
0.0
 20
0.0
 30
0.0
  3
*U1
  1

  0
TEXT
  5
51B8B
330
52C58
100
AcDbEntity
  8
0
 62
     1
100
AcDbText
 10
29068.05134894387
 20
25957.69496399888
 30
0.0
 40
8.0
  1
All details are provided in good faith and
  7
ACISOTS
100
AcDbText
  0
TEXT
  5
51B8C
330
52C58
100
AcDbEntity
  8
0
 62
     1
100
AcDbText
 10
29049.60334894387
 20
25944.36163066555
 30
0.0
 40
8.0
  1
within
  7
ACISOTS
100
AcDbText
  0
TEXT
  5
51B8D
330
52C58
100
AcDbEntity
  8
0
 62
     1
100
AcDbText
 10
29085.57434894387
 20
25931.02829733222
 30
0.0
 40
8.0
  1
the tolerances of the manufacturing process.
  7
ACISOTS
100
AcDbText
  0
TEXT
  5
51B8E
330
52C58
100
AcDbEntity
  8
0
 62
     1
100
AcDbText
 10
29050.90814894387
 20
25917.69496399888
 30
0.0
 40
8.0
  1
Note: the dimensions on ceramic fireclay
  7
ACISOTS
100
AcDbText
  0
TEXT
  5
51B8F
330
52C58
100
AcDbEntity
  8
0
 62
     1
100
AcDbText
 10
29049.60334894387
 20
25904.36163066556
 30
0.0
 40
8.0
  1
products
  7
ACISOTS
100
AcDbText
  0
TEXT
  5
51B90
330
52C58
100
AcDbEntity
  8
0
 62
     1
100
AcDbText
 10
29052.43194894387
 20
25891.02829733223
 30
0.0
 40
8.0
  1
are subject to wider tolerances due to the
  7
ACISOTS
100
AcDbText
  0
TEXT
  5
51B91
330
52C58
100
AcDbEntity
  8
0
 62
     1
100
AcDbText
 10
29049.60334894387
 20
25877.69496399888
 30
0.0
 40
8.0
  1
nature
  7
ACISOTS
100
AcDbText
  0
TEXT
  5
51B92
330
52C58
100
AcDbEntity
  8
0
 62
     1
100
AcDbText
 10
29074.14634894387
 20
25864.36163066556
 30
0.0
 40
8.0
  1
of this natural material and the firing
  7
ACISOTS
100
AcDbText
  0
TEXT
  5
51B93
330
52C58
100
AcDbEntity
  8
0
 62
     1
100
AcDbText
 10
29049.60334894387
 20
25851.02829733223
 30
0.0
 40
8.0
  1
process.
  7
ACISOTS
100
AcDbText
  0
TEXT
  5
51B94
330
52C58
100
AcDbEntity
  8
0
 62
     1
100
AcDbText
 10
29079.09834894386
 20
25824.36163066557
 30
0.0
 40
8.0
  1
We recommend that a test cutout is made in
  7
ACISOTS
100
AcDbText
  0
TEXT
  5
51B95
330
52C58
100
AcDbEntity
  8
0
 62
     1
100
AcDbText
 10
29054.71764894387
 20
25811.02829733223
 30
0.0
 40
8.0
  1
scrap timber and checked against the actual
  7
ACISOTS
100
AcDbText
  0
TEXT
  5
51B96
330
52C58
100
AcDbEntity
  8
0
 62
     1
100
AcDbText
 10
29049.60334894387
 20
25797.6949639989
 30
0.0
 40
8.0
  1
sink
  7
ACISOTS
100
AcDbText
  0
TEXT
  5
51B97
330
52C58
100
AcDbEntity
  8
0
 62
     1
100
AcDbText
 10
29105.76534894387
 20
25784.36163066557
 30
0.0
 40
8.0
  1
supplied before committing to cutting
  7
ACISOTS
100
AcDbText
  0
TEXT
  5
51B98
330
52C58
100
AcDbEntity
  8
0
 62
     1
100
AcDbText
 10
29049.60334894387
 20
25771.02829733223
 30
0.0
 40
8.0
  1
the
  7
ACISOTS
100
AcDbText
  0
TEXT
  5
51B99
330
52C58
100
AcDbEntity
  8
0
 62
     1
100
AcDbText
 10
29296.24334894387
 20
25757.6949639989
 30
0.0
 40
8.0
  1
worksurface.
  7
ACISOTS
100
AcDbText
  0
TEXT
  5
51B9A
330
52C58
100
AcDbEntity
  8
0
 62
     1
100
AcDbText
 10
29076.43234894387
 20
25731.02829733224
 30
0.0
 40
8.0
  1
Abode can not accept liability for problems
  7
ACISOTS
100
AcDbText
  0
TEXT
  5
51B9B
330
52C58
100
AcDbEntity
  8
0
 62
     1
100
AcDbText
 10
29049.60334894387
 20
25717.69496399891
 30
0.0
 40
8.0
  1
or
  7
ACISOTS
100
AcDbText
  0
TEXT
  5
51B9C
330
52C58
100
AcDbEntity
  8
0
 62
     1
100
AcDbText
 10
29080.62234894387
 20
25704.36163066557
 30
0.0
 40
8.0
  1
costs incurred by failure to follow this advise,
  7
ACISOTS
100
AcDbText
  0
TEXT
  5
51B9D
330
52C58
100
AcDbEntity
  8
0
 62
     1
100
AcDbText
 10
29073.38434894387
 20
25691.02829733224
 30
0.0
 40
8.0
  1
dimensions weights & measures are subject
  7
ACISOTS
100
AcDbText
  0
TEXT
  5
51B9E
330
52C58
100
AcDbEntity
  8
0
 62
     1
100
AcDbText
 10
29049.60334894387
 20
25677.69496399891
 30
0.0
 40
8.0
  1
to
  7
ACISOTS
100
AcDbText
  0
TEXT
  5
51B9F
330
52C58
100
AcDbEntity
  8
0
 62
     1
100
AcDbText
 10
29056.62234894387
 20
25664.36163066557
 30
0.0
 40
8.0
  1
change without prior notice. Errors and omissions
  7
ACISOTS
100
AcDbText
  0
TEXT
  5
51BA0
330
52C58
100
AcDbEntity
  8
0
 62
     1
100
AcDbText
 10
29317.19334894387
 20
25651.02829733225
 30
0.0
 40
8.0
  1
excepted
  7
ACISOTS
100
AcDbText
  0
ENDBLK
  5
51BA2
330
52C58
100
AcDbEntity
  8
0
100
AcDbBlockEnd
  0
BLOCK
  5
5313E
330
5313C
100
AcDbEntity
  8
0
100
AcDbBlockBegin
  2
GENAXEH
 70
     0
 10
0.0
 20
0.0
 30
0.0
  3
GENAXEH
  1

  0
LINE
  5
5313D
330
5313C
100
AcDbEntity
  8
0
100
AcDbLine
 10
-1.0
 20
0.0
 30
0.0
 11
1.0
 21
0.0
 31
0.0
  0
ENDBLK
  5
5313F
330
5313C
100
AcDbEntity
  8
0
100
AcDbBlockEnd
  0
BLOCK
  5
55103
330
55102
100
AcDbEntity
  8
0
100
AcDbBlockBegin
  2
*D3
 70
     1
 10
0.0
 20
0.0
 30
0.0
  3
*D3
  1

  0
LINE
  5
55105
330
55102
100
AcDbEntity
  8
DIMS SPECS
100
AcDbLine
 10
29928.8077247897
 20
25684.47664521544
 30
0.0
 11
29928.8077247897
 21
25616.4938068413
 31
0.0
  0
LINE
  5
55106
330
55102
100
AcDbEntity
  8
DIMS SPECS
100
AcDbLine
 10
30693.80772478971
 20
25684.47664521544
 30
0.0
 11
30693.80772478971
 21
25616.4938068413
 31
0.0
  0
LINE
  5
55107
330
55102
100
AcDbEntity
  8
DIMS SPECS
100
AcDbLine
 10
29941.30772478971
 20
25616.4938068413
 30
0.0
 11
30681.30772478971
 21
25616.4938068413
 31
0.0
  0
INSERT
  5
55108
330
55102
100
AcDbEntity
  8
DIMS SPECS
100
AcDbBlockReference
  2
FILLED-1
 10
29928.8077247897
 20
25616.4938068413
 30
0.0
 41
12.5
 42
12.5
 43
12.5
 50
180.0
  0
INSERT
  5
55109
330
55102
100
AcDbEntity
  8
DIMS SPECS
100
AcDbBlockReference
  2
FILLED-1
 10
30693.80772478971
 20
25616.4938068413
 30
0.0
 41
12.5
 42
12.5
 43
12.5
  0
MTEXT
  5
5510A
330
55102
100
AcDbEntity
  8
DIMS SPECS
100
AcDbMText
 10
30312.43689704224
 20
25632.92140711322
 30
0.0
 40
17.0
 41
0.0
 46
0.0
 71
     5
 72
     1
  1
\A1;765
  7
Abode ISO Bold
 73
     1
 44
1.0
  0
POINT
  5
5510B
330
55102
100
AcDbEntity
  8
DEFPOINTS
 62
     0
100
AcDbPoint
 10
29928.8077247897
 20
25699.47664521544
 30
0.0
  0
POINT
  5
5510C
330
55102
100
AcDbEntity
  8
DEFPOINTS
 62
     0
100
AcDbPoint
 10
30693.80772478971
 20
25699.47664521544
 30
0.0
  0
POINT
  5
5510D
330
55102
100
AcDbEntity
  8
DEFPOINTS
 62
     0
100
AcDbPoint
 10
30693.80772478971
 20
25616.4938068413
 30
0.0
  0
ENDBLK
  5
55104
330
55102
100
AcDbEntity
  8
0
100
AcDbBlockEnd
  0
BLOCK
  5
5510F
330
5510E
100
AcDbEntity
  8
0
100
AcDbBlockBegin
  2
*D4
 70
     1
 10
0.0
 20
0.0
 30
0.0
  3
*D4
  1

  0
LINE
  5
5518D
330
5510E
100
AcDbEntity
  8
DIMS SPECS
100
AcDbLine
 10
29850.0399102897
 20
25717.31778238428
 30
0.0
 11
29891.21863224756
 21
25717.31778238428
 31
0.0
  0
LINE
  5
5518E
330
5510E
100
AcDbEntity
  8
DIMS SPECS
100
AcDbLine
 10
29891.21863224756
 20
25717.31778238428
 30
0.0
 11
29916.70843060755
 21
25700.83420329404
 31
0.0
  0
MTEXT
  5
5518F
330
5510E
100
AcDbEntity
  8
DIMS SPECS
100
AcDbMText
 10
29866.87927126864
 20
25733.7453826562
 30
0.0
 40
17.0
 41
0.0
 46
0.0
 71
     5
 72
     1
  1
\A1;R10
  7
Abode ISO Bold
 73
     1
 44
1.0
  0
INSERT
  5
55190
330
5510E
100
AcDbEntity
  8
DIMS SPECS
100
AcDbBlockReference
  2
FILLED-1
 10
29927.20490151835
 20
25694.04641290107
 30
0.0
 41
12.5
 42
12.5
 43
12.5
 50
327.1103185719359
  0
POINT
  5
55191
330
5510E
100
AcDbEntity
  8
DEFPOINTS
 62
     0
100
AcDbPoint
 10
29927.20490151835
 20
25694.04641290107
 30
0.0
  0
POINT
  5
55192
330
5510E
100
AcDbEntity
  8
DEFPOINTS
 62
     0
100
AcDbPoint
 10
29918.80772478971
 20
25699.47664521544
 30
0.0
  0
ENDBLK
  5
55110
330
5510E
100
AcDbEntity
  8
0
100
AcDbBlockEnd
  0
BLOCK
  5
55118
330
55117
100
AcDbEntity
  8
0
100
AcDbBlockBegin
  2
*D5
 70
     1
 10
0.0
 20
0.0
 30
0.0
  3
*D5
  1

  0
LINE
  5
5511A
330
55117
100
AcDbEntity
  8
DIMS SPECS
100
AcDbLine
 10
30245.58091238321
 20
26172.30290520299
 30
0.0
 11
30205.08866221326
 21
26172.30290520301
 31
0.0
  0
LINE
  5
5511B
330
55117
100
AcDbEntity
  8
DIMS SPECS
100
AcDbLine
 10
30205.08866221326
 20
26172.30290520301
 30
0.0
 11
30197.3880869584
 21
26151.66670720407
 31
0.0
  0
MTEXT
  5
5511C
330
55117
100
AcDbEntity
  8
DIMS SPECS
100
AcDbMText
 10
30229.08478729823
 20
26188.73050547493
 30
0.0
 40
17.0
 41
0.0
 46
0.0
 71
     5
 72
     1
  1
\A1;R26
  7
Abode ISO Bold
 73
     1
 44
1.0
  0
LINE
  5
5511D
330
55117
100
AcDbEntity
  8
DIMS SPECS
100
AcDbLine
 10
30183.94174722854
 20
26115.63286299852
 30
0.0
 11
30193.01795570302
 21
26139.95551798988
 31
0.0
  0
INSERT
  5
5511E
330
55117
100
AcDbEntity
  8
DIMS SPECS
100
AcDbBlockReference
  2
FILLED-1
 10
30193.01795570302
 20
26139.95551798988
 30
0.0
 41
12.5
 42
12.5
 43
12.5
 50
249.5365065622774
  0
POINT
  5
5511F
330
55117
100
AcDbEntity
  8
DEFPOINTS
 62
     0
100
AcDbPoint
 10
30193.01795570302
 20
26139.95551798988
 30
0.0
  0
POINT
  5
55120
330
55117
100
AcDbEntity
  8
DEFPOINTS
 62
     0
100
AcDbPoint
 10
30183.94174722854
 20
26115.63286299852
 30
0.0
  0
ENDBLK
  5
55119
330
55117
100
AcDbEntity
  8
0
100
AcDbBlockEnd
  0
BLOCK
  5
55122
330
55121
100
AcDbEntity
  8
0
100
AcDbBlockBegin
  2
*D6
 70
     1
 10
0.0
 20
0.0
 30
0.0
  3
*D6
  1

  0
LINE
  5
55193
330
55121
100
AcDbEntity
  8
DIMS SPECS
100
AcDbLine
 10
29879.71771271152
 20
26166.72609235141
 30
0.0
 11
29920.20996288148
 21
26166.72609235141
 31
0.0
  0
LINE
  5
55194
330
55121
100
AcDbEntity
  8
DIMS SPECS
100
AcDbLine
 10
29920.20996288148
 20
26166.72609235141
 30
0.0
 11
29933.23228395188
 21
26147.48029597645
 31
0.0
  0
MTEXT
  5
55195
330
55121
100
AcDbEntity
  8
DIMS SPECS
100
AcDbMText
 10
29896.21383779649
 20
26183.15369262333
 30
0.0
 40
17.0
 41
0.0
 46
0.0
 71
     5
 72
     1
  1
\A1;R26
  7
Abode ISO Bold
 73
     1
 44
1.0
  0
LINE
  5
55196
330
55121
100
AcDbEntity
  8
DIMS SPECS
100
AcDbLine
 10
29954.80772478972
 20
26115.59377291962
 30
0.0
 11
29940.23729721091
 21
26137.12752875021
 31
0.0
  0
INSERT
  5
55197
330
55121
100
AcDbEntity
  8
DIMS SPECS
100
AcDbBlockReference
  2
FILLED-1
 10
29940.23729721091
 20
26137.12752875021
 30
0.0
 41
12.5
 42
12.5
 43
12.5
 50
304.08353830189
  0
POINT
  5
55198
330
55121
100
AcDbEntity
  8
DEFPOINTS
 62
     0
100
AcDbPoint
 10
29940.23729721091
 20
26137.12752875021
 30
0.0
  0
POINT
  5
55199
330
55121
100
AcDbEntity
  8
DEFPOINTS
 62
     0
100
AcDbPoint
 10
29954.80772478972
 20
26115.59377291962
 30
0.0
  0
ENDBLK
  5
55123
330
55121
100
AcDbEntity
  8
0
100
AcDbBlockEnd
  0
BLOCK
  5
5512C
330
5512B
100
AcDbEntity
  8
0
100
AcDbBlockBegin
  2
*D7
 70
     1
 10
0.0
 20
0.0
 30
0.0
  3
*D7
  1

  0
LINE
  5
5512E
330
5512B
100
AcDbEntity
  8
DIMS SPECS
100
AcDbLine
 10
30228.31402603916
 20
25985.4980246651
 30
0.0
 11
30269.49274799703
 21
25985.4980246651
 31
0.0
  0
LINE
  5
5512F
330
5512B
100
AcDbEntity
  8
DIMS SPECS
100
AcDbLine
 10
30269.49274799703
 20
25985.4980246651
 30
0.0
 11
30295.81111773156
 21
26023.29832868034
 31
0.0
  0
MTEXT
  5
55130
330
5512B
100
AcDbEntity
  8
DIMS SPECS
100
AcDbMText
 10
30245.15338701808
 20
26001.92562493703
 30
0.0
 40
17.0
 41
0.0
 46
0.0
 71
     5
 72
     1
  1
\A1;R10
  7
Abode ISO Bold
 73
     1
 44
1.0
  0
LINE
  5
55131
330
5512B
100
AcDbEntity
  8
DIMS SPECS
100
AcDbLine
 10
30308.66747642847
 20
26041.76354032429
 30
0.0
 11
30302.95353922985
 21
26033.55677959365
 31
0.0
  0
INSERT
  5
55132
330
5512B
100
AcDbEntity
  8
DIMS SPECS
100
AcDbBlockReference
  2
FILLED-1
 10
30302.95353922985
 20
26033.55677959365
 30
0.0
 41
12.5
 42
12.5
 43
12.5
 50
55.15252863086228
  0
POINT
  5
55133
330
5512B
100
AcDbEntity
  8
DEFPOINTS
 62
     0
100
AcDbPoint
 10
30302.95353922985
 20
26033.55677959365
 30
0.0
  0
POINT
  5
55134
330
5512B
100
AcDbEntity
  8
DEFPOINTS
 62
     0
100
AcDbPoint
 10
30308.66747642847
 20
26041.76354032429
 30
0.0
  0
ENDBLK
  5
5512D
330
5512B
100
AcDbEntity
  8
0
100
AcDbBlockEnd
  0
BLOCK
  5
55136
330
55135
100
AcDbEntity
  8
0
100
AcDbBlockBegin
  2
*D8
 70
     1
 10
0.0
 20
0.0
 30
0.0
  3
*D8
  1

  0
LINE
  5
55138
330
55135
100
AcDbEntity
  8
DIMS SPECS
100
AcDbLine
 10
30296.30811505424
 20
26084.90955464322
 30
0.0
 11
30271.53889794952
 21
26084.90955464322
 31
0.0
  0
LINE
  5
55139
330
55135
100
AcDbEntity
  8
DIMS SPECS
100
AcDbLine
 10
30296.30811505424
 20
26155.97300928792
 30
0.0
 11
30271.53889794952
 21
26155.97300928792
 31
0.0
  0
LINE
  5
5513A
330
55135
100
AcDbEntity
  8
DIMS SPECS
100
AcDbLine
 10
30271.53889794952
 20
26097.40955464324
 30
0.0
 11
30271.53889794952
 21
26143.47300928792
 31
0.0
  0
LINE
  5
5513B
330
55135
100
AcDbEntity
  8
DIMS SPECS
100
AcDbLine
 10
30271.53889794952
 20
26155.97300928792
 30
0.0
 11
30271.53889794952
 21
26168.47300928792
 31
0.0
  0
LINE
  5
5513C
330
55135
100
AcDbEntity
  8
DIMS SPECS
100
AcDbLine
 10
30271.53889794952
 20
26168.47300928792
 30
0.0
 11
30297.55283404741
 21
26168.47300928792
 31
0.0
  0
INSERT
  5
5513D
330
55135
100
AcDbEntity
  8
DIMS SPECS
100
AcDbBlockReference
  2
FILLED-1
 10
30271.53889794952
 20
26084.90955464322
 30
0.0
 41
12.5
 42
12.5
 43
12.5
 50
270.0
  0
INSERT
  5
5513E
330
55135
100
AcDbEntity
  8
DIMS SPECS
100
AcDbBlockReference
  2
FILLED-1
 10
30271.53889794952
 20
26155.97300928792
 30
0.0
 41
12.5
 42
12.5
 43
12.5
 50
90.0
  0
MTEXT
  5
5513F
330
55135
100
AcDbEntity
  8
DIMS SPECS
100
AcDbMText
 10
30288.29586599846
 20
26184.68680942389
 30
0.0
 40
17.0
 41
0.0
 46
0.0
 71
     5
 72
     1
  1
\A1;71
  7
Abode ISO Bold
 73
     1
 44
1.0
  0
POINT
  5
55140
330
55135
100
AcDbEntity
  8
DEFPOINTS
 62
     0
100
AcDbPoint
 10
30311.30811505423
 20
26084.90955464322
 30
0.0
  0
POINT
  5
55141
330
55135
100
AcDbEntity
  8
DEFPOINTS
 62
     0
100
AcDbPoint
 10
30311.30811505423
 20
26155.97300928792
 30
0.0
  0
POINT
  5
55142
330
55135
100
AcDbEntity
  8
DEFPOINTS
 62
     0
100
AcDbPoint
 10
30271.53889794952
 20
26155.97300928792
 30
0.0
  0
ENDBLK
  5
55137
330
55135
100
AcDbEntity
  8
0
100
AcDbBlockEnd
  0
BLOCK
  5
55144
330
55143
100
AcDbEntity
  8
0
100
AcDbBlockBegin
  2
*D9
 70
     1
 10
0.0
 20
0.0
 30
0.0
  3
*D9
  1

  0
LINE
  5
55146
330
55143
100
AcDbEntity
  8
DIMS SPECS
100
AcDbLine
 10
29969.80772478971
 20
26141.59377291962
 30
0.0
 11
30002.51492650017
 21
26141.59377291962
 31
0.0
  0
LINE
  5
55147
330
55143
100
AcDbEntity
  8
DIMS SPECS
100
AcDbLine
 10
29933.80772478971
 20
25689.47664521544
 30
0.0
 11
30002.51492650017
 21
25689.47664521544
 31
0.0
  0
LINE
  5
55148
330
55143
100
AcDbEntity
  8
DIMS SPECS
100
AcDbLine
 10
30002.51492650017
 20
26129.09377291962
 30
0.0
 11
30002.51492650017
 21
25931.96280933946
 31
0.0
  0
LINE
  5
55149
330
55143
100
AcDbEntity
  8
DIMS SPECS
100
AcDbLine
 10
30002.51492650017
 20
25701.97664521544
 30
0.0
 11
30002.51492650017
 21
25899.10760879561
 31
0.0
  0
INSERT
  5
5514A
330
55143
100
AcDbEntity
  8
DIMS SPECS
100
AcDbBlockReference
  2
FILLED-1
 10
30002.51492650017
 20
26141.59377291962
 30
0.0
 41
12.5
 42
12.5
 43
12.5
 50
90.0
  0
INSERT
  5
5514B
330
55143
100
AcDbEntity
  8
DIMS SPECS
100
AcDbBlockReference
  2
FILLED-1
 10
30002.51492650017
 20
25689.47664521544
 30
0.0
 41
12.5
 42
12.5
 43
12.5
 50
270.0
  0
MTEXT
  5
5514C
330
55143
100
AcDbEntity
  8
DIMS SPECS
100
AcDbMText
 10
30002.51492650016
 20
25915.53520906754
 30
0.0
 40
17.0
 41
0.0
 46
0.0
 71
     5
 72
     1
  1
\A1;452
  7
Abode ISO Bold
 73
     1
 44
1.0
  0
POINT
  5
5514D
330
55143
100
AcDbEntity
  8
DEFPOINTS
 62
     0
100
AcDbPoint
 10
29954.80772478972
 20
26141.59377291962
 30
0.0
  0
POINT
  5
5514E
330
55143
100
AcDbEntity
  8
DEFPOINTS
 62
     0
100
AcDbPoint
 10
29918.80772478971
 20
25689.47664521544
 30
0.0
  0
POINT
  5
5514F
330
55143
100
AcDbEntity
  8
DEFPOINTS
 62
     0
100
AcDbPoint
 10
30002.51492650017
 20
25689.47664521544
 30
0.0
  0
ENDBLK
  5
55145
330
55143
100
AcDbEntity
  8
0
100
AcDbBlockEnd
  0
BLOCK
  5
55151
330
55150
100
AcDbEntity
  8
0
100
AcDbBlockBegin
  2
*D10
 70
     1
 10
0.0
 20
0.0
 30
0.0
  3
*D10
  1

  0
LINE
  5
55153
330
55150
100
AcDbEntity
  8
DIMS SPECS
100
AcDbLine
 10
30293.66747642847
 20
26031.76354032429
 30
0.0
 11
30136.56880252886
 21
26031.76354032429
 31
0.0
  0
LINE
  5
55154
330
55150
100
AcDbEntity
  8
DIMS SPECS
100
AcDbLine
 10
30168.92555558771
 20
26141.59377291962
 30
0.0
 11
30136.56880252886
 21
26141.59377291962
 31
0.0
  0
LINE
  5
55155
330
55150
100
AcDbEntity
  8
DIMS SPECS
100
AcDbLine
 10
30136.56880252886
 20
26044.26354032429
 30
0.0
 11
30136.56880252886
 21
26070.25105635004
 31
0.0
  0
LINE
  5
55156
330
55150
100
AcDbEntity
  8
DIMS SPECS
100
AcDbLine
 10
30136.56880252886
 20
26129.09377291962
 30
0.0
 11
30136.56880252886
 21
26103.10625689388
 31
0.0
  0
INSERT
  5
55157
330
55150
100
AcDbEntity
  8
DIMS SPECS
100
AcDbBlockReference
  2
FILLED-1
 10
30136.56880252886
 20
26031.76354032429
 30
0.0
 41
12.5
 42
12.5
 43
12.5
 50
270.0
  0
INSERT
  5
55158
330
55150
100
AcDbEntity
  8
DIMS SPECS
100
AcDbBlockReference
  2
FILLED-1
 10
30136.56880252886
 20
26141.59377291962
 30
0.0
 41
12.5
 42
12.5
 43
12.5
 50
90.0
  0
MTEXT
  5
55159
330
55150
100
AcDbEntity
  8
DIMS SPECS
100
AcDbMText
 10
30136.56880252885
 20
26086.67865662197
 30
0.0
 40
17.0
 41
0.0
 46
0.0
 71
     5
 72
     1
  1
\A1;110
  7
Abode ISO Bold
 73
     1
 44
1.0
  0
POINT
  5
5515A
330
55150
100
AcDbEntity
  8
DEFPOINTS
 62
     0
100
AcDbPoint
 10
30308.66747642847
 20
26031.76354032429
 30
0.0
  0
POINT
  5
5515B
330
55150
100
AcDbEntity
  8
DEFPOINTS
 62
     0
100
AcDbPoint
 10
30183.92555558771
 20
26141.59377291962
 30
0.0
  0
POINT
  5
5515C
330
55150
100
AcDbEntity
  8
DEFPOINTS
 62
     0
100
AcDbPoint
 10
30136.56880252886
 20
26141.59377291962
 30
0.0
  0
ENDBLK
  5
55152
330
55150
100
AcDbEntity
  8
0
100
AcDbBlockEnd
  0
BLOCK
  5
5515E
330
5515D
100
AcDbEntity
  8
0
100
AcDbBlockBegin
  2
*D11
 70
     1
 10
0.0
 20
0.0
 30
0.0
  3
*D11
  1

  0
ARC
  5
551A3
330
5515D
100
AcDbEntity
  8
DIMS SPECS
100
AcDbCircle
 10
30311.30847902741
 20
26024.98040210162
 30
0.0
 40
103.5363020874631
100
AcDbArc
 50
51.92205025168439
 51
77.32298030358029
  0
ARC
  5
551A4
330
5515D
100
AcDbEntity
  8
DIMS SPECS
100
AcDbCircle
 10
30311.30847902741
 20
26024.98040210162
 30
0.0
 40
103.5363020874631
100
AcDbArc
 50
102.677520233521
 51
128.0784380831695
  0
INSERT
  5
551A5
330
5515D
100
AcDbEntity
  8
DIMS SPECS
100
AcDbBlockReference
  2
FILLED-1
 10
30384.5190763468
 20
26098.19224738697
 30
0.0
 41
12.5
 42
12.5
 43
12.5
 50
318.4612692932692
  0
INSERT
  5
551A6
330
5515D
100
AcDbEntity
  8
DIMS SPECS
100
AcDbBlockReference
  2
FILLED-1
 10
30238.09725772239
 20
26098.19162340665
 30
0.0
 41
12.5
 42
12.5
 43
12.5
 50
221.5392190415848
  0
MTEXT
  5
551A7
330
5515D
100
AcDbEntity
  8
DIMS SPECS
100
AcDbMText
 10
30311.30803780482
 20
26128.51670418814
 30
0.0
 40
17.0
 41
0.0
 46
0.0
 71
     5
 72
     1
  1
\A1;90°
  7
Abode ISO Bold
 73
     1
 44
1.0
  0
POINT
  5
551A8
330
5515D
100
AcDbEntity
  8
DEFPOINTS
 62
     0
100
AcDbPoint
 10
30338.10507761564
 20
26124.98894250717
 30
0.0
  0
POINT
  5
551A9
330
5515D
100
AcDbEntity
  8
DEFPOINTS
 62
     0
100
AcDbPoint
 10
30420.32763006667
 20
26134.0014115083
 30
0.0
  0
POINT
  5
551AA
330
5515D
100
AcDbEntity
  8
DEFPOINTS
 62
     0
100
AcDbPoint
 10
30301.5964086166
 20
26034.69247251243
 30
0.0
  0
POINT
  5
551AB
330
5515D
100
AcDbEntity
  8
DEFPOINTS
 62
     0
100
AcDbPoint
 10
30202.2874334605
 20
26134.00144766854
 30
0.0
  0
POINT
  5
551AC
330
5515D
100
AcDbEntity
  8
DEFPOINTS
 62
     0
100
AcDbPoint
 10
30321.02044415298
 20
26034.69253277975
 30
0.0
  0
ENDBLK
  5
5515F
330
5515D
100
AcDbEntity
  8
0
100
AcDbBlockEnd
  0
BLOCK
  5
55185
330
55184
100
AcDbEntity
  8
0
100
AcDbBlockBegin
  2
*D12
 70
     1
 10
0.0
 20
0.0
 30
0.0
  3
*D12
  1

  0
LINE
  5
55187
330
55184
100
AcDbEntity
  8
DIMS SPECS
100
AcDbLine
 10
30488.21742301468
 20
26094.42765898696
 30
0.0
 11
30447.72517284473
 21
26094.42765898696
 31
0.0
  0
LINE
  5
55188
330
55184
100
AcDbEntity
  8
DIMS SPECS
100
AcDbLine
 10
30447.72517284473
 20
26094.42765898696
 30
0.0
 11
30433.38865852195
 21
26128.01303648228
 31
0.0
  0
MTEXT
  5
55189
330
55184
100
AcDbEntity
  8
DIMS SPECS
100
AcDbMText
 10
30471.7212979297
 20
26110.85525925888
 30
0.0
 40
17.0
 41
0.0
 46
0.0
 71
     5
 72
     1
  1
\A1;R26
  7
Abode ISO Bold
 73
     1
 44
1.0
  0
INSERT
  5
5518A
330
55184
100
AcDbEntity
  8
DIMS SPECS
100
AcDbBlockReference
  2
FILLED-1
 10
30428.4812193809
 20
26139.50942900677
 30
0.0
 41
12.5
 42
12.5
 43
12.5
 50
113.1160727238367
  0
POINT
  5
5518B
330
55184
100
AcDbEntity
  8
DEFPOINTS
 62
     0
100
AcDbPoint
 10
30428.4812193809
 20
26139.50942900677
 30
0.0
  0
POINT
  5
5518C
330
55184
100
AcDbEntity
  8
DEFPOINTS
 62
     0
100
AcDbPoint
 10
30438.67326775776
 20
26115.63306795551
 30
0.0
  0
ENDBLK
  5
55186
330
55184
100
AcDbEntity
  8
0
100
AcDbBlockEnd
  0
BLOCK
  5
55241
330
55240
100
AcDbEntity
  8
0
100
AcDbBlockBegin
  2
*D13
 70
     1
 10
0.0
 20
0.0
 30
0.0
  3
*D13
  1

  0
LINE
  5
55242
330
55240
100
AcDbEntity
  8
DIMS SPECS
100
AcDbLine
 10
-45920.49762677143
 20
932.25104112347
 30
0.0
 11
-45920.49762677143
 21
860.1206648966371
 31
0.0
  0
LINE
  5
55243
330
55240
100
AcDbEntity
  8
DIMS SPECS
100
AcDbLine
 10
-45508.49762677141
 20
932.2510411234716
 30
0.0
 11
-45508.49762677141
 21
860.1206648966371
 31
0.0
  0
LINE
  5
55244
330
55240
100
AcDbEntity
  8
DIMS SPECS
100
AcDbLine
 10
-45907.99762677144
 20
860.1206648966371
 30
0.0
 11
-45520.99762677142
 21
860.1206648966371
 31
0.0
  0
INSERT
  5
55245
330
55240
100
AcDbEntity
  8
DIMS SPECS
100
AcDbBlockReference
  2
FILLED-1
 10
-45920.49762677143
 20
860.1206648966371
 30
0.0
 41
12.5
 42
12.5
 43
12.5
 50
180.0
  0
INSERT
  5
55246
330
55240
100
AcDbEntity
  8
DIMS SPECS
100
AcDbBlockReference
  2
FILLED-1
 10
-45508.49762677141
 20
860.1206648966371
 30
0.0
 41
12.5
 42
12.5
 43
12.5
  0
MTEXT
  5
55247
330
55240
100
AcDbEntity
  8
DIMS SPECS
100
AcDbMText
 10
-45714.49762677142
 20
876.3344650325992
 30
0.0
 40
17.0
 41
0.0
 46
0.0
 71
     5
 72
     1
  1
\A1;412
  7
Abode ISO Bold
 73
     1
 44
1.0
  0
POINT
  5
55248
330
55240
100
AcDbEntity
  8
DEFPOINTS
 62
     0
100
AcDbPoint
 10
-45920.49762677143
 20
947.2510411234697
 30
0.0
  0
POINT
  5
55249
330
55240
100
AcDbEntity
  8
DEFPOINTS
 62
     0
100
AcDbPoint
 10
-45508.49762677141
 20
947.2510411234717
 30
0.0
  0
POINT
  5
5524A
330
55240
100
AcDbEntity
  8
DEFPOINTS
 62
     0
100
AcDbPoint
 10
-45508.49762677141
 20
860.1206648966371
 30
0.0
  0
ENDBLK
  5
5524B
330
55240
100
AcDbEntity
  8
0
100
AcDbBlockEnd
  0
BLOCK
  5
5524D
330
5524C
100
AcDbEntity
  8
0
100
AcDbBlockBegin
  2
*D14
 70
     1
 10
0.0
 20
0.0
 30
0.0
  3
*D14
  1

  0
LINE
  5
5524E
330
5524C
100
AcDbEntity
  8
DIMS SPECS
100
AcDbLine
 10
-45509.49762677142
 20
931.2510411234717
 30
0.0
 11
-45447.11596280618
 21
931.2510411234717
 31
0.0
  0
LINE
  5
5524F
330
5524C
100
AcDbEntity
  8
DIMS SPECS
100
AcDbLine
 10
-45509.49762677142
 20
1343.251041123484
 30
0.0
 11
-45447.11596280618
 21
1343.251041123484
 31
0.0
  0
LINE
  5
55250
330
5524C
100
AcDbEntity
  8
DIMS SPECS
100
AcDbLine
 10
-45447.11596280618
 20
943.7510411234717
 30
0.0
 11
-45447.11596280618
 21
1121.037240987516
 31
0.0
  0
LINE
  5
55251
330
5524C
100
AcDbEntity
  8
DIMS SPECS
100
AcDbLine
 10
-45447.11596280618
 20
1330.751041123484
 30
0.0
 11
-45447.11596280618
 21
1153.46484125944
 31
0.0
  0
INSERT
  5
55252
330
5524C
100
AcDbEntity
  8
DIMS SPECS
100
AcDbBlockReference
  2
FILLED-1
 10
-45447.11596280618
 20
931.2510411234717
 30
0.0
 41
12.5
 42
12.5
 43
12.5
 50
270.0
  0
INSERT
  5
55253
330
5524C
100
AcDbEntity
  8
DIMS SPECS
100
AcDbBlockReference
  2
FILLED-1
 10
-45447.11596280618
 20
1343.251041123484
 30
0.0
 41
12.5
 42
12.5
 43
12.5
 50
90.0
  0
MTEXT
  5
55254
330
5524C
100
AcDbEntity
  8
DIMS SPECS
100
AcDbMText
 10
-45447.11596280618
 20
1137.251041123469
 30
0.0
 40
17.0
 41
0.0
 46
0.0
 71
     5
 72
     1
  1
\A1;412
  7
Abode ISO Bold
 73
     1
 44
1.0
  0
POINT
  5
55255
330
5524C
100
AcDbEntity
  8
DEFPOINTS
 62
     0
100
AcDbPoint
 10
-45524.49762677142
 20
931.2510411234717
 30
0.0
  0
POINT
  5
55256
330
5524C
100
AcDbEntity
  8
DEFPOINTS
 62
     0
100
AcDbPoint
 10
-45524.49762677142
 20
1343.251041123484
 30
0.0
  0
POINT
  5
55257
330
5524C
100
AcDbEntity
  8
DEFPOINTS
 62
     0
100
AcDbPoint
 10
-45447.11596280618
 20
1343.251041123484
 30
0.0
  0
ENDBLK
  5
55258
330
5524C
100
AcDbEntity
  8
0
100
AcDbBlockEnd
  0
BLOCK
  5
5525A
330
55259
100
AcDbEntity
  8
0
100
AcDbBlockBegin
  2
*D15
 70
     1
 10
0.0
 20
0.0
 30
0.0
  3
*D15
  1

  0
LINE
  5
5525B
330
55259
100
AcDbEntity
  8
DIMS SPECS
100
AcDbLine
 10
-46708.41006561778
 20
918.2510411234732
 30
0.0
 11
-46708.41006561778
 21
856.2840412332926
 31
0.0
  0
LINE
  5
5525C
330
55259
100
AcDbEntity
  8
DIMS SPECS
100
AcDbLine
 10
-46268.41006561773
 20
923.2510411234732
 30
0.0
 11
-46268.41006561773
 21
856.2840412332926
 31
0.0
  0
LINE
  5
5525D
330
55259
100
AcDbEntity
  8
DIMS SPECS
100
AcDbLine
 10
-46695.91006561778
 20
856.2840412332926
 30
0.0
 11
-46280.91006561773
 21
856.2840412332926
 31
0.0
  0
INSERT
  5
5525E
330
55259
100
AcDbEntity
  8
DIMS SPECS
100
AcDbBlockReference
  2
FILLED-1
 10
-46708.41006561778
 20
856.2840412332926
 30
0.0
 41
12.5
 42
12.5
 43
12.5
 50
180.0
  0
INSERT
  5
5525F
330
55259
100
AcDbEntity
  8
DIMS SPECS
100
AcDbBlockReference
  2
FILLED-1
 10
-46268.41006561773
 20
856.2840412332926
 30
0.0
 41
12.5
 42
12.5
 43
12.5
  0
MTEXT
  5
55260
330
55259
100
AcDbEntity
  8
DIMS SPECS
100
AcDbMText
 10
-46488.41006561776
 20
872.7116415052162
 30
0.0
 40
17.0
 41
0.0
 46
0.0
 71
     5
 72
     1
  1
\A1;440
  7
Abode ISO Bold
 73
     1
 44
1.0
  0
POINT
  5
55261
330
55259
100
AcDbEntity
  8
DEFPOINTS
 62
     0
100
AcDbPoint
 10
-46708.41006561778
 20
933.2510411234734
 30
0.0
  0
POINT
  5
55262
330
55259
100
AcDbEntity
  8
DEFPOINTS
 62
     0
100
AcDbPoint
 10
-46268.41006561773
 20
938.2510411234736
 30
0.0
  0
POINT
  5
55263
330
55259
100
AcDbEntity
  8
DEFPOINTS
 62
     0
100
AcDbPoint
 10
-46268.41006561773
 20
856.2840412332926
 30
0.0
  0
ENDBLK
  5
55264
330
55259
100
AcDbEntity
  8
0
100
AcDbBlockEnd
  0
BLOCK
  5
55266
330
55265
100
AcDbEntity
  8
0
100
AcDbBlockBegin
  2
*D16
 70
     1
 10
0.0
 20
0.0
 30
0.0
  3
*D16
  1

  0
LINE
  5
55267
330
55265
100
AcDbEntity
  8
DIMS SPECS
100
AcDbLine
 10
-46288.41006561773
 20
1343.251041123471
 30
0.0
 11
-46223.36627635233
 21
1343.251041123471
 31
0.0
  0
LINE
  5
55268
330
55265
100
AcDbEntity
  8
DIMS SPECS
100
AcDbLine
 10
-46283.41006561773
 20
903.2510411234724
 30
0.0
 11
-46223.36627635233
 21
903.2510411234724
 31
0.0
  0
LINE
  5
55269
330
55265
100
AcDbEntity
  8
DIMS SPECS
100
AcDbLine
 10
-46223.36627635233
 20
1330.751041123471
 30
0.0
 11
-46223.36627635233
 21
1139.678641395396
 31
0.0
  0
LINE
  5
5526A
330
55265
100
AcDbEntity
  8
DIMS SPECS
100
AcDbLine
 10
-46223.36627635233
 20
915.7510411234724
 30
0.0
 11
-46223.36627635233
 21
1106.823440851548
 31
0.0
  0
INSERT
  5
5526B
330
55265
100
AcDbEntity
  8
DIMS SPECS
100
AcDbBlockReference
  2
FILLED-1
 10
-46223.36627635233
 20
1343.251041123471
 30
0.0
 41
12.5
 42
12.5
 43
12.5
 50
90.0
  0
INSERT
  5
5526C
330
55265
100
AcDbEntity
  8
DIMS SPECS
100
AcDbBlockReference
  2
FILLED-1
 10
-46223.36627635233
 20
903.2510411234724
 30
0.0
 41
12.5
 42
12.5
 43
12.5
 50
270.0
  0
MTEXT
  5
5526D
330
55265
100
AcDbEntity
  8
DIMS SPECS
100
AcDbMText
 10
-46223.36627635233
 20
1123.251041123464
 30
0.0
 40
17.0
 41
0.0
 46
0.0
 71
     5
 72
     1
  1
\A1;440
  7
Abode ISO Bold
 73
     1
 44
1.0
  0
POINT
  5
5526E
330
55265
100
AcDbEntity
  8
DEFPOINTS
 62
     0
100
AcDbPoint
 10
-46303.41006561773
 20
1343.251041123471
 30
0.0
  0
POINT
  5
5526F
330
55265
100
AcDbEntity
  8
DEFPOINTS
 62
     0
100
AcDbPoint
 10
-46298.41006561773
 20
903.2510411234724
 30
0.0
  0
POINT
  5
55270
330
55265
100
AcDbEntity
  8
DEFPOINTS
 62
     0
100
AcDbPoint
 10
-46223.36627635233
 20
903.2510411234724
 30
0.0
  0
ENDBLK
  5
55271
330
55265
100
AcDbEntity
  8
0
100
AcDbBlockEnd
  0
BLOCK
  5
55273
330
55272
100
AcDbEntity
  8
0
100
AcDbBlockBegin
  2
*D17
 70
     1
 10
0.0
 20
0.0
 30
0.0
  3
*D17
  1

  0
LINE
  5
55274
330
55272
100
AcDbEntity
  8
DIMS SPECS
100
AcDbLine
 10
-46185.88242088478
 20
853.4265385863946
 30
0.0
 11
-46227.06114284264
 21
853.4265385863983
 31
0.0
  0
LINE
  5
55275
330
55272
100
AcDbEntity
  8
DIMS SPECS
100
AcDbLine
 10
-46227.06114284264
 20
853.4265385863983
 30
0.0
 11
-46270.08738185812
 21
901.5638893951473
 31
0.0
  0
MTEXT
  5
55276
330
55272
100
AcDbEntity
  8
DIMS SPECS
100
AcDbMText
 10
-46202.72178186373
 20
869.8541388583148
 30
0.0
 40
17.0
 41
0.0
 46
0.0
 71
     5
 72
     1
  1
\A1;R30
  7
Abode ISO Bold
 73
     1
 44
1.0
  0
LINE
  5
55277
330
55272
100
AcDbEntity
  8
DIMS SPECS
100
AcDbLine
 10
-46298.41006561772
 20
933.2510411234579
 30
0.0
 11
-46278.41758296387
 21
910.8836399034736
 31
0.0
  0
INSERT
  5
55278
330
55272
100
AcDbEntity
  8
DIMS SPECS
100
AcDbBlockReference
  2
FILLED-1
 10
-46278.41758296387
 20
910.8836399034736
 30
0.0
 41
12.5
 42
12.5
 43
12.5
 50
131.7910557550161
  0
POINT
  5
55279
330
55272
100
AcDbEntity
  8
DEFPOINTS
 62
     0
100
AcDbPoint
 10
-46278.41758296387
 20
910.8836399034736
 30
0.0
  0
POINT
  5
5527A
330
55272
100
AcDbEntity
  8
DEFPOINTS
 62
     0
100
AcDbPoint
 10
-46298.41006561772
 20
933.2510411234579
 30
0.0
  0
ENDBLK
  5
5527B
330
55272
100
AcDbEntity
  8
0
100
AcDbBlockEnd
  0
BLOCK
  5
5527D
330
5527C
100
AcDbEntity
  8
0
100
AcDbBlockBegin
  2
*D18
 70
     1
 10
0.0
 20
0.0
 30
0.0
  3
*D18
  1

  0
LINE
  5
5527E
330
5527C
100
AcDbEntity
  8
DIMS SPECS
100
AcDbLine
 10
-45425.84197173162
 20
886.7081155178494
 30
0.0
 11
-45466.3342219016
 21
886.7081155178528
 31
0.0
  0
LINE
  5
5527F
330
5527C
100
AcDbEntity
  8
DIMS SPECS
100
AcDbLine
 10
-45466.3342219016
 20
886.7081155178528
 30
0.0
 11
-45504.7530166115
 21
926.6986600051497
 31
0.0
  0
MTEXT
  5
55280
330
5527C
100
AcDbEntity
  8
DIMS SPECS
100
AcDbMText
 10
-45442.33809681661
 20
903.1357157897767
 30
0.0
 40
17.0
 41
0.0
 46
0.0
 71
     5
 72
     1
  1
\A1;R16
  7
Abode ISO Bold
 73
     1
 44
1.0
  0
LINE
  5
55281
330
5527C
100
AcDbEntity
  8
DIMS SPECS
100
AcDbLine
 10
-45524.49762677142
 20
947.2510411234688
 30
0.0
 11
-45513.4129333483
 21
935.7128622500276
 31
0.0
  0
INSERT
  5
55282
330
5527C
100
AcDbEntity
  8
DIMS SPECS
100
AcDbBlockReference
  2
FILLED-1
 10
-45513.4129333483
 20
935.7128622500276
 30
0.0
 41
12.5
 42
12.5
 43
12.5
 50
133.8516346315832
  0
POINT
  5
55283
330
5527C
100
AcDbEntity
  8
DEFPOINTS
 62
     0
100
AcDbPoint
 10
-45513.4129333483
 20
935.7128622500276
 30
0.0
  0
POINT
  5
55284
330
5527C
100
AcDbEntity
  8
DEFPOINTS
 62
     0
100
AcDbPoint
 10
-45524.49762677142
 20
947.2510411234688
 30
0.0
  0
ENDBLK
  5
55285
330
5527C
100
AcDbEntity
  8
0
100
AcDbBlockEnd
  0
BLOCK
  5
5531C
330
5531B
100
AcDbEntity
  8
0
100
AcDbBlockBegin
  2
*D19
 70
     1
 10
0.0
 20
0.0
 30
0.0
  3
*D19
  1

  0
LINE
  5
5531E
330
5531B
100
AcDbEntity
  8
DIMS SPECS
100
AcDbLine
 10
30167.58609437166
 20
25615.81877164761
 30
0.0
 11
30126.40737241377
 21
25615.81877164761
 31
0.0
  0
LINE
  5
5531F
330
5531B
100
AcDbEntity
  8
DIMS SPECS
100
AcDbLine
 10
30126.40737241377
 20
25615.81877164761
 30
0.0
 11
30083.38113339834
 21
25663.95612245635
 31
0.0
  0
MTEXT
  5
55320
330
5531B
100
AcDbEntity
  8
DIMS SPECS
100
AcDbMText
 10
30150.74673339273
 20
25632.24637191952
 30
0.0
 40
17.0
 41
0.0
 46
0.0
 71
     5
 72
     1
  1
\A1;R30
  7
Abode ISO Bold
 73
     1
 44
1.0
  0
LINE
  5
55321
330
5531B
100
AcDbEntity
  8
DIMS SPECS
100
AcDbLine
 10
30055.05844963876
 20
25695.64327418468
 30
0.0
 11
30075.05093229259
 21
25673.27587296468
 31
0.0
  0
INSERT
  5
55322
330
5531B
100
AcDbEntity
  8
DIMS SPECS
100
AcDbBlockReference
  2
FILLED-1
 10
30075.05093229259
 20
25673.27587296468
 30
0.0
 41
12.5
 42
12.5
 43
12.5
 50
131.7910557549966
  0
POINT
  5
55323
330
5531B
100
AcDbEntity
  8
DEFPOINTS
 62
     0
100
AcDbPoint
 10
30075.05093229259
 20
25673.27587296468
 30
0.0
  0
POINT
  5
55324
330
5531B
100
AcDbEntity
  8
DEFPOINTS
 62
     0
100
AcDbPoint
 10
30055.05844963876
 20
25695.64327418468
 30
0.0
  0
ENDBLK
  5
5531D
330
5531B
100
AcDbEntity
  8
0
100
AcDbBlockEnd
  0
BLOCK
  5
55326
330
55325
100
AcDbEntity
  8
0
100
AcDbBlockBegin
  2
*D20
 70
     1
 10
0.0
 20
0.0
 30
0.0
  3
*D20
  1

  0
LINE
  5
55328
330
55325
100
AcDbEntity
  8
DIMS SPECS
100
AcDbLine
 10
30927.62654352483
 20
25649.10034857907
 30
0.0
 11
30887.13429335486
 21
25649.10034857906
 31
0.0
  0
LINE
  5
55329
330
55325
100
AcDbEntity
  8
DIMS SPECS
100
AcDbLine
 10
30887.13429335486
 20
25649.10034857906
 30
0.0
 11
30848.71549864496
 21
25689.09089306636
 31
0.0
  0
MTEXT
  5
5532A
330
55325
100
AcDbEntity
  8
DIMS SPECS
100
AcDbMText
 10
30911.13041843985
 20
25665.52794885098
 30
0.0
 40
17.0
 41
0.0
 46
0.0
 71
     5
 72
     1
  1
\A1;R16
  7
Abode ISO Bold
 73
     1
 44
1.0
  0
LINE
  5
5532B
330
55325
100
AcDbEntity
  8
DIMS SPECS
100
AcDbLine
 10
30828.97088848504
 20
25709.64327418468
 30
0.0
 11
30840.05558190817
 21
25698.10509531123
 31
0.0
  0
INSERT
  5
5532C
330
55325
100
AcDbEntity
  8
DIMS SPECS
100
AcDbBlockReference
  2
FILLED-1
 10
30840.05558190817
 20
25698.10509531123
 30
0.0
 41
12.5
 42
12.5
 43
12.5
 50
133.8516346315832
  0
POINT
  5
5532D
330
55325
100
AcDbEntity
  8
DEFPOINTS
 62
     0
100
AcDbPoint
 10
30840.05558190817
 20
25698.10509531123
 30
0.0
  0
POINT
  5
5532E
330
55325
100
AcDbEntity
  8
DEFPOINTS
 62
     0
100
AcDbPoint
 10
30828.97088848504
 20
25709.64327418468
 30
0.0
  0
ENDBLK
  5
55327
330
55325
100
AcDbEntity
  8
0
100
AcDbBlockEnd
  0
BLOCK
  5
55330
330
5532F
100
AcDbEntity
  8
0
100
AcDbBlockBegin
  2
*D21
 70
     1
 10
0.0
 20
0.0
 30
0.0
  3
*D21
  1

  0
LINE
  5
55332
330
5532F
100
AcDbEntity
  8
DIMS SPECS
100
AcDbLine
 10
29645.0584496387
 20
25680.64327418468
 30
0.0
 11
29645.0584496387
 21
25618.6762742945
 31
0.0
  0
LINE
  5
55333
330
5532F
100
AcDbEntity
  8
DIMS SPECS
100
AcDbLine
 10
30085.05844963872
 20
25685.64327418469
 30
0.0
 11
30085.05844963872
 21
25618.6762742945
 31
0.0
  0
LINE
  5
55334
330
5532F
100
AcDbEntity
  8
DIMS SPECS
100
AcDbLine
 10
29657.5584496387
 20
25618.6762742945
 30
0.0
 11
30072.55844963872
 21
25618.6762742945
 31
0.0
  0
INSERT
  5
55335
330
5532F
100
AcDbEntity
  8
DIMS SPECS
100
AcDbBlockReference
  2
FILLED-1
 10
29645.0584496387
 20
25618.6762742945
 30
0.0
 41
12.5
 42
12.5
 43
12.5
 50
180.0
  0
INSERT
  5
55336
330
5532F
100
AcDbEntity
  8
DIMS SPECS
100
AcDbBlockReference
  2
FILLED-1
 10
30085.05844963872
 20
25618.6762742945
 30
0.0
 41
12.5
 42
12.5
 43
12.5
  0
MTEXT
  5
55337
330
5532F
100
AcDbEntity
  8
DIMS SPECS
100
AcDbMText
 10
29865.0584496387
 20
25635.10387456643
 30
0.0
 40
17.0
 41
0.0
 46
0.0
 71
     5
 72
     1
  1
\A1;440
  7
Abode ISO Bold
 73
     1
 44
1.0
  0
POINT
  5
55338
330
5532F
100
AcDbEntity
  8
DEFPOINTS
 62
     0
100
AcDbPoint
 10
29645.0584496387
 20
25695.64327418468
 30
0.0
  0
POINT
  5
55339
330
5532F
100
AcDbEntity
  8
DEFPOINTS
 62
     0
100
AcDbPoint
 10
30085.05844963872
 20
25700.64327418469
 30
0.0
  0
POINT
  5
5533A
330
5532F
100
AcDbEntity
  8
DEFPOINTS
 62
     0
100
AcDbPoint
 10
30085.05844963872
 20
25618.6762742945
 30
0.0
  0
ENDBLK
  5
55331
330
5532F
100
AcDbEntity
  8
0
100
AcDbBlockEnd
  0
BLOCK
  5
5533C
330
5533B
100
AcDbEntity
  8
0
100
AcDbBlockBegin
  2
*D22
 70
     1
 10
0.0
 20
0.0
 30
0.0
  3
*D22
  1

  0
LINE
  5
5533E
330
5533B
100
AcDbEntity
  8
DIMS SPECS
100
AcDbLine
 10
30065.05844963872
 20
26105.64327418468
 30
0.0
 11
30130.10223890413
 21
26105.64327418468
 31
0.0
  0
LINE
  5
5533F
330
5533B
100
AcDbEntity
  8
DIMS SPECS
100
AcDbLine
 10
30070.05844963873
 20
25665.64327418468
 30
0.0
 11
30130.10223890413
 21
25665.64327418468
 31
0.0
  0
LINE
  5
55340
330
5533B
100
AcDbEntity
  8
DIMS SPECS
100
AcDbLine
 10
30130.10223890413
 20
26093.14327418469
 30
0.0
 11
30130.10223890413
 21
25902.0708744566
 31
0.0
  0
LINE
  5
55341
330
5533B
100
AcDbEntity
  8
DIMS SPECS
100
AcDbLine
 10
30130.10223890413
 20
25678.14327418469
 30
0.0
 11
30130.10223890413
 21
25869.21567391275
 31
0.0
  0
INSERT
  5
55342
330
5533B
100
AcDbEntity
  8
DIMS SPECS
100
AcDbBlockReference
  2
FILLED-1
 10
30130.10223890413
 20
26105.64327418468
 30
0.0
 41
12.5
 42
12.5
 43
12.5
 50
90.0
  0
INSERT
  5
55343
330
5533B
100
AcDbEntity
  8
DIMS SPECS
100
AcDbBlockReference
  2
FILLED-1
 10
30130.10223890413
 20
25665.64327418468
 30
0.0
 41
12.5
 42
12.5
 43
12.5
 50
270.0
  0
MTEXT
  5
55344
330
5533B
100
AcDbEntity
  8
DIMS SPECS
100
AcDbMText
 10
30130.10223890412
 20
25885.64327418469
 30
0.0
 40
17.0
 41
0.0
 46
0.0
 71
     5
 72
     1
  1
\A1;440
  7
Abode ISO Bold
 73
     1
 44
1.0
  0
POINT
  5
55345
330
5533B
100
AcDbEntity
  8
DEFPOINTS
 62
     0
100
AcDbPoint
 10
30050.05844963872
 20
26105.64327418468
 30
0.0
  0
POINT
  5
55346
330
5533B
100
AcDbEntity
  8
DEFPOINTS
 62
     0
100
AcDbPoint
 10
30055.05844963872
 20
25665.64327418468
 30
0.0
  0
POINT
  5
55347
330
5533B
100
AcDbEntity
  8
DEFPOINTS
 62
     0
100
AcDbPoint
 10
30130.10223890413
 20
25665.64327418468
 30
0.0
  0
ENDBLK
  5
5533D
330
5533B
100
AcDbEntity
  8
0
100
AcDbBlockEnd
  0
BLOCK
  5
55349
330
55348
100
AcDbEntity
  8
0
100
AcDbBlockBegin
  2
*D23
 70
     1
 10
0.0
 20
0.0
 30
0.0
  3
*D23
  1

  0
LINE
  5
5534B
330
55348
100
AcDbEntity
  8
DIMS SPECS
100
AcDbLine
 10
30432.97088848503
 20
25694.64327418468
 30
0.0
 11
30432.97088848503
 21
25622.51289795785
 31
0.0
  0
LINE
  5
5534C
330
55348
100
AcDbEntity
  8
DIMS SPECS
100
AcDbLine
 10
30844.97088848505
 20
25694.64327418468
 30
0.0
 11
30844.97088848505
 21
25622.51289795785
 31
0.0
  0
LINE
  5
5534D
330
55348
100
AcDbEntity
  8
DIMS SPECS
100
AcDbLine
 10
30445.47088848503
 20
25622.51289795785
 30
0.0
 11
30832.47088848505
 21
25622.51289795785
 31
0.0
  0
INSERT
  5
5534E
330
55348
100
AcDbEntity
  8
DIMS SPECS
100
AcDbBlockReference
  2
FILLED-1
 10
30432.97088848503
 20
25622.51289795785
 30
0.0
 41
12.5
 42
12.5
 43
12.5
 50
180.0
  0
INSERT
  5
5534F
330
55348
100
AcDbEntity
  8
DIMS SPECS
100
AcDbBlockReference
  2
FILLED-1
 10
30844.97088848505
 20
25622.51289795785
 30
0.0
 41
12.5
 42
12.5
 43
12.5
  0
MTEXT
  5
55350
330
55348
100
AcDbEntity
  8
DIMS SPECS
100
AcDbMText
 10
30638.97088848504
 20
25638.72669809381
 30
0.0
 40
17.0
 41
0.0
 46
0.0
 71
     5
 72
     1
  1
\A1;412
  7
Abode ISO Bold
 73
     1
 44
1.0
  0
POINT
  5
55351
330
55348
100
AcDbEntity
  8
DEFPOINTS
 62
     0
100
AcDbPoint
 10
30432.97088848503
 20
25709.64327418468
 30
0.0
  0
POINT
  5
55352
330
55348
100
AcDbEntity
  8
DEFPOINTS
 62
     0
100
AcDbPoint
 10
30844.97088848505
 20
25709.64327418468
 30
0.0
  0
POINT
  5
55353
330
55348
100
AcDbEntity
  8
DEFPOINTS
 62
     0
100
AcDbPoint
 10
30844.97088848505
 20
25622.51289795785
 30
0.0
  0
ENDBLK
  5
5534A
330
55348
100
AcDbEntity
  8
0
100
AcDbBlockEnd
  0
BLOCK
  5
55355
330
55354
100
AcDbEntity
  8
0
100
AcDbBlockBegin
  2
*D24
 70
     1
 10
0.0
 20
0.0
 30
0.0
  3
*D24
  1

  0
LINE
  5
55357
330
55354
100
AcDbEntity
  8
DIMS SPECS
100
AcDbLine
 10
30843.97088848505
 20
25693.64327418468
 30
0.0
 11
30906.35255245028
 21
25693.64327418468
 31
0.0
  0
LINE
  5
55358
330
55354
100
AcDbEntity
  8
DIMS SPECS
100
AcDbLine
 10
30843.97088848505
 20
26105.6432741847
 30
0.0
 11
30906.35255245028
 21
26105.6432741847
 31
0.0
  0
LINE
  5
55359
330
55354
100
AcDbEntity
  8
DIMS SPECS
100
AcDbLine
 10
30906.35255245028
 20
25706.14327418468
 30
0.0
 11
30906.35255245028
 21
25883.42947404873
 31
0.0
  0
LINE
  5
5535A
330
55354
100
AcDbEntity
  8
DIMS SPECS
100
AcDbLine
 10
30906.35255245028
 20
26093.1432741847
 30
0.0
 11
30906.35255245028
 21
25915.85707432065
 31
0.0
  0
INSERT
  5
5535B
330
55354
100
AcDbEntity
  8
DIMS SPECS
100
AcDbBlockReference
  2
FILLED-1
 10
30906.35255245028
 20
25693.64327418468
 30
0.0
 41
12.5
 42
12.5
 43
12.5
 50
270.0
  0
INSERT
  5
5535C
330
55354
100
AcDbEntity
  8
DIMS SPECS
100
AcDbBlockReference
  2
FILLED-1
 10
30906.35255245028
 20
26105.6432741847
 30
0.0
 41
12.5
 42
12.5
 43
12.5
 50
90.0
  0
MTEXT
  5
5535D
330
55354
100
AcDbEntity
  8
DIMS SPECS
100
AcDbMText
 10
30906.35255245028
 20
25899.64327418469
 30
0.0
 40
17.0
 41
0.0
 46
0.0
 71
     5
 72
     1
  1
\A1;412
  7
Abode ISO Bold
 73
     1
 44
1.0
  0
POINT
  5
5535E
330
55354
100
AcDbEntity
  8
DEFPOINTS
 62
     0
100
AcDbPoint
 10
30828.97088848505
 20
25693.64327418468
 30
0.0
  0
POINT
  5
5535F
330
55354
100
AcDbEntity
  8
DEFPOINTS
 62
     0
100
AcDbPoint
 10
30828.97088848505
 20
26105.6432741847
 30
0.0
  0
POINT
  5
55360
330
55354
100
AcDbEntity
  8
DEFPOINTS
 62
     0
100
AcDbPoint
 10
30906.35255245028
 20
26105.6432741847
 30
0.0
  0
ENDBLK
  5
55356
330
55354
100
AcDbEntity
  8
0
100
AcDbBlockEnd
  0
BLOCK
  5
553E8
330
553E7
100
AcDbEntity
  8
0
100
AcDbBlockBegin
  2
*D26
 70
     1
 10
0.0
 20
0.0
 30
0.0
  3
*D26
  1

  0
LINE
  5
553E9
330
553E7
100
AcDbEntity
  8
DIMS SPECS
100
AcDbLine
 10
-42619.24671347371
 20
917.7664643043691
 30
0.0
 11
-42619.24671347371
 21
855.7994644141972
 31
0.0
  0
LINE
  5
553EA
330
553E7
100
AcDbEntity
  8
DIMS SPECS
100
AcDbLine
 10
-42044.24671347371
 20
922.7664643043853
 30
0.0
 11
-42044.24671347371
 21
855.7994644141972
 31
0.0
  0
LINE
  5
553EB
330
553E7
100
AcDbEntity
  8
DIMS SPECS
100
AcDbLine
 10
-42606.74671347372
 20
855.7994644141972
 30
0.0
 11
-42056.74671347371
 21
855.7994644141972
 31
0.0
  0
INSERT
  5
553EC
330
553E7
100
AcDbEntity
  8
DIMS SPECS
100
AcDbBlockReference
  2
FILLED-1
 10
-42619.24671347371
 20
855.7994644141972
 30
0.0
 41
12.5
 42
12.5
 43
12.5
 50
180.0
  0
INSERT
  5
553ED
330
553E7
100
AcDbEntity
  8
DIMS SPECS
100
AcDbBlockReference
  2
FILLED-1
 10
-42044.24671347371
 20
855.7994644141972
 30
0.0
 41
12.5
 42
12.5
 43
12.5
  0
MTEXT
  5
553EE
330
553E7
100
AcDbEntity
  8
DIMS SPECS
100
AcDbMText
 10
-42331.74671347372
 20
872.0132645501591
 30
0.0
 40
17.0
 41
0.0
 46
0.0
 71
     5
 72
     1
  1
\A1;575
  7
Abode ISO Bold
 73
     1
 44
1.0
  0
POINT
  5
553EF
330
553E7
100
AcDbEntity
  8
DEFPOINTS
 62
     0
100
AcDbPoint
 10
-42619.24671347371
 20
932.7664643043689
 30
0.0
  0
POINT
  5
553F0
330
553E7
100
AcDbEntity
  8
DEFPOINTS
 62
     0
100
AcDbPoint
 10
-42044.24671347371
 20
937.7664643043853
 30
0.0
  0
POINT
  5
553F1
330
553E7
100
AcDbEntity
  8
DEFPOINTS
 62
     0
100
AcDbPoint
 10
-42044.24671347371
 20
855.7994644141972
 30
0.0
  0
ENDBLK
  5
553F2
330
553E7
100
AcDbEntity
  8
0
100
AcDbBlockEnd
  0
BLOCK
  5
553F4
330
553F3
100
AcDbEntity
  8
0
100
AcDbBlockBegin
  2
*D27
 70
     1
 10
0.0
 20
0.0
 30
0.0
  3
*D27
  1

  0
LINE
  5
553F5
330
553F3
100
AcDbEntity
  8
DIMS SPECS
100
AcDbLine
 10
-42064.2467134737
 20
1342.766464304383
 30
0.0
 11
-42004.2029242083
 21
1342.766464304383
 31
0.0
  0
LINE
  5
553F6
330
553F3
100
AcDbEntity
  8
DIMS SPECS
100
AcDbLine
 10
-42064.24671347371
 20
902.7664643043854
 30
0.0
 11
-42004.2029242083
 21
902.7664643043854
 31
0.0
  0
LINE
  5
553F7
330
553F3
100
AcDbEntity
  8
DIMS SPECS
100
AcDbLine
 10
-42004.2029242083
 20
1330.266464304383
 30
0.0
 11
-42004.2029242083
 21
1139.194064576307
 31
0.0
  0
LINE
  5
553F8
330
553F3
100
AcDbEntity
  8
DIMS SPECS
100
AcDbLine
 10
-42004.2029242083
 20
915.2664643043854
 30
0.0
 11
-42004.2029242083
 21
1106.338864032459
 31
0.0
  0
INSERT
  5
553F9
330
553F3
100
AcDbEntity
  8
DIMS SPECS
100
AcDbBlockReference
  2
FILLED-1
 10
-42004.2029242083
 20
1342.766464304383
 30
0.0
 41
12.5
 42
12.5
 43
12.5
 50
90.0
  0
INSERT
  5
553FA
330
553F3
100
AcDbEntity
  8
DIMS SPECS
100
AcDbBlockReference
  2
FILLED-1
 10
-42004.2029242083
 20
902.7664643043854
 30
0.0
 41
12.5
 42
12.5
 43
12.5
 50
270.0
  0
MTEXT
  5
553FB
330
553F3
100
AcDbEntity
  8
DIMS SPECS
100
AcDbMText
 10
-42004.2029242083
 20
1122.766464304376
 30
0.0
 40
17.0
 41
0.0
 46
0.0
 71
     5
 72
     1
  1
\A1;440
  7
Abode ISO Bold
 73
     1
 44
1.0
  0
POINT
  5
553FC
330
553F3
100
AcDbEntity
  8
DEFPOINTS
 62
     0
100
AcDbPoint
 10
-42079.2467134737
 20
1342.766464304383
 30
0.0
  0
POINT
  5
553FD
330
553F3
100
AcDbEntity
  8
DEFPOINTS
 62
     0
100
AcDbPoint
 10
-42079.24671347371
 20
902.7664643043854
 30
0.0
  0
POINT
  5
553FE
330
553F3
100
AcDbEntity
  8
DEFPOINTS
 62
     0
100
AcDbPoint
 10
-42004.2029242083
 20
902.7664643043854
 30
0.0
  0
ENDBLK
  5
553FF
330
553F3
100
AcDbEntity
  8
0
100
AcDbBlockEnd
  0
BLOCK
  5
55401
330
55400
100
AcDbEntity
  8
0
100
AcDbBlockBegin
  2
*D28
 70
     1
 10
0.0
 20
0.0
 30
0.0
  3
*D28
  1

  0
LINE
  5
55402
330
55400
100
AcDbEntity
  8
DIMS SPECS
100
AcDbLine
 10
-41275.14905529124
 20
1343.016380440203
 30
0.0
 11
-41193.2627901298
 21
1343.016380440203
 31
0.0
  0
LINE
  5
55403
330
55400
100
AcDbEntity
  8
DIMS SPECS
100
AcDbLine
 10
-41275.14905529124
 20
930.5163804402027
 30
0.0
 11
-41193.2627901298
 21
930.5163804402026
 31
0.0
  0
LINE
  5
55404
330
55400
100
AcDbEntity
  8
DIMS SPECS
100
AcDbLine
 10
-41193.2627901298
 20
1330.516380440204
 30
0.0
 11
-41193.2627901298
 21
1153.193980712127
 31
0.0
  0
LINE
  5
55405
330
55400
100
AcDbEntity
  8
DIMS SPECS
100
AcDbLine
 10
-41193.2627901298
 20
943.0163804402026
 30
0.0
 11
-41193.2627901298
 21
1120.338780168279
 31
0.0
  0
INSERT
  5
55406
330
55400
100
AcDbEntity
  8
DIMS SPECS
100
AcDbBlockReference
  2
FILLED-1
 10
-41193.2627901298
 20
1343.016380440203
 30
0.0
 41
12.5
 42
12.5
 43
12.5
 50
90.0
  0
INSERT
  5
55407
330
55400
100
AcDbEntity
  8
DIMS SPECS
100
AcDbBlockReference
  2
FILLED-1
 10
-41193.2627901298
 20
930.5163804402026
 30
0.0
 41
12.5
 42
12.5
 43
12.5
 50
270.0
  0
MTEXT
  5
55408
330
55400
100
AcDbEntity
  8
DIMS SPECS
100
AcDbMText
 10
-41193.2627901298
 20
1136.766380440196
 30
0.0
 40
17.0
 41
0.0
 46
0.0
 71
     5
 72
     1
  1
\A1;412.5
  7
Abode ISO Bold
 73
     1
 44
1.0
  0
POINT
  5
55409
330
55400
100
AcDbEntity
  8
DEFPOINTS
 62
     0
100
AcDbPoint
 10
-41290.14905529123
 20
1343.016380440203
 30
0.0
  0
POINT
  5
5540A
330
55400
100
AcDbEntity
  8
DEFPOINTS
 62
     0
100
AcDbPoint
 10
-41290.14905529123
 20
930.5163804402027
 30
0.0
  0
POINT
  5
5540B
330
55400
100
AcDbEntity
  8
DEFPOINTS
 62
     0
100
AcDbPoint
 10
-41193.2627901298
 20
930.5163804402026
 30
0.0
  0
ENDBLK
  5
5540C
330
55400
100
AcDbEntity
  8
0
100
AcDbBlockEnd
  0
BLOCK
  5
5540E
330
5540D
100
AcDbEntity
  8
0
100
AcDbBlockBegin
  2
*D29
 70
     1
 10
0.0
 20
0.0
 30
0.0
  3
*D29
  1

  0
LINE
  5
5540F
330
5540D
100
AcDbEntity
  8
DIMS SPECS
100
AcDbLine
 10
-41821.64905529123
 20
931.5163804402036
 30
0.0
 11
-41821.64905529123
 21
860.839420145864
 31
0.0
  0
LINE
  5
55410
330
5540D
100
AcDbEntity
  8
DIMS SPECS
100
AcDbLine
 10
-41274.14905529122
 20
931.5163804402027
 30
0.0
 11
-41274.14905529122
 21
860.839420145864
 31
0.0
  0
LINE
  5
55411
330
5540D
100
AcDbEntity
  8
DIMS SPECS
100
AcDbLine
 10
-41809.14905529124
 20
860.839420145864
 30
0.0
 11
-41286.64905529123
 21
860.839420145864
 31
0.0
  0
INSERT
  5
55412
330
5540D
100
AcDbEntity
  8
DIMS SPECS
100
AcDbBlockReference
  2
FILLED-1
 10
-41821.64905529123
 20
860.839420145864
 30
0.0
 41
12.5
 42
12.5
 43
12.5
 50
180.0
  0
INSERT
  5
55413
330
5540D
100
AcDbEntity
  8
DIMS SPECS
100
AcDbBlockReference
  2
FILLED-1
 10
-41274.14905529122
 20
860.839420145864
 30
0.0
 41
12.5
 42
12.5
 43
12.5
  0
MTEXT
  5
55414
330
5540D
100
AcDbEntity
  8
DIMS SPECS
100
AcDbMText
 10
-41547.89905529122
 20
877.2670204177879
 30
0.0
 40
17.0
 41
0.0
 46
0.0
 71
     5
 72
     1
  1
\A1;547.5
  7
Abode ISO Bold
 73
     1
 44
1.0
  0
POINT
  5
55415
330
5540D
100
AcDbEntity
  8
DEFPOINTS
 62
     0
100
AcDbPoint
 10
-41821.64905529123
 20
946.5163804402036
 30
0.0
  0
POINT
  5
55416
330
5540D
100
AcDbEntity
  8
DEFPOINTS
 62
     0
100
AcDbPoint
 10
-41274.14905529122
 20
946.5163804402028
 30
0.0
  0
POINT
  5
55417
330
5540D
100
AcDbEntity
  8
DEFPOINTS
 62
     0
100
AcDbPoint
 10
-41274.14905529122
 20
860.839420145864
 30
0.0
  0
ENDBLK
  5
55418
330
5540D
100
AcDbEntity
  8
0
100
AcDbBlockEnd
  0
BLOCK
  5
5541A
330
55419
100
AcDbEntity
  8
0
100
AcDbBlockBegin
  2
*D30
 70
     1
 10
0.0
 20
0.0
 30
0.0
  3
*D30
  1

  0
LINE
  5
5541B
330
55419
100
AcDbEntity
  8
DIMS SPECS
100
AcDbLine
 10
-41177.6113127019
 20
867.5809202383534
 30
0.0
 11
-41218.10356287185
 21
867.5809202383534
 31
0.0
  0
LINE
  5
5541C
330
55419
100
AcDbEntity
  8
DIMS SPECS
100
AcDbLine
 10
-41218.10356287185
 20
867.5809202383534
 30
0.0
 11
-41270.93616218645
 21
925.4660897404429
 31
0.0
  0
MTEXT
  5
5541D
330
55419
100
AcDbEntity
  8
DIMS SPECS
100
AcDbMText
 10
-41194.10743778686
 20
884.0085205102774
 30
0.0
 40
17.0
 41
0.0
 46
0.0
 71
     5
 72
     1
  1
\A1;R16
  7
Abode ISO Bold
 73
     1
 44
1.0
  0
LINE
  5
5541E
330
55419
100
AcDbEntity
  8
DIMS SPECS
100
AcDbLine
 10
-41290.14905529123
 20
946.5163804401999
 30
0.0
 11
-41279.36286968854
 21
934.6986733806879
 31
0.0
  0
INSERT
  5
5541F
330
55419
100
AcDbEntity
  8
DIMS SPECS
100
AcDbBlockReference
  2
FILLED-1
 10
-41279.36286968854
 20
934.6986733806879
 30
0.0
 41
12.5
 42
12.5
 43
12.5
 50
132.3871380903699
  0
POINT
  5
55420
330
55419
100
AcDbEntity
  8
DEFPOINTS
 62
     0
100
AcDbPoint
 10
-41279.36286968854
 20
934.6986733806879
 30
0.0
  0
POINT
  5
55421
330
55419
100
AcDbEntity
  8
DEFPOINTS
 62
     0
100
AcDbPoint
 10
-41290.14905529123
 20
946.5163804401999
 30
0.0
  0
ENDBLK
  5
55422
330
55419
100
AcDbEntity
  8
0
100
AcDbBlockEnd
  0
BLOCK
  5
55424
330
55423
100
AcDbEntity
  8
0
100
AcDbBlockBegin
  2
*D31
 70
     1
 10
0.0
 20
0.0
 30
0.0
  3
*D31
  1

  0
LINE
  5
55425
330
55423
100
AcDbEntity
  8
DIMS SPECS
100
AcDbLine
 10
-41951.91734252916
 20
843.4129117369447
 30
0.0
 11
-41993.09606448704
 21
843.4129117369412
 31
0.0
  0
LINE
  5
55426
330
55423
100
AcDbEntity
  8
DIMS SPECS
100
AcDbLine
 10
-41993.09606448704
 20
843.4129117369412
 30
0.0
 11
-42045.67351720972
 21
901.3050203569219
 31
0.0
  0
MTEXT
  5
55427
330
55423
100
AcDbEntity
  8
DIMS SPECS
100
AcDbMText
 10
-41968.75670350809
 20
859.8405120088651
 30
0.0
 40
17.0
 41
0.0
 46
0.0
 71
     5
 72
     1
  1
\A1;R30
  7
Abode ISO Bold
 73
     1
 44
1.0
  0
LINE
  5
55428
330
55423
100
AcDbEntity
  8
DIMS SPECS
100
AcDbLine
 10
-42074.24671347372
 20
932.7664643043826
 30
0.0
 11
-42054.07739846384
 21
910.5583862238235
 31
0.0
  0
INSERT
  5
55429
330
55423
100
AcDbEntity
  8
DIMS SPECS
100
AcDbBlockReference
  2
FILLED-1
 10
-42054.07739846384
 20
910.5583862238235
 30
0.0
 41
12.5
 42
12.5
 43
12.5
 50
132.2456417602734
  0
POINT
  5
5542A
330
55423
100
AcDbEntity
  8
DEFPOINTS
 62
     0
100
AcDbPoint
 10
-42054.07739846384
 20
910.5583862238235
 30
0.0
  0
POINT
  5
5542B
330
55423
100
AcDbEntity
  8
DEFPOINTS
 62
     0
100
AcDbPoint
 10
-42074.24671347372
 20
932.7664643043826
 30
0.0
  0
ENDBLK
  5
5542C
330
55423
100
AcDbEntity
  8
0
100
AcDbBlockEnd
  0
BLOCK
  5
554C4
330
554C3
100
AcDbEntity
  8
0
100
AcDbBlockBegin
  2
*D33
 70
     1
 10
0.0
 20
0.0
 30
0.0
  3
*D33
  1

  0
LINE
  5
554C6
330
554C3
100
AcDbEntity
  8
DIMS SPECS
100
AcDbLine
 10
30171.95050664209
 20
26123.22690865626
 30
0.0
 11
30231.9942959075
 21
26123.22690865626
 31
0.0
  0
LINE
  5
554C7
330
554C3
100
AcDbEntity
  8
DIMS SPECS
100
AcDbLine
 10
30171.95050664208
 20
25683.22690865626
 30
0.0
 11
30231.9942959075
 21
25683.22690865626
 31
0.0
  0
LINE
  5
554C8
330
554C3
100
AcDbEntity
  8
DIMS SPECS
100
AcDbLine
 10
30231.9942959075
 20
26110.72690865626
 30
0.0
 11
30231.9942959075
 21
25919.65450892817
 31
0.0
  0
LINE
  5
554C9
330
554C3
100
AcDbEntity
  8
DIMS SPECS
100
AcDbLine
 10
30231.9942959075
 20
25695.72690865626
 30
0.0
 11
30231.9942959075
 21
25886.79930838432
 31
0.0
  0
INSERT
  5
554CA
330
554C3
100
AcDbEntity
  8
DIMS SPECS
100
AcDbBlockReference
  2
FILLED-1
 10
30231.9942959075
 20
26123.22690865626
 30
0.0
 41
12.5
 42
12.5
 43
12.5
 50
90.0
  0
INSERT
  5
554CB
330
554C3
100
AcDbEntity
  8
DIMS SPECS
100
AcDbBlockReference
  2
FILLED-1
 10
30231.9942959075
 20
25683.22690865626
 30
0.0
 41
12.5
 42
12.5
 43
12.5
 50
270.0
  0
MTEXT
  5
554CC
330
554C3
100
AcDbEntity
  8
DIMS SPECS
100
AcDbMText
 10
30231.99429590749
 20
25903.22690865625
 30
0.0
 40
17.0
 41
0.0
 46
0.0
 71
     5
 72
     1
  1
\A1;440
  7
Abode ISO Bold
 73
     1
 44
1.0
  0
POINT
  5
554CD
330
554C3
100
AcDbEntity
  8
DEFPOINTS
 62
     0
100
AcDbPoint
 10
30156.95050664209
 20
26123.22690865626
 30
0.0
  0
POINT
  5
554CE
330
554C3
100
AcDbEntity
  8
DEFPOINTS
 62
     0
100
AcDbPoint
 10
30156.95050664208
 20
25683.22690865626
 30
0.0
  0
POINT
  5
554CF
330
554C3
100
AcDbEntity
  8
DEFPOINTS
 62
     0
100
AcDbPoint
 10
30231.9942959075
 20
25683.22690865626
 30
0.0
  0
ENDBLK
  5
554C5
330
554C3
100
AcDbEntity
  8
0
100
AcDbBlockEnd
  0
BLOCK
  5
554D1
330
554D0
100
AcDbEntity
  8
0
100
AcDbBlockBegin
  2
*D34
 70
     1
 10
0.0
 20
0.0
 30
0.0
  3
*D34
  1

  0
LINE
  5
554D3
330
554D0
100
AcDbEntity
  8
DIMS SPECS
100
AcDbLine
 10
30961.04816482456
 20
26123.47682479208
 30
0.0
 11
31042.934429986
 21
26123.47682479208
 31
0.0
  0
LINE
  5
554D4
330
554D0
100
AcDbEntity
  8
DIMS SPECS
100
AcDbLine
 10
30961.04816482456
 20
25710.97682479208
 30
0.0
 11
31042.934429986
 21
25710.97682479208
 31
0.0
  0
LINE
  5
554D5
330
554D0
100
AcDbEntity
  8
DIMS SPECS
100
AcDbLine
 10
31042.934429986
 20
26110.97682479208
 30
0.0
 11
31042.934429986
 21
25933.654425064
 31
0.0
  0
LINE
  5
554D6
330
554D0
100
AcDbEntity
  8
DIMS SPECS
100
AcDbLine
 10
31042.934429986
 20
25723.47682479208
 30
0.0
 11
31042.934429986
 21
25900.79922452016
 31
0.0
  0
INSERT
  5
554D7
330
554D0
100
AcDbEntity
  8
DIMS SPECS
100
AcDbBlockReference
  2
FILLED-1
 10
31042.934429986
 20
26123.47682479208
 30
0.0
 41
12.5
 42
12.5
 43
12.5
 50
90.0
  0
INSERT
  5
554D8
330
554D0
100
AcDbEntity
  8
DIMS SPECS
100
AcDbBlockReference
  2
FILLED-1
 10
31042.934429986
 20
25710.97682479208
 30
0.0
 41
12.5
 42
12.5
 43
12.5
 50
270.0
  0
MTEXT
  5
554D9
330
554D0
100
AcDbEntity
  8
DIMS SPECS
100
AcDbMText
 10
31042.93442998599
 20
25917.22682479209
 30
0.0
 40
17.0
 41
0.0
 46
0.0
 71
     5
 72
     1
  1
\A1;412.5
  7
Abode ISO Bold
 73
     1
 44
1.0
  0
POINT
  5
554DA
330
554D0
100
AcDbEntity
  8
DEFPOINTS
 62
     0
100
AcDbPoint
 10
30946.04816482456
 20
26123.47682479208
 30
0.0
  0
POINT
  5
554DB
330
554D0
100
AcDbEntity
  8
DEFPOINTS
 62
     0
100
AcDbPoint
 10
30946.04816482456
 20
25710.97682479208
 30
0.0
  0
POINT
  5
554DC
330
554D0
100
AcDbEntity
  8
DEFPOINTS
 62
     0
100
AcDbPoint
 10
31042.934429986
 20
25710.97682479208
 30
0.0
  0
ENDBLK
  5
554D2
330
554D0
100
AcDbEntity
  8
0
100
AcDbBlockEnd
  0
BLOCK
  5
554DE
330
554DD
100
AcDbEntity
  8
0
100
AcDbBlockBegin
  2
*D35
 70
     1
 10
0.0
 20
0.0
 30
0.0
  3
*D35
  1

  0
LINE
  5
554E0
330
554DD
100
AcDbEntity
  8
DIMS SPECS
100
AcDbLine
 10
30414.54816482456
 20
25711.97682479208
 30
0.0
 11
30414.54816482456
 21
25641.29986449774
 31
0.0
  0
LINE
  5
554E1
330
554DD
100
AcDbEntity
  8
DIMS SPECS
100
AcDbLine
 10
30962.04816482457
 20
25711.97682479208
 30
0.0
 11
30962.04816482457
 21
25641.29986449774
 31
0.0
  0
LINE
  5
554E2
330
554DD
100
AcDbEntity
  8
DIMS SPECS
100
AcDbLine
 10
30427.04816482456
 20
25641.29986449774
 30
0.0
 11
30949.54816482457
 21
25641.29986449774
 31
0.0
  0
INSERT
  5
554E3
330
554DD
100
AcDbEntity
  8
DIMS SPECS
100
AcDbBlockReference
  2
FILLED-1
 10
30414.54816482456
 20
25641.29986449774
 30
0.0
 41
12.5
 42
12.5
 43
12.5
 50
180.0
  0
INSERT
  5
554E4
330
554DD
100
AcDbEntity
  8
DIMS SPECS
100
AcDbBlockReference
  2
FILLED-1
 10
30962.04816482457
 20
25641.29986449774
 30
0.0
 41
12.5
 42
12.5
 43
12.5
  0
MTEXT
  5
554E5
330
554DD
100
AcDbEntity
  8
DIMS SPECS
100
AcDbMText
 10
30688.29816482457
 20
25657.72746476966
 30
0.0
 40
17.0
 41
0.0
 46
0.0
 71
     5
 72
     1
  1
\A1;547.5
  7
Abode ISO Bold
 73
     1
 44
1.0
  0
POINT
  5
554E6
330
554DD
100
AcDbEntity
  8
DEFPOINTS
 62
     0
100
AcDbPoint
 10
30414.54816482456
 20
25726.97682479208
 30
0.0
  0
POINT
  5
554E7
330
554DD
100
AcDbEntity
  8
DEFPOINTS
 62
     0
100
AcDbPoint
 10
30962.04816482457
 20
25726.97682479208
 30
0.0
  0
POINT
  5
554E8
330
554DD
100
AcDbEntity
  8
DEFPOINTS
 62
     0
100
AcDbPoint
 10
30962.04816482457
 20
25641.29986449774
 30
0.0
  0
ENDBLK
  5
554DF
330
554DD
100
AcDbEntity
  8
0
100
AcDbBlockEnd
  0
BLOCK
  5
554EA
330
554E9
100
AcDbEntity
  8
0
100
AcDbBlockBegin
  2
*D36
 70
     1
 10
0.0
 20
0.0
 30
0.0
  3
*D36
  1

  0
LINE
  5
55509
330
554E9
100
AcDbEntity
  8
DIMS SPECS
100
AcDbLine
 10
31058.58590741397
 20
25648.04136459023
 30
0.0
 11
31018.09365724402
 21
25648.04136459023
 31
0.0
  0
LINE
  5
5550A
330
554E9
100
AcDbEntity
  8
DIMS SPECS
100
AcDbLine
 10
31018.09365724402
 20
25648.04136459023
 30
0.0
 11
30965.26105792936
 21
25705.92653409233
 31
0.0
  0
MTEXT
  5
5550B
330
554E9
100
AcDbEntity
  8
DIMS SPECS
100
AcDbMText
 10
31042.08978232899
 20
25664.46896486215
 30
0.0
 40
17.0
 41
0.0
 46
0.0
 71
     5
 72
     1
  1
\A1;R16
  7
Abode ISO Bold
 73
     1
 44
1.0
  0
LINE
  5
5550C
330
554E9
100
AcDbEntity
  8
DIMS SPECS
100
AcDbLine
 10
30946.04816482457
 20
25726.97682479208
 30
0.0
 11
30956.83435042726
 21
25715.15911773257
 31
0.0
  0
INSERT
  5
5550D
330
554E9
100
AcDbEntity
  8
DIMS SPECS
100
AcDbBlockReference
  2
FILLED-1
 10
30956.83435042726
 20
25715.15911773257
 30
0.0
 41
12.5
 42
12.5
 43
12.5
 50
132.3871380903892
  0
POINT
  5
5550E
330
554E9
100
AcDbEntity
  8
DEFPOINTS
 62
     0
100
AcDbPoint
 10
30956.83435042726
 20
25715.15911773257
 30
0.0
  0
POINT
  5
5550F
330
554E9
100
AcDbEntity
  8
DEFPOINTS
 62
     0
100
AcDbPoint
 10
30946.04816482457
 20
25726.97682479208
 30
0.0
  0
ENDBLK
  5
554EB
330
554E9
100
AcDbEntity
  8
0
100
AcDbBlockEnd
  0
BLOCK
  5
554F4
330
554F3
100
AcDbEntity
  8
0
100
AcDbBlockBegin
  2
*D37
 70
     1
 10
0.0
 20
0.0
 30
0.0
  3
*D37
  1

  0
LINE
  5
55510
330
554F3
100
AcDbEntity
  8
DIMS SPECS
100
AcDbLine
 10
30284.27987758663
 20
25623.87335608881
 30
0.0
 11
30243.10115562878
 21
25623.87335608881
 31
0.0
  0
LINE
  5
55511
330
554F3
100
AcDbEntity
  8
DIMS SPECS
100
AcDbLine
 10
30243.10115562878
 20
25623.87335608881
 30
0.0
 11
30190.52370290607
 21
25681.7654647088
 31
0.0
  0
MTEXT
  5
55512
330
554F3
100
AcDbEntity
  8
DIMS SPECS
100
AcDbMText
 10
30267.4405166077
 20
25640.30095636073
 30
0.0
 40
17.0
 41
0.0
 46
0.0
 71
     5
 72
     1
  1
\A1;R30
  7
Abode ISO Bold
 73
     1
 44
1.0
  0
LINE
  5
55513
330
554F3
100
AcDbEntity
  8
DIMS SPECS
100
AcDbLine
 10
30161.95050664207
 20
25713.22690865626
 30
0.0
 11
30182.11982165195
 21
25691.0188305757
 31
0.0
  0
INSERT
  5
55514
330
554F3
100
AcDbEntity
  8
DIMS SPECS
100
AcDbBlockReference
  2
FILLED-1
 10
30182.11982165195
 20
25691.0188305757
 30
0.0
 41
12.5
 42
12.5
 43
12.5
 50
132.2456417602781
  0
POINT
  5
55515
330
554F3
100
AcDbEntity
  8
DEFPOINTS
 62
     0
100
AcDbPoint
 10
30182.11982165195
 20
25691.0188305757
 30
0.0
  0
POINT
  5
55516
330
554F3
100
AcDbEntity
  8
DEFPOINTS
 62
     0
100
AcDbPoint
 10
30161.95050664207
 20
25713.22690865626
 30
0.0
  0
ENDBLK
  5
554F5
330
554F3
100
AcDbEntity
  8
0
100
AcDbBlockEnd
  0
BLOCK
  5
554FE
330
554FD
100
AcDbEntity
  8
0
100
AcDbBlockBegin
  2
*D38
 70
     1
 10
0.0
 20
0.0
 30
0.0
  3
*D38
  1

  0
LINE
  5
55500
330
554FD
100
AcDbEntity
  8
DIMS SPECS
100
AcDbLine
 10
29616.95050664209
 20
25698.22690865624
 30
0.0
 11
29616.95050664209
 21
25636.25990876607
 31
0.0
  0
LINE
  5
55501
330
554FD
100
AcDbEntity
  8
DIMS SPECS
100
AcDbLine
 10
30191.95050664208
 20
25703.22690865626
 30
0.0
 11
30191.95050664208
 21
25636.25990876607
 31
0.0
  0
LINE
  5
55502
330
554FD
100
AcDbEntity
  8
DIMS SPECS
100
AcDbLine
 10
29629.45050664208
 20
25636.25990876607
 30
0.0
 11
30179.45050664208
 21
25636.25990876607
 31
0.0
  0
INSERT
  5
55503
330
554FD
100
AcDbEntity
  8
DIMS SPECS
100
AcDbBlockReference
  2
FILLED-1
 10
29616.95050664209
 20
25636.25990876607
 30
0.0
 41
12.5
 42
12.5
 43
12.5
 50
180.0
  0
INSERT
  5
55504
330
554FD
100
AcDbEntity
  8
DIMS SPECS
100
AcDbBlockReference
  2
FILLED-1
 10
30191.95050664208
 20
25636.25990876607
 30
0.0
 41
12.5
 42
12.5
 43
12.5
  0
MTEXT
  5
55505
330
554FD
100
AcDbEntity
  8
DIMS SPECS
100
AcDbMText
 10
29904.45050664208
 20
25652.47370890204
 30
0.0
 40
17.0
 41
0.0
 46
0.0
 71
     5
 72
     1
  1
\A1;575
  7
Abode ISO Bold
 73
     1
 44
1.0
  0
POINT
  5
55506
330
554FD
100
AcDbEntity
  8
DEFPOINTS
 62
     0
100
AcDbPoint
 10
29616.95050664209
 20
25713.22690865625
 30
0.0
  0
POINT
  5
55507
330
554FD
100
AcDbEntity
  8
DEFPOINTS
 62
     0
100
AcDbPoint
 10
30191.95050664208
 20
25718.22690865626
 30
0.0
  0
POINT
  5
55508
330
554FD
100
AcDbEntity
  8
DEFPOINTS
 62
     0
100
AcDbPoint
 10
30191.95050664208
 20
25636.25990876607
 30
0.0
  0
ENDBLK
  5
554FF
330
554FD
100
AcDbEntity
  8
0
100
AcDbBlockEnd
  0
ENDSEC
  0
SECTION
  2
ENTITIES
  0
TEXT
  5
4EFD5
330
52C18
100
AcDbEntity
  8
LAYER1
100
AcDbText
 10
29536.60103082985
 20
26533.84198875161
 30
0.0
 40
150.0
  1
AW1031
100
AcDbText
  0
INSERT
  5
4EFE9
330
52C18
100
AcDbEntity
  8
0
100
AcDbBlockReference
  2
*U1
 10
0.0
 20
0.0
 30
0.0
  0
TEXT
  5
4EFEA
330
52C18
100
AcDbEntity
  8
LAYER1
100
AcDbText
 10
29141.6042719676
 20
25696.20060721863
 30
0.0
 40
30.0
  1
file version 1
100
AcDbText
  0
LINE
  5
55488
330
52C18
100
AcDbEntity
  8
CUTOUT
100
AcDbLine
 10
30191.95050664202
 20
26093.22690865627
 30
0.0
 11
30191.95050664208
 21
25713.22690865627
 31
0.0
  0
ARC
  5
55489
330
52C18
100
AcDbEntity
  8
CUTOUT
100
AcDbCircle
 10
30161.95050664203
 20
26093.22690865626
 30
0.0
 40
30.0
100
AcDbArc
 50
0.0
 51
90.0
  0
LINE
  5
5548A
102
{ACAD_REACTORS
330
554AA
102
}
330
52C18
100
AcDbEntity
  8
CUTOUT
100
AcDbLine
 10
29616.95050664197
 20
26093.22690865625
 30
0.0
 11
29616.95050664209
 21
25713.22690865625
 31
0.0
  0
ARC
  5
5548B
330
52C18
100
AcDbEntity
  8
CUTOUT
100
AcDbCircle
 10
29646.95050664208
 20
25713.22690865625
 30
0.0
 40
30.0
100
AcDbArc
 50
180.0
 51
270.0
  0
LINE
  5
5548C
330
52C18
100
AcDbEntity
  8
CUTOUT
100
AcDbLine
 10
29646.95050664197
 20
26123.22690865626
 30
0.0
 11
30161.95050664203
 21
26123.22690865626
 31
0.0
  0
ARC
  5
5548D
330
52C18
100
AcDbEntity
  8
CUTOUT
100
AcDbCircle
 10
29646.95050664197
 20
26093.22690865627
 30
0.0
 40
30.0
100
AcDbArc
 50
90.0
 51
180.0
  0
LINE
  5
5548E
330
52C18
100
AcDbEntity
  8
CUTOUT
100
AcDbLine
 10
29646.95050664208
 20
25683.22690865626
 30
0.0
 11
30161.95050664208
 21
25683.22690865626
 31
0.0
  0
ARC
  5
5548F
102
{ACAD_REACTORS
330
554C2
102
}
330
52C18
100
AcDbEntity
  8
CUTOUT
100
AcDbCircle
 10
30161.95050664208
 20
25713.22690865626
 30
0.0
 40
30.0
100
AcDbArc
 50
270.0
 51
0.0
  0
MTEXT
  5
55490
102
{ACAD_XDICTIONARY
360
5551D
102
}
330
52C18
100
AcDbEntity
  8
CUTOUT
100
AcDbMText
 10
29621.49264274605
 20
26181.89452933791
 30
0.0
 40
40.0
 41
559.4757407245924
 46
0.0
 71
     1
 72
     5
  1
\pi107.74;INSET CUT OUT
 73
     1
 44
1.0
  0
LINE
  5
55491
330
52C18
100
AcDbEntity
  8
CUTOUT
100
AcDbLine
 10
29835.30643002407
 20
26059.28700553797
 30
0.0
 11
29789.43764782016
 21
26059.28700553797
 31
0.0
  0
ARC
  5
55492
330
52C18
100
AcDbEntity
  8
CUTOUT
100
AcDbCircle
 10
29789.43764782016
 20
26056.28700553797
 30
0.0
 40
3.0
100
AcDbArc
 50
90.0
 51
177.999999999996
  0
HATCH
  5
55493
330
52C18
100
AcDbEntity
  8
CUTOUT
100
AcDbHatch
 10
0.0
 20
0.0
 30
0.0
210
0.0
220
0.0
230
1.0
  2
AR-CONC
 70
     0
 71
     0
 91
        1
 92
        7
 72
     0
 73
     1
 93
        7
 10
30073.22317987491
 20
26047.44808782768
 10
29821.85846178662
 20
26047.44808782768
 10
29813.78248690811
 20
26047.44808782768
 10
29813.78248690811
 20
26025.59848018517
 10
29841.86183497621
 20
26025.59848018517
 10
29841.86183497616
 20
25995.45172678787
 10
30073.22317987491
 20
25995.45172678787
 97
        0
 75
     0
 76
     1
 52
90.0
 41
0.1
 77
     0
 78
    13
 53
140.0
 43
-42985.37454407024
 44
24899.89650692444
 45
1.593908553890309
 46
18.2184668996004
 79
     2
 49
1.905
 49
-20.955
 53
85.00000000000001
 43
-42985.37454407024
 44
24899.89650692444
 45
-19.105664288218
 46
-3.524282597566697
 79
     2
 49
1.524
 49
-16.764
 53
190.451
 43
-42985.24171907023
 44
24901.41470692444
 45
-17.51166878202919
 46
14.69425016659593
 79
     2
 49
1.619
 49
-17.809
 53
136.1842
 43
-42990.45454407026
 44
24899.89650692444
 45
4.204232793272717
 46
27.107904089213
 79
     2
 49
2.857499999999992
 49
-31.43249999999994
 53
186.6356
 43
-42990.10419407023
 44
24902.15549692444
 45
-24.74255558900492
 46
23.74042344662372
 79
     2
 49
2.4285
 49
-26.7135
 53
81.18400000000004
 43
-42990.45454407026
 44
24899.89650692444
 45
-24.74251178605977
 46
23.74046058139339
 79
     2
 49
2.286
 49
-25.146
 53
110.9999999999999
 43
-42989.18454407023
 44
24902.43650692444
 45
10.22655185167625
 46
15.16148798353833
 79
     2
 49
1.905
 49
-20.955
 53
56.00000000000004
 43
-42989.18454407023
 44
24902.43650692444
 45
-18.41879661223192
 46
6.180202834764708
 79
     2
 49
1.524
 49
-16.764
 53
161.4514
 43
-42988.33233407025
 44
24903.69995692444
 45
-8.192285771605742
 46
21.34164907701245
 79
     2
 49
1.618999999999995
 49
-17.80899999999992
 53
127.5
 43
-42985.37454407024
 44
24899.89650692444
 45
-8.455503887315311
 46
0.3088603250591822
 79
     6
 49
0.0
 49
-16.5608
 49
0.0
 49
-17.018
 49
0.0
 49
-16.8275
 53
97.49999999999992
 43
-42985.37454407024
 44
24899.89650692444
 45
-10.01805748181195
 46
6.681966251030575
 79
     6
 49
0.0
 49
-9.702799999999999
 49
0.0
 49
-16.1798
 49
0.0
 49
-6.4135
 53
57.5
 43
-42985.37454407024
 44
24894.23230692444
 45
0.5728743992673467
 46
13.55905951668714
 79
     6
 49
0.0
 49
-6.349999999999985
 49
0.0
 49
-19.81199999999994
 49
0.0
 49
-26.28899999999994
 53
47.5
 43
-42985.37454407024
 44
24891.69230692444
 45
-2.5426491033333
 46
14.8129181386018
 79
     6
 49
0.0
 49
-8.255
 49
0.0
 49
-13.1572
 49
0.0
 49
-18.669
 47
0.3122644202141311
 98
        1
 10
29868.94355350788
 20
26030.68801916498
1001
ACAD
1010
0.0
1020
0.0
1030
0.0
  0
LINE
  5
55494
330
52C18
100
AcDbEntity
  8
CUTOUT
100
AcDbLine
 10
29886.79389767148
 20
26047.44808782768
 30
0.0
 11
29799.82683860537
 21
26047.44808782768
 31
0.0
  0
ARC
  5
55495
330
52C18
100
AcDbEntity
  8
CUTOUT
100
AcDbCircle
 10
29799.82683860537
 20
26044.44808782768
 30
0.0
 40
3.0
100
AcDbArc
 50
90.0
 51
177.999999999996
  0
LINE
  5
55496
330
52C18
100
AcDbEntity
  8
CUTOUT
100
AcDbLine
 10
29786.43947533911
 20
26056.39170402808
 30
0.0
 11
29778.43777022222
 21
25827.25284960748
 31
0.0
  0
LINE
  5
55497
330
52C18
100
AcDbEntity
  8
CUTOUT
100
AcDbLine
 10
29796.82866612432
 20
26044.55278631779
 30
0.0
 11
29789.04465892984
 21
25821.64798474134
 31
0.0
  0
LINE
  5
55498
330
52C18
100
AcDbEntity
  8
CUTOUT
100
AcDbLine
 10
29821.85846178662
 20
26047.44808782768
 30
0.0
 11
30073.22317987491
 21
26047.44808782768
 31
0.0
  0
LINE
  5
55499
330
52C18
100
AcDbEntity
  8
CUTOUT
100
AcDbLine
 10
30073.22317987491
 20
26047.44808782768
 30
0.0
 11
30073.22317987491
 21
25995.45172678787
 31
0.0
  0
LINE
  5
5549A
330
52C18
100
AcDbEntity
  8
CUTOUT
100
AcDbLine
 10
29841.86183497621
 20
26025.59848018517
 30
0.0
 11
29841.86183497616
 21
25995.45172678787
 31
0.0
  0
LINE
  5
5549B
330
52C18
100
AcDbEntity
  8
CUTOUT
100
AcDbLine
 10
29796.0131391804
 20
26021.19915019299
 30
0.0
 11
29809.39209836544
 21
26020.73194664325
 31
0.0
  0
LINE
  5
5549C
330
52C18
100
AcDbEntity
  8
CUTOUT
100
AcDbLine
 10
29809.39209836544
 20
26020.73194664325
 30
0.0
 11
29835.61517070219
 21
25996.71466938735
 31
0.0
  0
LINE
  5
5549D
330
52C18
100
AcDbEntity
  8
CUTOUT
100
AcDbLine
 10
29835.61517070219
 20
25996.71466938735
 30
0.0
 11
29830.74847607469
 21
25857.35076938347
 31
0.0
  0
LINE
  5
5549E
330
52C18
100
AcDbEntity
  8
CUTOUT
100
AcDbLine
 10
29793.79202735203
 20
25957.59482930642
 30
0.0
 11
29802.06249622666
 21
25957.30601816926
 31
0.0
  0
LINE
  5
5549F
330
52C18
100
AcDbEntity
  8
CUTOUT
100
AcDbLine
 10
29802.06249622666
 20
25957.30601816926
 30
0.0
 11
29798.61117218548
 21
25858.47302876467
 31
0.0
  0
LINE
  5
554A0
330
52C18
100
AcDbEntity
  8
CUTOUT
100
AcDbLine
 10
29798.61117218548
 20
25858.47302876467
 30
0.0
 11
29830.74847607469
 21
25857.35076938347
 31
0.0
  0
LINE
  5
554A1
330
52C18
100
AcDbEntity
  8
CUTOUT
100
AcDbLine
 10
29841.86183497621
 20
26025.59848018517
 30
0.0
 11
29813.78248690811
 21
26025.59848018517
 31
0.0
  0
LINE
  5
554A2
330
52C18
100
AcDbEntity
  8
CUTOUT
100
AcDbLine
 10
29813.78248690811
 20
26025.59848018517
 30
0.0
 11
29813.78248690811
 21
26047.44808782768
 31
0.0
  0
LINE
  5
554A3
330
52C18
100
AcDbEntity
  8
CUTOUT
100
AcDbLine
 10
29841.86183497621
 20
25995.45172678787
 30
0.0
 11
30073.22317987497
 21
25995.45172678787
 31
0.0
  0
CIRCLE
  5
554A4
330
52C18
100
AcDbEntity
  8
CUTOUT
  6
ACAD_ISO02W100
100
AcDbCircle
 10
29826.04097135019
 20
26025.32359510197
 30
0.0
 40
63.83570044388761
  0
MTEXT
  5
554A5
330
52C18
100
AcDbEntity
  8
sink_specs
100
AcDbMText
 10
29876.88503306484
 20
25961.95721167983
 30
0.0
 40
15.0
 41
166.7242912100046
 46
145.0102818696341
 71
     1
 72
     5
  1
TO INSET FIT; YOU MAY NEED TO CREATE A NOTCH IN THE UNDERSIDE OF THE WORKTOP TO ALLOW CLEARANCE FOR THE OVERFLOW BODY
  7
ACISOTS
 73
     1
 44
1.0
  0
LINE
  5
554A6
330
52C18
100
AcDbEntity
  8
CUTOUT
100
AcDbLine
 10
29835.30643002407
 20
26047.44808782768
 30
0.0
 11
29835.30643002407
 21
26059.28700553797
 31
0.0
  0
SPLINE
  5
554A7
330
52C18
100
AcDbEntity
  8
CUTOUT
100
AcDbSpline
210
0.0
220
0.0
230
1.0
 70
     8
 71
     3
 72
    10
 73
     6
 74
     4
 42
0.0000000001
 43
0.0000000001
 44
0.0000000001
 40
0.0
 40
0.0
 40
0.0
 40
0.0
 40
10.23812699803227
 40
23.41939586236545
 40
46.40703870097612
 40
46.40703870097612
 40
46.40703870097612
 40
46.40703870097612
 10
29763.84687183457
 20
25825.23919411761
 30
0.0
 10
29766.87013768984
 20
25827.82251457401
 30
0.0
 10
29773.78576394408
 20
25833.73177946393
 30
0.0
 10
29786.08307797347
 20
25816.92839269365
 30
0.0
 10
29798.48862075305
 20
25823.53816296954
 30
0.0
 10
29806.37313187626
 20
25827.73909219835
 30
0.0
 11
29763.84687183457
 21
25825.23919411761
 31
0.0
 11
29772.78102435338
 21
25830.23921043743
 31
0.0
 11
29783.85920138107
 21
25823.09639288293
 31
0.0
 11
29806.37313187626
 21
25827.73909219835
 31
0.0
  0
DIMENSION
  5
554A8
102
{ACAD_XDICTIONARY
360
554A9
102
}
102
{ACAD_REACTORS
330
554AA
102
}
330
52C18
100
AcDbEntity
  8
DIMS SPECS
100
AcDbDimension
  2
*D38
 10
30191.95050664208
 20
25636.25990876607
 30
0.0
 11
29904.45050664208
 21
25636.25990876607
 31
0.0
 70
   160
 71
     5
 42
575.0
 73
     0
 74
     0
 75
     0
  3
abode-iso$0
100
AcDbAlignedDimension
 13
29616.95050664209
 23
25713.22690865625
 33
0.0
 14
30191.95050664208
 24
25718.22690865626
 34
0.0
100
AcDbRotatedDimension
1001
ACAD_DSTYLE_DIMINSPECT
1070
   396
1000
100%
1070
   395
1000

1070
   394
1070
    33
1070
   393
1070
     0
1001
ACAD
1000
DSTYLE
1002
{
1070
   340
1005
53181
1070
   371
1070
    -1
1070
   372
1070
    -1
1002
}
  0
DIMENSION
  5
554AB
330
52C18
100
AcDbEntity
  8
DIMS SPECS
100
AcDbDimension
  2
*D33
 10
30231.9942959075
 20
25683.22690865626
 30
0.0
 11
30231.99429590749
 21
25903.22690865625
 31
0.0
 70
   160
 71
     5
 42
439.9999999999963
 73
     0
 74
     0
 75
     0
  3
abode-iso$0
100
AcDbAlignedDimension
 13
30156.95050664209
 23
26123.22690865626
 33
0.0
 14
30156.95050664208
 24
25683.22690865626
 34
0.0
 50
90.0
100
AcDbRotatedDimension
1001
ACAD_DSTYLE_DIMINSPECT
1070
   396
1000
100%
1070
   395
1000

1070
   394
1070
    33
1070
   393
1070
     0
1001
ACAD
1000
DSTYLE
1002
{
1070
   340
1005
53181
1070
   371
1070
    -1
1070
   372
1070
    -1
1002
}
  0
LINE
  5
554AC
330
52C18
100
AcDbEntity
  8
CUTOUT
100
AcDbLine
 10
30430.54816482456
 20
25710.97682479208
 30
0.0
 11
30946.04816482456
 21
25710.97682479208
 31
0.0
  0
ARC
  5
554AD
102
{ACAD_REACTORS
330
554BF
102
}
330
52C18
100
AcDbEntity
  8
CUTOUT
100
AcDbCircle
 10
30946.04816482456
 20
25726.97682479208
 30
0.0
 40
16.0
100
AcDbArc
 50
270.0
 51
0.0
  0
LINE
  5
554AE
102
{ACAD_REACTORS
330
554B7
102
}
330
52C18
100
AcDbEntity
  8
CUTOUT
100
AcDbLine
 10
30946.04816482456
 20
25710.97682479208
 30
0.0
 11
30928.5388761226
 21
25710.97682479208
 31
0.0
  0
LINE
  5
554AF
102
{ACAD_REACTORS
330
554BA
102
}
330
52C18
100
AcDbEntity
  8
CUTOUT
100
AcDbLine
 10
30962.04816482456
 20
25726.97682479208
 30
0.0
 11
30962.04816482456
 21
26107.47682479208
 31
0.0
  0
ARC
  5
554B0
330
52C18
100
AcDbEntity
  8
CUTOUT
100
AcDbCircle
 10
30946.04816482456
 20
26107.47682479208
 30
0.0
 40
16.0
100
AcDbArc
 50
0.0
 51
90.0
  0
LINE
  5
554B1
102
{ACAD_REACTORS
330
554B7
102
}
330
52C18
100
AcDbEntity
  8
CUTOUT
100
AcDbLine
 10
30946.04816482456
 20
26123.47682479208
 30
0.0
 11
30430.54816482457
 21
26123.47682479208
 31
0.0
  0
ARC
  5
554B2
330
52C18
100
AcDbEntity
  8
CUTOUT
100
AcDbCircle
 10
30430.54816482457
 20
26107.47682479208
 30
0.0
 40
16.0
100
AcDbArc
 50
90.0
 51
180.0
  0
LINE
  5
554B3
102
{ACAD_REACTORS
330
554BA
102
}
330
52C18
100
AcDbEntity
  8
CUTOUT
100
AcDbLine
 10
30414.54816482457
 20
26107.47682479208
 30
0.0
 11
30414.54816482456
 21
25726.97682479208
 31
0.0
  0
ARC
  5
554B4
102
{ACAD_REACTORS
330
554BA
102
}
330
52C18
100
AcDbEntity
  8
CUTOUT
100
AcDbCircle
 10
30430.54816482456
 20
25726.97682479208
 30
0.0
 40
16.0
100
AcDbArc
 50
180.0
 51
270.0
  0
DIMENSION
  5
554B5
102
{ACAD_XDICTIONARY
360
554B6
102
}
102
{ACAD_REACTORS
330
554B7
102
}
330
52C18
100
AcDbEntity
  8
DIMS SPECS
100
AcDbDimension
  2
*D34
 10
31042.934429986
 20
25710.97682479208
 30
0.0
 11
31042.93442998599
 21
25917.22682479209
 31
0.0
 70
    32
  1
412.5
 71
     5
 42
412.5
 73
     0
 74
     0
 75
     0
  3
abode-iso$0
100
AcDbAlignedDimension
 13
30946.04816482456
 23
26123.47682479208
 33
0.0
 14
30946.04816482456
 24
25710.97682479208
 34
0.0
 50
90.0
100
AcDbRotatedDimension
1001
ACAD
1000
DSTYLE
1002
{
1070
   340
1005
53181
1070
   371
1070
    -1
1070
   372
1070
    -1
1002
}
1001
ACAD_DSTYLE_DIMINSPECT
1070
   396
1000
100%
1070
   395
1000

1070
   394
1070
    33
1070
   393
1070
     0
  0
DIMENSION
  5
554B8
102
{ACAD_XDICTIONARY
360
554B9
102
}
102
{ACAD_REACTORS
330
554BA
102
}
330
52C18
100
AcDbEntity
  8
DIMS SPECS
100
AcDbDimension
  2
*D35
 10
30962.04816482457
 20
25641.29986449774
 30
0.0
 11
30688.29816482457
 21
25657.72746476966
 31
0.0
 70
    32
  1
547.5
 71
     5
 42
547.5000000000072
 73
     0
 74
     0
 75
     0
  3
abode-iso$0
100
AcDbAlignedDimension
 13
30414.54816482456
 23
25726.97682479208
 33
0.0
 14
30962.04816482457
 24
25726.97682479208
 34
0.0
100
AcDbRotatedDimension
1001
ACAD
1000
DSTYLE
1002
{
1070
   340
1005
53181
1070
   371
1070
    -1
1070
   372
1070
    -1
1002
}
1001
ACAD_DSTYLE_DIMINSPECT
1070
   396
1000
100%
1070
   395
1000

1070
   394
1070
    33
1070
   393
1070
     0
  0
MTEXT
  5
554BB
330
52C18
100
AcDbEntity
  8
sink_specs
100
AcDbMText
 10
30570.53274054092
 20
26005.42511347828
 30
0.0
 40
8.0
 41
257.8883999281679
 46
293.428518032586
 71
     1
 72
     5
  3
{\LImportant, to the fabricator / installer:\P}The cut out size indicated is flush with the bowl edge with a minimum radius where appropriate.\PYou should confirm with your client if the worksurface cutout is to be cut flush, inside or outside this s
  3
uggested perimeter size. \PIf you create the cutout smaller or larger than the indicated size then some accessories may not fit correctly.\PAll details are provided in good faith and within the tolerances of the manufacturing process.\PWe recommend t
  3
hat a test cutout is made in scrap timber and checked against the actual sink supplied before committing to cutting the worksurface.\PAbode can not accept liability for problems or costs incurred by failure to follow this advise.\PAW1031 v1 (c) abode
  1
 2018
  7
ACISOTS
 73
     1
 44
1.0
  0
MTEXT
  5
554BC
102
{ACAD_XDICTIONARY
360
5551F
102
}
330
52C18
100
AcDbEntity
  8
CUTOUT
100
AcDbMText
 10
30401.04117923806
 20
26196.57061107097
 30
0.0
 40
40.0
 41
559.4757407245924
 46
0.0
 71
     1
 72
     5
  1
\pi15.738;UNDERMOUNT CUT OUT
 73
     1
 44
1.0
  0
DIMENSION
  5
554BD
102
{ACAD_XDICTIONARY
360
554BE
102
}
102
{ACAD_REACTORS
330
554BF
102
}
330
52C18
100
AcDbEntity
  8
DIMS SPECS
100
AcDbDimension
  2
*D36
 10
30946.04816482457
 20
25726.97682479208
 30
0.0
 11
31042.08978232899
 21
25648.04136459023
 31
0.0
 70
   164
 71
     5
 42
16.00000000000363
 73
     0
 74
     0
 75
     0
  3
abode-iso$4
100
AcDbRadialDimension
 15
30956.83435042726
 25
25715.15911773257
 35
0.0
 40
0.0
1001
ACAD_DSTYLE_DIMINSPECT
1070
   396
1000
100%
1070
   395
1000

1070
   394
1070
    33
1070
   393
1070
     0
1001
ACAD
1000
DSTYLE
1002
{
1070
   340
1005
53181
1070
   371
1070
    -1
1070
   372
1070
    -1
1002
}
1001
ACAD_DSTYLE_DIMRADIAL_EXTENSION
1070
   387
1070
     1
1070
   388
1040
4.712388980384689
1070
   390
1040
0.0
  0
DIMENSION
  5
554C0
102
{ACAD_XDICTIONARY
360
554C1
102
}
102
{ACAD_REACTORS
330
554C2
102
}
330
52C18
100
AcDbEntity
  8
DIMS SPECS
100
AcDbDimension
  2
*D37
 10
30161.95050664207
 20
25713.22690865626
 30
0.0
 11
30267.4405166077
 21
25623.87335608881
 31
0.0
 70
   164
 71
     5
 42
30.0
 73
     0
 74
     0
 75
     0
  3
abode-iso$4
100
AcDbRadialDimension
 15
30182.11982165195
 25
25691.0188305757
 35
0.0
 40
0.0
1001
ACAD_DSTYLE_DIMINSPECT
1070
   396
1000
100%
1070
   395
1000

1070
   394
1070
    33
1070
   393
1070
     0
1001
ACAD
1000
DSTYLE
1002
{
1070
   340
1005
53181
1070
   371
1070
    -1
1070
   372
1070
    -1
1002
}
1001
ACAD_DSTYLE_DIMRADIAL_EXTENSION
1070
   387
1070
     1
1070
   388
1040
4.712388980384689
1070
   390
1040
0.0
  0
ENDSEC
  0
SECTION
  2
OBJECTS
  0
DICTIONARY
  5
52BB0
330
0
100
AcDbDictionary
281
     1
  3
ACAD_COLOR
350
52C0E
  3
ACAD_GROUP
350
52BB1
  3
ACAD_LAYOUT
350
52C0D
  3
ACAD_MATERIAL
350
52BB4
  3
ACAD_MLEADERSTYLE
350
52C11
  3
ACAD_MLINESTYLE
350
52C0A
  3
ACAD_PLOTSETTINGS
350
52C0C
  3
ACAD_PLOTSTYLENAME
350
52BB2
  3
ACAD_SCALELIST
350
52BDE
  3
ACAD_TABLESTYLE
350
52C0F
  3
ACAD_VISUALSTYLE
350
52BCD
  3
ACDB_RECOMPOSE_DATA
350
52DBE
  3
AcDbVariableDictionary
350
52DB0
  3
AcmDictionary
350
5310E
  3
AMG
350
530B8
  3
AMGSNAPSETTINGS
350
53296
  0
DICTIONARY
  5
52CA6
330
52BA6
100
AcDbDictionary
280
     1
281
     1
  3
ACAD_LAYERSTATES
360
52CA7
  0
DICTIONARY
  5
52DA2
330
52C00
100
AcDbDictionary
280
     1
281
     1
  3
ADSK_XREC_LAYER_RECONCILED
360
52DA3
  0
DICTIONARY
  5
52DA4
330
52C1E
100
AcDbDictionary
280
     1
281
     1
  3
ADSK_XREC_LAYER_RECONCILED
360
52DA5
  0
DICTIONARY
  5
52DA8
330
52C21
100
AcDbDictionary
280
     1
281
     1
  3
ADSK_XREC_LAYER_RECONCILED
360
52DA9
  0
DICTIONARY
  5
52DAC
330
52C9C
100
AcDbDictionary
280
     1
281
     1
  3
ADSK_XREC_LAYER_RECONCILED
360
52DAD
  0
DICTIONARY
  5
5551D
330
55490
100
AcDbDictionary
280
     1
281
     1
  3
ACAD_MTEXT_2008_RT
360
5551E
  0
DICTIONARY
  5
554A9
330
554A8
100
AcDbDictionary
280
     1
281
     1
  3
ACAD_DIMASSOC
360
554AA
  0
DICTIONARY
  5
554B6
330
554B5
100
AcDbDictionary
280
     1
281
     1
  3
ACAD_DIMASSOC
360
554B7
  0
DICTIONARY
  5
554B9
330
554B8
100
AcDbDictionary
280
     1
281
     1
  3
ACAD_DIMASSOC
360
554BA
  0
DICTIONARY
  5
5551F
330
554BC
100
AcDbDictionary
280
     1
281
     1
  3
ACAD_MTEXT_2008_RT
360
55520
  0
DICTIONARY
  5
554BE
330
554BD
100
AcDbDictionary
280
     1
281
     1
  3
ACAD_DIMASSOC
360
554BF
  0
DICTIONARY
  5
554C1
330
554C0
100
AcDbDictionary
280
     1
281
     1
  3
ACAD_DIMASSOC
360
554C2
  0
DICTIONARY
  5
52C0E
102
{ACAD_REACTORS
330
52BB0
102
}
330
52BB0
100
AcDbDictionary
281
     1
  0
DICTIONARY
  5
52BB1
102
{ACAD_REACTORS
330
52BB0
102
}
330
52BB0
100
AcDbDictionary
281
     1
  0
DICTIONARY
  5
52C0D
102
{ACAD_REACTORS
330
52BB0
102
}
330
52BB0
100
AcDbDictionary
281
     1
  3
Layout1
350
52C17
  3
Model
350
52C1B
  0
DICTIONARY
  5
52BB4
102
{ACAD_REACTORS
330
52BB0
102
}
330
52BB0
100
AcDbDictionary
281
     1
  3
ByBlock
350
52BBD
  3
ByLayer
350
52BB5
  3
Global
350
52BC5
  0
DICTIONARY
  5
52C11
102
{ACAD_REACTORS
330
52BB0
102
}
330
52BB0
100
AcDbDictionary
281
     1
  3
Standard
350
52C12
  0
DICTIONARY
  5
52C0A
102
{ACAD_REACTORS
330
52BB0
102
}
330
52BB0
100
AcDbDictionary
281
     1
  3
Standard
350
52C0B
  0
DICTIONARY
  5
52C0C
102
{ACAD_REACTORS
330
52BB0
102
}
330
52BB0
100
AcDbDictionary
281
     1
  0
ACDBDICTIONARYWDFLT
  5
52BB2
102
{ACAD_REACTORS
330
52BB0
102
}
330
52BB0
100
AcDbDictionary
281
     1
  3
Normal
350
52BB3
100
AcDbDictionaryWithDefault
340
52BB3
  0
DICTIONARY
  5
52BDE
102
{ACAD_REACTORS
330
52BB0
102
}
330
52BB0
100
AcDbDictionary
281
     1
  3
A0
350
52BDF
  3
A1
350
52BE0
  3
A2
350
52BE1
  3
A3
350
52BE2
  3
A4
350
52BE3
  3
A5
350
52BE4
  3
A6
350
52BE5
  3
A7
350
52BE6
  3
A8
350
52BE7
  3
A9
350
52BE8
  3
B0
350
52BE9
  3
B1
350
52BEA
  3
B2
350
52BEB
  3
B3
350
52BEC
  3
B4
350
52BED
  3
B5
350
52BEE
  3
B6
350
52BEF
  3
B7
350
52BF0
  3
B8
350
52BF1
  3
B9
350
52BF2
  3
C0
350
52BF3
  3
C1
350
52BF4
  3
C2
350
52BF5
  3
C3
350
52BF6
  3
C4
350
52BF7
  3
C5
350
52BF8
  3
C6
350
52BF9
  3
C7
350
52BFA
  3
C8
350
52BFB
  3
C9
350
52BFC
  3
D0
350
52BFD
  3
D1
350
52BFE
  3
D2
350
52BFF
  0
DICTIONARY
  5
52C0F
102
{ACAD_REACTORS
330
52BB0
102
}
330
52BB0
100
AcDbDictionary
281
     1
  3
Standard
350
52C10
  0
DICTIONARY
  5
52BCD
102
{ACAD_REACTORS
330
52BB0
102
}
330
52BB0
100
AcDbDictionary
281
     1
  3
2dWireframe
350
52BD3
  3
3D Hidden
350
52BD5
  3
3dWireframe
350
52BD4
  3
Basic
350
52BD2
  3
Brighten
350
52BD9
  3
ColorChange
350
52BDD
  3
Conceptual
350
52BD6
  3
Dim
350
52BD8
  3
Facepattern
350
52BDC
  3
Flat
350
52BCE
  3
FlatWithEdges
350
52BCF
  3
Gouraud
350
52BD0
  3
GouraudWithEdges
350
52BD1
  3
Linepattern
350
52BDB
  3
Realistic
350
52BD7
  3
Thicken
350
52BDA
  0
XRECORD
  5
52DBE
102
{ACAD_REACTORS
330
52BB0
102
}
330
52BB0
100
AcDbXrecord
280
     1
 90
        1
330
52C10
330
55490
330
554BC
  0
DICTIONARY
  5
52DB0
102
{ACAD_REACTORS
330
52BB0
102
}
330
52BB0
100
AcDbDictionary
281
     1
  3
CANNOSCALE
350
52DB4
  3
CMLEADERSTYLE
350
52DB2
  3
CTABLESTYLE
350
52DB1
  3
LAYEREVAL
350
52DB6
  3
LAYERNOTIFY
350
52DB7
  3
LIGHTINGUNITS
350
52DB5
  3
MSLTSCALE
350
52DB3
  0
DICTIONARY
  5
5310E
102
{ACAD_REACTORS
330
52BB0
102
}
330
52BB0
100
AcDbDictionary
281
     1
  3
AcmStdDictionary
350
53119
  0
DICTIONARY
  5
530B8
102
{ACAD_REACTORS
330
52BB0
102
}
330
52BB0
100
AcDbDictionary
281
     1
  0
DICTIONARY
  5
53296
102
{ACAD_REACTORS
330
52BB0
102
}
330
52BB0
100
AcDbDictionary
281
     1
  0
DICTIONARY
  5
52CA7
102
{ACAD_REACTORS
330
52CA6
102
}
330
52CA6
100
AcDbDictionary
281
     1
  0
XRECORD
  5
52DA3
102
{ACAD_REACTORS
330
52DA2
102
}
330
52DA2
100
AcDbXrecord
280
     1
290
     1
  0
XRECORD
  5
52DA5
102
{ACAD_REACTORS
330
52DA4
102
}
330
52DA4
100
AcDbXrecord
280
     1
290
     1
  0
XRECORD
  5
52DA9
102
{ACAD_REACTORS
330
52DA8
102
}
330
52DA8
100
AcDbXrecord
280
     1
290
     1
  0
XRECORD
  5
52DAD
102
{ACAD_REACTORS
330
52DAC
102
}
330
52DAC
100
AcDbXrecord
280
     1
290
     1
  0
XRECORD
  5
5551E
102
{ACAD_REACTORS
330
5551D
102
}
330
5551D
100
AcDbXrecord
280
     1
 40
19139.0
  1
\pxqc;INSET CUT OUT
  0
DIMASSOC
  5
554AA
102
{ACAD_REACTORS
330
554A9
102
}
330
554A9
100
AcDbDimAssoc
330
554A8
 90
        1
 70
     0
 71
     0
  1
AcDbOsnapPointRef
 72
     1
331
5548A
 73
     0
 91
        0
 40
0.0
 10
0.0
 20
0.0
 30
2.000000000000000E+50
 75
     0
  0
DIMASSOC
  5
554B7
102
{ACAD_REACTORS
330
554B6
102
}
330
554B6
100
AcDbDimAssoc
330
554B5
 90
        3
 70
     0
 71
     0
  1
AcDbOsnapPointRef
 72
    13
331
554B1
 73
     0
 91
        0
 40
0.0
 10
0.0
 20
0.0
 30
2.000000000000000E+50
 75
     0
  1
AcDbOsnapPointRef
 72
    13
331
554AE
 73
     0
 91
        0
 40
0.0
 10
0.0
 20
0.0
 30
2.000000000000000E+50
 75
     0
  0
DIMASSOC
  5
554BA
102
{ACAD_REACTORS
330
554B9
102
}
330
554B9
100
AcDbDimAssoc
330
554B8
 90
        3
 70
     0
 71
     0
  1
AcDbOsnapPointRef
 72
     6
331
554B3
 73
     0
 91
        0
 40
0.9999999999999998
 10
0.0
 20
0.0
 30
0.0
332
554B4
 74
     0
 92
        0
 75
     0
  1
AcDbOsnapPointRef
 72
    13
331
554AF
 73
     0
 91
        0
 40
0.0
 10
0.0
 20
0.0
 30
2.000000000000000E+50
 75
     0
  0
XRECORD
  5
55520
102
{ACAD_REACTORS
330
5551F
102
}
330
5551F
100
AcDbXrecord
280
     1
 40
29091.0
  1
\pxqc;UNDERMOUNT CUT OUT
  0
DIMASSOC
  5
554BF
102
{ACAD_REACTORS
330
554BE
102
}
330
554BE
100
AcDbDimAssoc
330
554BD
 90
        2
 70
     0
 71
     0
  1
AcDbOsnapPointRef
 72
     3
331
554AD
 73
     2
 91
        0
 40
0.0
 10
0.0
 20
0.0
 30
0.0
 75
     0
  0
DIMASSOC
  5
554C2
102
{ACAD_REACTORS
330
554C1
102
}
330
554C1
100
AcDbDimAssoc
330
554C0
 90
        2
 70
     0
 71
     0
  1
AcDbOsnapPointRef
 72
     3
331
5548F
 73
     2
 91
        0
 40
0.0
 10
0.0
 20
0.0
 30
0.0
 75
     0
  0
LAYOUT
  5
52C17
102
{ACAD_REACTORS
330
52C0D
102
}
330
52C0D
100
AcDbPlotSettings
  1

  2
\\ABODESERVER\upstairs
  4

  6

 40
0.0
 41
0.0
 42
0.0
 43
0.0
 44
0.0
 45
0.0
 46
0.0
 47
0.0
 48
0.0
 49
0.0
140
0.0
141
0.0
142
1.0
143
1.0
 70
   688
 72
     0
 73
     0
 74
     5
  7

 75
    16
147
1.0
 76
     0
 77
     2
 78
   300
148
0.0
149
0.0
100
AcDbLayout
  1
Layout1
 70
     1
 71
     1
 10
0.0
 20
0.0
 11
420.0
 21
297.0
 12
0.0
 22
0.0
 32
0.0
 14
1.000000000000000E+20
 24
1.000000000000000E+20
 34
1.000000000000000E+20
 15
-1.000000000000000E+20
 25
-1.000000000000000E+20
 35
-1.000000000000000E+20
146
0.0
 13
0.0
 23
0.0
 33
0.0
 16
1.0
 26
0.0
 36
0.0
 17
0.0
 27
1.0
 37
0.0
 76
     0
330
52C14
  0
LAYOUT
  5
52C1B
102
{ACAD_REACTORS
330
52C0D
102
}
330
52C0D
100
AcDbPlotSettings
  1

  2
\\ABODESERVER\upstairs
  4

  6

 40
0.0
 41
0.0
 42
0.0
 43
0.0
 44
0.0
 45
0.0
 46
0.0
 47
0.0
 48
0.0
 49
0.0
140
0.0
141
0.0
142
1.0
143
1.0
 70
  1712
 72
     0
 73
     0
 74
     0
  7

 75
     0
147
1.0
 76
     0
 77
     2
 78
   300
148
0.0
149
0.0
100
AcDbLayout
  1
Model
 70
     1
 71
     0
 10
0.0
 20
0.0
 11
12.0
 21
9.0
 12
0.0
 22
0.0
 32
0.0
 14
0.0
 24
0.0
 34
0.0
 15
0.0
 25
0.0
 35
0.0
146
0.0
 13
0.0
 23
0.0
 33
0.0
 16
1.0
 26
0.0
 36
0.0
 17
0.0
 27
1.0
 37
0.0
 76
     0
330
52C18
331
52C1C
  0
MATERIAL
  5
52BBD
102
{ACAD_XDICTIONARY
360
52BBE
102
}
102
{ACAD_REACTORS
330
52BB4
102
}
330
52BB4
100
AcDbMaterial
  1
ByBlock
 72
     0
 43
0.0208333333333333
 43
0.0
 43
0.0
 43
0.0
 43
0.0
 43
0.0208333333333333
 43
0.0
 43
0.0
 43
0.0
 43
0.0
 43
1.0
 43
0.0
 43
0.0
 43
0.0
 43
0.0
 43
1.0
 77
     0
 47
0.0208333333333333
 47
0.0
 47
0.0
 47
0.0
 47
0.0
 47
0.0208333333333333
 47
0.0
 47
0.0
 47
0.0
 47
0.0
 47
1.0
 47
0.0
 47
0.0
 47
0.0
 47
0.0
 47
1.0
171
     0
 49
0.0208333333333333
 49
0.0
 49
0.0
 49
0.0
 49
0.0
 49
0.0208333333333333
 49
0.0
 49
0.0
 49
0.0
 49
0.0
 49
1.0
 49
0.0
 49
0.0
 49
0.0
 49
0.0
 49
1.0
175
     0
142
0.0208333333333333
142
0.0
142
0.0
142
0.0
142
0.0
142
0.0208333333333333
142
0.0
142
0.0
142
0.0
142
0.0
142
1.0
142
0.0
142
0.0
142
0.0
142
0.0
142
1.0
179
     0
144
0.0208333333333333
144
0.0
144
0.0
144
0.0
144
0.0
144
0.0208333333333333
144
0.0
144
0.0
144
0.0
144
0.0
144
1.0
144
0.0
144
0.0
144
0.0
144
0.0
144
1.0
147
0.0208333333333333
147
0.0
147
0.0
147
0.0
147
0.0
147
0.0208333333333333
147
0.0
147
0.0
147
0.0
147
0.0
147
1.0
147
0.0
147
0.0
147
0.0
147
0.0
147
1.0
  0
MATERIAL
  5
52BB5
102
{ACAD_XDICTIONARY
360
52BB6
102
}
102
{ACAD_REACTORS
330
52BB4
102
}
330
52BB4
100
AcDbMaterial
  1
ByLayer
 72
     0
 43
0.0208333333333333
 43
0.0
 43
0.0
 43
0.0
 43
0.0
 43
0.0208333333333333
 43
0.0
 43
0.0
 43
0.0
 43
0.0
 43
1.0
 43
0.0
 43
0.0
 43
0.0
 43
0.0
 43
1.0
 77
     0
 47
0.0208333333333333
 47
0.0
 47
0.0
 47
0.0
 47
0.0
 47
0.0208333333333333
 47
0.0
 47
0.0
 47
0.0
 47
0.0
 47
1.0
 47
0.0
 47
0.0
 47
0.0
 47
0.0
 47
1.0
171
     0
 49
0.0208333333333333
 49
0.0
 49
0.0
 49
0.0
 49
0.0
 49
0.0208333333333333
 49
0.0
 49
0.0
 49
0.0
 49
0.0
 49
1.0
 49
0.0
 49
0.0
 49
0.0
 49
0.0
 49
1.0
175
     0
142
0.0208333333333333
142
0.0
142
0.0
142
0.0
142
0.0
142
0.0208333333333333
142
0.0
142
0.0
142
0.0
142
0.0
142
1.0
142
0.0
142
0.0
142
0.0
142
0.0
142
1.0
179
     0
144
0.0208333333333333
144
0.0
144
0.0
144
0.0
144
0.0
144
0.0208333333333333
144
0.0
144
0.0
144
0.0
144
0.0
144
1.0
144
0.0
144
0.0
144
0.0
144
0.0
144
1.0
147
0.0208333333333333
147
0.0
147
0.0
147
0.0
147
0.0
147
0.0208333333333333
147
0.0
147
0.0
147
0.0
147
0.0
147
1.0
147
0.0
147
0.0
147
0.0
147
0.0
147
1.0
  0
MATERIAL
  5
52BC5
102
{ACAD_XDICTIONARY
360
52BC6
102
}
102
{ACAD_REACTORS
330
52BB4
102
}
330
52BB4
100
AcDbMaterial
  1
Global
 72
     0
 43
0.0208333333333333
 43
0.0
 43
0.0
 43
0.0
 43
0.0
 43
0.0208333333333333
 43
0.0
 43
0.0
 43
0.0
 43
0.0
 43
1.0
 43
0.0
 43
0.0
 43
0.0
 43
0.0
 43
1.0
 77
     0
 47
0.0208333333333333
 47
0.0
 47
0.0
 47
0.0
 47
0.0
 47
0.0208333333333333
 47
0.0
 47
0.0
 47
0.0
 47
0.0
 47
1.0
 47
0.0
 47
0.0
 47
0.0
 47
0.0
 47
1.0
171
     0
 49
0.0208333333333333
 49
0.0
 49
0.0
 49
0.0
 49
0.0
 49
0.0208333333333333
 49
0.0
 49
0.0
 49
0.0
 49
0.0
 49
1.0
 49
0.0
 49
0.0
 49
0.0
 49
0.0
 49
1.0
175
     0
142
0.0208333333333333
142
0.0
142
0.0
142
0.0
142
0.0
142
0.0208333333333333
142
0.0
142
0.0
142
0.0
142
0.0
142
1.0
142
0.0
142
0.0
142
0.0
142
0.0
142
1.0
179
     0
144
0.0208333333333333
144
0.0
144
0.0
144
0.0
144
0.0
144
0.0208333333333333
144
0.0
144
0.0
144
0.0
144
0.0
144
1.0
144
0.0
144
0.0
144
0.0
144
0.0
144
1.0
147
0.0208333333333333
147
0.0
147
0.0
147
0.0
147
0.0
147
0.0208333333333333
147
0.0
147
0.0
147
0.0
147
0.0
147
1.0
147
0.0
147
0.0
147
0.0
147
0.0
147
1.0
  0
MLEADERSTYLE
  5
52C12
102
{ACAD_REACTORS
330
52C11
102
}
330
52C11
100
AcDbMLeaderStyle
170
     2
171
     1
172
     0
 90
        2
 40
0.0
 41
0.0
173
     1
 91
-1056964608
340
52C06
 92
       -2
290
     1
 42
0.09
291
     1
 43
0.36
  3
Standard
 44
0.18
300

342
52C01
174
     1
178
     6
175
     1
176
     0
 93
-1056964608
 45
0.18
292
     0
297
     0
 46
0.18
 94
-1056964608
 47
1.0
 49
1.0
140
1.0
293
     1
141
0.0
294
     1
177
     0
142
1.0
295
     0
296
     0
143
0.125
1001
ACAD_MLEADERVER
1070
     2
  0
MLINESTYLE
  5
52C0B
102
{ACAD_REACTORS
330
52C0A
102
}
330
52C0A
100
AcDbMlineStyle
  2
STANDARD
 70
     0
  3

 62
   256
 51
90.0
 52
90.0
 71
     2
 49
0.5
 62
   256
  6
BYLAYER
 49
-0.5
 62
   256
  6
BYLAYER
  0
ACDBPLACEHOLDER
  5
52BB3
102
{ACAD_REACTORS
330
52BB2
102
}
330
52BB2
  0
SCALE
  5
52BDF
102
{ACAD_REACTORS
330
52BDE
102
}
330
52BDE
100
AcDbScale
 70
     0
300
1:1
140
1.0
141
1.0
290
     1
  0
SCALE
  5
52BE0
102
{ACAD_REACTORS
330
52BDE
102
}
330
52BDE
100
AcDbScale
 70
     0
300
1:2
140
1.0
141
2.0
290
     0
  0
SCALE
  5
52BE1
102
{ACAD_REACTORS
330
52BDE
102
}
330
52BDE
100
AcDbScale
 70
     0
300
1:4
140
1.0
141
4.0
290
     0
  0
SCALE
  5
52BE2
102
{ACAD_REACTORS
330
52BDE
102
}
330
52BDE
100
AcDbScale
 70
     0
300
1:5
140
1.0
141
5.0
290
     0
  0
SCALE
  5
52BE3
102
{ACAD_REACTORS
330
52BDE
102
}
330
52BDE
100
AcDbScale
 70
     0
300
1:8
140
1.0
141
8.0
290
     0
  0
SCALE
  5
52BE4
102
{ACAD_REACTORS
330
52BDE
102
}
330
52BDE
100
AcDbScale
 70
     0
300
1:10
140
1.0
141
10.0
290
     0
  0
SCALE
  5
52BE5
102
{ACAD_REACTORS
330
52BDE
102
}
330
52BDE
100
AcDbScale
 70
     0
300
1:16
140
1.0
141
16.0
290
     0
  0
SCALE
  5
52BE6
102
{ACAD_REACTORS
330
52BDE
102
}
330
52BDE
100
AcDbScale
 70
     0
300
1:20
140
1.0
141
20.0
290
     0
  0
SCALE
  5
52BE7
102
{ACAD_REACTORS
330
52BDE
102
}
330
52BDE
100
AcDbScale
 70
     0
300
1:30
140
1.0
141
30.0
290
     0
  0
SCALE
  5
52BE8
102
{ACAD_REACTORS
330
52BDE
102
}
330
52BDE
100
AcDbScale
 70
     0
300
1:40
140
1.0
141
40.0
290
     0
  0
SCALE
  5
52BE9
102
{ACAD_REACTORS
330
52BDE
102
}
330
52BDE
100
AcDbScale
 70
     0
300
1:50
140
1.0
141
50.0
290
     0
  0
SCALE
  5
52BEA
102
{ACAD_REACTORS
330
52BDE
102
}
330
52BDE
100
AcDbScale
 70
     0
300
1:100
140
1.0
141
100.0
290
     0
  0
SCALE
  5
52BEB
102
{ACAD_REACTORS
330
52BDE
102
}
330
52BDE
100
AcDbScale
 70
     0
300
2:1
140
2.0
141
1.0
290
     0
  0
SCALE
  5
52BEC
102
{ACAD_REACTORS
330
52BDE
102
}
330
52BDE
100
AcDbScale
 70
     0
300
4:1
140
4.0
141
1.0
290
     0
  0
SCALE
  5
52BED
102
{ACAD_REACTORS
330
52BDE
102
}
330
52BDE
100
AcDbScale
 70
     0
300
8:1
140
8.0
141
1.0
290
     0
  0
SCALE
  5
52BEE
102
{ACAD_REACTORS
330
52BDE
102
}
330
52BDE
100
AcDbScale
 70
     0
300
10:1
140
10.0
141
1.0
290
     0
  0
SCALE
  5
52BEF
102
{ACAD_REACTORS
330
52BDE
102
}
330
52BDE
100
AcDbScale
 70
     0
300
100:1
140
100.0
141
1.0
290
     0
  0
SCALE
  5
52BF0
102
{ACAD_REACTORS
330
52BDE
102
}
330
52BDE
100
AcDbScale
 70
     0
300
1/128" = 1'-0"
140
0.0078125
141
12.0
290
     0
  0
SCALE
  5
52BF1
102
{ACAD_REACTORS
330
52BDE
102
}
330
52BDE
100
AcDbScale
 70
     0
300
1/64" = 1'-0"
140
0.015625
141
12.0
290
     0
  0
SCALE
  5
52BF2
102
{ACAD_REACTORS
330
52BDE
102
}
330
52BDE
100
AcDbScale
 70
     0
300
1/32" = 1'-0"
140
0.03125
141
12.0
290
     0
  0
SCALE
  5
52BF3
102
{ACAD_REACTORS
330
52BDE
102
}
330
52BDE
100
AcDbScale
 70
     0
300
1/16" = 1'-0"
140
0.0625
141
12.0
290
     0
  0
SCALE
  5
52BF4
102
{ACAD_REACTORS
330
52BDE
102
}
330
52BDE
100
AcDbScale
 70
     0
300
3/32" = 1'-0"
140
0.09375
141
12.0
290
     0
  0
SCALE
  5
52BF5
102
{ACAD_REACTORS
330
52BDE
102
}
330
52BDE
100
AcDbScale
 70
     0
300
1/8" = 1'-0"
140
0.125
141
12.0
290
     0
  0
SCALE
  5
52BF6
102
{ACAD_REACTORS
330
52BDE
102
}
330
52BDE
100
AcDbScale
 70
     0
300
3/16" = 1'-0"
140
0.1875
141
12.0
290
     0
  0
SCALE
  5
52BF7
102
{ACAD_REACTORS
330
52BDE
102
}
330
52BDE
100
AcDbScale
 70
     0
300
1/4" = 1'-0"
140
0.25
141
12.0
290
     0
  0
SCALE
  5
52BF8
102
{ACAD_REACTORS
330
52BDE
102
}
330
52BDE
100
AcDbScale
 70
     0
300
3/8" = 1'-0"
140
0.375
141
12.0
290
     0
  0
SCALE
  5
52BF9
102
{ACAD_REACTORS
330
52BDE
102
}
330
52BDE
100
AcDbScale
 70
     0
300
1/2" = 1'-0"
140
0.5
141
12.0
290
     0
  0
SCALE
  5
52BFA
102
{ACAD_REACTORS
330
52BDE
102
}
330
52BDE
100
AcDbScale
 70
     0
300
3/4" = 1'-0"
140
0.75
141
12.0
290
     0
  0
SCALE
  5
52BFB
102
{ACAD_REACTORS
330
52BDE
102
}
330
52BDE
100
AcDbScale
 70
     0
300
1" = 1'-0"
140
1.0
141
12.0
290
     0
  0
SCALE
  5
52BFC
102
{ACAD_REACTORS
330
52BDE
102
}
330
52BDE
100
AcDbScale
 70
     0
300
1-1/2" = 1'-0"
140
1.5
141
12.0
290
     0
  0
SCALE
  5
52BFD
102
{ACAD_REACTORS
330
52BDE
102
}
330
52BDE
100
AcDbScale
 70
     0
300
3" = 1'-0"
140
3.0
141
12.0
290
     0
  0
SCALE
  5
52BFE
102
{ACAD_REACTORS
330
52BDE
102
}
330
52BDE
100
AcDbScale
 70
     0
300
6" = 1'-0"
140
6.0
141
12.0
290
     0
  0
SCALE
  5
52BFF
102
{ACAD_REACTORS
330
52BDE
102
}
330
52BDE
100
AcDbScale
 70
     0
300
1'-0" = 1'-0"
140
12.0
141
12.0
290
     0
  0
TABLESTYLE
  5
52C10
102
{ACAD_XDICTIONARY
360
52DB8
102
}
102
{ACAD_REACTORS
330
52C0F
102
}
330
52C0F
100
AcDbTableStyle
  3
Standard
 70
     0
 71
     0
 40
0.06
 41
0.06
280
     0
281
     0
  7
STANDARD
140
0.18
170
     2
 62
     0
 63
     7
283
     0
 90
      512
 91
        0
  1

274
    -2
284
     1
 64
     0
275
    -2
285
     1
 65
     0
276
    -2
286
     1
 66
     0
277
    -2
287
     1
 67
     0
278
    -2
288
     1
 68
     0
279
    -2
289
     1
 69
     0
  7
STANDARD
140
0.25
170
     5
 62
     0
 63
     7
283
     0
 90
      512
 91
        0
  1

274
    -2
284
     1
 64
     0
275
    -2
285
     1
 65
     0
276
    -2
286
     1
 66
     0
277
    -2
287
     1
 67
     0
278
    -2
288
     1
 68
     0
279
    -2
289
     1
 69
     0
  7
STANDARD
140
0.18
170
     5
 62
     0
 63
     7
283
     0
 90
      512
 91
        0
  1

274
    -2
284
     1
 64
     0
275
    -2
285
     1
 65
     0
276
    -2
286
     1
 66
     0
277
    -2
287
     1
 67
     0
278
    -2
288
     1
 68
     0
279
    -2
289
     1
 69
     0
  0
VISUALSTYLE
  5
52BD3
102
{ACAD_REACTORS
330
52BCD
102
}
330
52BCD
100
AcDbVisualStyle
  2
2dWireframe
 70
     4
 71
     0
 72
     2
 73
     0
 90
        0
 40
-0.6
 41
-30.0
 62
     5
 63
     7
421
 16777215
 74
     1
 91
        4
 64
     7
 65
   257
 75
     1
175
     1
 42
1.0
 92
        0
 66
   257
 43
1.0
 76
     1
 77
     6
 78
     2
 67
     7
 79
     5
170
     0
171
     0
290
     0
174
     0
 93
        1
 44
0.0
173
     0
291
     0
 45
0.0
  0
VISUALSTYLE
  5
52BD5
102
{ACAD_REACTORS
330
52BCD
102
}
330
52BCD
100
AcDbVisualStyle
  2
3D Hidden
 70
     6
 71
     1
 72
     2
 73
     2
 90
        0
 40
-0.6
 41
-30.0
 62
     5
 63
     7
421
 16777215
 74
     2
 91
        2
 64
     7
 65
   257
 75
     2
175
     1
 42
40.0
 92
        0
 66
   257
 43
1.0
 76
     1
 77
     6
 78
     2
 67
     7
 79
     3
170
     0
171
     0
290
     0
174
     0
 93
        1
 44
0.0
173
     0
291
     0
 45
0.0
  0
VISUALSTYLE
  5
52BD4
102
{ACAD_REACTORS
330
52BCD
102
}
330
52BCD
100
AcDbVisualStyle
  2
3dWireframe
 70
     5
 71
     0
 72
     2
 73
     0
 90
        0
 40
-0.6
 41
-30.0
 62
     5
 63
     7
421
 16777215
 74
     1
 91
        4
 64
     7
 65
   257
 75
     1
175
     1
 42
1.0
 92
        0
 66
   257
 43
1.0
 76
     1
 77
     6
 78
     2
 67
     7
 79
     5
170
     0
171
     0
290
     0
174
     0
 93
        1
 44
0.0
173
     0
291
     0
 45
0.0
  0
VISUALSTYLE
  5
52BD2
102
{ACAD_REACTORS
330
52BCD
102
}
330
52BCD
100
AcDbVisualStyle
  2
Basic
 70
     7
 71
     1
 72
     0
 73
     1
 90
        0
 40
-0.6
 41
-30.0
 62
     5
 63
     7
421
 16777215
 74
     0
 91
        4
 64
     7
 65
   257
 75
     1
175
     1
 42
1.0
 92
        8
 66
     7
 43
1.0
 76
     1
 77
     6
 78
     2
 67
     7
 79
     5
170
     0
171
     0
290
     0
174
     0
 93
        1
 44
0.0
173
     0
291
     1
 45
0.0
  0
VISUALSTYLE
  5
52BD9
102
{ACAD_REACTORS
330
52BCD
102
}
330
52BCD
100
AcDbVisualStyle
  2
Brighten
 70
    12
 71
     2
 72
     2
 73
     0
 90
        0
 40
-0.6
 41
-30.0
 62
     5
 63
     7
421
 16777215
 74
     1
 91
        4
 64
     7
 65
   257
 75
     1
175
     1
 42
1.0
 92
        8
 66
     7
 43
1.0
 76
     1
 77
     6
 78
     2
 67
     7
 79
     5
170
     0
171
     0
290
     0
174
     0
 93
        1
 44
50.0
173
     0
291
     1
 45
0.0
  0
VISUALSTYLE
  5
52BDD
102
{ACAD_REACTORS
330
52BCD
102
}
330
52BCD
100
AcDbVisualStyle
  2
ColorChange
 70
    16
 71
     2
 72
     2
 73
     3
 90
        0
 40
-0.6
 41
-30.0
 62
     5
 63
     8
421
  8421504
 74
     1
 91
        4
 64
     7
 65
   257
 75
     1
175
     1
 42
1.0
 92
        8
 66
     8
424
  8421504
 43
1.0
 76
     1
 77
     6
 78
     2
 67
     7
 79
     5
170
     0
171
     0
290
     0
174
     0
 93
        1
 44
0.0
173
     0
291
     1
 45
0.0
  0
VISUALSTYLE
  5
52BD6
102
{ACAD_REACTORS
330
52BCD
102
}
330
52BCD
100
AcDbVisualStyle
  2
Conceptual
 70
     9
 71
     3
 72
     2
 73
     0
 90
        0
 40
-0.6
 41
-30.0
 62
     5
 63
     7
421
 16777215
 74
     2
 91
        2
 64
     7
 65
   257
 75
     1
175
     1
 42
40.0
 92
        8
 66
     7
 43
1.0
 76
     1
 77
     6
 78
     2
 67
     7
 79
     3
170
     0
171
     0
290
     0
174
     0
 93
        1
 44
0.0
173
     0
291
     0
 45
0.0
  0
VISUALSTYLE
  5
52BD8
102
{ACAD_REACTORS
330
52BCD
102
}
330
52BCD
100
AcDbVisualStyle
  2
Dim
 70
    11
 71
     2
 72
     2
 73
     0
 90
        0
 40
-0.6
 41
-30.0
 62
     5
 63
     7
421
 16777215
 74
     1
 91
        4
 64
     7
 65
   257
 75
     1
175
     1
 42
1.0
 92
        8
 66
     7
 43
1.0
 76
     1
 77
     6
 78
     2
 67
     7
 79
     5
170
     0
171
     0
290
     0
174
     0
 93
        1
 44
-50.0
173
     0
291
     1
 45
0.0
  0
VISUALSTYLE
  5
52BDC
102
{ACAD_REACTORS
330
52BCD
102
}
330
52BCD
100
AcDbVisualStyle
  2
Facepattern
 70
    15
 71
     2
 72
     2
 73
     0
 90
        0
 40
-0.6
 41
-30.0
 62
     5
 63
     7
421
 16777215
 74
     1
 91
        4
 64
     7
 65
   257
 75
     1
175
     1
 42
1.0
 92
        8
 66
     7
 43
1.0
 76
     1
 77
     6
 78
     2
 67
     7
 79
     5
170
     0
171
     0
290
     0
174
     0
 93
        1
 44
0.0
173
     0
291
     1
 45
0.0
  0
VISUALSTYLE
  5
52BCE
102
{ACAD_REACTORS
330
52BCD
102
}
330
52BCD
100
AcDbVisualStyle
  2
Flat
 70
     0
 71
     2
 72
     1
 73
     1
 90
        2
 40
-0.6
 41
30.0
 62
     5
 63
     7
421
 16777215
 74
     0
 91
        4
 64
     7
 65
   257
 75
     1
175
     1
 42
1.0
 92
        8
 66
     7
 43
1.0
 76
     1
 77
     6
 78
     2
 67
     7
 79
     5
170
     0
171
     0
290
     0
174
     0
 93
       13
 44
0.0
173
     0
291
     1
 45
0.0
  0
VISUALSTYLE
  5
52BCF
102
{ACAD_REACTORS
330
52BCD
102
}
330
52BCD
100
AcDbVisualStyle
  2
FlatWithEdges
 70
     1
 71
     2
 72
     1
 73
     1
 90
        2
 40
-0.6
 41
30.0
 62
     5
 63
     7
421
 16777215
 74
     1
 91
        4
 64
     7
 65
   257
 75
     1
175
     1
 42
1.0
 92
        0
 66
   257
 43
1.0
 76
     1
 77
     6
 78
     2
 67
     7
 79
     5
170
     0
171
     0
290
     0
174
     0
 93
       13
 44
0.0
173
     0
291
     1
 45
0.0
  0
VISUALSTYLE
  5
52BD0
102
{ACAD_REACTORS
330
52BCD
102
}
330
52BCD
100
AcDbVisualStyle
  2
Gouraud
 70
     2
 71
     2
 72
     2
 73
     1
 90
        2
 40
-0.6
 41
30.0
 62
     5
 63
     7
421
 16777215
 74
     0
 91
        4
 64
     7
 65
   257
 75
     1
175
     1
 42
1.0
 92
        0
 66
     7
 43
1.0
 76
     1
 77
     6
 78
     2
 67
     7
 79
     5
170
     0
171
     0
290
     0
174
     0
 93
       13
 44
0.0
173
     0
291
     1
 45
0.0
  0
VISUALSTYLE
  5
52BD1
102
{ACAD_REACTORS
330
52BCD
102
}
330
52BCD
100
AcDbVisualStyle
  2
GouraudWithEdges
 70
     3
 71
     2
 72
     2
 73
     1
 90
        2
 40
-0.6
 41
30.0
 62
     5
 63
     7
421
 16777215
 74
     1
 91
        4
 64
     7
 65
   257
 75
     1
175
     1
 42
1.0
 92
        0
 66
   257
 43
1.0
 76
     1
 77
     6
 78
     2
 67
     7
 79
     5
170
     0
171
     0
290
     0
174
     0
 93
       13
 44
0.0
173
     0
291
     1
 45
0.0
  0
VISUALSTYLE
  5
52BDB
102
{ACAD_REACTORS
330
52BCD
102
}
330
52BCD
100
AcDbVisualStyle
  2
Linepattern
 70
    14
 71
     2
 72
     2
 73
     0
 90
        0
 40
-0.6
 41
-30.0
 62
     5
 63
     7
421
 16777215
 74
     1
 91
        4
 64
     7
 65
   257
 75
     7
175
     7
 42
1.0
 92
        8
 66
     7
 43
1.0
 76
     1
 77
     6
 78
     2
 67
     7
 79
     5
170
     0
171
     0
290
     0
174
     0
 93
        1
 44
0.0
173
     0
291
     1
 45
0.0
  0
VISUALSTYLE
  5
52BD7
102
{ACAD_REACTORS
330
52BCD
102
}
330
52BCD
100
AcDbVisualStyle
  2
Realistic
 70
     8
 71
     2
 72
     2
 73
     0
 90
        0
 40
-0.6
 41
-30.0
 62
     5
 63
     7
421
 16777215
 74
     1
 91
        0
 64
     7
 65
   257
 75
     1
175
     1
 42
1.0
 92
        8
 66
     8
424
  7895160
 43
1.0
 76
     1
 77
     6
 78
     2
 67
     7
 79
     5
170
     0
171
     0
290
     0
174
     0
 93
       13
 44
0.0
173
     0
291
     0
 45
0.0
  0
VISUALSTYLE
  5
52BDA
102
{ACAD_REACTORS
330
52BCD
102
}
330
52BCD
100
AcDbVisualStyle
  2
Thicken
 70
    13
 71
     2
 72
     2
 73
     0
 90
        0
 40
-0.6
 41
-30.0
 62
     5
 63
     7
421
 16777215
 74
     1
 91
        4
 64
     7
 65
   257
 75
     1
175
     1
 42
1.0
 92
       12
 66
     7
 43
1.0
 76
     1
 77
     6
 78
     2
 67
     7
 79
     5
170
     0
171
     0
290
     0
174
     0
 93
        1
 44
0.0
173
     0
291
     1
 45
0.0
  0
DICTIONARYVAR
  5
52DB4
102
{ACAD_REACTORS
330
52DB0
102
}
330
52DB0
100
DictionaryVariables
280
     0
  1
1:1
  0
DICTIONARYVAR
  5
52DB2
102
{ACAD_REACTORS
330
52DB0
102
}
330
52DB0
100
DictionaryVariables
280
     0
  1
STANDARD
  0
DICTIONARYVAR
  5
52DB1
102
{ACAD_REACTORS
330
52DB0
102
}
330
52DB0
100
DictionaryVariables
280
     0
  1
STANDARD
  0
DICTIONARYVAR
  5
52DB6
102
{ACAD_REACTORS
330
52DB0
102
}
330
52DB0
100
DictionaryVariables
280
     0
  1
1
  0
DICTIONARYVAR
  5
52DB7
102
{ACAD_REACTORS
330
52DB0
102
}
330
52DB0
100
DictionaryVariables
280
     0
  1
15
  0
DICTIONARYVAR
  5
52DB5
102
{ACAD_REACTORS
330
52DB0
102
}
330
52DB0
100
DictionaryVariables
280
     0
  1
0
  0
DICTIONARYVAR
  5
52DB3
102
{ACAD_REACTORS
330
52DB0
102
}
330
52DB0
100
DictionaryVariables
280
     0
  1
0
  0
DICTIONARY
  5
53119
102
{ACAD_REACTORS
330
5310E
102
}
330
5310E
100
AcDbDictionary
281
     1
  0
DICTIONARY
  5
52BBE
330
52BBD
100
AcDbDictionary
280
     1
281
     1
  3
BUMPTILE
360
52BC0
  3
DIFFUSETILE
360
52BBF
  3
OPACITYTILE
360
52BC3
  3
REFLECTIONTILE
360
52BC2
  3
REFRACTIONTILE
360
52BC4
  3
SPECULARTILE
360
52BC1
  0
DICTIONARY
  5
52BB6
330
52BB5
100
AcDbDictionary
280
     1
281
     1
  3
BUMPTILE
360
52BB8
  3
DIFFUSETILE
360
52BB7
  3
OPACITYTILE
360
52BBB
  3
REFLECTIONTILE
360
52BBA
  3
REFRACTIONTILE
360
52BBC
  3
SPECULARTILE
360
52BB9
  0
DICTIONARY
  5
52BC6
330
52BC5
100
AcDbDictionary
280
     1
281
     1
  3
BUMPTILE
360
52BC8
  3
DIFFUSETILE
360
52BC7
  3
OPACITYTILE
360
52BCB
  3
REFLECTIONTILE
360
52BCA
  3
REFRACTIONTILE
360
52BCC
  3
SPECULARTILE
360
52BC9
  0
DICTIONARY
  5
52DB8
330
52C10
100
AcDbDictionary
280
     1
281
     1
  3
ACAD_ROUNDTRIP_2008_TABLESTYLE_CELLSTYLEMAP
360
5551C
  0
XRECORD
  5
52BC0
102
{ACAD_REACTORS
330
52BBE
102
}
330
52BBE
100
AcDbXrecord
280
     1
270
     1
271
     1
  0
XRECORD
  5
52BBF
102
{ACAD_REACTORS
330
52BBE
102
}
330
52BBE
100
AcDbXrecord
280
     1
270
     1
271
     1
  0
XRECORD
  5
52BC3
102
{ACAD_REACTORS
330
52BBE
102
}
330
52BBE
100
AcDbXrecord
280
     1
270
     1
271
     1
  0
XRECORD
  5
52BC2
102
{ACAD_REACTORS
330
52BBE
102
}
330
52BBE
100
AcDbXrecord
280
     1
270
     1
271
     1
  0
XRECORD
  5
52BC4
102
{ACAD_REACTORS
330
52BBE
102
}
330
52BBE
100
AcDbXrecord
280
     1
270
     1
271
     1
  0
XRECORD
  5
52BC1
102
{ACAD_REACTORS
330
52BBE
102
}
330
52BBE
100
AcDbXrecord
280
     1
270
     1
271
     1
  0
XRECORD
  5
52BB8
102
{ACAD_REACTORS
330
52BB6
102
}
330
52BB6
100
AcDbXrecord
280
     1
270
     1
271
     1
  0
XRECORD
  5
52BB7
102
{ACAD_REACTORS
330
52BB6
102
}
330
52BB6
100
AcDbXrecord
280
     1
270
     1
271
     1
  0
XRECORD
  5
52BBB
102
{ACAD_REACTORS
330
52BB6
102
}
330
52BB6
100
AcDbXrecord
280
     1
270
     1
271
     1
  0
XRECORD
  5
52BBA
102
{ACAD_REACTORS
330
52BB6
102
}
330
52BB6
100
AcDbXrecord
280
     1
270
     1
271
     1
  0
XRECORD
  5
52BBC
102
{ACAD_REACTORS
330
52BB6
102
}
330
52BB6
100
AcDbXrecord
280
     1
270
     1
271
     1
  0
XRECORD
  5
52BB9
102
{ACAD_REACTORS
330
52BB6
102
}
330
52BB6
100
AcDbXrecord
280
     1
270
     1
271
     1
  0
XRECORD
  5
52BC8
102
{ACAD_REACTORS
330
52BC6
102
}
330
52BC6
100
AcDbXrecord
280
     1
270
     1
271
     1
  0
XRECORD
  5
52BC7
102
{ACAD_REACTORS
330
52BC6
102
}
330
52BC6
100
AcDbXrecord
280
     1
270
     1
271
     1
  0
XRECORD
  5
52BCB
102
{ACAD_REACTORS
330
52BC6
102
}
330
52BC6
100
AcDbXrecord
280
     1
270
     1
271
     1
  0
XRECORD
  5
52BCA
102
{ACAD_REACTORS
330
52BC6
102
}
330
52BC6
100
AcDbXrecord
280
     1
270
     1
271
     1
  0
XRECORD
  5
52BCC
102
{ACAD_REACTORS
330
52BC6
102
}
330
52BC6
100
AcDbXrecord
280
     1
270
     1
271
     1
  0
XRECORD
  5
52BC9
102
{ACAD_REACTORS
330
52BC6
102
}
330
52BC6
100
AcDbXrecord
280
     1
270
     1
271
     1
  0
CELLSTYLEMAP
  5
5551C
102
{ACAD_REACTORS
330
52DB8
102
}
330
52DB8
100
AcDbCellStyleMap
 90
        3
300
CELLSTYLE
  1
TABLEFORMAT_BEGIN
 90
        5
170
     1
 91
        0
 92
    32768
 62
   257
 93
        1
300
CONTENTFORMAT
  1
CONTENTFORMAT_BEGIN
 90
        0
 91
        0
 92
      512
 93
        0
300

 40
0.0
140
1.0
 94
        5
 62
     0
340
52C01
144
0.25
309
CONTENTFORMAT_END
171
     1
301
MARGIN
  1
CELLMARGIN_BEGIN
 40
0.06
 40
0.06
 40
0.06
 40
0.06
 40
0.18
 40
0.18
309
CELLMARGIN_END
 94
        6
 95
        1
302
GRIDFORMAT
  1
GRIDFORMAT_BEGIN
 90
        0
 91
        1
 62
     0
 92
       -2
340
0
 93
        0
 40
0.045
309
GRIDFORMAT_END
 95
        2
302
GRIDFORMAT
  1
GRIDFORMAT_BEGIN
 90
        0
 91
        1
 62
     0
 92
       -2
340
0
 93
        0
 40
0.045
309
GRIDFORMAT_END
 95
        4
302
GRIDFORMAT
  1
GRIDFORMAT_BEGIN
 90
        0
 91
        1
 62
     0
 92
       -2
340
0
 93
        0
 40
0.045
309
GRIDFORMAT_END
 95
        8
302
GRIDFORMAT
  1
GRIDFORMAT_BEGIN
 90
        0
 91
        1
 62
     0
 92
       -2
340
0
 93
        0
 40
0.045
309
GRIDFORMAT_END
 95
       16
302
GRIDFORMAT
  1
GRIDFORMAT_BEGIN
 90
        0
 91
        1
 62
     0
 92
       -2
340
0
 93
        0
 40
0.045
309
GRIDFORMAT_END
 95
       32
302
GRIDFORMAT
  1
GRIDFORMAT_BEGIN
 90
        0
 91
        1
 62
     0
 92
       -2
340
0
 93
        0
 40
0.045
309
GRIDFORMAT_END
309
TABLEFORMAT_END
  1
CELLSTYLE_BEGIN
 90
        1
 91
        1
300
_TITLE
309
CELLSTYLE_END
300
CELLSTYLE
  1
TABLEFORMAT_BEGIN
 90
        5
170
     1
 91
        0
 92
        0
 62
   257
 93
        1
300
CONTENTFORMAT
  1
CONTENTFORMAT_BEGIN
 90
        0
 91
        0
 92
      512
 93
        0
300

 40
0.0
140
1.0
 94
        5
 62
     0
340
52C01
144
0.18
309
CONTENTFORMAT_END
171
     1
301
MARGIN
  1
CELLMARGIN_BEGIN
 40
0.06
 40
0.06
 40
0.06
 40
0.06
 40
0.18
 40
0.18
309
CELLMARGIN_END
 94
        6
 95
        1
302
GRIDFORMAT
  1
GRIDFORMAT_BEGIN
 90
        0
 91
        1
 62
     0
 92
       -2
340
0
 93
        0
 40
0.045
309
GRIDFORMAT_END
 95
        2
302
GRIDFORMAT
  1
GRIDFORMAT_BEGIN
 90
        0
 91
        1
 62
     0
 92
       -2
340
0
 93
        0
 40
0.045
309
GRIDFORMAT_END
 95
        4
302
GRIDFORMAT
  1
GRIDFORMAT_BEGIN
 90
        0
 91
        1
 62
     0
 92
       -2
340
0
 93
        0
 40
0.045
309
GRIDFORMAT_END
 95
        8
302
GRIDFORMAT
  1
GRIDFORMAT_BEGIN
 90
        0
 91
        1
 62
     0
 92
       -2
340
0
 93
        0
 40
0.045
309
GRIDFORMAT_END
 95
       16
302
GRIDFORMAT
  1
GRIDFORMAT_BEGIN
 90
        0
 91
        1
 62
     0
 92
       -2
340
0
 93
        0
 40
0.045
309
GRIDFORMAT_END
 95
       32
302
GRIDFORMAT
  1
GRIDFORMAT_BEGIN
 90
        0
 91
        1
 62
     0
 92
       -2
340
0
 93
        0
 40
0.045
309
GRIDFORMAT_END
309
TABLEFORMAT_END
  1
CELLSTYLE_BEGIN
 90
        2
 91
        1
300
_HEADER
309
CELLSTYLE_END
300
CELLSTYLE
  1
TABLEFORMAT_BEGIN
 90
        5
170
     1
 91
        0
 92
        0
 62
   257
 93
        1
300
CONTENTFORMAT
  1
CONTENTFORMAT_BEGIN
 90
        0
 91
        0
 92
      512
 93
        0
300

 40
0.0
140
1.0
 94
        2
 62
     0
340
52C01
144
0.18
309
CONTENTFORMAT_END
171
     1
301
MARGIN
  1
CELLMARGIN_BEGIN
 40
0.06
 40
0.06
 40
0.06
 40
0.06
 40
0.18
 40
0.18
309
CELLMARGIN_END
 94
        6
 95
        1
302
GRIDFORMAT
  1
GRIDFORMAT_BEGIN
 90
        0
 91
        1
 62
     0
 92
       -2
340
0
 93
        0
 40
0.045
309
GRIDFORMAT_END
 95
        2
302
GRIDFORMAT
  1
GRIDFORMAT_BEGIN
 90
        0
 91
        1
 62
     0
 92
       -2
340
0
 93
        0
 40
0.045
309
GRIDFORMAT_END
 95
        4
302
GRIDFORMAT
  1
GRIDFORMAT_BEGIN
 90
        0
 91
        1
 62
     0
 92
       -2
340
0
 93
        0
 40
0.045
309
GRIDFORMAT_END
 95
        8
302
GRIDFORMAT
  1
GRIDFORMAT_BEGIN
 90
        0
 91
        1
 62
     0
 92
       -2
340
0
 93
        0
 40
0.045
309
GRIDFORMAT_END
 95
       16
302
GRIDFORMAT
  1
GRIDFORMAT_BEGIN
 90
        0
 91
        1
 62
     0
 92
       -2
340
0
 93
        0
 40
0.045
309
GRIDFORMAT_END
 95
       32
302
GRIDFORMAT
  1
GRIDFORMAT_BEGIN
 90
        0
 91
        1
 62
     0
 92
       -2
340
0
 93
        0
 40
0.045
309
GRIDFORMAT_END
309
TABLEFORMAT_END
  1
CELLSTYLE_BEGIN
 90
        3
 91
        2
300
_DATA
309
CELLSTYLE_END
  0
ENDSEC
  0
EOF
