  0
SECTION
  2
HEADER
  9
$ACADVER
  1
AC1021
  9
$ACADMAINTVER
 70
    50
  9
$DWGCODEPAGE
  3
ANSI_1252
  9
$LASTSAVEDBY
  1
mstaweczny
  9
$INSBASE
 10
0.0
 20
0.0
 30
0.0
  9
$EXTMIN
 10
29050.77647794923
 20
25612.32714017463
 30
0.0
  9
$EXTMAX
 10
31090.84545361959
 20
26676.40104386973
 30
0.0
  9
$LIMMIN
 10
0.0
 20
0.0
  9
$LIMMAX
 10
420.0
 20
297.0
  9
$ORTHOMODE
 70
     0
  9
$REGENMODE
 70
     1
  9
$FILLMODE
 70
     1
  9
$QTEXTMODE
 70
     0
  9
$MIRRTEXT
 70
     0
  9
$LTSCALE
 40
1.0
  9
$ATTMODE
 70
     1
  9
$TEXTSIZE
 40
2.5
  9
$TRACEWID
 40
1.0
  9
$TEXTSTYLE
  7
STANDARD
  9
$CLAYER
  8
0
  9
$CELTYPE
  6
ByLayer
  9
$CECOLOR
 62
   256
  9
$CELTSCALE
 40
1.0
  9
$DISPSILH
 70
     0
  9
$DIMSCALE
 40
1.0
  9
$DIMASZ
 40
0.12
  9
$DIMEXO
 40
0.05
  9
$DIMDLI
 40
0.5
  9
$DIMRND
 40
0.0
  9
$DIMDLE
 40
0.0
  9
$DIMEXE
 40
0.1
  9
$DIMTP
 40
0.1
  9
$DIMTM
 40
0.1
  9
$DIMTXT
 40
0.12
  9
$DIMCEN
 40
0.0
  9
$DIMTSZ
 40
0.0
  9
$DIMTOL
 70
     0
  9
$DIMLIM
 70
     0
  9
$DIMTIH
 70
     1
  9
$DIMTOH
 70
     1
  9
$DIMSE1
 70
     0
  9
$DIMSE2
 70
     0
  9
$DIMTAD
 70
     0
  9
$DIMZIN
 70
     7
  9
$DIMBLK
  1

  9
$DIMASO
 70
     1
  9
$DIMSHO
 70
     1
  9
$DIMPOST
  1

  9
$DIMAPOST
  1
mm
  9
$DIMALT
 70
     0
  9
$DIMALTD
 70
     2
  9
$DIMALTF
 40
25.4
  9
$DIMLFAC
 40
1.0
  9
$DIMTOFL
 70
     0
  9
$DIMTVP
 40
0.0
  9
$DIMTIX
 70
     0
  9
$DIMSOXD
 70
     0
  9
$DIMSAH
 70
     0
  9
$DIMBLK1
  1

  9
$DIMBLK2
  1

  9
$DIMSTYLE
  2
AM_ANSI
  9
$DIMCLRD
 70
   256
  9
$DIMCLRE
 70
   256
  9
$DIMCLRT
 70
   140
  9
$DIMTFAC
 40
0.71
  9
$DIMGAP
 40
0.06
  9
$DIMJUST
 70
     0
  9
$DIMSD1
 70
     0
  9
$DIMSD2
 70
     0
  9
$DIMTOLJ
 70
     1
  9
$DIMTZIN
 70
     7
  9
$DIMALTZ
 70
     0
  9
$DIMALTTZ
 70
     0
  9
$DIMUPT
 70
     0
  9
$DIMDEC
 70
     4
  9
$DIMTDEC
 70
     4
  9
$DIMALTU
 70
     2
  9
$DIMALTTD
 70
     4
  9
$DIMTXSTY
  7
STANDARD
  9
$DIMAUNIT
 70
     0
  9
$DIMADEC
 70
     0
  9
$DIMALTRND
 40
0.0
  9
$DIMAZIN
 70
     2
  9
$DIMDSEP
 70
    46
  9
$DIMATFIT
 70
     3
  9
$DIMFRAC
 70
     0
  9
$DIMLDRBLK
  1

  9
$DIMLUNIT
 70
     2
  9
$DIMLWD
 70
    -1
  9
$DIMLWE
 70
    -1
  9
$DIMTMOVE
 70
     0
  9
$DIMFXL
 40
1.0
  9
$DIMFXLON
 70
     0
  9
$DIMJOGANG
 40
0.7853981633974483
  9
$DIMTFILL
 70
     0
  9
$DIMTFILLCLR
 70
     0
  9
$DIMARCSYM
 70
     1
  9
$DIMLTYPE
  6
ByBlock
  9
$DIMLTEX1
  6
ByBlock
  9
$DIMLTEX2
  6
ByBlock
  9
$LUNITS
 70
     2
  9
$LUPREC
 70
     2
  9
$SKETCHINC
 40
1.0
  9
$FILLETRAD
 40
2.5
  9
$AUNITS
 70
     0
  9
$AUPREC
 70
     0
  9
$MENU
  1
.
  9
$ELEVATION
 40
0.0
  9
$PELEVATION
 40
0.0
  9
$THICKNESS
 40
0.0
  9
$LIMCHECK
 70
     0
  9
$CHAMFERA
 40
2.5
  9
$CHAMFERB
 40
2.5
  9
$CHAMFERC
 40
0.0
  9
$CHAMFERD
 40
0.0
  9
$SKPOLY
 70
     0
  9
$TDCREATE
 40
2455251.684584873
  9
$TDUCREATE
 40
2455251.642918206
  9
$TDUPDATE
 40
2458305.390964803
  9
$TDUUPDATE
 40
2458305.349298137
  9
$TDINDWG
 40
0.0581051505
  9
$TDUSRTIMER
 40
0.0581044560
  9
$USRTIMER
 70
     1
  9
$ANGBASE
 50
0.0
  9
$ANGDIR
 70
     0
  9
$PDMODE
 70
     0
  9
$PDSIZE
 40
0.0
  9
$PLINEWID
 40
0.0
  9
$SPLFRAME
 70
     0
  9
$SPLINETYPE
 70
     6
  9
$SPLINESEGS
 70
     8
  9
$HANDSEED
  5
55366
  9
$SURFTAB1
 70
     6
  9
$SURFTAB2
 70
     6
  9
$SURFTYPE
 70
     6
  9
$SURFU
 70
     6
  9
$SURFV
 70
     6
  9
$UCSBASE
  2

  9
$UCSNAME
  2

  9
$UCSORG
 10
0.0
 20
0.0
 30
0.0
  9
$UCSXDIR
 10
1.0
 20
0.0
 30
0.0
  9
$UCSYDIR
 10
0.0
 20
1.0
 30
0.0
  9
$UCSORTHOREF
  2

  9
$UCSORTHOVIEW
 70
     0
  9
$UCSORGTOP
 10
0.0
 20
0.0
 30
0.0
  9
$UCSORGBOTTOM
 10
0.0
 20
0.0
 30
0.0
  9
$UCSORGLEFT
 10
0.0
 20
0.0
 30
0.0
  9
$UCSORGRIGHT
 10
0.0
 20
0.0
 30
0.0
  9
$UCSORGFRONT
 10
0.0
 20
0.0
 30
0.0
  9
$UCSORGBACK
 10
0.0
 20
0.0
 30
0.0
  9
$PUCSBASE
  2

  9
$PUCSNAME
  2

  9
$PUCSORG
 10
0.0
 20
0.0
 30
0.0
  9
$PUCSXDIR
 10
1.0
 20
0.0
 30
0.0
  9
$PUCSYDIR
 10
0.0
 20
1.0
 30
0.0
  9
$PUCSORTHOREF
  2

  9
$PUCSORTHOVIEW
 70
     0
  9
$PUCSORGTOP
 10
0.0
 20
0.0
 30
0.0
  9
$PUCSORGBOTTOM
 10
0.0
 20
0.0
 30
0.0
  9
$PUCSORGLEFT
 10
0.0
 20
0.0
 30
0.0
  9
$PUCSORGRIGHT
 10
0.0
 20
0.0
 30
0.0
  9
$PUCSORGFRONT
 10
0.0
 20
0.0
 30
0.0
  9
$PUCSORGBACK
 10
0.0
 20
0.0
 30
0.0
  9
$USERI1
 70
     0
  9
$USERI2
 70
     0
  9
$USERI3
 70
     0
  9
$USERI4
 70
     0
  9
$USERI5
 70
     0
  9
$USERR1
 40
0.0
  9
$USERR2
 40
0.0
  9
$USERR3
 40
0.0
  9
$USERR4
 40
0.0
  9
$USERR5
 40
0.0
  9
$WORLDVIEW
 70
     1
  9
$SHADEDGE
 70
     3
  9
$SHADEDIF
 70
    70
  9
$TILEMODE
 70
     1
  9
$MAXACTVP
 70
    64
  9
$PINSBASE
 10
0.0
 20
0.0
 30
0.0
  9
$PLIMCHECK
 70
     0
  9
$PEXTMIN
 10
1.000000000000000E+20
 20
1.000000000000000E+20
 30
1.000000000000000E+20
  9
$PEXTMAX
 10
-1.000000000000000E+20
 20
-1.000000000000000E+20
 30
-1.000000000000000E+20
  9
$PLIMMIN
 10
0.0
 20
0.0
  9
$PLIMMAX
 10
420.0
 20
297.0
  9
$UNITMODE
 70
     0
  9
$VISRETAIN
 70
     1
  9
$PLINEGEN
 70
     0
  9
$PSLTSCALE
 70
     1
  9
$TREEDEPTH
 70
  3020
  9
$CMLSTYLE
  2
Standard
  9
$CMLJUST
 70
     0
  9
$CMLSCALE
 40
1.0
  9
$PROXYGRAPHICS
 70
     1
  9
$MEASUREMENT
 70
     0
  9
$CELWEIGHT
370
    -1
  9
$ENDCAPS
280
     0
  9
$JOINSTYLE
280
     0
  9
$LWDISPLAY
290
     0
  9
$INSUNITS
 70
     0
  9
$HYPERLINKBASE
  1

  9
$STYLESHEET
  1

  9
$XEDIT
290
     1
  9
$CEPSNTYPE
380
     0
  9
$PSTYLEMODE
290
     1
  9
$FINGERPRINTGUID
  2
{7CA7D69D-36B4-42EF-92E2-8442B4B9647F}
  9
$VERSIONGUID
  2
{654FA2B2-60B5-4DAA-98C7-C0F8F6466F50}
  9
$EXTNAMES
290
     1
  9
$PSVPSCALE
 40
0.0
  9
$OLESTARTUP
290
     0
  9
$SORTENTS
280
   127
  9
$INDEXCTL
280
     0
  9
$HIDETEXT
280
     0
  9
$XCLIPFRAME
290
     0
  9
$HALOGAP
280
     0
  9
$OBSCOLOR
 70
   257
  9
$OBSLTYPE
280
     0
  9
$INTERSECTIONDISPLAY
280
     0
  9
$INTERSECTIONCOLOR
 70
   257
  9
$DIMASSOC
280
     1
  9
$PROJECTNAME
  1

  9
$CAMERADISPLAY
290
     0
  9
$LENSLENGTH
 40
50.0
  9
$CAMERAHEIGHT
 40
0.0
  9
$STEPSPERSEC
 40
2.0
  9
$STEPSIZE
 40
6.0
  9
$3DDWFPREC
 40
2.0
  9
$PSOLWIDTH
 40
0.25
  9
$PSOLHEIGHT
 40
4.0
  9
$LOFTANG1
 40
1.570796326794896
  9
$LOFTANG2
 40
1.570796326794896
  9
$LOFTMAG1
 40
0.0
  9
$LOFTMAG2
 40
0.0
  9
$LOFTPARAM
 70
     7
  9
$LOFTNORMALS
280
     1
  9
$LATITUDE
 40
37.795
  9
$LONGITUDE
 40
-122.394
  9
$NORTHDIRECTION
 40
0.0
  9
$TIMEZONE
 70
 -8000
  9
$LIGHTGLYPHDISPLAY
280
     1
  9
$TILEMODELIGHTSYNCH
280
     1
  9
$CMATERIAL
347
52BB5
  9
$SOLIDHIST
280
     1
  9
$SHOWHIST
280
     1
  9
$DWFFRAME
280
     2
  9
$DGNFRAME
280
     0
  9
$REALWORLDSCALE
290
     1
  9
$INTERFERECOLOR
 62
     1
  9
$INTERFEREOBJVS
345
52BD7
  9
$INTERFEREVPVS
346
52BD4
  9
$CSHADOW
280
     0
  9
$SHADOWPLANELOCATION
 40
0.0
  0
ENDSEC
  0
SECTION
  2
CLASSES
  0
CLASS
  1
ACDBDICTIONARYWDFLT
  2
AcDbDictionaryWithDefault
  3
ObjectDBX Classes
 90
        0
 91
        1
280
     0
281
     0
  0
CLASS
  1
MATERIAL
  2
AcDbMaterial
  3
ObjectDBX Classes
 90
     1153
 91
        3
280
     0
281
     0
  0
CLASS
  1
VISUALSTYLE
  2
AcDbVisualStyle
  3
ObjectDBX Classes
 90
     4095
 91
       16
280
     0
281
     0
  0
CLASS
  1
SCALE
  2
AcDbScale
  3
ObjectDBX Classes
 90
     1153
 91
       33
280
     0
281
     0
  0
CLASS
  1
TABLESTYLE
  2
AcDbTableStyle
  3
ObjectDBX Classes
 90
     4095
 91
        1
280
     0
281
     0
  0
CLASS
  1
MLEADERSTYLE
  2
AcDbMLeaderStyle
  3
ACDB_MLEADERSTYLE_CLASS
 90
     4095
 91
        1
280
     0
281
     0
  0
CLASS
  1
EXACXREFPANELOBJECT
  2
ExAcXREFPanelObject
  3
EXAC_ESW
 90
     1025
 91
        1
280
     0
281
     0
  0
CLASS
  1
NPOCOLLECTION
  2
AcDbImpNonPersistentObjectsCollection
  3
ObjectDBX Classes
 90
     1153
 91
        1
280
     0
281
     0
  0
CLASS
  1
DIMASSOC
  2
AcDbDimAssoc
  3
"AcDbDimAssoc|Product Desc:     AcDim ARX App For Dimension|Company:          Autodesk, Inc.|WEB Address:      www.autodesk.com"
 90
        0
 91
       14
280
     0
281
     0
  0
CLASS
  1
SORTENTSTABLE
  2
AcDbSortentsTable
  3
ObjectDBX Classes
 90
        0
 91
        1
280
     0
281
     0
  0
CLASS
  1
DICTIONARYVAR
  2
AcDbDictionaryVar
  3
ObjectDBX Classes
 90
        0
 91
        7
280
     0
281
     0
  0
CLASS
  1
CELLSTYLEMAP
  2
AcDbCellStyleMap
  3
ObjectDBX Classes
 90
     1152
 91
        2
280
     0
281
     0
  0
CLASS
  1
AMGSETTINGSOBJ
  2
AmgSettingsObj
  3
"AcadM|Product Description: AutoCAD Mechanical|Company: Autodesk, Inc."
 90
     1024
 91
        2
280
     0
281
     0
  0
CLASS
  1
ACME_DOCUMENT
  2
AcMeDbDoc
  3
AcMeServices
 90
     1024
 91
        1
280
     0
281
     0
  0
CLASS
  1
ACMESCOPE
  2
AcMeScope
  3
AcMeServices
 90
     1024
 91
        1
280
     0
281
     0
  0
CLASS
  1
ACMECOMMANDHISTORY
  2
AcMeCommandHistory
  3
AcMeServices
 90
     1024
 91
        1
280
     0
281
     0
  0
CLASS
  1
ACIMSYSVARMAN
  2
AcImSysVarManager
  3
AcMeServices
 90
     1024
 91
        5
280
     0
281
     0
  0
CLASS
  1
ACIMINTSYSVAR
  2
AcImIntSysVar
  3
AcMeServices
 90
     1024
 91
       27
280
     0
281
     0
  0
CLASS
  1
ACMEDRAWINGMAN
  2
AcMeDrawingMan
  3
AcMeServices
 90
     1024
 91
        1
280
     0
281
     0
  0
CLASS
  1
ACMEVIEW
  2
AcMeView
  3
AcMeServices
 90
     1024
 91
        1
280
     0
281
     0
  0
CLASS
  1
ACDBENTITYCACHE
  2
AcMeEntityCache
  3
AcMeServices
 90
     1024
 91
        1
280
     0
281
     0
  0
CLASS
  1
GSMANAGER
  2
AcMeGSManager
  3
AcMeServices
 90
     1024
 91
        1
280
     0
281
     0
  0
CLASS
  1
AMDTINTERNALREACTOR
  2
AmdtInternalReactor
  3
AcMeServices
 90
     1024
 91
        2
280
     0
281
     0
  0
CLASS
  1
ACMESTATEMGR
  2
AcMeStateMgr
  3
AcMeServices
 90
     1024
 91
        1
280
     0
281
     0
  0
CLASS
  1
ACGREFMASTER
  2
AcGrefMaster
  3
AcAttribServices
 90
     1024
 91
        1
280
     0
281
     0
  0
CLASS
  1
AM_DRAWING_MGR
  2
AcDmDwgMgr
  3
AcMechDwgViewMgmt
 90
     1024
 91
        1
280
     0
281
     0
  0
CLASS
  1
AM_DWG_DOCUMENT
  2
AcDmDwgDocument
  3
AcMechDwgViewMgmt
 90
     1024
 91
        1
280
     0
281
     0
  0
CLASS
  1
AM_DWG_SHEET
  2
AcDmSheet
  3
AcMechDwgViewMgmt
 90
     1024
 91
        1
280
     0
281
     0
  0
CLASS
  1
AM_VIEWDIMPARMAP
  2
AcDmViewDimParMap
  3
AcMechDwgViewMgmt
 90
     1024
 91
        1
280
     0
281
     0
  0
CLASS
  1
ACIMREALSYSVAR
  2
AcImRealSysVar
  3
AcMeServices
 90
     1024
 91
        1
280
     0
281
     0
  0
CLASS
  1
AM_DWGMGR_NAME
  2
AcDmDwgMgrName
  3
AcMechDwgViewMgmt
 90
     1024
 91
        1
280
     0
281
     0
  0
CLASS
  1
ACME_DATABASE
  2
AcMeDbDatabase
  3
AcMeServices
 90
     1024
 91
        2
280
     0
281
     0
  0
CLASS
  1
ACRFINSADJUSTERMGR
  2
AcRfInsAdjusterMgr
  3
AcMeServices
 90
     1024
 91
        1
280
     0
281
     0
  0
CLASS
  1
ACGREFACADMASTER
  2
AcGrefacadMaster
  3
AcGrefServices
 90
     1024
 91
        1
280
     0
281
     0
  0
CLASS
  1
AMDTMENUSTATEMGR
  2
AmdtMenuStateMgr
  3
McadcomServices
 90
     1024
 91
        1
280
     0
281
     0
  0
CLASS
  1
AMDTMCOMMENUSTATE
  2
AmdtMcomMenuState
  3
McadcomServices
 90
     1024
 91
        1
280
     0
281
     0
  0
CLASS
  1
AMIMASTER
  2
AmiMaster
  3
AmiServices
 90
     1024
 91
        1
280
     0
281
     0
  0
CLASS
  1
MAPIAMMOUDLE
  2
MApiAmModule
  3
MApiAmServices
 90
     1024
 91
        1
280
     0
281
     0
  0
CLASS
  1
ACIMSTRSYSVAR
  2
AcImStrSysVar
  3
AcMeServices
 90
     1024
 91
        5
280
     0
281
     0
  0
CLASS
  1
AMDTADMENUSTATE
  2
AmdtAdMenuState
  3
DesignerServices
 90
     1024
 91
        1
280
     0
281
     0
  0
CLASS
  1
ADAPPL
  2
AcAdAppl
  3
DesignerServices
 90
     1024
 91
        1
280
     0
281
     0
  0
CLASS
  1
DEPMGR
  2
AcAdDepMgr
  3
DesignerServices
 90
     1024
 91
        1
280
     0
281
     0
  0
CLASS
  1
PARAMMGR
  2
AcAdParamMgr
  3
DesignerServices
 90
     1024
 91
        1
280
     0
281
     0
  0
CLASS
  1
PARAMSCOPE
  2
AcAdParamScope
  3
DesignerServices
 90
     1024
 91
        1
280
     0
281
     0
  0
CLASS
  1
NAMEDAPPL
  2
AcAdNamedAppl
  3
DesignerServices
 90
     1024
 91
        1
280
     0
281
     0
  0
CLASS
  1
AMDTDMMENUSTATE
  2
AmdtDmMenuState
  3
AcMechDwgViewMgmt
 90
     1024
 91
        1
280
     0
281
     0
  0
CLASS
  1
AMDTAMMENUSTATE
  2
AmdtAmMenuState
  3
DesignerAssemblies
 90
     1024
 91
        1
280
     0
281
     0
  0
CLASS
  1
ACAMPROJECT
  2
AcAmProject
  3
DesignerAssemblies
 90
     1024
 91
        1
280
     0
281
     0
  0
CLASS
  1
ACAMGRCOMPDEF
  2
AcAmGrCompDef
  3
DesignerAssemblies
 90
     1024
 91
        1
280
     0
281
     0
  0
CLASS
  1
ACCMCONTEXT
  2
AcCmContext
  3
DesignerAssemblies
 90
     1024
 91
        1
280
     0
281
     0
  0
CLASS
  1
ACAMCOMPDEF
  2
AcAmCompDef
  3
DesignerAssemblies
 90
     1024
 91
        1
280
     0
281
     0
  0
CLASS
  1
ACAMCOMPDEFMGR
  2
AcAmCompDefMgr
  3
DesignerAssemblies
 90
     1024
 91
        1
280
     0
281
     0
  0
CLASS
  1
AMCONTEXTMGR
  2
AcAmContextMgr
  3
DesignerAssemblies
 90
     1024
 91
        1
280
     0
281
     0
  0
CLASS
  1
ACAMCONTEXTMODELER
  2
AcAmContextModeler
  3
DesignerAssemblies
 90
     1024
 91
        1
280
     0
281
     0
  0
CLASS
  1
ACMDATADICTIONARY
  2
AcmDataDictionary
  3
"AcmSymBB|Product Description: AutoCAD Mechanical|Company: Autodesk, Inc."
 90
     1024
 91
        1
280
     0
281
     0
  0
CLASS
  1
CATALOGSTATE
  2
AcAmCatalogState
  3
DesignerAssemblies
 90
     1024
 91
        1
280
     0
281
     0
  0
CLASS
  1
ACAMGRCOMPDEFSET
  2
AcAmGrCompDefSet
  3
DesignerAssemblies
 90
     1024
 91
        1
280
     0
281
     0
  0
CLASS
  1
AMDTBROWSERDBTAB
  2
AmdtBrowserDbTab
  3
McadcomServices
 90
     1024
 91
        1
280
     0
281
     0
  0
CLASS
  1
CBROWSERAPPOBJECT
  2
CBrowserAppObject
  3
McadcomServices
 90
     1024
 91
        3
280
     0
281
     0
  0
CLASS
  1
DM_PLACEHOLDER
  2
AcDmSelsetPlaceholder
  3
AcMechDwgViewMgmt
 90
     1024
 91
        1
280
     0
281
     0
  0
CLASS
  1
ACMSTANDARDANSI
  2
AcmStandardANSI
  3
"Amdt_StdImp|Product Description: AutoCAD Mechanical|Company: Autodesk, Inc."
 90
     1024
 91
        1
280
     0
281
     0
  0
CLASS
  1
ACMSURFSTANDARDANSI
  2
AcmSurfTextStdANSI
  3
"Amdt_StdImp|Product Description: AutoCAD Mechanical|Company: Autodesk, Inc."
 90
     1024
 91
        1
280
     0
281
     0
  0
CLASS
  1
ACMFCFSTANDARDANSI
  2
AcmFCFStdANSI
  3
"Amdt_StdImp|Product Description: AutoCAD Mechanical|Company: Autodesk, Inc."
 90
     1024
 91
        1
280
     0
281
     0
  0
CLASS
  1
ACMWELDSTANDARDANSI
  2
AcmWeldingStdANSI
  3
"Amdt_StdImp|Product Description: AutoCAD Mechanical|Company: Autodesk, Inc."
 90
     1024
 91
        1
280
     0
281
     0
  0
CLASS
  1
ACMIDSTANDARDANSI
  2
AcmIdStdANSI
  3
"Amdt_StdImp|Product Description: AutoCAD Mechanical|Company: Autodesk, Inc."
 90
     1024
 91
        1
280
     0
281
     0
  0
CLASS
  1
ACMDATUMSTANDARDANSI
  2
AcmDatumStdANSI
  3
"Amdt_StdImp|Product Description: AutoCAD Mechanical|Company: Autodesk, Inc."
 90
     1024
 91
        1
280
     0
281
     0
  0
CLASS
  1
ACMBOMSTANDARDANSI
  2
AcmBOMStdANSI
  3
"Amdt_StdImp|Product Description: AutoCAD Mechanical|Company: Autodesk, Inc."
 90
     1024
 91
        1
280
     0
281
     0
  0
CLASS
  1
ACMDETAILSTANDARDANSI
  2
AmdtDetailSymStdANSI
  3
"Amdt_StdImp|Product Description: AutoCAD Mechanical|Company: Autodesk, Inc."
 90
     1024
 91
        1
280
     0
281
     0
  0
CLASS
  1
ACMSECTIONSTANDARDANSI
  2
AmdtSectionSymStdANSI
  3
"Amdt_StdImp|Product Description: AutoCAD Mechanical|Company: Autodesk, Inc."
 90
     1024
 91
        1
280
     0
281
     0
  0
CLASS
  1
ACMCENTERLINESTANDARDANSI
  2
AmdtCenterLineStdANSI
  3
"Amdt_StdImp|Product Description: AutoCAD Mechanical|Company: Autodesk, Inc."
 90
     1024
 91
        1
280
     0
281
     0
  0
CLASS
  1
ACMTHREADLINESTANDARDANSI
  2
AmdtThreadLineStdANSI
  3
"Amdt_StdImp|Product Description: AutoCAD Mechanical|Company: Autodesk, Inc."
 90
     1024
 91
        1
280
     0
281
     0
  0
CLASS
  1
ACMNOTESTANDARDANSI
  2
AmdtNoteStdANSI
  3
"Amdt_StdImp|Product Description: AutoCAD Mechanical|Company: Autodesk, Inc."
 90
     1024
 91
        1
280
     0
281
     0
  0
CLASS
  1
ACMTAPERSTANDARDANSI
  2
AcmTaperStdANSI
  3
"Amdt_StdImp|Product Description: AutoCAD Mechanical|Company: Autodesk, Inc."
 90
     1024
 91
        1
280
     0
281
     0
  0
CLASS
  1
ACMANOOTATIONVIEWSTANDARDANSI
  2
AmdtAnViewStdANSI
  3
"Amdt_StdImp|Product Description: AutoCAD Mechanical|Company: Autodesk, Inc."
 90
     1024
 91
        1
280
     0
281
     0
  0
CLASS
  1
ACAMGLAYSTD
  2
AcAmgLayStd
  3
"AmgLay|Product Description: AutoCAD Mechanical|Company: Autodesk, Inc."
 90
     1024
 91
        2
280
     0
281
     0
  0
CLASS
  1
ACAMGDIMSTD
  2
AcAmgDimStd
  3
"AmgDim|Product Description: AutoCAD Mechanical|Company: Autodesk, Inc."
 90
     1024
 91
        2
280
     0
281
     0
  0
CLASS
  1
AMGOBJPROPCFG
  2
AmgObjPropCfg
  3
"AmgLay|Product Description: AutoCAD Mechanical|Company: Autodesk, Inc."
 90
     1025
 91
        1
280
     0
281
     0
  0
CLASS
  1
ACAMGHOLECHARTSTDANSI
  2
AcAmgHoleChartStdANSI
  3
AmgDim|Product Description: AutoCAD Mechanical|Company: Autodesk, Inc.
 90
     1024
 91
        1
280
     0
281
     0
  0
CLASS
  1
ACAMGTITLESTD
  2
AcAmgTitleStd
  3
"AmgTitle|Product Description: AutoCAD Mechanical|Company: Autodesk, Inc."
 90
     4095
 91
        2
280
     0
281
     0
  0
CLASS
  1
AMDTNOTETEMPLATEDB
  2
AmdtNoteTemplateDB
  3
AcmSymBB|Product Description: AutoCAD Mechanical|Company: Autodesk, Inc.
 90
     1024
 91
       12
280
     0
281
     0
  0
CLASS
  1
ACMSTANDARDISO
  2
AcmStandardISO
  3
"Amdt_StdImp|Product Description: AutoCAD Mechanical|Company: Autodesk, Inc."
 90
     1024
 91
        1
280
     0
281
     0
  0
CLASS
  1
ACMSURFSTANDARDISO2002
  2
AcmSurfTextStdISO2002
  3
"Amdt_StdImp|Product Description: AutoCAD Mechanical|Company: Autodesk, Inc."
 90
     1024
 91
        1
280
     0
281
     0
  0
CLASS
  1
ACMFCFSTANDARDISO
  2
AcmFCFStdISO
  3
"Amdt_StdImp|Product Description: AutoCAD Mechanical|Company: Autodesk, Inc."
 90
     1024
 91
        1
280
     0
281
     0
  0
CLASS
  1
ACMWELDSTANDARDISO
  2
AcmWeldingStdISO
  3
"Amdt_StdImp|Product Description: AutoCAD Mechanical|Company: Autodesk, Inc."
 90
     1024
 91
        1
280
     0
281
     0
  0
CLASS
  1
ACMIDSTANDARDISO
  2
AcmIdStdISO
  3
"Amdt_StdImp|Product Description: AutoCAD Mechanical|Company: Autodesk, Inc."
 90
     1024
 91
        1
280
     0
281
     0
  0
CLASS
  1
ACMDATUMSTANDARDISO
  2
AcmDatumStdISO
  3
"Amdt_StdImp|Product Description: AutoCAD Mechanical|Company: Autodesk, Inc."
 90
     1024
 91
        1
280
     0
281
     0
  0
CLASS
  1
ACMBOMSTANDARDISO
  2
AcmBOMStdISO
  3
"Amdt_StdImp|Product Description: AutoCAD Mechanical|Company: Autodesk, Inc."
 90
     1024
 91
        1
280
     0
281
     0
  0
CLASS
  1
ACMDETAILSTANDARDISO
  2
AmdtDetailSymStdISO
  3
"Amdt_StdImp|Product Description: AutoCAD Mechanical|Company: Autodesk, Inc."
 90
     1024
 91
        1
280
     0
281
     0
  0
CLASS
  1
ACMSECTIONSTANDARDISO2001
  2
AmdtSectionSymStdISO2001
  3
"Amdt_StdImp|Product Description: AutoCAD Mechanical|Company: Autodesk, Inc."
 90
     1024
 91
        1
280
     0
281
     0
  0
CLASS
  1
ACMCENTERLINESTANDARDISO
  2
AmdtCenterLineStdISO
  3
"Amdt_StdImp|Product Description: AutoCAD Mechanical|Company: Autodesk, Inc."
 90
     1024
 91
        1
280
     0
281
     0
  0
CLASS
  1
ACMNOTESTANDARDISO
  2
AmdtNoteStdISO
  3
"Amdt_StdImp|Product Description: AutoCAD Mechanical|Company: Autodesk, Inc."
 90
     1024
 91
        1
280
     0
281
     0
  0
CLASS
  1
ACAMGHOLECHARTSTDISO
  2
AcAmgHoleChartStdISO
  3
AmgDim|Product Description: AutoCAD Mechanical|Company: Autodesk, Inc.
 90
     1024
 91
        1
280
     0
281
     0
  0
CLASS
  1
ACMTHREADLINESTANDARDISO
  2
AmdtThreadLineStdISO
  3
"Amdt_StdImp|Product Description: AutoCAD Mechanical|Company: Autodesk, Inc."
 90
     1024
 91
        1
280
     0
281
     0
  0
CLASS
  1
ACMTAPERSTANDARDISO
  2
AcmTaperStdISO
  3
"Amdt_StdImp|Product Description: AutoCAD Mechanical|Company: Autodesk, Inc."
 90
     1024
 91
        1
280
     0
281
     0
  0
CLASS
  1
ACMANOOTATIONVIEWSTANDARDISO
  2
AmdtAnViewStdISO
  3
"Amdt_StdImp|Product Description: AutoCAD Mechanical|Company: Autodesk, Inc."
 90
     1024
 91
        1
280
     0
281
     0
  0
CLASS
  1
AMDTEDGESTANDARDISO13715
  2
AmdtEdgeStdISO13715
  3
"Amdt_StdImp|Product Description: AutoCAD Mechanical|Company: Autodesk, Inc."
 90
     1024
 91
        1
280
     0
281
     0
  0
CLASS
  1
ACMDATAENTRYBLOCK
  2
AcmDataEntryBlock
  3
AcmSymBB|Product Description: AutoCAD Mechanical|Company: Autodesk, Inc.
 90
     1024
 91
        1
280
     0
281
     0
  0
CLASS
  1
ACAMGFILTERDAT
  2
AcAmgFilterDat
  3
"AcadM|Product Description: AutoCAD Mechanical|Company: Autodesk, Inc."
 90
     1024
 91
        0
280
     0
281
     0
  0
ENDSEC
  0
SECTION
  2
TABLES
  0
TABLE
  2
VPORT
  5
52BAC
330
0
100
AcDbSymbolTable
 70
     1
  0
VPORT
  5
52C1C
330
52BAC
100
AcDbSymbolTableRecord
100
AcDbViewportTableRecord
  2
*ACTIVE
 70
     0
 10
0.0
 20
0.0
 11
1.0
 21
1.0
 12
30531.62612432195
 22
25881.37486906428
 13
0.0
 23
0.0
 14
2.5
 24
2.5
 15
10.0
 25
10.0
 16
0.0
 26
0.0
 36
1.0
 17
0.0
 27
0.0
 37
0.0
 40
1893.807061541441
 41
1.929455445544554
 42
50.0
 43
0.0
 44
0.0
 50
0.0
 51
0.0
 71
     0
 72
  1000
 73
     1
 74
     3
 75
     0
 76
     0
 77
     0
 78
     0
281
     0
 65
     0
110
0.0
120
0.0
130
0.0
111
1.0
121
0.0
131
0.0
112
0.0
122
1.0
132
0.0
 79
     0
146
0.0
348
52BD3
 60
     3
 61
     5
292
     1
282
     0
141
0.0
142
0.0
 63
   250
421
  3355443
  0
ENDTAB
  0
TABLE
  2
LTYPE
  5
52BA9
330
0
100
AcDbSymbolTable
 70
    23
  0
LTYPE
  5
52C06
330
52BA9
100
AcDbSymbolTableRecord
100
AcDbLinetypeTableRecord
  2
ByBlock
 70
     0
  3

 72
    65
 73
     0
 40
0.0
  0
LTYPE
  5
52C07
330
52BA9
100
AcDbSymbolTableRecord
100
AcDbLinetypeTableRecord
  2
ByLayer
 70
     0
  3

 72
    65
 73
     0
 40
0.0
  0
LTYPE
  5
52C08
330
52BA9
100
AcDbSymbolTableRecord
100
AcDbLinetypeTableRecord
  2
CONTINUOUS
 70
     0
  3
Solid line
 72
    65
 73
     0
 40
0.0
  0
LTYPE
  5
52C1D
330
52BA9
100
AcDbSymbolTableRecord
100
AcDbLinetypeTableRecord
  2
DASHED2
 70
     0
  3
Dashed (.5x) _ _ _ _ _ _ _ _ _ _ _ _ _ _ _ _ _
 72
    65
 73
     2
 40
9.524999999999996
 49
6.349999999999997
 74
     0
 49
-3.174999999999998
 74
     0
  0
LTYPE
  5
530E8
330
52BA9
100
AcDbSymbolTableRecord
100
AcDbLinetypeTableRecord
  2
HIDDEN
 70
     0
  3
Hidden __ __ __ __ __ __ __ __ __ __ __ __ __ _
 72
    65
 73
     2
 40
0.375
 49
0.25
 74
     0
 49
-0.125
 74
     0
  0
LTYPE
  5
530E9
330
52BA9
100
AcDbSymbolTableRecord
100
AcDbLinetypeTableRecord
  2
PHANTOM2
 70
     0
  3
Phantom (.5x) ___ _ _ ___ _ _ ___ _ _ ___ _ _
 72
    65
 73
     6
 40
1.25
 49
0.625
 74
     0
 49
-0.125
 74
     0
 49
0.125
 74
     0
 49
-0.125
 74
     0
 49
0.125
 74
     0
 49
-0.125
 74
     0
  0
LTYPE
  5
530EA
330
52BA9
100
AcDbSymbolTableRecord
100
AcDbLinetypeTableRecord
  2
CENTER
 70
     0
  3
Center ____ _ ____ _ ____ _ ____ _ ____ _ ____
 72
    65
 73
     4
 40
2.0
 49
1.25
 74
     0
 49
-0.25
 74
     0
 49
0.25
 74
     0
 49
-0.25
 74
     0
  0
LTYPE
  5
5312F
330
52BA9
100
AcDbSymbolTableRecord
100
AcDbLinetypeTableRecord
  2
Amconstr
 70
     0
  3
_______________________
 72
    65
 73
     2
 40
9999.0
 49
9999.0
 74
     0
 49
0.0
 74
     0
  0
LTYPE
  5
53135
330
52BA9
100
AcDbSymbolTableRecord
100
AcDbLinetypeTableRecord
  2
CENTER2
 70
     0
  3
Center (.5x) ___ _ ___ _ ___ _ ___ _ ___ _ ___
 72
    65
 73
     4
 40
1.125
 49
0.75
 74
     0
 49
-0.125
 74
     0
 49
0.125
 74
     0
 49
-0.125
 74
     0
  0
LTYPE
  5
53136
330
52BA9
100
AcDbSymbolTableRecord
100
AcDbLinetypeTableRecord
  2
HIDDEN2
 70
     0
  3
Hidden (.5x) _ _ _ _ _ _ _ _ _ _ _ _ _ _ _ _ _
 72
    65
 73
     2
 40
0.1875
 49
0.125
 74
     0
 49
-0.0625
 74
     0
  0
LTYPE
  5
53137
330
52BA9
100
AcDbSymbolTableRecord
100
AcDbLinetypeTableRecord
  2
Amzigzag2
 70
     0
  3
/\/-/\/-/\/-/\/-/\/-/\/
 72
    65
 73
     2
 40
0.4401
 49
0.0001
 74
     4
 75
   136
340
53133
 46
0.0016
 50
0.0
 44
0.0
 45
0.0
 49
-0.4400000000000003
 74
     0
  0
LTYPE
  5
53145
330
52BA9
100
AcDbSymbolTableRecord
100
AcDbLinetypeTableRecord
  2
ACANSTGB
 70
     0
  3
__ . . __ . .
 72
    65
 73
     6
 40
0.35433070866
 49
0.15748031496
 74
     0
 49
-0.03937007874
 74
     0
 49
0.03937007874
 74
     0
 49
-0.03937007874
 74
     0
 49
0.03937007874
 74
     0
 49
-0.03937007874
 74
     0
  0
LTYPE
  5
53146
330
52BA9
100
AcDbSymbolTableRecord
100
AcDbLinetypeTableRecord
  2
ACANSTGL
 70
     0
  3
_ _ _ _ _
 72
    65
 73
     2
 40
0.11811023622
 49
0.07874015748
 74
     0
 49
-0.03937007874
 74
     0
  0
LTYPE
  5
5317A
330
52BA9
100
AcDbSymbolTableRecord
100
AcDbLinetypeTableRecord
  2
ACISOWELD
 70
     0
  3
_ _ _ _ _
 72
    65
 73
     2
 40
2.0
 49
2.0
 74
     0
 49
-1.0
 74
     0
  0
LTYPE
  5
5317B
330
52BA9
100
AcDbSymbolTableRecord
100
AcDbLinetypeTableRecord
  2
ACISOTGB
 70
     0
  3
__ . . __ . .
 72
    65
 73
     6
 40
9.0
 49
4.0
 74
     0
 49
-1.0
 74
     0
 49
1.0
 74
     0
 49
-1.0
 74
     0
 49
1.0
 74
     0
 49
-1.0
 74
     0
  0
LTYPE
  5
5317C
330
52BA9
100
AcDbSymbolTableRecord
100
AcDbLinetypeTableRecord
  2
ACISOTGL
 70
     0
  3
_ _ _ _ _
 72
    65
 73
     2
 40
3.0
 49
2.0
 74
     0
 49
-1.0
 74
     0
  0
LTYPE
  5
55230
330
52BA9
100
AcDbSymbolTableRecord
100
AcDbLinetypeTableRecord
  2
AM_ISO02W050
 70
     0
  3
__ __ __ __ __ __ __ __ __ __ __ __ __ __ __
 72
    65
 73
     2
 40
7.5
 49
6.0
 74
     0
 49
-1.5
 74
     0
  0
LTYPE
  5
55231
330
52BA9
100
AcDbSymbolTableRecord
100
AcDbLinetypeTableRecord
  2
AM_ISO08W050
 70
     0
  3
____ . ____ . ____ . ____ . ____ . ____ . ____
 72
    65
 73
     4
 40
18.0
 49
12.0
 74
     0
 49
-1.5
 74
     0
 49
3.0
 74
     0
 49
-1.5
 74
     0
  0
LTYPE
  5
55232
330
52BA9
100
AcDbSymbolTableRecord
100
AcDbLinetypeTableRecord
  2
AM_ISO09W050
 70
     0
  3
_____ . . _____ . . _____ . . ____ .. ____
 72
    65
 73
     6
 40
22.5
 49
12.0
 74
     0
 49
-1.5
 74
     0
 49
3.0
 74
     0
 49
-1.5
 74
     0
 49
3.0
 74
     0
 49
-1.5
 74
     0
  0
LTYPE
  5
55233
330
52BA9
100
AcDbSymbolTableRecord
100
AcDbLinetypeTableRecord
  2
AM_ISO08W050x2
 70
     0
  3
__ . __ . __ . __ . __ . __
 72
    65
 73
     4
 40
9.0
 49
6.0
 74
     0
 49
-0.75
 74
     0
 49
1.5
 74
     0
 49
-0.75
 74
     0
  0
LTYPE
  5
55234
330
52BA9
100
AcDbSymbolTableRecord
100
AcDbLinetypeTableRecord
  2
AM_ISO02W050x2
 70
     0
  3
 _ _ _ _ _ _ _ _ _ _ _ _
 72
    65
 73
     2
 40
3.75
 49
3.0
 74
     0
 49
-0.75
 74
     0
  0
LTYPE
  5
55235
330
52BA9
100
AcDbSymbolTableRecord
100
AcDbLinetypeTableRecord
  2
Amzigzag
 70
     0
  3
/\/-/\/-/\/-/\/-/\/-/\/
 72
    65
 73
     2
 40
11.0001
 49
0.0001
 74
     4
 75
   136
340
53133
 46
0.04
 50
0.0
 44
0.0
 45
0.0
 49
-11.0
 74
     0
  0
LTYPE
  5
55286
330
52BA9
100
AcDbSymbolTableRecord
100
AcDbLinetypeTableRecord
  2
DASHDOT
 70
     0
  3
Dash dot __ . __ . __ . __ . __ . __ . __ . __
 72
    65
 73
     4
 40
25.4
 49
12.7
 74
     0
 49
-6.349999999999999
 74
     0
 49
0.0
 74
     0
 49
-6.349999999999999
 74
     0
  0
LTYPE
  5
55287
330
52BA9
100
AcDbSymbolTableRecord
100
AcDbLinetypeTableRecord
  2
ACAD_ISO02W100
 70
     0
  3
ISO dash __ __ __ __ __ __ __ __ __ __ __ __ __
 72
    65
 73
     2
 40
15.0
 49
12.0
 74
     0
 49
-3.0
 74
     0
  0
ENDTAB
  0
TABLE
  2
LAYER
  5
52BA6
102
{ACAD_XDICTIONARY
360
52CA6
102
}
330
0
100
AcDbSymbolTable
 70
     8
  0
LAYER
  5
52C00
102
{ACAD_XDICTIONARY
360
52DA2
102
}
330
52BA6
100
AcDbSymbolTableRecord
100
AcDbLayerTableRecord
  2
0
 70
     0
 62
     7
  6
CONTINUOUS
370
    -3
390
52BB3
347
52BC5
  0
LAYER
  5
52C1E
102
{ACAD_XDICTIONARY
360
52DA4
102
}
330
52BA6
100
AcDbSymbolTableRecord
100
AcDbLayerTableRecord
  2
LAYER1
 70
     0
 62
     1
  6
CONTINUOUS
370
    -3
390
52BB3
347
52BC5
  0
LAYER
  5
52C1F
330
52BA6
100
AcDbSymbolTableRecord
100
AcDbLayerTableRecord
  2
DEFPOINTS
 70
     0
 62
     7
  6
CONTINUOUS
290
     0
370
    -3
390
52BB3
347
52BC5
  0
LAYER
  5
52C21
102
{ACAD_XDICTIONARY
360
52DA8
102
}
330
52BA6
100
AcDbSymbolTableRecord
100
AcDbLayerTableRecord
  2
CUTOUT
 70
     0
 62
    60
  6
CONTINUOUS
370
    -3
390
52BB3
347
52BC5
  0
LAYER
  5
52C9C
102
{ACAD_XDICTIONARY
360
52DAC
102
}
330
52BA6
100
AcDbSymbolTableRecord
100
AcDbLayerTableRecord
  2
DIMS SPECS
 70
     0
 62
    41
  6
CONTINUOUS
370
    35
390
52BB3
347
52BC5
  0
LAYER
  5
5317E
330
52BA6
100
AcDbSymbolTableRecord
100
AcDbLayerTableRecord
  2
sink_label
 70
     0
 62
    80
  6
CONTINUOUS
370
    -3
390
52BB3
347
52BC5
1001
ACAECLAYERSTANDARD
1000

1000

  0
LAYER
  5
53490
330
52BA6
100
AcDbSymbolTableRecord
100
AcDbLayerTableRecord
  2
sink_specs
 70
     0
 62
   254
  6
CONTINUOUS
370
    35
390
52BB3
347
52BC5
1001
ACAECLAYERSTANDARD
1000

1000

  0
LAYER
  5
55288
330
52BA6
100
AcDbSymbolTableRecord
100
AcDbLayerTableRecord
  2
overflow part
 70
     0
 62
    40
  6
CONTINUOUS
290
     0
370
    30
390
52BB3
347
52BC5
1001
ACAECLAYERSTANDARD
1000

1000

  0
ENDTAB
  0
TABLE
  2
STYLE
  5
52BA7
330
0
100
AcDbSymbolTable
 70
     8
  0
STYLE
  5
52C01
330
52BA7
100
AcDbSymbolTableRecord
100
AcDbTextStyleTableRecord
  2
STANDARD
 70
     0
 40
0.0
 41
1.0
 50
0.0
 71
     0
 42
2.5
  3
ISOCP.SHX
  4

  0
STYLE
  5
52C23
330
52BA7
100
AcDbSymbolTableRecord
100
AcDbTextStyleTableRecord
  2
ACISOTS
 70
     0
 40
1.0
 41
1.0
 50
0.0
 71
     0
 42
2.5
  3
isocp.shx
  4

  0
STYLE
  5
52C24
330
52BA7
100
AcDbSymbolTableRecord
100
AcDbTextStyleTableRecord
  2
ABODE-ISO
 70
     0
 40
17.0
 41
0.9
 50
0.0
 71
     0
 42
0.2
  3
txt
  4

  0
STYLE
  5
53133
330
52BA7
100
AcDbSymbolTableRecord
100
AcDbTextStyleTableRecord
  2

 70
     1
 40
0.0
 41
1.0
 50
0.0
 71
     0
 42
2.5
  3
genltshp.shx
  4

  0
STYLE
  5
53144
330
52BA7
100
AcDbSymbolTableRecord
100
AcDbTextStyleTableRecord
  2
ACANSGDT
 70
     0
 40
0.0
 41
1.0
 50
0.0
 71
     0
 42
2.5
  3
amgdt.shx
  4

  0
STYLE
  5
53180
330
52BA7
100
AcDbSymbolTableRecord
100
AcDbTextStyleTableRecord
  2
ACISOGDT
 70
     0
 40
0.0
 41
1.0
 50
0.0
 71
     0
 42
2.5
  3
amgdt.shx
  4

  0
STYLE
  5
53181
330
52BA7
100
AcDbSymbolTableRecord
100
AcDbTextStyleTableRecord
  2
Abode ISO Bold
 70
     0
 40
17.0
 41
0.9
 50
0.0
 71
     0
 42
1.0
  3
GOTHICB.TTF
  4

1001
ACAD
1000
Century Gothic
1071
 33554466
  0
STYLE
  5
55237
330
52BA7
100
AcDbSymbolTableRecord
100
AcDbTextStyleTableRecord
  2
ACANSTS
 70
     0
 40
1.0
 41
1.0
 50
0.0
 71
     0
 42
2.5
  3
romans.shx
  4

  0
ENDTAB
  0
TABLE
  2
VIEW
  5
52BAA
330
0
100
AcDbSymbolTable
 70
     0
  0
ENDTAB
  0
TABLE
  2
UCS
  5
52BAB
330
0
100
AcDbSymbolTable
 70
     0
  0
ENDTAB
  0
TABLE
  2
APPID
  5
52BAD
330
0
100
AcDbSymbolTable
 70
    23
  0
APPID
  5
52C02
330
52BAD
100
AcDbSymbolTableRecord
100
AcDbRegAppTableRecord
  2
ACAD
 70
     0
  0
APPID
  5
52C09
330
52BAD
100
AcDbSymbolTableRecord
100
AcDbRegAppTableRecord
  2
ACADANNOTATIVE
 70
     0
  0
APPID
  5
52C13
330
52BAD
100
AcDbSymbolTableRecord
100
AcDbRegAppTableRecord
  2
ACAD_MLEADERVER
 70
     0
  0
APPID
  5
52C25
330
52BAD
100
AcDbSymbolTableRecord
100
AcDbRegAppTableRecord
  2
MCAD_NO_VIS
 70
     0
  0
APPID
  5
52C26
330
52BAD
100
AcDbSymbolTableRecord
100
AcDbRegAppTableRecord
  2
ACAD_TEMP_GRAPHIC
 70
     0
  0
APPID
  5
52C27
330
52BAD
100
AcDbSymbolTableRecord
100
AcDbRegAppTableRecord
  2
AD_DRAW
 70
     0
  0
APPID
  5
52C28
330
52BAD
100
AcDbSymbolTableRecord
100
AcDbRegAppTableRecord
  2
ACATTRIBSERVICES
 70
     0
  0
APPID
  5
52C29
330
52BAD
100
AcDbSymbolTableRecord
100
AcDbRegAppTableRecord
  2
DESIGNERASSEMBLIES
 70
     0
  0
APPID
  5
52C2A
330
52BAD
100
AcDbSymbolTableRecord
100
AcDbRegAppTableRecord
  2
ACADM_DIM_EDIT
 70
     0
  0
APPID
  5
52C2B
330
52BAD
100
AcDbSymbolTableRecord
100
AcDbRegAppTableRecord
  2
AMDT_DM_ADJ
 70
     0
  0
APPID
  5
52C2C
330
52BAD
100
AcDbSymbolTableRecord
100
AcDbRegAppTableRecord
  2
ACAD_DSTYLE_DIMJOGGED_JOGA
 70
     0
  0
APPID
  5
52C2D
330
52BAD
100
AcDbSymbolTableRecord
100
AcDbRegAppTableRecord
  2
ACAECLAYERSTANDARD
 70
     0
  0
APPID
  5
52C2E
330
52BAD
100
AcDbSymbolTableRecord
100
AcDbRegAppTableRecord
  2
ACAD_PSEXT
 70
     0
  0
APPID
  5
52C2F
330
52BAD
100
AcDbSymbolTableRecord
100
AcDbRegAppTableRecord
  2
ACAD_DSTYLE_DIMJAG
 70
     0
  0
APPID
  5
52C30
330
52BAD
100
AcDbSymbolTableRecord
100
AcDbRegAppTableRecord
  2
ACAD_DSTYLE_DIMTALN
 70
     0
  0
APPID
  5
52C31
330
52BAD
100
AcDbSymbolTableRecord
100
AcDbRegAppTableRecord
  2
GENIUS_GENODEF_13
 70
     0
  0
APPID
  5
52C32
330
52BAD
100
AcDbSymbolTableRecord
100
AcDbRegAppTableRecord
  2
ACAD_DSTYLE_DIMINSPECT
 70
     0
  0
APPID
  5
52C33
330
52BAD
100
AcDbSymbolTableRecord
100
AcDbRegAppTableRecord
  2
GENIUS_GENREC_14
 70
     0
  0
APPID
  5
52C34
330
52BAD
100
AcDbSymbolTableRecord
100
AcDbRegAppTableRecord
  2
GENIUS_GENOBJ-N-REC_13
 70
     0
  0
APPID
  5
52C35
330
52BAD
100
AcDbSymbolTableRecord
100
AcDbRegAppTableRecord
  2
ACAD_DSTYLE_DIMRADIAL_EXTENSION
 70
     0
  0
APPID
  5
52C36
330
52BAD
100
AcDbSymbolTableRecord
100
AcDbRegAppTableRecord
  2
ACAD_DSTYLE_DIMBREAK
 70
     0
  0
APPID
  5
52C5D
330
52BAD
100
AcDbSymbolTableRecord
100
AcDbRegAppTableRecord
  2
ACAD_EXEMPT_FROM_CAD_STANDARDS
 70
     0
  0
APPID
  5
53185
330
52BAD
100
AcDbSymbolTableRecord
100
AcDbRegAppTableRecord
  2
ACAD_DSTYLE_DIMJOGGED_JOGANGLE_SYMBOL
 70
     0
  0
ENDTAB
  0
TABLE
  2
DIMSTYLE
  5
52BAE
330
0
100
AcDbSymbolTable
 70
    15
100
AcDbDimStyleTable
 71
     1
340
5312A
  0
DIMSTYLE
105
52C03
330
52BAE
100
AcDbSymbolTableRecord
100
AcDbDimStyleTableRecord
  2
STANDARD
 70
     0
271
     2
272
     2
279
     2
284
     8
285
     8
286
     8
340
52C01
  0
DIMSTYLE
105
52C37
330
52BAE
100
AcDbSymbolTableRecord
100
AcDbDimStyleTableRecord
  2
AM_ISO
 70
     0
  4
"
 41
3.5
 42
1.0
 43
10.0
 44
1.0
 47
0.1
 48
0.1
 73
     0
 74
     0
 77
     1
 78
     8
140
3.5
141
0.0
143
0.0393701
146
0.71
147
1.5
172
     1
176
   256
177
   256
178
     2
271
     2
272
     2
279
     2
284
     8
285
     8
286
     8
340
52C01
  0
DIMSTYLE
105
52CA0
330
52BAE
100
AcDbSymbolTableRecord
100
AcDbDimStyleTableRecord
  2
abode-iso
 70
     0
 40
10.0
 41
1.25
 42
1.5
 43
6.0
 44
0.0
 45
0.00000001
 46
10.0
 77
     1
 78
    12
 79
     3
140
17.0
143
0.03937
147
0.75
171
     3
172
     1
176
   256
177
   256
178
   256
271
     0
272
     0
274
     3
340
52C24
342
52C3E
371
    25
372
    25
1001
ACAD_DSTYLE_DIMJAG
1070
   388
1040
1.5
1001
ACAD_DSTYLE_DIMTALN
1070
   392
1070
     0
  0
DIMSTYLE
105
52CA1
102
{ACAD_REACTORS
330
55319
330
5531A
102
}
330
52BAE
100
AcDbSymbolTableRecord
100
AcDbDimStyleTableRecord
  2
abode-iso$4
 70
     0
 40
10.0
 41
1.25
 42
1.5
 43
6.0
 44
0.0
 45
0.00000001
 46
10.0
 77
     1
 78
    12
 79
     3
140
17.0
143
0.03937
147
0.75
171
     3
172
     1
176
   256
177
   256
178
   256
271
     0
272
     0
274
     3
340
52C24
342
52C3E
371
    25
372
    25
1001
ACAD_DSTYLE_DIMBREAK
1070
   391
1040
3.75
1001
ACAD_DSTYLE_DIMJAG
1070
   388
1040
1.5
1001
ACAD_DSTYLE_DIMTALN
1070
   392
1070
     0
  0
DIMSTYLE
105
52CA2
102
{ACAD_REACTORS
330
55306
330
55309
330
55313
330
55316
102
}
330
52BAE
100
AcDbSymbolTableRecord
100
AcDbDimStyleTableRecord
  2
abode-iso$0
 70
     0
 40
10.0
 41
1.25
 42
1.5
 43
6.0
 44
0.0
 45
0.00000001
 46
10.0
 77
     1
 78
    12
 79
     3
140
17.0
143
0.03937
147
0.75
171
     3
172
     1
176
   256
177
   256
178
   256
271
     0
272
     0
274
     3
340
52C24
342
52C3E
371
    25
372
    25
1001
ACAD_DSTYLE_DIMJAG
1070
   388
1040
1.5
1001
ACAD_DSTYLE_DIMTALN
1070
   392
1070
     0
  0
DIMSTYLE
105
5312A
102
{ACAD_REACTORS
330
5521E
102
}
330
52BAE
100
AcDbSymbolTableRecord
100
AcDbDimStyleTableRecord
  2
AM_ANSI
 70
     0
  4
mm
 41
0.12
 42
0.05
 43
0.5
 44
0.1
 47
0.1
 48
0.1
 78
     7
 79
     2
 90
     1
140
0.12
141
0.0
146
0.71
147
0.06
176
   256
177
   256
178
   140
274
     4
284
     7
340
52C01
345
52C06
346
52C06
347
52C06
371
    -1
372
    -1
  0
DIMSTYLE
105
53138
330
52BAE
100
AcDbSymbolTableRecord
100
AcDbDimStyleTableRecord
  2
AM_ANSI$3
 70
     0
  4
mm
 41
0.12
 42
0.05
 43
0.5
 44
0.1
 47
0.1
 48
0.1
 78
     7
 79
     2
 90
     1
140
0.12
141
0.0
146
0.71
147
0.06
176
   256
177
   256
178
   140
274
     4
284
     7
288
     1
289
     0
340
52C01
345
52C06
346
52C06
347
52C06
371
    -1
372
    -1
  0
DIMSTYLE
105
53139
330
52BAE
100
AcDbSymbolTableRecord
100
AcDbDimStyleTableRecord
  2
AM_ANSI$4
 70
     0
  4
mm
 41
0.12
 42
0.05
 43
0.5
 44
0.1
 47
0.1
 48
0.1
 78
     7
 79
     2
 90
     1
140
0.12
141
0.0
146
0.71
147
0.06
176
   256
177
   256
178
   140
274
     4
284
     7
340
52C01
345
52C06
346
52C06
347
52C06
371
    -1
372
    -1
  0
DIMSTYLE
105
5313A
330
52BAE
100
AcDbSymbolTableRecord
100
AcDbDimStyleTableRecord
  2
AM_ANSI$7
 70
     0
  4
mm
 41
0.12
 42
0.05
 43
0.5
 44
0.1
 47
0.1
 48
0.1
 78
     7
 79
     2
 90
     1
140
0.12
141
0.0
146
0.71
147
0.06
176
   256
177
   256
178
   140
274
     4
284
     7
340
52C01
345
52C06
346
52C06
347
52C06
371
    -1
372
    -1
  0
DIMSTYLE
105
5313B
330
52BAE
100
AcDbSymbolTableRecord
100
AcDbDimStyleTableRecord
  2
AM_ANSI$SF
 70
     0
  4
mm
 41
0.12
 42
0.05
 43
0.5
 44
0.1
 47
0.1
 48
0.1
 75
     1
 76
     1
 78
     7
 79
     2
 90
     1
140
0.12
141
0.0
146
0.71
147
0.06
176
   256
177
   256
178
   140
274
     4
284
     7
340
52C01
345
52C06
346
52C06
347
52C06
371
    -1
372
    -1
  0
DIMSTYLE
105
53140
330
52BAE
100
AcDbSymbolTableRecord
100
AcDbDimStyleTableRecord
  2
AM_ANSI$SH
 70
     0
  4
mm
 41
0.12
 42
0.05
 43
0.5
 44
0.1
 47
0.1
 48
0.1
 75
     1
 76
     1
 78
     7
 79
     2
 90
     1
140
0.12
141
0.0
146
0.71
147
0.06
173
     1
176
   256
177
   256
178
   140
274
     4
284
     7
340
52C01
343
5313C
345
52C06
346
52C06
347
52C06
371
    -1
372
    -1
  0
DIMSTYLE
105
53182
330
52BAE
100
AcDbSymbolTableRecord
100
AcDbDimStyleTableRecord
  2
abode-iso$7
 70
     0
 40
10.0
 41
2.5
 42
1.5
 43
6.0
 44
3.174999999999998
 45
0.00000001
 46
10.0
 77
     1
 78
    12
 79
     3
140
2.5
143
0.03937
146
1.399999999999999
147
0.762
171
     3
172
     1
176
     7
177
   256
178
   256
271
     0
272
     0
274
     3
340
52C24
371
    25
372
    25
1001
ACAD_DSTYLE_DIMBREAK
1070
   391
1040
3.75
1001
ACAD_DSTYLE_DIMJAG
1070
   388
1040
1.5
1001
ACAD_DSTYLE_DIMTALN
1070
   392
1070
     0
  0
DIMSTYLE
105
53183
330
52BAE
100
AcDbSymbolTableRecord
100
AcDbDimStyleTableRecord
  2
abode-iso$2
 70
     0
 40
10.0
 41
1.25
 42
1.5
 43
6.0
 44
0.0
 45
0.00000001
 46
10.0
 77
     1
 78
    12
 79
     3
140
17.0
143
0.03937
147
0.75
171
     3
172
     1
176
   256
177
   256
178
   256
271
     0
272
     0
274
     3
340
52C24
342
52C3E
371
    25
372
    25
1001
ACAD_DSTYLE_DIMJAG
1070
   388
1040
1.5
1001
ACAD_DSTYLE_DIMTALN
1070
   392
1070
     0
  0
DIMSTYLE
105
53184
330
52BAE
100
AcDbSymbolTableRecord
100
AcDbDimStyleTableRecord
  2
abode-iso$3
 70
     0
 40
10.0
 41
1.25
 42
1.5
 43
6.0
 44
0.0
 45
0.00000001
 46
10.0
 77
     1
 78
    12
 79
     3
140
17.0
143
0.03937
147
0.75
171
     3
172
     1
176
   256
177
   256
178
   256
271
     0
272
     0
274
     3
340
52C24
342
52C3E
371
    25
372
    25
1001
ACAD_DSTYLE_DIMJAG
1070
   388
1040
1.5
1001
ACAD_DSTYLE_DIMTALN
1070
   392
1070
     0
  0
DIMSTYLE
105
55289
330
52BAE
100
AcDbSymbolTableRecord
100
AcDbDimStyleTableRecord
  2
ISO-25
 70
     0
 41
2.5
 42
0.625
 43
3.75
 44
1.25
 73
     0
 74
     0
 77
     1
 78
     8
140
2.5
141
2.5
143
0.03937007874016
147
0.625
171
     3
172
     1
271
     2
272
     2
274
     3
278
    44
283
     0
284
     8
340
52C01
  0
ENDTAB
  0
TABLE
  2
BLOCK_RECORD
  5
52BA5
330
0
100
AcDbSymbolTable
 70
    27
  0
BLOCK_RECORD
  5
52C18
330
52BA5
100
AcDbSymbolTableRecord
100
AcDbBlockTableRecord
  2
*Model_Space
340
52C1B
 70
     0
280
     1
281
     0
  0
BLOCK_RECORD
  5
52C14
330
52BA5
100
AcDbSymbolTableRecord
100
AcDbBlockTableRecord
  2
*Paper_Space
340
52C17
 70
     0
280
     1
281
     0
  0
BLOCK_RECORD
  5
52C3E
330
52BA5
100
AcDbSymbolTableRecord
100
AcDbBlockTableRecord
  2
FILLED-1
340
0
102
{BLKREFS
331
55108
331
55109
331
5511E
331
55132
331
5513D
331
5513E
331
5514A
331
5514B
331
55157
331
55158
331
5518A
331
55190
331
55197
331
551A5
331
551A6
331
5525E
331
5525F
331
5526B
331
5526C
331
55245
331
55246
331
55252
331
55253
331
55278
331
55282
331
55322
331
5532C
331
55335
331
55336
331
55342
331
55343
331
5534E
331
5534F
331
5535B
331
5535C
102
}
 70
     0
280
     1
281
     0
  0
BLOCK_RECORD
  5
52C58
330
52BA5
100
AcDbSymbolTableRecord
100
AcDbBlockTableRecord
  2
*U1
340
0
102
{BLKREFS
331
4EFE9
102
}
 70
     0
280
     1
281
     0
  0
BLOCK_RECORD
  5
5313C
330
52BA5
100
AcDbSymbolTableRecord
100
AcDbBlockTableRecord
  2
GENAXEH
340
0
 70
     0
280
     1
281
     0
  0
BLOCK_RECORD
  5
55102
330
52BA5
100
AcDbSymbolTableRecord
100
AcDbBlockTableRecord
  2
*D3
340
0
 70
     0
280
     1
281
     0
  0
BLOCK_RECORD
  5
5510E
330
52BA5
100
AcDbSymbolTableRecord
100
AcDbBlockTableRecord
  2
*D4
340
0
 70
     0
280
     1
281
     0
  0
BLOCK_RECORD
  5
55117
330
52BA5
100
AcDbSymbolTableRecord
100
AcDbBlockTableRecord
  2
*D5
340
0
 70
     0
280
     1
281
     0
  0
BLOCK_RECORD
  5
55121
330
52BA5
100
AcDbSymbolTableRecord
100
AcDbBlockTableRecord
  2
*D6
340
0
 70
     0
280
     1
281
     0
  0
BLOCK_RECORD
  5
5512B
330
52BA5
100
AcDbSymbolTableRecord
100
AcDbBlockTableRecord
  2
*D7
340
0
 70
     0
280
     1
281
     0
  0
BLOCK_RECORD
  5
55135
330
52BA5
100
AcDbSymbolTableRecord
100
AcDbBlockTableRecord
  2
*D8
340
0
 70
     0
280
     1
281
     0
  0
BLOCK_RECORD
  5
55143
330
52BA5
100
AcDbSymbolTableRecord
100
AcDbBlockTableRecord
  2
*D9
340
0
 70
     0
280
     1
281
     0
  0
BLOCK_RECORD
  5
55150
330
52BA5
100
AcDbSymbolTableRecord
100
AcDbBlockTableRecord
  2
*D10
340
0
 70
     0
280
     1
281
     0
  0
BLOCK_RECORD
  5
5515D
330
52BA5
100
AcDbSymbolTableRecord
100
AcDbBlockTableRecord
  2
*D11
340
0
 70
     0
280
     1
281
     0
  0
BLOCK_RECORD
  5
55184
330
52BA5
100
AcDbSymbolTableRecord
100
AcDbBlockTableRecord
  2
*D12
340
0
 70
     0
280
     1
281
     0
  0
BLOCK_RECORD
  5
55240
330
52BA5
100
AcDbSymbolTableRecord
100
AcDbBlockTableRecord
  2
*D14
340
0
 70
     0
280
     1
281
     0
  0
BLOCK_RECORD
  5
5524C
330
52BA5
100
AcDbSymbolTableRecord
100
AcDbBlockTableRecord
  2
*D15
340
0
 70
     0
280
     1
281
     0
  0
BLOCK_RECORD
  5
55259
330
52BA5
100
AcDbSymbolTableRecord
100
AcDbBlockTableRecord
  2
*D16
340
0
 70
     0
280
     1
281
     0
  0
BLOCK_RECORD
  5
55265
330
52BA5
100
AcDbSymbolTableRecord
100
AcDbBlockTableRecord
  2
*D17
340
0
 70
     0
280
     1
281
     0
  0
BLOCK_RECORD
  5
55272
330
52BA5
100
AcDbSymbolTableRecord
100
AcDbBlockTableRecord
  2
*D18
340
0
 70
     0
280
     1
281
     0
  0
BLOCK_RECORD
  5
5527C
330
52BA5
100
AcDbSymbolTableRecord
100
AcDbBlockTableRecord
  2
*D19
340
0
 70
     0
280
     1
281
     0
  0
BLOCK_RECORD
  5
5531B
330
52BA5
100
AcDbSymbolTableRecord
100
AcDbBlockTableRecord
  2
*D21
340
0
 70
     0
280
     1
281
     0
  0
BLOCK_RECORD
  5
55325
330
52BA5
100
AcDbSymbolTableRecord
100
AcDbBlockTableRecord
  2
*D22
340
0
 70
     0
280
     1
281
     0
  0
BLOCK_RECORD
  5
5532F
330
52BA5
100
AcDbSymbolTableRecord
100
AcDbBlockTableRecord
  2
*D23
340
0
 70
     0
280
     1
281
     0
  0
BLOCK_RECORD
  5
5533B
330
52BA5
100
AcDbSymbolTableRecord
100
AcDbBlockTableRecord
  2
*D24
340
0
 70
     0
280
     1
281
     0
  0
BLOCK_RECORD
  5
55348
330
52BA5
100
AcDbSymbolTableRecord
100
AcDbBlockTableRecord
  2
*D25
340
0
 70
     0
280
     1
281
     0
  0
BLOCK_RECORD
  5
55354
330
52BA5
100
AcDbSymbolTableRecord
100
AcDbBlockTableRecord
  2
*D26
340
0
 70
     0
280
     1
281
     0
  0
ENDTAB
  0
ENDSEC
  0
SECTION
  2
BLOCKS
  0
BLOCK
  5
52C19
330
52C18
100
AcDbEntity
  8
0
100
AcDbBlockBegin
  2
*Model_Space
 70
     0
 10
0.0
 20
0.0
 30
0.0
  3
*Model_Space
  1

  0
ENDBLK
  5
52C1A
330
52C18
100
AcDbEntity
  8
0
100
AcDbBlockEnd
  0
BLOCK
  5
52C15
330
52C14
100
AcDbEntity
 67
     1
  8
0
100
AcDbBlockBegin
  2
*Paper_Space
 70
     0
 10
0.0
 20
0.0
 30
0.0
  3
*Paper_Space
  1

  0
ENDBLK
  5
52C16
330
52C14
100
AcDbEntity
 67
     1
  8
0
100
AcDbBlockEnd
  0
BLOCK
  5
52C3F
330
52C3E
100
AcDbEntity
  8
0
100
AcDbBlockBegin
  2
FILLED-1
 70
     0
 10
0.0
 20
0.0
 30
0.0
  3
FILLED-1
  1

  0
LINE
  5
13A
330
52C3E
100
AcDbEntity
  8
0
 62
     0
100
AcDbLine
 10
-1.0
 20
0.0
 30
0.0
 11
0.0
 21
0.0
 31
0.0
  0
LWPOLYLINE
  5
13B
330
52C3E
100
AcDbEntity
  8
0
 62
     0
100
AcDbPolyline
 90
        4
 70
   128
 43
0.0
 10
-1.0
 20
-0.3333333333333333
 10
0.0
 20
0.0
 10
-1.0
 20
0.3333333333333333
 10
-1.0
 20
-0.3333333333333333
  0
SOLID
  5
141
330
52C3E
100
AcDbEntity
  8
0
 62
     0
100
AcDbTrace
 10
-1.0
 20
-0.3333333333333333
 30
0.0
 11
0.0
 21
0.0
 31
0.0
 12
-1.0
 22
0.3333333333333333
 32
0.0
 13
-1.0
 23
-0.3333333333333333
 33
0.0
  0
LINE
  5
142
330
52C3E
100
AcDbEntity
  8
0
 62
     0
100
AcDbLine
 10
-1.0
 20
-0.3333333333333333
 30
0.0
 11
0.0
 21
0.0
 31
0.0
  0
LINE
  5
143
330
52C3E
100
AcDbEntity
  8
0
 62
     0
100
AcDbLine
 10
0.0
 20
0.0
 30
0.0
 11
-1.0
 21
0.3333333333333333
 31
0.0
  0
LINE
  5
144
330
52C3E
100
AcDbEntity
  8
0
 62
     0
100
AcDbLine
 10
-1.0
 20
0.3333333333333333
 30
0.0
 11
-1.0
 21
-0.3333333333333333
 31
0.0
  0
ENDBLK
  5
145
330
52C3E
100
AcDbEntity
  8
0
100
AcDbBlockEnd
  0
BLOCK
  5
52C59
330
52C58
100
AcDbEntity
  8
0
100
AcDbBlockBegin
  2
*U1
 70
     1
 10
0.0
 20
0.0
 30
0.0
  3
*U1
  1

  0
TEXT
  5
51B8B
330
52C58
100
AcDbEntity
  8
0
 62
     1
100
AcDbText
 10
29068.05134894387
 20
25957.69496399888
 30
0.0
 40
8.0
  1
All details are provided in good faith and
  7
ACISOTS
100
AcDbText
  0
TEXT
  5
51B8C
330
52C58
100
AcDbEntity
  8
0
 62
     1
100
AcDbText
 10
29049.60334894387
 20
25944.36163066555
 30
0.0
 40
8.0
  1
within
  7
ACISOTS
100
AcDbText
  0
TEXT
  5
51B8D
330
52C58
100
AcDbEntity
  8
0
 62
     1
100
AcDbText
 10
29085.57434894387
 20
25931.02829733222
 30
0.0
 40
8.0
  1
the tolerances of the manufacturing process.
  7
ACISOTS
100
AcDbText
  0
TEXT
  5
51B8E
330
52C58
100
AcDbEntity
  8
0
 62
     1
100
AcDbText
 10
29050.90814894387
 20
25917.69496399888
 30
0.0
 40
8.0
  1
Note: the dimensions on ceramic fireclay
  7
ACISOTS
100
AcDbText
  0
TEXT
  5
51B8F
330
52C58
100
AcDbEntity
  8
0
 62
     1
100
AcDbText
 10
29049.60334894387
 20
25904.36163066556
 30
0.0
 40
8.0
  1
products
  7
ACISOTS
100
AcDbText
  0
TEXT
  5
51B90
330
52C58
100
AcDbEntity
  8
0
 62
     1
100
AcDbText
 10
29052.43194894387
 20
25891.02829733223
 30
0.0
 40
8.0
  1
are subject to wider tolerances due to the
  7
ACISOTS
100
AcDbText
  0
TEXT
  5
51B91
330
52C58
100
AcDbEntity
  8
0
 62
     1
100
AcDbText
 10
29049.60334894387
 20
25877.69496399888
 30
0.0
 40
8.0
  1
nature
  7
ACISOTS
100
AcDbText
  0
TEXT
  5
51B92
330
52C58
100
AcDbEntity
  8
0
 62
     1
100
AcDbText
 10
29074.14634894387
 20
25864.36163066556
 30
0.0
 40
8.0
  1
of this natural material and the firing
  7
ACISOTS
100
AcDbText
  0
TEXT
  5
51B93
330
52C58
100
AcDbEntity
  8
0
 62
     1
100
AcDbText
 10
29049.60334894387
 20
25851.02829733223
 30
0.0
 40
8.0
  1
process.
  7
ACISOTS
100
AcDbText
  0
TEXT
  5
51B94
330
52C58
100
AcDbEntity
  8
0
 62
     1
100
AcDbText
 10
29079.09834894386
 20
25824.36163066557
 30
0.0
 40
8.0
  1
We recommend that a test cutout is made in
  7
ACISOTS
100
AcDbText
  0
TEXT
  5
51B95
330
52C58
100
AcDbEntity
  8
0
 62
     1
100
AcDbText
 10
29054.71764894387
 20
25811.02829733223
 30
0.0
 40
8.0
  1
scrap timber and checked against the actual
  7
ACISOTS
100
AcDbText
  0
TEXT
  5
51B96
330
52C58
100
AcDbEntity
  8
0
 62
     1
100
AcDbText
 10
29049.60334894387
 20
25797.6949639989
 30
0.0
 40
8.0
  1
sink
  7
ACISOTS
100
AcDbText
  0
TEXT
  5
51B97
330
52C58
100
AcDbEntity
  8
0
 62
     1
100
AcDbText
 10
29105.76534894387
 20
25784.36163066557
 30
0.0
 40
8.0
  1
supplied before committing to cutting
  7
ACISOTS
100
AcDbText
  0
TEXT
  5
51B98
330
52C58
100
AcDbEntity
  8
0
 62
     1
100
AcDbText
 10
29049.60334894387
 20
25771.02829733223
 30
0.0
 40
8.0
  1
the
  7
ACISOTS
100
AcDbText
  0
TEXT
  5
51B99
330
52C58
100
AcDbEntity
  8
0
 62
     1
100
AcDbText
 10
29296.24334894387
 20
25757.6949639989
 30
0.0
 40
8.0
  1
worksurface.
  7
ACISOTS
100
AcDbText
  0
TEXT
  5
51B9A
330
52C58
100
AcDbEntity
  8
0
 62
     1
100
AcDbText
 10
29076.43234894387
 20
25731.02829733224
 30
0.0
 40
8.0
  1
Abode can not accept liability for problems
  7
ACISOTS
100
AcDbText
  0
TEXT
  5
51B9B
330
52C58
100
AcDbEntity
  8
0
 62
     1
100
AcDbText
 10
29049.60334894387
 20
25717.69496399891
 30
0.0
 40
8.0
  1
or
  7
ACISOTS
100
AcDbText
  0
TEXT
  5
51B9C
330
52C58
100
AcDbEntity
  8
0
 62
     1
100
AcDbText
 10
29080.62234894387
 20
25704.36163066557
 30
0.0
 40
8.0
  1
costs incurred by failure to follow this advise,
  7
ACISOTS
100
AcDbText
  0
TEXT
  5
51B9D
330
52C58
100
AcDbEntity
  8
0
 62
     1
100
AcDbText
 10
29073.38434894387
 20
25691.02829733224
 30
0.0
 40
8.0
  1
dimensions weights & measures are subject
  7
ACISOTS
100
AcDbText
  0
TEXT
  5
51B9E
330
52C58
100
AcDbEntity
  8
0
 62
     1
100
AcDbText
 10
29049.60334894387
 20
25677.69496399891
 30
0.0
 40
8.0
  1
to
  7
ACISOTS
100
AcDbText
  0
TEXT
  5
51B9F
330
52C58
100
AcDbEntity
  8
0
 62
     1
100
AcDbText
 10
29056.62234894387
 20
25664.36163066557
 30
0.0
 40
8.0
  1
change without prior notice. Errors and omissions
  7
ACISOTS
100
AcDbText
  0
TEXT
  5
51BA0
330
52C58
100
AcDbEntity
  8
0
 62
     1
100
AcDbText
 10
29317.19334894387
 20
25651.02829733225
 30
0.0
 40
8.0
  1
excepted
  7
ACISOTS
100
AcDbText
  0
ENDBLK
  5
51BA2
330
52C58
100
AcDbEntity
  8
0
100
AcDbBlockEnd
  0
BLOCK
  5
5313E
330
5313C
100
AcDbEntity
  8
0
100
AcDbBlockBegin
  2
GENAXEH
 70
     0
 10
0.0
 20
0.0
 30
0.0
  3
GENAXEH
  1

  0
LINE
  5
5313D
330
5313C
100
AcDbEntity
  8
0
100
AcDbLine
 10
-1.0
 20
0.0
 30
0.0
 11
1.0
 21
0.0
 31
0.0
  0
ENDBLK
  5
5313F
330
5313C
100
AcDbEntity
  8
0
100
AcDbBlockEnd
  0
BLOCK
  5
55103
330
55102
100
AcDbEntity
  8
0
100
AcDbBlockBegin
  2
*D3
 70
     1
 10
0.0
 20
0.0
 30
0.0
  3
*D3
  1

  0
LINE
  5
55105
330
55102
100
AcDbEntity
  8
DIMS SPECS
100
AcDbLine
 10
29928.8077247897
 20
25684.47664521544
 30
0.0
 11
29928.8077247897
 21
25616.4938068413
 31
0.0
  0
LINE
  5
55106
330
55102
100
AcDbEntity
  8
DIMS SPECS
100
AcDbLine
 10
30693.80772478971
 20
25684.47664521544
 30
0.0
 11
30693.80772478971
 21
25616.4938068413
 31
0.0
  0
LINE
  5
55107
330
55102
100
AcDbEntity
  8
DIMS SPECS
100
AcDbLine
 10
29941.30772478971
 20
25616.4938068413
 30
0.0
 11
30681.30772478971
 21
25616.4938068413
 31
0.0
  0
INSERT
  5
55108
330
55102
100
AcDbEntity
  8
DIMS SPECS
100
AcDbBlockReference
  2
FILLED-1
 10
29928.8077247897
 20
25616.4938068413
 30
0.0
 41
12.5
 42
12.5
 43
12.5
 50
180.0
  0
INSERT
  5
55109
330
55102
100
AcDbEntity
  8
DIMS SPECS
100
AcDbBlockReference
  2
FILLED-1
 10
30693.80772478971
 20
25616.4938068413
 30
0.0
 41
12.5
 42
12.5
 43
12.5
  0
MTEXT
  5
5510A
330
55102
100
AcDbEntity
  8
DIMS SPECS
100
AcDbMText
 10
30312.43689704224
 20
25632.92140711322
 30
0.0
 40
17.0
 41
0.0
 46
0.0
 71
     5
 72
     1
  1
\A1;765
  7
Abode ISO Bold
 73
     1
 44
1.0
  0
POINT
  5
5510B
330
55102
100
AcDbEntity
  8
DEFPOINTS
 62
     0
100
AcDbPoint
 10
29928.8077247897
 20
25699.47664521544
 30
0.0
  0
POINT
  5
5510C
330
55102
100
AcDbEntity
  8
DEFPOINTS
 62
     0
100
AcDbPoint
 10
30693.80772478971
 20
25699.47664521544
 30
0.0
  0
POINT
  5
5510D
330
55102
100
AcDbEntity
  8
DEFPOINTS
 62
     0
100
AcDbPoint
 10
30693.80772478971
 20
25616.4938068413
 30
0.0
  0
ENDBLK
  5
55104
330
55102
100
AcDbEntity
  8
0
100
AcDbBlockEnd
  0
BLOCK
  5
5510F
330
5510E
100
AcDbEntity
  8
0
100
AcDbBlockBegin
  2
*D4
 70
     1
 10
0.0
 20
0.0
 30
0.0
  3
*D4
  1

  0
LINE
  5
5518D
330
5510E
100
AcDbEntity
  8
DIMS SPECS
100
AcDbLine
 10
29850.0399102897
 20
25717.31778238428
 30
0.0
 11
29891.21863224756
 21
25717.31778238428
 31
0.0
  0
LINE
  5
5518E
330
5510E
100
AcDbEntity
  8
DIMS SPECS
100
AcDbLine
 10
29891.21863224756
 20
25717.31778238428
 30
0.0
 11
29916.70843060755
 21
25700.83420329404
 31
0.0
  0
MTEXT
  5
5518F
330
5510E
100
AcDbEntity
  8
DIMS SPECS
100
AcDbMText
 10
29866.87927126864
 20
25733.7453826562
 30
0.0
 40
17.0
 41
0.0
 46
0.0
 71
     5
 72
     1
  1
\A1;R10
  7
Abode ISO Bold
 73
     1
 44
1.0
  0
INSERT
  5
55190
330
5510E
100
AcDbEntity
  8
DIMS SPECS
100
AcDbBlockReference
  2
FILLED-1
 10
29927.20490151835
 20
25694.04641290107
 30
0.0
 41
12.5
 42
12.5
 43
12.5
 50
327.1103185719359
  0
POINT
  5
55191
330
5510E
100
AcDbEntity
  8
DEFPOINTS
 62
     0
100
AcDbPoint
 10
29927.20490151835
 20
25694.04641290107
 30
0.0
  0
POINT
  5
55192
330
5510E
100
AcDbEntity
  8
DEFPOINTS
 62
     0
100
AcDbPoint
 10
29918.80772478971
 20
25699.47664521544
 30
0.0
  0
ENDBLK
  5
55110
330
5510E
100
AcDbEntity
  8
0
100
AcDbBlockEnd
  0
BLOCK
  5
55118
330
55117
100
AcDbEntity
  8
0
100
AcDbBlockBegin
  2
*D5
 70
     1
 10
0.0
 20
0.0
 30
0.0
  3
*D5
  1

  0
LINE
  5
5511A
330
55117
100
AcDbEntity
  8
DIMS SPECS
100
AcDbLine
 10
30245.58091238321
 20
26172.30290520299
 30
0.0
 11
30205.08866221326
 21
26172.30290520301
 31
0.0
  0
LINE
  5
5511B
330
55117
100
AcDbEntity
  8
DIMS SPECS
100
AcDbLine
 10
30205.08866221326
 20
26172.30290520301
 30
0.0
 11
30197.3880869584
 21
26151.66670720407
 31
0.0
  0
MTEXT
  5
5511C
330
55117
100
AcDbEntity
  8
DIMS SPECS
100
AcDbMText
 10
30229.08478729823
 20
26188.73050547493
 30
0.0
 40
17.0
 41
0.0
 46
0.0
 71
     5
 72
     1
  1
\A1;R26
  7
Abode ISO Bold
 73
     1
 44
1.0
  0
LINE
  5
5511D
330
55117
100
AcDbEntity
  8
DIMS SPECS
100
AcDbLine
 10
30183.94174722854
 20
26115.63286299852
 30
0.0
 11
30193.01795570302
 21
26139.95551798988
 31
0.0
  0
INSERT
  5
5511E
330
55117
100
AcDbEntity
  8
DIMS SPECS
100
AcDbBlockReference
  2
FILLED-1
 10
30193.01795570302
 20
26139.95551798988
 30
0.0
 41
12.5
 42
12.5
 43
12.5
 50
249.5365065622774
  0
POINT
  5
5511F
330
55117
100
AcDbEntity
  8
DEFPOINTS
 62
     0
100
AcDbPoint
 10
30193.01795570302
 20
26139.95551798988
 30
0.0
  0
POINT
  5
55120
330
55117
100
AcDbEntity
  8
DEFPOINTS
 62
     0
100
AcDbPoint
 10
30183.94174722854
 20
26115.63286299852
 30
0.0
  0
ENDBLK
  5
55119
330
55117
100
AcDbEntity
  8
0
100
AcDbBlockEnd
  0
BLOCK
  5
55122
330
55121
100
AcDbEntity
  8
0
100
AcDbBlockBegin
  2
*D6
 70
     1
 10
0.0
 20
0.0
 30
0.0
  3
*D6
  1

  0
LINE
  5
55193
330
55121
100
AcDbEntity
  8
DIMS SPECS
100
AcDbLine
 10
29879.71771271152
 20
26166.72609235141
 30
0.0
 11
29920.20996288148
 21
26166.72609235141
 31
0.0
  0
LINE
  5
55194
330
55121
100
AcDbEntity
  8
DIMS SPECS
100
AcDbLine
 10
29920.20996288148
 20
26166.72609235141
 30
0.0
 11
29933.23228395188
 21
26147.48029597645
 31
0.0
  0
MTEXT
  5
55195
330
55121
100
AcDbEntity
  8
DIMS SPECS
100
AcDbMText
 10
29896.21383779649
 20
26183.15369262333
 30
0.0
 40
17.0
 41
0.0
 46
0.0
 71
     5
 72
     1
  1
\A1;R26
  7
Abode ISO Bold
 73
     1
 44
1.0
  0
LINE
  5
55196
330
55121
100
AcDbEntity
  8
DIMS SPECS
100
AcDbLine
 10
29954.80772478972
 20
26115.59377291962
 30
0.0
 11
29940.23729721091
 21
26137.12752875021
 31
0.0
  0
INSERT
  5
55197
330
55121
100
AcDbEntity
  8
DIMS SPECS
100
AcDbBlockReference
  2
FILLED-1
 10
29940.23729721091
 20
26137.12752875021
 30
0.0
 41
12.5
 42
12.5
 43
12.5
 50
304.08353830189
  0
POINT
  5
55198
330
55121
100
AcDbEntity
  8
DEFPOINTS
 62
     0
100
AcDbPoint
 10
29940.23729721091
 20
26137.12752875021
 30
0.0
  0
POINT
  5
55199
330
55121
100
AcDbEntity
  8
DEFPOINTS
 62
     0
100
AcDbPoint
 10
29954.80772478972
 20
26115.59377291962
 30
0.0
  0
ENDBLK
  5
55123
330
55121
100
AcDbEntity
  8
0
100
AcDbBlockEnd
  0
BLOCK
  5
5512C
330
5512B
100
AcDbEntity
  8
0
100
AcDbBlockBegin
  2
*D7
 70
     1
 10
0.0
 20
0.0
 30
0.0
  3
*D7
  1

  0
LINE
  5
5512E
330
5512B
100
AcDbEntity
  8
DIMS SPECS
100
AcDbLine
 10
30228.31402603916
 20
25985.4980246651
 30
0.0
 11
30269.49274799703
 21
25985.4980246651
 31
0.0
  0
LINE
  5
5512F
330
5512B
100
AcDbEntity
  8
DIMS SPECS
100
AcDbLine
 10
30269.49274799703
 20
25985.4980246651
 30
0.0
 11
30295.81111773156
 21
26023.29832868034
 31
0.0
  0
MTEXT
  5
55130
330
5512B
100
AcDbEntity
  8
DIMS SPECS
100
AcDbMText
 10
30245.15338701808
 20
26001.92562493703
 30
0.0
 40
17.0
 41
0.0
 46
0.0
 71
     5
 72
     1
  1
\A1;R10
  7
Abode ISO Bold
 73
     1
 44
1.0
  0
LINE
  5
55131
330
5512B
100
AcDbEntity
  8
DIMS SPECS
100
AcDbLine
 10
30308.66747642847
 20
26041.76354032429
 30
0.0
 11
30302.95353922985
 21
26033.55677959365
 31
0.0
  0
INSERT
  5
55132
330
5512B
100
AcDbEntity
  8
DIMS SPECS
100
AcDbBlockReference
  2
FILLED-1
 10
30302.95353922985
 20
26033.55677959365
 30
0.0
 41
12.5
 42
12.5
 43
12.5
 50
55.15252863086228
  0
POINT
  5
55133
330
5512B
100
AcDbEntity
  8
DEFPOINTS
 62
     0
100
AcDbPoint
 10
30302.95353922985
 20
26033.55677959365
 30
0.0
  0
POINT
  5
55134
330
5512B
100
AcDbEntity
  8
DEFPOINTS
 62
     0
100
AcDbPoint
 10
30308.66747642847
 20
26041.76354032429
 30
0.0
  0
ENDBLK
  5
5512D
330
5512B
100
AcDbEntity
  8
0
100
AcDbBlockEnd
  0
BLOCK
  5
55136
330
55135
100
AcDbEntity
  8
0
100
AcDbBlockBegin
  2
*D8
 70
     1
 10
0.0
 20
0.0
 30
0.0
  3
*D8
  1

  0
LINE
  5
55138
330
55135
100
AcDbEntity
  8
DIMS SPECS
100
AcDbLine
 10
30296.30811505424
 20
26084.90955464322
 30
0.0
 11
30271.53889794952
 21
26084.90955464322
 31
0.0
  0
LINE
  5
55139
330
55135
100
AcDbEntity
  8
DIMS SPECS
100
AcDbLine
 10
30296.30811505424
 20
26155.97300928792
 30
0.0
 11
30271.53889794952
 21
26155.97300928792
 31
0.0
  0
LINE
  5
5513A
330
55135
100
AcDbEntity
  8
DIMS SPECS
100
AcDbLine
 10
30271.53889794952
 20
26097.40955464324
 30
0.0
 11
30271.53889794952
 21
26143.47300928792
 31
0.0
  0
LINE
  5
5513B
330
55135
100
AcDbEntity
  8
DIMS SPECS
100
AcDbLine
 10
30271.53889794952
 20
26155.97300928792
 30
0.0
 11
30271.53889794952
 21
26168.47300928792
 31
0.0
  0
LINE
  5
5513C
330
55135
100
AcDbEntity
  8
DIMS SPECS
100
AcDbLine
 10
30271.53889794952
 20
26168.47300928792
 30
0.0
 11
30297.55283404741
 21
26168.47300928792
 31
0.0
  0
INSERT
  5
5513D
330
55135
100
AcDbEntity
  8
DIMS SPECS
100
AcDbBlockReference
  2
FILLED-1
 10
30271.53889794952
 20
26084.90955464322
 30
0.0
 41
12.5
 42
12.5
 43
12.5
 50
270.0
  0
INSERT
  5
5513E
330
55135
100
AcDbEntity
  8
DIMS SPECS
100
AcDbBlockReference
  2
FILLED-1
 10
30271.53889794952
 20
26155.97300928792
 30
0.0
 41
12.5
 42
12.5
 43
12.5
 50
90.0
  0
MTEXT
  5
5513F
330
55135
100
AcDbEntity
  8
DIMS SPECS
100
AcDbMText
 10
30288.29586599846
 20
26184.68680942389
 30
0.0
 40
17.0
 41
0.0
 46
0.0
 71
     5
 72
     1
  1
\A1;71
  7
Abode ISO Bold
 73
     1
 44
1.0
  0
POINT
  5
55140
330
55135
100
AcDbEntity
  8
DEFPOINTS
 62
     0
100
AcDbPoint
 10
30311.30811505423
 20
26084.90955464322
 30
0.0
  0
POINT
  5
55141
330
55135
100
AcDbEntity
  8
DEFPOINTS
 62
     0
100
AcDbPoint
 10
30311.30811505423
 20
26155.97300928792
 30
0.0
  0
POINT
  5
55142
330
55135
100
AcDbEntity
  8
DEFPOINTS
 62
     0
100
AcDbPoint
 10
30271.53889794952
 20
26155.97300928792
 30
0.0
  0
ENDBLK
  5
55137
330
55135
100
AcDbEntity
  8
0
100
AcDbBlockEnd
  0
BLOCK
  5
55144
330
55143
100
AcDbEntity
  8
0
100
AcDbBlockBegin
  2
*D9
 70
     1
 10
0.0
 20
0.0
 30
0.0
  3
*D9
  1

  0
LINE
  5
55146
330
55143
100
AcDbEntity
  8
DIMS SPECS
100
AcDbLine
 10
29969.80772478971
 20
26141.59377291962
 30
0.0
 11
30002.51492650017
 21
26141.59377291962
 31
0.0
  0
LINE
  5
55147
330
55143
100
AcDbEntity
  8
DIMS SPECS
100
AcDbLine
 10
29933.80772478971
 20
25689.47664521544
 30
0.0
 11
30002.51492650017
 21
25689.47664521544
 31
0.0
  0
LINE
  5
55148
330
55143
100
AcDbEntity
  8
DIMS SPECS
100
AcDbLine
 10
30002.51492650017
 20
26129.09377291962
 30
0.0
 11
30002.51492650017
 21
25931.96280933946
 31
0.0
  0
LINE
  5
55149
330
55143
100
AcDbEntity
  8
DIMS SPECS
100
AcDbLine
 10
30002.51492650017
 20
25701.97664521544
 30
0.0
 11
30002.51492650017
 21
25899.10760879561
 31
0.0
  0
INSERT
  5
5514A
330
55143
100
AcDbEntity
  8
DIMS SPECS
100
AcDbBlockReference
  2
FILLED-1
 10
30002.51492650017
 20
26141.59377291962
 30
0.0
 41
12.5
 42
12.5
 43
12.5
 50
90.0
  0
INSERT
  5
5514B
330
55143
100
AcDbEntity
  8
DIMS SPECS
100
AcDbBlockReference
  2
FILLED-1
 10
30002.51492650017
 20
25689.47664521544
 30
0.0
 41
12.5
 42
12.5
 43
12.5
 50
270.0
  0
MTEXT
  5
5514C
330
55143
100
AcDbEntity
  8
DIMS SPECS
100
AcDbMText
 10
30002.51492650016
 20
25915.53520906754
 30
0.0
 40
17.0
 41
0.0
 46
0.0
 71
     5
 72
     1
  1
\A1;452
  7
Abode ISO Bold
 73
     1
 44
1.0
  0
POINT
  5
5514D
330
55143
100
AcDbEntity
  8
DEFPOINTS
 62
     0
100
AcDbPoint
 10
29954.80772478972
 20
26141.59377291962
 30
0.0
  0
POINT
  5
5514E
330
55143
100
AcDbEntity
  8
DEFPOINTS
 62
     0
100
AcDbPoint
 10
29918.80772478971
 20
25689.47664521544
 30
0.0
  0
POINT
  5
5514F
330
55143
100
AcDbEntity
  8
DEFPOINTS
 62
     0
100
AcDbPoint
 10
30002.51492650017
 20
25689.47664521544
 30
0.0
  0
ENDBLK
  5
55145
330
55143
100
AcDbEntity
  8
0
100
AcDbBlockEnd
  0
BLOCK
  5
55151
330
55150
100
AcDbEntity
  8
0
100
AcDbBlockBegin
  2
*D10
 70
     1
 10
0.0
 20
0.0
 30
0.0
  3
*D10
  1

  0
LINE
  5
55153
330
55150
100
AcDbEntity
  8
DIMS SPECS
100
AcDbLine
 10
30293.66747642847
 20
26031.76354032429
 30
0.0
 11
30136.56880252886
 21
26031.76354032429
 31
0.0
  0
LINE
  5
55154
330
55150
100
AcDbEntity
  8
DIMS SPECS
100
AcDbLine
 10
30168.92555558771
 20
26141.59377291962
 30
0.0
 11
30136.56880252886
 21
26141.59377291962
 31
0.0
  0
LINE
  5
55155
330
55150
100
AcDbEntity
  8
DIMS SPECS
100
AcDbLine
 10
30136.56880252886
 20
26044.26354032429
 30
0.0
 11
30136.56880252886
 21
26070.25105635004
 31
0.0
  0
LINE
  5
55156
330
55150
100
AcDbEntity
  8
DIMS SPECS
100
AcDbLine
 10
30136.56880252886
 20
26129.09377291962
 30
0.0
 11
30136.56880252886
 21
26103.10625689388
 31
0.0
  0
INSERT
  5
55157
330
55150
100
AcDbEntity
  8
DIMS SPECS
100
AcDbBlockReference
  2
FILLED-1
 10
30136.56880252886
 20
26031.76354032429
 30
0.0
 41
12.5
 42
12.5
 43
12.5
 50
270.0
  0
INSERT
  5
55158
330
55150
100
AcDbEntity
  8
DIMS SPECS
100
AcDbBlockReference
  2
FILLED-1
 10
30136.56880252886
 20
26141.59377291962
 30
0.0
 41
12.5
 42
12.5
 43
12.5
 50
90.0
  0
MTEXT
  5
55159
330
55150
100
AcDbEntity
  8
DIMS SPECS
100
AcDbMText
 10
30136.56880252885
 20
26086.67865662197
 30
0.0
 40
17.0
 41
0.0
 46
0.0
 71
     5
 72
     1
  1
\A1;110
  7
Abode ISO Bold
 73
     1
 44
1.0
  0
POINT
  5
5515A
330
55150
100
AcDbEntity
  8
DEFPOINTS
 62
     0
100
AcDbPoint
 10
30308.66747642847
 20
26031.76354032429
 30
0.0
  0
POINT
  5
5515B
330
55150
100
AcDbEntity
  8
DEFPOINTS
 62
     0
100
AcDbPoint
 10
30183.92555558771
 20
26141.59377291962
 30
0.0
  0
POINT
  5
5515C
330
55150
100
AcDbEntity
  8
DEFPOINTS
 62
     0
100
AcDbPoint
 10
30136.56880252886
 20
26141.59377291962
 30
0.0
  0
ENDBLK
  5
55152
330
55150
100
AcDbEntity
  8
0
100
AcDbBlockEnd
  0
BLOCK
  5
5515E
330
5515D
100
AcDbEntity
  8
0
100
AcDbBlockBegin
  2
*D11
 70
     1
 10
0.0
 20
0.0
 30
0.0
  3
*D11
  1

  0
ARC
  5
551A3
330
5515D
100
AcDbEntity
  8
DIMS SPECS
100
AcDbCircle
 10
30311.30847902741
 20
26024.98040210162
 30
0.0
 40
103.5363020874631
100
AcDbArc
 50
51.92205025168439
 51
77.32298030358029
  0
ARC
  5
551A4
330
5515D
100
AcDbEntity
  8
DIMS SPECS
100
AcDbCircle
 10
30311.30847902741
 20
26024.98040210162
 30
0.0
 40
103.5363020874631
100
AcDbArc
 50
102.677520233521
 51
128.0784380831695
  0
INSERT
  5
551A5
330
5515D
100
AcDbEntity
  8
DIMS SPECS
100
AcDbBlockReference
  2
FILLED-1
 10
30384.5190763468
 20
26098.19224738697
 30
0.0
 41
12.5
 42
12.5
 43
12.5
 50
318.4612692932692
  0
INSERT
  5
551A6
330
5515D
100
AcDbEntity
  8
DIMS SPECS
100
AcDbBlockReference
  2
FILLED-1
 10
30238.09725772239
 20
26098.19162340665
 30
0.0
 41
12.5
 42
12.5
 43
12.5
 50
221.5392190415848
  0
MTEXT
  5
551A7
330
5515D
100
AcDbEntity
  8
DIMS SPECS
100
AcDbMText
 10
30311.30803780482
 20
26128.51670418814
 30
0.0
 40
17.0
 41
0.0
 46
0.0
 71
     5
 72
     1
  1
\A1;90°
  7
Abode ISO Bold
 73
     1
 44
1.0
  0
POINT
  5
551A8
330
5515D
100
AcDbEntity
  8
DEFPOINTS
 62
     0
100
AcDbPoint
 10
30338.10507761564
 20
26124.98894250717
 30
0.0
  0
POINT
  5
551A9
330
5515D
100
AcDbEntity
  8
DEFPOINTS
 62
     0
100
AcDbPoint
 10
30420.32763006667
 20
26134.0014115083
 30
0.0
  0
POINT
  5
551AA
330
5515D
100
AcDbEntity
  8
DEFPOINTS
 62
     0
100
AcDbPoint
 10
30301.5964086166
 20
26034.69247251243
 30
0.0
  0
POINT
  5
551AB
330
5515D
100
AcDbEntity
  8
DEFPOINTS
 62
     0
100
AcDbPoint
 10
30202.2874334605
 20
26134.00144766854
 30
0.0
  0
POINT
  5
551AC
330
5515D
100
AcDbEntity
  8
DEFPOINTS
 62
     0
100
AcDbPoint
 10
30321.02044415298
 20
26034.69253277975
 30
0.0
  0
ENDBLK
  5
5515F
330
5515D
100
AcDbEntity
  8
0
100
AcDbBlockEnd
  0
BLOCK
  5
55185
330
55184
100
AcDbEntity
  8
0
100
AcDbBlockBegin
  2
*D12
 70
     1
 10
0.0
 20
0.0
 30
0.0
  3
*D12
  1

  0
LINE
  5
55187
330
55184
100
AcDbEntity
  8
DIMS SPECS
100
AcDbLine
 10
30488.21742301468
 20
26094.42765898696
 30
0.0
 11
30447.72517284473
 21
26094.42765898696
 31
0.0
  0
LINE
  5
55188
330
55184
100
AcDbEntity
  8
DIMS SPECS
100
AcDbLine
 10
30447.72517284473
 20
26094.42765898696
 30
0.0
 11
30433.38865852195
 21
26128.01303648228
 31
0.0
  0
MTEXT
  5
55189
330
55184
100
AcDbEntity
  8
DIMS SPECS
100
AcDbMText
 10
30471.7212979297
 20
26110.85525925888
 30
0.0
 40
17.0
 41
0.0
 46
0.0
 71
     5
 72
     1
  1
\A1;R26
  7
Abode ISO Bold
 73
     1
 44
1.0
  0
INSERT
  5
5518A
330
55184
100
AcDbEntity
  8
DIMS SPECS
100
AcDbBlockReference
  2
FILLED-1
 10
30428.4812193809
 20
26139.50942900677
 30
0.0
 41
12.5
 42
12.5
 43
12.5
 50
113.1160727238367
  0
POINT
  5
5518B
330
55184
100
AcDbEntity
  8
DEFPOINTS
 62
     0
100
AcDbPoint
 10
30428.4812193809
 20
26139.50942900677
 30
0.0
  0
POINT
  5
5518C
330
55184
100
AcDbEntity
  8
DEFPOINTS
 62
     0
100
AcDbPoint
 10
30438.67326775776
 20
26115.63306795551
 30
0.0
  0
ENDBLK
  5
55186
330
55184
100
AcDbEntity
  8
0
100
AcDbBlockEnd
  0
BLOCK
  5
55241
330
55240
100
AcDbEntity
  8
0
100
AcDbBlockBegin
  2
*D14
 70
     1
 10
0.0
 20
0.0
 30
0.0
  3
*D14
  1

  0
LINE
  5
55242
330
55240
100
AcDbEntity
  8
DIMS SPECS
100
AcDbLine
 10
-45920.49762677143
 20
932.2510411234699
 30
0.0
 11
-45920.49762677143
 21
860.1206648966371
 31
0.0
  0
LINE
  5
55243
330
55240
100
AcDbEntity
  8
DIMS SPECS
100
AcDbLine
 10
-45508.49762677141
 20
932.2510411234716
 30
0.0
 11
-45508.49762677141
 21
860.1206648966371
 31
0.0
  0
LINE
  5
55244
330
55240
100
AcDbEntity
  8
DIMS SPECS
100
AcDbLine
 10
-45907.99762677144
 20
860.1206648966371
 30
0.0
 11
-45520.99762677142
 21
860.1206648966371
 31
0.0
  0
INSERT
  5
55245
330
55240
100
AcDbEntity
  8
DIMS SPECS
100
AcDbBlockReference
  2
FILLED-1
 10
-45920.49762677143
 20
860.1206648966371
 30
0.0
 41
12.5
 42
12.5
 43
12.5
 50
180.0
  0
INSERT
  5
55246
330
55240
100
AcDbEntity
  8
DIMS SPECS
100
AcDbBlockReference
  2
FILLED-1
 10
-45508.49762677141
 20
860.1206648966371
 30
0.0
 41
12.5
 42
12.5
 43
12.5
  0
MTEXT
  5
55247
330
55240
100
AcDbEntity
  8
DIMS SPECS
100
AcDbMText
 10
-45714.49762677142
 20
876.3344650325992
 30
0.0
 40
17.0
 41
0.0
 46
0.0
 71
     5
 72
     1
  1
\A1;412
  7
Abode ISO Bold
 73
     1
 44
1.0
  0
POINT
  5
55248
330
55240
100
AcDbEntity
  8
DEFPOINTS
 62
     0
100
AcDbPoint
 10
-45920.49762677143
 20
947.2510411234697
 30
0.0
  0
POINT
  5
55249
330
55240
100
AcDbEntity
  8
DEFPOINTS
 62
     0
100
AcDbPoint
 10
-45508.49762677141
 20
947.2510411234717
 30
0.0
  0
POINT
  5
5524A
330
55240
100
AcDbEntity
  8
DEFPOINTS
 62
     0
100
AcDbPoint
 10
-45508.49762677141
 20
860.1206648966371
 30
0.0
  0
ENDBLK
  5
5524B
330
55240
100
AcDbEntity
  8
0
100
AcDbBlockEnd
  0
BLOCK
  5
5524D
330
5524C
100
AcDbEntity
  8
0
100
AcDbBlockBegin
  2
*D15
 70
     1
 10
0.0
 20
0.0
 30
0.0
  3
*D15
  1

  0
LINE
  5
5524E
330
5524C
100
AcDbEntity
  8
DIMS SPECS
100
AcDbLine
 10
-45509.49762677142
 20
931.2510411234717
 30
0.0
 11
-45447.11596280618
 21
931.2510411234717
 31
0.0
  0
LINE
  5
5524F
330
5524C
100
AcDbEntity
  8
DIMS SPECS
100
AcDbLine
 10
-45509.49762677142
 20
1343.251041123484
 30
0.0
 11
-45447.11596280618
 21
1343.251041123484
 31
0.0
  0
LINE
  5
55250
330
5524C
100
AcDbEntity
  8
DIMS SPECS
100
AcDbLine
 10
-45447.11596280618
 20
943.7510411234717
 30
0.0
 11
-45447.11596280618
 21
1121.037240987516
 31
0.0
  0
LINE
  5
55251
330
5524C
100
AcDbEntity
  8
DIMS SPECS
100
AcDbLine
 10
-45447.11596280618
 20
1330.751041123484
 30
0.0
 11
-45447.11596280618
 21
1153.46484125944
 31
0.0
  0
INSERT
  5
55252
330
5524C
100
AcDbEntity
  8
DIMS SPECS
100
AcDbBlockReference
  2
FILLED-1
 10
-45447.11596280618
 20
931.2510411234717
 30
0.0
 41
12.5
 42
12.5
 43
12.5
 50
270.0
  0
INSERT
  5
55253
330
5524C
100
AcDbEntity
  8
DIMS SPECS
100
AcDbBlockReference
  2
FILLED-1
 10
-45447.11596280618
 20
1343.251041123484
 30
0.0
 41
12.5
 42
12.5
 43
12.5
 50
90.0
  0
MTEXT
  5
55254
330
5524C
100
AcDbEntity
  8
DIMS SPECS
100
AcDbMText
 10
-45447.11596280618
 20
1137.25104112347
 30
0.0
 40
17.0
 41
0.0
 46
0.0
 71
     5
 72
     1
  1
\A1;412
  7
Abode ISO Bold
 73
     1
 44
1.0
  0
POINT
  5
55255
330
5524C
100
AcDbEntity
  8
DEFPOINTS
 62
     0
100
AcDbPoint
 10
-45524.49762677142
 20
931.2510411234717
 30
0.0
  0
POINT
  5
55256
330
5524C
100
AcDbEntity
  8
DEFPOINTS
 62
     0
100
AcDbPoint
 10
-45524.49762677142
 20
1343.251041123484
 30
0.0
  0
POINT
  5
55257
330
5524C
100
AcDbEntity
  8
DEFPOINTS
 62
     0
100
AcDbPoint
 10
-45447.11596280618
 20
1343.251041123484
 30
0.0
  0
ENDBLK
  5
55258
330
5524C
100
AcDbEntity
  8
0
100
AcDbBlockEnd
  0
BLOCK
  5
5525A
330
55259
100
AcDbEntity
  8
0
100
AcDbBlockBegin
  2
*D16
 70
     1
 10
0.0
 20
0.0
 30
0.0
  3
*D16
  1

  0
LINE
  5
5525B
330
55259
100
AcDbEntity
  8
DIMS SPECS
100
AcDbLine
 10
-46708.41006561777
 20
918.2510411234733
 30
0.0
 11
-46708.41006561777
 21
856.2840412332926
 31
0.0
  0
LINE
  5
5525C
330
55259
100
AcDbEntity
  8
DIMS SPECS
100
AcDbLine
 10
-46268.41006561774
 20
923.2510411234734
 30
0.0
 11
-46268.41006561774
 21
856.2840412332926
 31
0.0
  0
LINE
  5
5525D
330
55259
100
AcDbEntity
  8
DIMS SPECS
100
AcDbLine
 10
-46695.91006561777
 20
856.2840412332926
 30
0.0
 11
-46280.91006561774
 21
856.2840412332926
 31
0.0
  0
INSERT
  5
5525E
330
55259
100
AcDbEntity
  8
DIMS SPECS
100
AcDbBlockReference
  2
FILLED-1
 10
-46708.41006561777
 20
856.2840412332926
 30
0.0
 41
12.5
 42
12.5
 43
12.5
 50
180.0
  0
INSERT
  5
5525F
330
55259
100
AcDbEntity
  8
DIMS SPECS
100
AcDbBlockReference
  2
FILLED-1
 10
-46268.41006561774
 20
856.2840412332926
 30
0.0
 41
12.5
 42
12.5
 43
12.5
  0
MTEXT
  5
55260
330
55259
100
AcDbEntity
  8
DIMS SPECS
100
AcDbMText
 10
-46488.41006561776
 20
872.7116415052163
 30
0.0
 40
17.0
 41
0.0
 46
0.0
 71
     5
 72
     1
  1
\A1;440
  7
Abode ISO Bold
 73
     1
 44
1.0
  0
POINT
  5
55261
330
55259
100
AcDbEntity
  8
DEFPOINTS
 62
     0
100
AcDbPoint
 10
-46708.41006561777
 20
933.2510411234734
 30
0.0
  0
POINT
  5
55262
330
55259
100
AcDbEntity
  8
DEFPOINTS
 62
     0
100
AcDbPoint
 10
-46268.41006561774
 20
938.2510411234735
 30
0.0
  0
POINT
  5
55263
330
55259
100
AcDbEntity
  8
DEFPOINTS
 62
     0
100
AcDbPoint
 10
-46268.41006561774
 20
856.2840412332926
 30
0.0
  0
ENDBLK
  5
55264
330
55259
100
AcDbEntity
  8
0
100
AcDbBlockEnd
  0
BLOCK
  5
55266
330
55265
100
AcDbEntity
  8
0
100
AcDbBlockBegin
  2
*D17
 70
     1
 10
0.0
 20
0.0
 30
0.0
  3
*D17
  1

  0
LINE
  5
55267
330
55265
100
AcDbEntity
  8
DIMS SPECS
100
AcDbLine
 10
-46288.41006561773
 20
1343.251041123471
 30
0.0
 11
-46223.36627635234
 21
1343.251041123471
 31
0.0
  0
LINE
  5
55268
330
55265
100
AcDbEntity
  8
DIMS SPECS
100
AcDbLine
 10
-46283.41006561774
 20
903.2510411234724
 30
0.0
 11
-46223.36627635234
 21
903.2510411234724
 31
0.0
  0
LINE
  5
55269
330
55265
100
AcDbEntity
  8
DIMS SPECS
100
AcDbLine
 10
-46223.36627635234
 20
1330.751041123471
 30
0.0
 11
-46223.36627635234
 21
1139.678641395396
 31
0.0
  0
LINE
  5
5526A
330
55265
100
AcDbEntity
  8
DIMS SPECS
100
AcDbLine
 10
-46223.36627635234
 20
915.7510411234724
 30
0.0
 11
-46223.36627635234
 21
1106.823440851548
 31
0.0
  0
INSERT
  5
5526B
330
55265
100
AcDbEntity
  8
DIMS SPECS
100
AcDbBlockReference
  2
FILLED-1
 10
-46223.36627635234
 20
1343.251041123471
 30
0.0
 41
12.5
 42
12.5
 43
12.5
 50
90.0
  0
INSERT
  5
5526C
330
55265
100
AcDbEntity
  8
DIMS SPECS
100
AcDbBlockReference
  2
FILLED-1
 10
-46223.36627635234
 20
903.2510411234724
 30
0.0
 41
12.5
 42
12.5
 43
12.5
 50
270.0
  0
MTEXT
  5
5526D
330
55265
100
AcDbEntity
  8
DIMS SPECS
100
AcDbMText
 10
-46223.36627635234
 20
1123.251041123464
 30
0.0
 40
17.0
 41
0.0
 46
0.0
 71
     5
 72
     1
  1
\A1;440
  7
Abode ISO Bold
 73
     1
 44
1.0
  0
POINT
  5
5526E
330
55265
100
AcDbEntity
  8
DEFPOINTS
 62
     0
100
AcDbPoint
 10
-46303.41006561773
 20
1343.251041123471
 30
0.0
  0
POINT
  5
5526F
330
55265
100
AcDbEntity
  8
DEFPOINTS
 62
     0
100
AcDbPoint
 10
-46298.41006561774
 20
903.2510411234724
 30
0.0
  0
POINT
  5
55270
330
55265
100
AcDbEntity
  8
DEFPOINTS
 62
     0
100
AcDbPoint
 10
-46223.36627635234
 20
903.2510411234724
 30
0.0
  0
ENDBLK
  5
55271
330
55265
100
AcDbEntity
  8
0
100
AcDbBlockEnd
  0
BLOCK
  5
55273
330
55272
100
AcDbEntity
  8
0
100
AcDbBlockBegin
  2
*D18
 70
     1
 10
0.0
 20
0.0
 30
0.0
  3
*D18
  1

  0
LINE
  5
55274
330
55272
100
AcDbEntity
  8
DIMS SPECS
100
AcDbLine
 10
-46185.88242088479
 20
853.4265385863946
 30
0.0
 11
-46227.06114284265
 21
853.4265385863982
 31
0.0
  0
LINE
  5
55275
330
55272
100
AcDbEntity
  8
DIMS SPECS
100
AcDbLine
 10
-46227.06114284265
 20
853.4265385863982
 30
0.0
 11
-46270.08738185812
 21
901.5638893951473
 31
0.0
  0
MTEXT
  5
55276
330
55272
100
AcDbEntity
  8
DIMS SPECS
100
AcDbMText
 10
-46202.72178186373
 20
869.8541388583148
 30
0.0
 40
17.0
 41
0.0
 46
0.0
 71
     5
 72
     1
  1
\A1;R30
  7
Abode ISO Bold
 73
     1
 44
1.0
  0
LINE
  5
55277
330
55272
100
AcDbEntity
  8
DIMS SPECS
100
AcDbLine
 10
-46298.41006561771
 20
933.2510411234579
 30
0.0
 11
-46278.41758296388
 21
910.8836399034736
 31
0.0
  0
INSERT
  5
55278
330
55272
100
AcDbEntity
  8
DIMS SPECS
100
AcDbBlockReference
  2
FILLED-1
 10
-46278.41758296388
 20
910.8836399034736
 30
0.0
 41
12.5
 42
12.5
 43
12.5
 50
131.7910557550161
  0
POINT
  5
55279
330
55272
100
AcDbEntity
  8
DEFPOINTS
 62
     0
100
AcDbPoint
 10
-46278.41758296388
 20
910.8836399034736
 30
0.0
  0
POINT
  5
5527A
330
55272
100
AcDbEntity
  8
DEFPOINTS
 62
     0
100
AcDbPoint
 10
-46298.41006561771
 20
933.2510411234579
 30
0.0
  0
ENDBLK
  5
5527B
330
55272
100
AcDbEntity
  8
0
100
AcDbBlockEnd
  0
BLOCK
  5
5527D
330
5527C
100
AcDbEntity
  8
0
100
AcDbBlockBegin
  2
*D19
 70
     1
 10
0.0
 20
0.0
 30
0.0
  3
*D19
  1

  0
LINE
  5
5527E
330
5527C
100
AcDbEntity
  8
DIMS SPECS
100
AcDbLine
 10
-45425.84197173163
 20
886.7081155178494
 30
0.0
 11
-45466.3342219016
 21
886.708115517853
 31
0.0
  0
LINE
  5
5527F
330
5527C
100
AcDbEntity
  8
DIMS SPECS
100
AcDbLine
 10
-45466.3342219016
 20
886.708115517853
 30
0.0
 11
-45504.7530166115
 21
926.6986600051495
 31
0.0
  0
MTEXT
  5
55280
330
5527C
100
AcDbEntity
  8
DIMS SPECS
100
AcDbMText
 10
-45442.33809681661
 20
903.1357157897769
 30
0.0
 40
17.0
 41
0.0
 46
0.0
 71
     5
 72
     1
  1
\A1;R16
  7
Abode ISO Bold
 73
     1
 44
1.0
  0
LINE
  5
55281
330
5527C
100
AcDbEntity
  8
DIMS SPECS
100
AcDbLine
 10
-45524.49762677142
 20
947.2510411234688
 30
0.0
 11
-45513.4129333483
 21
935.7128622500276
 31
0.0
  0
INSERT
  5
55282
330
5527C
100
AcDbEntity
  8
DIMS SPECS
100
AcDbBlockReference
  2
FILLED-1
 10
-45513.4129333483
 20
935.7128622500276
 30
0.0
 41
12.5
 42
12.5
 43
12.5
 50
133.8516346315832
  0
POINT
  5
55283
330
5527C
100
AcDbEntity
  8
DEFPOINTS
 62
     0
100
AcDbPoint
 10
-45513.4129333483
 20
935.7128622500276
 30
0.0
  0
POINT
  5
55284
330
5527C
100
AcDbEntity
  8
DEFPOINTS
 62
     0
100
AcDbPoint
 10
-45524.49762677142
 20
947.2510411234688
 30
0.0
  0
ENDBLK
  5
55285
330
5527C
100
AcDbEntity
  8
0
100
AcDbBlockEnd
  0
BLOCK
  5
5531C
330
5531B
100
AcDbEntity
  8
0
100
AcDbBlockBegin
  2
*D21
 70
     1
 10
0.0
 20
0.0
 30
0.0
  3
*D21
  1

  0
LINE
  5
5531E
330
5531B
100
AcDbEntity
  8
DIMS SPECS
100
AcDbLine
 10
30167.58609437166
 20
25615.81877164761
 30
0.0
 11
30126.40737241377
 21
25615.81877164761
 31
0.0
  0
LINE
  5
5531F
330
5531B
100
AcDbEntity
  8
DIMS SPECS
100
AcDbLine
 10
30126.40737241377
 20
25615.81877164761
 30
0.0
 11
30083.38113339834
 21
25663.95612245635
 31
0.0
  0
MTEXT
  5
55320
330
5531B
100
AcDbEntity
  8
DIMS SPECS
100
AcDbMText
 10
30150.74673339273
 20
25632.24637191952
 30
0.0
 40
17.0
 41
0.0
 46
0.0
 71
     5
 72
     1
  1
\A1;R30
  7
Abode ISO Bold
 73
     1
 44
1.0
  0
LINE
  5
55321
330
5531B
100
AcDbEntity
  8
DIMS SPECS
100
AcDbLine
 10
30055.05844963876
 20
25695.64327418468
 30
0.0
 11
30075.05093229258
 21
25673.27587296468
 31
0.0
  0
INSERT
  5
55322
330
5531B
100
AcDbEntity
  8
DIMS SPECS
100
AcDbBlockReference
  2
FILLED-1
 10
30075.05093229258
 20
25673.27587296468
 30
0.0
 41
12.5
 42
12.5
 43
12.5
 50
131.7910557549966
  0
POINT
  5
55323
330
5531B
100
AcDbEntity
  8
DEFPOINTS
 62
     0
100
AcDbPoint
 10
30075.05093229258
 20
25673.27587296468
 30
0.0
  0
POINT
  5
55324
330
5531B
100
AcDbEntity
  8
DEFPOINTS
 62
     0
100
AcDbPoint
 10
30055.05844963876
 20
25695.64327418468
 30
0.0
  0
ENDBLK
  5
5531D
330
5531B
100
AcDbEntity
  8
0
100
AcDbBlockEnd
  0
BLOCK
  5
55326
330
55325
100
AcDbEntity
  8
0
100
AcDbBlockBegin
  2
*D22
 70
     1
 10
0.0
 20
0.0
 30
0.0
  3
*D22
  1

  0
LINE
  5
55328
330
55325
100
AcDbEntity
  8
DIMS SPECS
100
AcDbLine
 10
30927.62654352483
 20
25649.10034857907
 30
0.0
 11
30887.13429335486
 21
25649.10034857906
 31
0.0
  0
LINE
  5
55329
330
55325
100
AcDbEntity
  8
DIMS SPECS
100
AcDbLine
 10
30887.13429335486
 20
25649.10034857906
 30
0.0
 11
30848.71549864496
 21
25689.09089306636
 31
0.0
  0
MTEXT
  5
5532A
330
55325
100
AcDbEntity
  8
DIMS SPECS
100
AcDbMText
 10
30911.13041843985
 20
25665.52794885098
 30
0.0
 40
17.0
 41
0.0
 46
0.0
 71
     5
 72
     1
  1
\A1;R16
  7
Abode ISO Bold
 73
     1
 44
1.0
  0
LINE
  5
5532B
330
55325
100
AcDbEntity
  8
DIMS SPECS
100
AcDbLine
 10
30828.97088848504
 20
25709.64327418468
 30
0.0
 11
30840.05558190816
 21
25698.10509531123
 31
0.0
  0
INSERT
  5
5532C
330
55325
100
AcDbEntity
  8
DIMS SPECS
100
AcDbBlockReference
  2
FILLED-1
 10
30840.05558190816
 20
25698.10509531123
 30
0.0
 41
12.5
 42
12.5
 43
12.5
 50
133.8516346315832
  0
POINT
  5
5532D
330
55325
100
AcDbEntity
  8
DEFPOINTS
 62
     0
100
AcDbPoint
 10
30840.05558190816
 20
25698.10509531123
 30
0.0
  0
POINT
  5
5532E
330
55325
100
AcDbEntity
  8
DEFPOINTS
 62
     0
100
AcDbPoint
 10
30828.97088848504
 20
25709.64327418468
 30
0.0
  0
ENDBLK
  5
55327
330
55325
100
AcDbEntity
  8
0
100
AcDbBlockEnd
  0
BLOCK
  5
55330
330
5532F
100
AcDbEntity
  8
0
100
AcDbBlockBegin
  2
*D23
 70
     1
 10
0.0
 20
0.0
 30
0.0
  3
*D23
  1

  0
LINE
  5
55332
330
5532F
100
AcDbEntity
  8
DIMS SPECS
100
AcDbLine
 10
29645.0584496387
 20
25680.64327418468
 30
0.0
 11
29645.0584496387
 21
25618.6762742945
 31
0.0
  0
LINE
  5
55333
330
5532F
100
AcDbEntity
  8
DIMS SPECS
100
AcDbLine
 10
30085.05844963872
 20
25685.64327418469
 30
0.0
 11
30085.05844963872
 21
25618.6762742945
 31
0.0
  0
LINE
  5
55334
330
5532F
100
AcDbEntity
  8
DIMS SPECS
100
AcDbLine
 10
29657.5584496387
 20
25618.6762742945
 30
0.0
 11
30072.55844963872
 21
25618.6762742945
 31
0.0
  0
INSERT
  5
55335
330
5532F
100
AcDbEntity
  8
DIMS SPECS
100
AcDbBlockReference
  2
FILLED-1
 10
29645.0584496387
 20
25618.6762742945
 30
0.0
 41
12.5
 42
12.5
 43
12.5
 50
180.0
  0
INSERT
  5
55336
330
5532F
100
AcDbEntity
  8
DIMS SPECS
100
AcDbBlockReference
  2
FILLED-1
 10
30085.05844963872
 20
25618.6762742945
 30
0.0
 41
12.5
 42
12.5
 43
12.5
  0
MTEXT
  5
55337
330
5532F
100
AcDbEntity
  8
DIMS SPECS
100
AcDbMText
 10
29865.0584496387
 20
25635.10387456643
 30
0.0
 40
17.0
 41
0.0
 46
0.0
 71
     5
 72
     1
  1
\A1;440
  7
Abode ISO Bold
 73
     1
 44
1.0
  0
POINT
  5
55338
330
5532F
100
AcDbEntity
  8
DEFPOINTS
 62
     0
100
AcDbPoint
 10
29645.0584496387
 20
25695.64327418468
 30
0.0
  0
POINT
  5
55339
330
5532F
100
AcDbEntity
  8
DEFPOINTS
 62
     0
100
AcDbPoint
 10
30085.05844963872
 20
25700.64327418469
 30
0.0
  0
POINT
  5
5533A
330
5532F
100
AcDbEntity
  8
DEFPOINTS
 62
     0
100
AcDbPoint
 10
30085.05844963872
 20
25618.6762742945
 30
0.0
  0
ENDBLK
  5
55331
330
5532F
100
AcDbEntity
  8
0
100
AcDbBlockEnd
  0
BLOCK
  5
5533C
330
5533B
100
AcDbEntity
  8
0
100
AcDbBlockBegin
  2
*D24
 70
     1
 10
0.0
 20
0.0
 30
0.0
  3
*D24
  1

  0
LINE
  5
5533E
330
5533B
100
AcDbEntity
  8
DIMS SPECS
100
AcDbLine
 10
30065.05844963872
 20
26105.64327418468
 30
0.0
 11
30130.10223890413
 21
26105.64327418468
 31
0.0
  0
LINE
  5
5533F
330
5533B
100
AcDbEntity
  8
DIMS SPECS
100
AcDbLine
 10
30070.05844963873
 20
25665.64327418468
 30
0.0
 11
30130.10223890413
 21
25665.64327418468
 31
0.0
  0
LINE
  5
55340
330
5533B
100
AcDbEntity
  8
DIMS SPECS
100
AcDbLine
 10
30130.10223890413
 20
26093.14327418469
 30
0.0
 11
30130.10223890413
 21
25902.0708744566
 31
0.0
  0
LINE
  5
55341
330
5533B
100
AcDbEntity
  8
DIMS SPECS
100
AcDbLine
 10
30130.10223890413
 20
25678.14327418469
 30
0.0
 11
30130.10223890413
 21
25869.21567391275
 31
0.0
  0
INSERT
  5
55342
330
5533B
100
AcDbEntity
  8
DIMS SPECS
100
AcDbBlockReference
  2
FILLED-1
 10
30130.10223890413
 20
26105.64327418468
 30
0.0
 41
12.5
 42
12.5
 43
12.5
 50
90.0
  0
INSERT
  5
55343
330
5533B
100
AcDbEntity
  8
DIMS SPECS
100
AcDbBlockReference
  2
FILLED-1
 10
30130.10223890413
 20
25665.64327418468
 30
0.0
 41
12.5
 42
12.5
 43
12.5
 50
270.0
  0
MTEXT
  5
55344
330
5533B
100
AcDbEntity
  8
DIMS SPECS
100
AcDbMText
 10
30130.10223890412
 20
25885.64327418468
 30
0.0
 40
17.0
 41
0.0
 46
0.0
 71
     5
 72
     1
  1
\A1;440
  7
Abode ISO Bold
 73
     1
 44
1.0
  0
POINT
  5
55345
330
5533B
100
AcDbEntity
  8
DEFPOINTS
 62
     0
100
AcDbPoint
 10
30050.05844963872
 20
26105.64327418468
 30
0.0
  0
POINT
  5
55346
330
5533B
100
AcDbEntity
  8
DEFPOINTS
 62
     0
100
AcDbPoint
 10
30055.05844963872
 20
25665.64327418468
 30
0.0
  0
POINT
  5
55347
330
5533B
100
AcDbEntity
  8
DEFPOINTS
 62
     0
100
AcDbPoint
 10
30130.10223890413
 20
25665.64327418468
 30
0.0
  0
ENDBLK
  5
5533D
330
5533B
100
AcDbEntity
  8
0
100
AcDbBlockEnd
  0
BLOCK
  5
55349
330
55348
100
AcDbEntity
  8
0
100
AcDbBlockBegin
  2
*D25
 70
     1
 10
0.0
 20
0.0
 30
0.0
  3
*D25
  1

  0
LINE
  5
5534B
330
55348
100
AcDbEntity
  8
DIMS SPECS
100
AcDbLine
 10
30432.97088848503
 20
25694.64327418468
 30
0.0
 11
30432.97088848503
 21
25622.51289795785
 31
0.0
  0
LINE
  5
5534C
330
55348
100
AcDbEntity
  8
DIMS SPECS
100
AcDbLine
 10
30844.97088848505
 20
25694.64327418468
 30
0.0
 11
30844.97088848505
 21
25622.51289795785
 31
0.0
  0
LINE
  5
5534D
330
55348
100
AcDbEntity
  8
DIMS SPECS
100
AcDbLine
 10
30445.47088848503
 20
25622.51289795785
 30
0.0
 11
30832.47088848505
 21
25622.51289795785
 31
0.0
  0
INSERT
  5
5534E
330
55348
100
AcDbEntity
  8
DIMS SPECS
100
AcDbBlockReference
  2
FILLED-1
 10
30432.97088848503
 20
25622.51289795785
 30
0.0
 41
12.5
 42
12.5
 43
12.5
 50
180.0
  0
INSERT
  5
5534F
330
55348
100
AcDbEntity
  8
DIMS SPECS
100
AcDbBlockReference
  2
FILLED-1
 10
30844.97088848505
 20
25622.51289795785
 30
0.0
 41
12.5
 42
12.5
 43
12.5
  0
MTEXT
  5
55350
330
55348
100
AcDbEntity
  8
DIMS SPECS
100
AcDbMText
 10
30638.97088848504
 20
25638.72669809381
 30
0.0
 40
17.0
 41
0.0
 46
0.0
 71
     5
 72
     1
  1
\A1;412
  7
Abode ISO Bold
 73
     1
 44
1.0
  0
POINT
  5
55351
330
55348
100
AcDbEntity
  8
DEFPOINTS
 62
     0
100
AcDbPoint
 10
30432.97088848503
 20
25709.64327418468
 30
0.0
  0
POINT
  5
55352
330
55348
100
AcDbEntity
  8
DEFPOINTS
 62
     0
100
AcDbPoint
 10
30844.97088848505
 20
25709.64327418468
 30
0.0
  0
POINT
  5
55353
330
55348
100
AcDbEntity
  8
DEFPOINTS
 62
     0
100
AcDbPoint
 10
30844.97088848505
 20
25622.51289795785
 30
0.0
  0
ENDBLK
  5
5534A
330
55348
100
AcDbEntity
  8
0
100
AcDbBlockEnd
  0
BLOCK
  5
55355
330
55354
100
AcDbEntity
  8
0
100
AcDbBlockBegin
  2
*D26
 70
     1
 10
0.0
 20
0.0
 30
0.0
  3
*D26
  1

  0
LINE
  5
55357
330
55354
100
AcDbEntity
  8
DIMS SPECS
100
AcDbLine
 10
30843.97088848505
 20
25693.64327418468
 30
0.0
 11
30906.35255245028
 21
25693.64327418468
 31
0.0
  0
LINE
  5
55358
330
55354
100
AcDbEntity
  8
DIMS SPECS
100
AcDbLine
 10
30843.97088848505
 20
26105.6432741847
 30
0.0
 11
30906.35255245028
 21
26105.6432741847
 31
0.0
  0
LINE
  5
55359
330
55354
100
AcDbEntity
  8
DIMS SPECS
100
AcDbLine
 10
30906.35255245028
 20
25706.14327418468
 30
0.0
 11
30906.35255245028
 21
25883.42947404873
 31
0.0
  0
LINE
  5
5535A
330
55354
100
AcDbEntity
  8
DIMS SPECS
100
AcDbLine
 10
30906.35255245028
 20
26093.1432741847
 30
0.0
 11
30906.35255245028
 21
25915.85707432065
 31
0.0
  0
INSERT
  5
5535B
330
55354
100
AcDbEntity
  8
DIMS SPECS
100
AcDbBlockReference
  2
FILLED-1
 10
30906.35255245028
 20
25693.64327418468
 30
0.0
 41
12.5
 42
12.5
 43
12.5
 50
270.0
  0
INSERT
  5
5535C
330
55354
100
AcDbEntity
  8
DIMS SPECS
100
AcDbBlockReference
  2
FILLED-1
 10
30906.35255245028
 20
26105.6432741847
 30
0.0
 41
12.5
 42
12.5
 43
12.5
 50
90.0
  0
MTEXT
  5
5535D
330
55354
100
AcDbEntity
  8
DIMS SPECS
100
AcDbMText
 10
30906.35255245028
 20
25899.64327418469
 30
0.0
 40
17.0
 41
0.0
 46
0.0
 71
     5
 72
     1
  1
\A1;412
  7
Abode ISO Bold
 73
     1
 44
1.0
  0
POINT
  5
5535E
330
55354
100
AcDbEntity
  8
DEFPOINTS
 62
     0
100
AcDbPoint
 10
30828.97088848505
 20
25693.64327418468
 30
0.0
  0
POINT
  5
5535F
330
55354
100
AcDbEntity
  8
DEFPOINTS
 62
     0
100
AcDbPoint
 10
30828.97088848505
 20
26105.6432741847
 30
0.0
  0
POINT
  5
55360
330
55354
100
AcDbEntity
  8
DEFPOINTS
 62
     0
100
AcDbPoint
 10
30906.35255245028
 20
26105.6432741847
 30
0.0
  0
ENDBLK
  5
55356
330
55354
100
AcDbEntity
  8
0
100
AcDbBlockEnd
  0
ENDSEC
  0
SECTION
  2
ENTITIES
  0
TEXT
  5
4EFD5
330
52C18
100
AcDbEntity
  8
LAYER1
100
AcDbText
 10
29536.60103082985
 20
26533.84198875161
 30
0.0
 40
150.0
  1
AW1030
100
AcDbText
  0
INSERT
  5
4EFE9
330
52C18
100
AcDbEntity
  8
0
100
AcDbBlockReference
  2
*U1
 10
0.0
 20
0.0
 30
0.0
  0
TEXT
  5
4EFEA
330
52C18
100
AcDbEntity
  8
LAYER1
100
AcDbText
 10
29141.6042719676
 20
25696.20060721863
 30
0.0
 40
30.0
  1
file version 1
100
AcDbText
  0
LINE
  5
552E3
330
52C18
100
AcDbEntity
  8
CUTOUT
100
AcDbLine
 10
30085.05844963881
 20
26075.64327418468
 30
0.0
 11
30085.05844963873
 21
25695.64327418468
 31
0.0
  0
ARC
  5
552E4
330
52C18
100
AcDbEntity
  8
CUTOUT
100
AcDbCircle
 10
30055.05844963872
 20
25695.64327418468
 30
0.0
 40
30.0
100
AcDbArc
 50
270.0
 51
0.0
  0
ARC
  5
552E5
330
52C18
100
AcDbEntity
  8
CUTOUT
100
AcDbCircle
 10
30055.05844963881
 20
26075.64327418468
 30
0.0
 40
30.0
100
AcDbArc
 50
0.0
 51
90.0
  0
LINE
  5
552E6
102
{ACAD_REACTORS
330
55308
102
}
330
52C18
100
AcDbEntity
  8
CUTOUT
100
AcDbLine
 10
29645.05844963869
 20
26075.64327418468
 30
0.0
 11
29645.0584496387
 21
25695.64327418468
 31
0.0
  0
ARC
  5
552E7
330
52C18
100
AcDbEntity
  8
CUTOUT
100
AcDbCircle
 10
29675.0584496387
 20
25695.64327418469
 30
0.0
 40
30.0
100
AcDbArc
 50
180.0
 51
270.0
  0
ARC
  5
552E8
330
52C18
100
AcDbEntity
  8
CUTOUT
100
AcDbCircle
 10
29675.05844963869
 20
26075.64327418468
 30
0.0
 40
30.0
100
AcDbArc
 50
90.0
 51
180.0
  0
LINE
  5
552E9
330
52C18
100
AcDbEntity
  8
CUTOUT
100
AcDbLine
 10
29675.05844963869
 20
26105.64327418468
 30
0.0
 11
30055.05844963881
 21
26105.64327418468
 31
0.0
  0
LINE
  5
552EA
102
{ACAD_REACTORS
330
55318
102
}
330
52C18
100
AcDbEntity
  8
CUTOUT
100
AcDbLine
 10
30448.97088848503
 20
25693.64327418468
 30
0.0
 11
30828.97088848505
 21
25693.64327418468
 31
0.0
  0
LINE
  5
552EB
102
{ACAD_REACTORS
330
55318
102
}
330
52C18
100
AcDbEntity
  8
CUTOUT
100
AcDbLine
 10
30448.97088848501
 20
26105.64327418468
 30
0.0
 11
30828.97088848505
 21
26105.6432741847
 31
0.0
  0
ARC
  5
552EC
330
52C18
100
AcDbEntity
  8
CUTOUT
100
AcDbCircle
 10
30448.97088848501
 20
26089.64327418469
 30
0.0
 40
16.0
100
AcDbArc
 50
90.0
 51
180.0
  0
LINE
  5
552ED
102
{ACAD_REACTORS
330
5530B
102
}
330
52C18
100
AcDbEntity
  8
CUTOUT
100
AcDbLine
 10
29675.0584496387
 20
25665.64327418469
 30
0.0
 11
30055.05844963872
 21
25665.64327418468
 31
0.0
  0
MTEXT
  5
552EE
102
{ACAD_XDICTIONARY
360
55362
102
}
330
52C18
100
AcDbEntity
  8
CUTOUT
100
AcDbMText
 10
29582.10058574266
 20
26164.31089486634
 30
0.0
 40
40.0
 41
559.4757407245924
 46
0.0
 71
     1
 72
     5
  1
\pi107.74;INSET CUT OUT
 73
     1
 44
1.0
  0
LINE
  5
552EF
330
52C18
100
AcDbEntity
  8
CUTOUT
100
AcDbLine
 10
29795.91437302069
 20
26041.70337106639
 30
0.0
 11
29750.04559081678
 21
26041.70337106639
 31
0.0
  0
ARC
  5
552F0
330
52C18
100
AcDbEntity
  8
CUTOUT
100
AcDbCircle
 10
29750.04559081678
 20
26038.70337106639
 30
0.0
 40
3.0
100
AcDbArc
 50
90.0
 51
177.999999999996
  0
HATCH
  5
552F1
330
52C18
100
AcDbEntity
  8
CUTOUT
100
AcDbHatch
 10
0.0
 20
0.0
 30
0.0
210
0.0
220
0.0
230
1.0
  2
AR-CONC
 70
     0
 71
     0
 91
        1
 92
        7
 72
     0
 73
     1
 93
        7
 10
30033.83112287153
 20
26029.86445335611
 10
29782.46640478324
 20
26029.86445335611
 10
29774.39042990473
 20
26029.86445335611
 10
29774.39042990473
 20
26008.01484571359
 10
29802.46977797283
 20
26008.01484571359
 10
29802.46977797277
 20
25977.86809231629
 10
30033.83112287153
 20
25977.86809231629
 97
        0
 75
     0
 76
     1
 52
90.0
 41
0.1
 77
     0
 78
    13
 53
140.0
 43
-43024.76660107362
 44
24882.31287245286
 45
1.593908553890309
 46
18.2184668996004
 79
     2
 49
1.905
 49
-20.955
 53
85.00000000000001
 43
-43024.76660107362
 44
24882.31287245286
 45
-19.105664288218
 46
-3.524282597566697
 79
     2
 49
1.524
 49
-16.764
 53
190.451
 43
-43024.63377607362
 44
24883.83107245286
 45
-17.51166878202919
 46
14.69425016659593
 79
     2
 49
1.619
 49
-17.809
 53
136.1842
 43
-43029.84660107364
 44
24882.31287245286
 45
4.204232793272717
 46
27.107904089213
 79
     2
 49
2.857499999999992
 49
-31.43249999999994
 53
186.6356
 43
-43029.49625107362
 44
24884.57186245286
 45
-24.74255558900492
 46
23.74042344662372
 79
     2
 49
2.4285
 49
-26.7135
 53
81.18400000000004
 43
-43029.84660107364
 44
24882.31287245286
 45
-24.74251178605977
 46
23.74046058139339
 79
     2
 49
2.286
 49
-25.146
 53
110.9999999999999
 43
-43028.57660107362
 44
24884.85287245286
 45
10.22655185167625
 46
15.16148798353833
 79
     2
 49
1.905
 49
-20.955
 53
56.00000000000004
 43
-43028.57660107362
 44
24884.85287245286
 45
-18.41879661223192
 46
6.180202834764708
 79
     2
 49
1.524
 49
-16.764
 53
161.4514
 43
-43027.72439107364
 44
24886.11632245286
 45
-8.192285771605742
 46
21.34164907701245
 79
     2
 49
1.618999999999995
 49
-17.80899999999992
 53
127.5
 43
-43024.76660107362
 44
24882.31287245286
 45
-8.455503887315311
 46
0.3088603250591822
 79
     6
 49
0.0
 49
-16.5608
 49
0.0
 49
-17.018
 49
0.0
 49
-16.8275
 53
97.49999999999992
 43
-43024.76660107362
 44
24882.31287245286
 45
-10.01805748181195
 46
6.681966251030575
 79
     6
 49
0.0
 49
-9.702799999999999
 49
0.0
 49
-16.1798
 49
0.0
 49
-6.4135
 53
57.5
 43
-43024.76660107362
 44
24876.64867245286
 45
0.5728743992673467
 46
13.55905951668714
 79
     6
 49
0.0
 49
-6.349999999999985
 49
0.0
 49
-19.81199999999994
 49
0.0
 49
-26.28899999999994
 53
47.5
 43
-43024.76660107362
 44
24874.10867245286
 45
-2.5426491033333
 46
14.8129181386018
 79
     6
 49
0.0
 49
-8.255
 49
0.0
 49
-13.1572
 49
0.0
 49
-18.669
 47
0.3122644202141311
 98
        1
 10
29829.5514965045
 20
26013.1043846934
1001
ACAD
1010
0.0
1020
0.0
1030
0.0
  0
LINE
  5
552F2
330
52C18
100
AcDbEntity
  8
CUTOUT
100
AcDbLine
 10
29847.4018406681
 20
26029.86445335611
 30
0.0
 11
29760.43478160199
 21
26029.86445335611
 31
0.0
  0
ARC
  5
552F3
330
52C18
100
AcDbEntity
  8
CUTOUT
100
AcDbCircle
 10
29760.43478160199
 20
26026.86445335611
 30
0.0
 40
3.0
100
AcDbArc
 50
90.0
 51
177.999999999996
  0
LINE
  5
552F4
330
52C18
100
AcDbEntity
  8
CUTOUT
100
AcDbLine
 10
29747.04741833573
 20
26038.8080695565
 30
0.0
 11
29739.04571321885
 21
25809.6692151359
 31
0.0
  0
LINE
  5
552F5
330
52C18
100
AcDbEntity
  8
CUTOUT
100
AcDbLine
 10
29757.43660912094
 20
26026.96915184621
 30
0.0
 11
29749.65260192646
 21
25804.06435026977
 31
0.0
  0
LINE
  5
552F6
330
52C18
100
AcDbEntity
  8
CUTOUT
100
AcDbLine
 10
29782.46640478324
 20
26029.86445335611
 30
0.0
 11
30033.83112287153
 21
26029.86445335611
 31
0.0
  0
LINE
  5
552F7
330
52C18
100
AcDbEntity
  8
CUTOUT
100
AcDbLine
 10
30033.83112287153
 20
26029.86445335611
 30
0.0
 11
30033.83112287153
 21
25977.86809231629
 31
0.0
  0
LINE
  5
552F8
330
52C18
100
AcDbEntity
  8
CUTOUT
100
AcDbLine
 10
29802.46977797283
 20
26008.01484571359
 30
0.0
 11
29802.46977797277
 21
25977.86809231629
 31
0.0
  0
LINE
  5
552F9
330
52C18
100
AcDbEntity
  8
CUTOUT
100
AcDbLine
 10
29756.62108217702
 20
26003.61551572142
 30
0.0
 11
29770.00004136206
 21
26003.14831217167
 31
0.0
  0
LINE
  5
552FA
330
52C18
100
AcDbEntity
  8
CUTOUT
100
AcDbLine
 10
29770.00004136206
 20
26003.14831217167
 30
0.0
 11
29796.22311369881
 21
25979.13103491578
 31
0.0
  0
LINE
  5
552FB
330
52C18
100
AcDbEntity
  8
CUTOUT
100
AcDbLine
 10
29796.22311369881
 20
25979.13103491578
 30
0.0
 11
29791.35641907131
 21
25839.76713491189
 31
0.0
  0
LINE
  5
552FC
330
52C18
100
AcDbEntity
  8
CUTOUT
100
AcDbLine
 10
29754.39997034865
 20
25940.01119483484
 30
0.0
 11
29762.67043922328
 21
25939.72238369769
 31
0.0
  0
LINE
  5
552FD
330
52C18
100
AcDbEntity
  8
CUTOUT
100
AcDbLine
 10
29762.67043922328
 20
25939.72238369769
 30
0.0
 11
29759.2191151821
 21
25840.88939429309
 31
0.0
  0
LINE
  5
552FE
330
52C18
100
AcDbEntity
  8
CUTOUT
100
AcDbLine
 10
29759.2191151821
 20
25840.88939429309
 30
0.0
 11
29791.35641907131
 21
25839.76713491189
 31
0.0
  0
LINE
  5
552FF
330
52C18
100
AcDbEntity
  8
CUTOUT
100
AcDbLine
 10
29802.46977797283
 20
26008.01484571359
 30
0.0
 11
29774.39042990473
 21
26008.01484571359
 31
0.0
  0
LINE
  5
55300
330
52C18
100
AcDbEntity
  8
CUTOUT
100
AcDbLine
 10
29774.39042990473
 20
26008.01484571359
 30
0.0
 11
29774.39042990473
 21
26029.86445335611
 31
0.0
  0
LINE
  5
55301
330
52C18
100
AcDbEntity
  8
CUTOUT
100
AcDbLine
 10
29802.46977797283
 20
25977.86809231629
 30
0.0
 11
30033.83112287159
 21
25977.86809231629
 31
0.0
  0
CIRCLE
  5
55302
330
52C18
100
AcDbEntity
  8
CUTOUT
  6
ACAD_ISO02W100
100
AcDbCircle
 10
29786.64891434681
 20
26007.73996063039
 30
0.0
 40
63.83570044388761
  0
MTEXT
  5
55303
330
52C18
100
AcDbEntity
  8
sink_specs
100
AcDbMText
 10
29837.49297606146
 20
25944.37357720825
 30
0.0
 40
15.0
 41
166.7242912100046
 46
145.0102818696341
 71
     1
 72
     5
  1
TO INSET FIT; YOU MAY NEED TO CREATE A NOTCH IN THE UNDERSIDE OF THE WORKTOP TO ALLOW CLEARANCE FOR THE OVERFLOW BODY
  7
ACISOTS
 73
     1
 44
1.0
  0
LINE
  5
55304
330
52C18
100
AcDbEntity
  8
CUTOUT
100
AcDbLine
 10
29795.91437302069
 20
26029.86445335611
 30
0.0
 11
29795.91437302069
 21
26041.70337106639
 31
0.0
  0
SPLINE
  5
55305
330
52C18
100
AcDbEntity
  8
CUTOUT
100
AcDbSpline
210
0.0
220
0.0
230
1.0
 70
     8
 71
     3
 72
    10
 73
     6
 74
     4
 42
0.0000000001
 43
0.0000000001
 44
0.0000000001
 40
0.0
 40
0.0
 40
0.0
 40
0.0
 40
10.23812699803227
 40
23.41939586236545
 40
46.40703870097612
 40
46.40703870097612
 40
46.40703870097612
 40
46.40703870097612
 10
29724.45481483119
 20
25807.65555964603
 30
0.0
 10
29727.47808068646
 20
25810.23888010244
 30
0.0
 10
29734.3937069407
 20
25816.14814499235
 30
0.0
 10
29746.69102097008
 20
25799.34475822208
 30
0.0
 10
29759.09656374967
 20
25805.95452849796
 30
0.0
 10
29766.98107487288
 20
25810.15545772677
 30
0.0
 11
29724.45481483119
 21
25807.65555964603
 31
0.0
 11
29733.38896735
 21
25812.65557596585
 31
0.0
 11
29744.46714437769
 21
25805.51275841135
 31
0.0
 11
29766.98107487288
 21
25810.15545772677
 31
0.0
  0
DIMENSION
  5
55306
102
{ACAD_XDICTIONARY
360
55307
102
}
102
{ACAD_REACTORS
330
55308
102
}
330
52C18
100
AcDbEntity
  8
DIMS SPECS
100
AcDbDimension
  2
*D23
 10
30085.05844963872
 20
25618.6762742945
 30
0.0
 11
29865.0584496387
 21
25618.6762742945
 31
0.0
 70
   160
 71
     5
 42
440.0000000000217
 73
     0
 74
     0
 75
     0
  3
abode-iso$0
100
AcDbAlignedDimension
 13
29645.0584496387
 23
25695.64327418468
 33
0.0
 14
30085.05844963872
 24
25700.64327418469
 34
0.0
100
AcDbRotatedDimension
1001
ACAD_DSTYLE_DIMINSPECT
1070
   396
1000
100%
1070
   395
1000

1070
   394
1070
    33
1070
   393
1070
     0
1001
ACAD
1000
DSTYLE
1002
{
1070
   340
1005
53181
1070
   371
1070
    -1
1070
   372
1070
    -1
1002
}
  0
DIMENSION
  5
55309
102
{ACAD_XDICTIONARY
360
5530A
102
}
102
{ACAD_REACTORS
330
5530B
102
}
330
52C18
100
AcDbEntity
  8
DIMS SPECS
100
AcDbDimension
  2
*D24
 10
30130.10223890413
 20
25665.64327418468
 30
0.0
 11
30130.10223890412
 21
25885.64327418468
 31
0.0
 70
   160
 71
     5
 42
440.0
 73
     0
 74
     0
 75
     0
  3
abode-iso$0
100
AcDbAlignedDimension
 13
30050.05844963872
 23
26105.64327418468
 33
0.0
 14
30055.05844963872
 24
25665.64327418468
 34
0.0
 50
90.0
100
AcDbRotatedDimension
1001
ACAD_DSTYLE_DIMINSPECT
1070
   396
1000
100%
1070
   395
1000

1070
   394
1070
    33
1070
   393
1070
     0
1001
ACAD
1000
DSTYLE
1002
{
1070
   340
1005
53181
1070
   371
1070
    -1
1070
   372
1070
    -1
1002
}
  0
LINE
  5
5530C
102
{ACAD_REACTORS
330
55315
102
}
330
52C18
100
AcDbEntity
  8
CUTOUT
100
AcDbLine
 10
30432.97088848503
 20
25709.64327418468
 30
0.0
 11
30432.97088848501
 21
26089.64327418469
 31
0.0
  0
ARC
  5
5530D
330
52C18
100
AcDbEntity
  8
CUTOUT
100
AcDbCircle
 10
30448.97088848503
 20
25709.64327418468
 30
0.0
 40
16.0
100
AcDbArc
 50
180.0
 51
270.0
  0
LINE
  5
5530E
102
{ACAD_REACTORS
330
55315
102
}
330
52C18
100
AcDbEntity
  8
CUTOUT
100
AcDbLine
 10
30844.97088848505
 20
25709.64327418468
 30
0.0
 11
30844.97088848505
 21
26089.64327418469
 31
0.0
  0
ARC
  5
5530F
330
52C18
100
AcDbEntity
  8
CUTOUT
100
AcDbCircle
 10
30828.97088848505
 20
25709.64327418468
 30
0.0
 40
16.0
100
AcDbArc
 50
270.0
 51
0.0
  0
ARC
  5
55310
330
52C18
100
AcDbEntity
  8
CUTOUT
100
AcDbCircle
 10
30828.97088848505
 20
26089.64327418469
 30
0.0
 40
16.0
100
AcDbArc
 50
0.0
 51
90.0
  0
MTEXT
  5
55311
330
52C18
100
AcDbEntity
  8
sink_specs
100
AcDbMText
 10
30514.05764635358
 20
26038.16744415921
 30
0.0
 40
8.0
 41
257.8883999281679
 46
293.428518032586
 71
     1
 72
     5
  3
{\LImportant, to the fabricator / installer:\P}The cut out size indicated is flush with the bowl edge with a minimum radius where appropriate.\PYou should confirm with your client if the worksurface cutout is to be cut flush, inside or outside this s
  3
uggested perimeter size. \PIf you create the cutout smaller or larger than the indicated size then some accessories may not fit correctly.\PAll details are provided in good faith and within the tolerances of the manufacturing process.\PWe recommend t
  3
hat a test cutout is made in scrap timber and checked against the actual sink supplied before committing to cutting the worksurface.\PAbode can not accept liability for problems or costs incurred by failure to follow this advise.\PAW1030 v1 (c) abode
  1
 2018
  7
ACISOTS
 73
     1
 44
1.0
  0
MTEXT
  5
55312
102
{ACAD_XDICTIONARY
360
55364
102
}
330
52C18
100
AcDbEntity
  8
CUTOUT
100
AcDbMText
 10
30375.87768720552
 20
26164.31089486634
 30
0.0
 40
40.0
 41
559.4757407245924
 46
0.0
 71
     1
 72
     5
  1
\pi15.738;UNDERMOUNT CUT OUT
 73
     1
 44
1.0
  0
DIMENSION
  5
55313
102
{ACAD_XDICTIONARY
360
55314
102
}
102
{ACAD_REACTORS
330
55315
102
}
330
52C18
100
AcDbEntity
  8
DIMS SPECS
100
AcDbDimension
  2
*D25
 10
30844.97088848505
 20
25622.51289795785
 30
0.0
 11
30638.97088848504
 21
25638.72669809381
 31
0.0
 70
    32
 71
     5
 42
412.0000000000218
 73
     0
 74
     0
 75
     0
  3
abode-iso$0
100
AcDbAlignedDimension
 13
30432.97088848503
 23
25709.64327418468
 33
0.0
 14
30844.97088848505
 24
25709.64327418468
 34
0.0
100
AcDbRotatedDimension
1001
ACAD_DSTYLE_DIMINSPECT
1070
   396
1000
100%
1070
   395
1000

1070
   394
1070
    33
1070
   393
1070
     0
1001
ACAD
1000
DSTYLE
1002
{
1070
   340
1005
53181
1070
   371
1070
    -1
1070
   372
1070
    -1
1002
}
  0
DIMENSION
  5
55316
102
{ACAD_XDICTIONARY
360
55317
102
}
102
{ACAD_REACTORS
330
55318
102
}
330
52C18
100
AcDbEntity
  8
DIMS SPECS
100
AcDbDimension
  2
*D26
 10
30906.35255245028
 20
26105.6432741847
 30
0.0
 11
30906.35255245028
 21
25899.64327418469
 31
0.0
 70
    32
 71
     5
 42
412.0000000000109
 73
     0
 74
     0
 75
     0
  3
abode-iso$0
100
AcDbAlignedDimension
 13
30828.97088848505
 23
25693.64327418468
 33
0.0
 14
30828.97088848505
 24
26105.6432741847
 34
0.0
 50
90.0
100
AcDbRotatedDimension
1001
ACAD_DSTYLE_DIMINSPECT
1070
   396
1000
100%
1070
   395
1000

1070
   394
1070
    33
1070
   393
1070
     0
1001
ACAD
1000
DSTYLE
1002
{
1070
   340
1005
53181
1070
   371
1070
    -1
1070
   372
1070
    -1
1002
}
  0
DIMENSION
  5
55319
330
52C18
100
AcDbEntity
  8
DIMS SPECS
100
AcDbDimension
  2
*D21
 10
30055.05844963876
 20
25695.64327418468
 30
0.0
 11
30150.74673339273
 21
25615.8187716476
 31
0.0
 70
   164
 71
     5
 42
29.99999999998909
 73
     0
 74
     0
 75
     0
  3
abode-iso$4
100
AcDbRadialDimension
 15
30075.05093229258
 25
25673.27587296468
 35
0.0
 40
0.0
1001
ACAD_DSTYLE_DIMINSPECT
1070
   396
1000
100%
1070
   395
1000

1070
   394
1070
    33
1070
   393
1070
     0
1001
ACAD_DSTYLE_DIMRADIAL_EXTENSION
1070
   387
1070
     1
1070
   388
1040
4.712388980384687
1070
   390
1040
6.283185307179355
1001
ACAD
1000
DSTYLE
1002
{
1070
   340
1005
53181
1070
   371
1070
    -1
1070
   372
1070
    -1
1002
}
  0
DIMENSION
  5
5531A
330
52C18
100
AcDbEntity
  8
DIMS SPECS
100
AcDbDimension
  2
*D22
 10
30828.97088848504
 20
25709.64327418468
 30
0.0
 11
30911.13041843985
 21
25649.10034857906
 31
0.0
 70
   164
 71
     5
 42
15.99999999999636
 73
     0
 74
     0
 75
     0
  3
abode-iso$4
100
AcDbRadialDimension
 15
30840.05558190816
 25
25698.10509531123
 35
0.0
 40
0.0
1001
ACAD_DSTYLE_DIMINSPECT
1070
   396
1000
100%
1070
   395
1000

1070
   394
1070
    33
1070
   393
1070
     0
1001
ACAD_DSTYLE_DIMRADIAL_EXTENSION
1070
   387
1070
     1
1070
   388
1040
4.712388980384691
1070
   390
1040
0.0
1001
ACAD
1000
DSTYLE
1002
{
1070
   340
1005
53181
1070
   371
1070
    -1
1070
   372
1070
    -1
1002
}
  0
ENDSEC
  0
SECTION
  2
OBJECTS
  0
DICTIONARY
  5
52BB0
330
0
100
AcDbDictionary
281
     1
  3
ACAD_COLOR
350
52C0E
  3
ACAD_GROUP
350
52BB1
  3
ACAD_LAYOUT
350
52C0D
  3
ACAD_MATERIAL
350
52BB4
  3
ACAD_MLEADERSTYLE
350
52C11
  3
ACAD_MLINESTYLE
350
52C0A
  3
ACAD_PLOTSETTINGS
350
52C0C
  3
ACAD_PLOTSTYLENAME
350
52BB2
  3
ACAD_SCALELIST
350
52BDE
  3
ACAD_TABLESTYLE
350
52C0F
  3
ACAD_VISUALSTYLE
350
52BCD
  3
ACDB_RECOMPOSE_DATA
350
52DBE
  3
AcDbVariableDictionary
350
52DB0
  3
AcmDictionary
350
5310E
  3
AMG
350
530B8
  3
AMGSNAPSETTINGS
350
53296
  0
DICTIONARY
  5
52CA6
330
52BA6
100
AcDbDictionary
280
     1
281
     1
  3
ACAD_LAYERSTATES
360
52CA7
  0
DICTIONARY
  5
52DA2
330
52C00
100
AcDbDictionary
280
     1
281
     1
  3
ADSK_XREC_LAYER_RECONCILED
360
52DA3
  0
DICTIONARY
  5
52DA4
330
52C1E
100
AcDbDictionary
280
     1
281
     1
  3
ADSK_XREC_LAYER_RECONCILED
360
52DA5
  0
DICTIONARY
  5
52DA8
330
52C21
100
AcDbDictionary
280
     1
281
     1
  3
ADSK_XREC_LAYER_RECONCILED
360
52DA9
  0
DICTIONARY
  5
52DAC
330
52C9C
100
AcDbDictionary
280
     1
281
     1
  3
ADSK_XREC_LAYER_RECONCILED
360
52DAD
  0
DICTIONARY
  5
55362
330
552EE
100
AcDbDictionary
280
     1
281
     1
  3
ACAD_MTEXT_2008_RT
360
55363
  0
DICTIONARY
  5
55307
330
55306
100
AcDbDictionary
280
     1
281
     1
  3
ACAD_DIMASSOC
360
55308
  0
DICTIONARY
  5
5530A
330
55309
100
AcDbDictionary
280
     1
281
     1
  3
ACAD_DIMASSOC
360
5530B
  0
DICTIONARY
  5
55364
330
55312
100
AcDbDictionary
280
     1
281
     1
  3
ACAD_MTEXT_2008_RT
360
55365
  0
DICTIONARY
  5
55314
330
55313
100
AcDbDictionary
280
     1
281
     1
  3
ACAD_DIMASSOC
360
55315
  0
DICTIONARY
  5
55317
330
55316
100
AcDbDictionary
280
     1
281
     1
  3
ACAD_DIMASSOC
360
55318
  0
DICTIONARY
  5
52C0E
102
{ACAD_REACTORS
330
52BB0
102
}
330
52BB0
100
AcDbDictionary
281
     1
  0
DICTIONARY
  5
52BB1
102
{ACAD_REACTORS
330
52BB0
102
}
330
52BB0
100
AcDbDictionary
281
     1
  0
DICTIONARY
  5
52C0D
102
{ACAD_REACTORS
330
52BB0
102
}
330
52BB0
100
AcDbDictionary
281
     1
  3
Layout1
350
52C17
  3
Model
350
52C1B
  0
DICTIONARY
  5
52BB4
102
{ACAD_REACTORS
330
52BB0
102
}
330
52BB0
100
AcDbDictionary
281
     1
  3
ByBlock
350
52BBD
  3
ByLayer
350
52BB5
  3
Global
350
52BC5
  0
DICTIONARY
  5
52C11
102
{ACAD_REACTORS
330
52BB0
102
}
330
52BB0
100
AcDbDictionary
281
     1
  3
Standard
350
52C12
  0
DICTIONARY
  5
52C0A
102
{ACAD_REACTORS
330
52BB0
102
}
330
52BB0
100
AcDbDictionary
281
     1
  3
Standard
350
52C0B
  0
DICTIONARY
  5
52C0C
102
{ACAD_REACTORS
330
52BB0
102
}
330
52BB0
100
AcDbDictionary
281
     1
  0
ACDBDICTIONARYWDFLT
  5
52BB2
102
{ACAD_REACTORS
330
52BB0
102
}
330
52BB0
100
AcDbDictionary
281
     1
  3
Normal
350
52BB3
100
AcDbDictionaryWithDefault
340
52BB3
  0
DICTIONARY
  5
52BDE
102
{ACAD_REACTORS
330
52BB0
102
}
330
52BB0
100
AcDbDictionary
281
     1
  3
A0
350
52BDF
  3
A1
350
52BE0
  3
A2
350
52BE1
  3
A3
350
52BE2
  3
A4
350
52BE3
  3
A5
350
52BE4
  3
A6
350
52BE5
  3
A7
350
52BE6
  3
A8
350
52BE7
  3
A9
350
52BE8
  3
B0
350
52BE9
  3
B1
350
52BEA
  3
B2
350
52BEB
  3
B3
350
52BEC
  3
B4
350
52BED
  3
B5
350
52BEE
  3
B6
350
52BEF
  3
B7
350
52BF0
  3
B8
350
52BF1
  3
B9
350
52BF2
  3
C0
350
52BF3
  3
C1
350
52BF4
  3
C2
350
52BF5
  3
C3
350
52BF6
  3
C4
350
52BF7
  3
C5
350
52BF8
  3
C6
350
52BF9
  3
C7
350
52BFA
  3
C8
350
52BFB
  3
C9
350
52BFC
  3
D0
350
52BFD
  3
D1
350
52BFE
  3
D2
350
52BFF
  0
DICTIONARY
  5
52C0F
102
{ACAD_REACTORS
330
52BB0
102
}
330
52BB0
100
AcDbDictionary
281
     1
  3
Standard
350
52C10
  0
DICTIONARY
  5
52BCD
102
{ACAD_REACTORS
330
52BB0
102
}
330
52BB0
100
AcDbDictionary
281
     1
  3
2dWireframe
350
52BD3
  3
3D Hidden
350
52BD5
  3
3dWireframe
350
52BD4
  3
Basic
350
52BD2
  3
Brighten
350
52BD9
  3
ColorChange
350
52BDD
  3
Conceptual
350
52BD6
  3
Dim
350
52BD8
  3
Facepattern
350
52BDC
  3
Flat
350
52BCE
  3
FlatWithEdges
350
52BCF
  3
Gouraud
350
52BD0
  3
GouraudWithEdges
350
52BD1
  3
Linepattern
350
52BDB
  3
Realistic
350
52BD7
  3
Thicken
350
52BDA
  0
XRECORD
  5
52DBE
102
{ACAD_REACTORS
330
52BB0
102
}
330
52BB0
100
AcDbXrecord
280
     1
 90
        1
330
52C10
330
552EE
330
55312
  0
DICTIONARY
  5
52DB0
102
{ACAD_REACTORS
330
52BB0
102
}
330
52BB0
100
AcDbDictionary
281
     1
  3
CANNOSCALE
350
52DB4
  3
CMLEADERSTYLE
350
52DB2
  3
CTABLESTYLE
350
52DB1
  3
LAYEREVAL
350
52DB6
  3
LAYERNOTIFY
350
52DB7
  3
LIGHTINGUNITS
350
52DB5
  3
MSLTSCALE
350
52DB3
  0
DICTIONARY
  5
5310E
102
{ACAD_REACTORS
330
52BB0
102
}
330
52BB0
100
AcDbDictionary
281
     1
  3
AcmStdDictionary
350
53119
  0
DICTIONARY
  5
530B8
102
{ACAD_REACTORS
330
52BB0
102
}
330
52BB0
100
AcDbDictionary
281
     1
  0
DICTIONARY
  5
53296
102
{ACAD_REACTORS
330
52BB0
102
}
330
52BB0
100
AcDbDictionary
281
     1
  0
DICTIONARY
  5
52CA7
102
{ACAD_REACTORS
330
52CA6
102
}
330
52CA6
100
AcDbDictionary
281
     1
  0
XRECORD
  5
52DA3
102
{ACAD_REACTORS
330
52DA2
102
}
330
52DA2
100
AcDbXrecord
280
     1
290
     1
  0
XRECORD
  5
52DA5
102
{ACAD_REACTORS
330
52DA4
102
}
330
52DA4
100
AcDbXrecord
280
     1
290
     1
  0
XRECORD
  5
52DA9
102
{ACAD_REACTORS
330
52DA8
102
}
330
52DA8
100
AcDbXrecord
280
     1
290
     1
  0
XRECORD
  5
52DAD
102
{ACAD_REACTORS
330
52DAC
102
}
330
52DAC
100
AcDbXrecord
280
     1
290
     1
  0
XRECORD
  5
55363
102
{ACAD_REACTORS
330
55362
102
}
330
55362
100
AcDbXrecord
280
     1
 40
19139.0
  1
\pxqc;INSET CUT OUT
  0
DIMASSOC
  5
55308
102
{ACAD_REACTORS
330
55307
102
}
330
55307
100
AcDbDimAssoc
330
55306
 90
        1
 70
     0
 71
     0
  1
AcDbOsnapPointRef
 72
     1
331
552E6
 73
     0
 91
        0
 40
0.0
 10
0.0
 20
0.0
 30
2.000000000000000E+50
 75
     0
  0
DIMASSOC
  5
5530B
102
{ACAD_REACTORS
330
5530A
102
}
330
5530A
100
AcDbDimAssoc
330
55309
 90
        2
 70
     0
 71
     0
  1
AcDbOsnapPointRef
 72
     1
331
552ED
 73
     0
 91
        0
 40
0.0
 10
0.0
 20
0.0
 30
2.000000000000000E+50
 75
     0
  0
XRECORD
  5
55365
102
{ACAD_REACTORS
330
55364
102
}
330
55364
100
AcDbXrecord
280
     1
 40
29091.0
  1
\pxqc;UNDERMOUNT CUT OUT
  0
DIMASSOC
  5
55315
102
{ACAD_REACTORS
330
55314
102
}
330
55314
100
AcDbDimAssoc
330
55313
 90
        3
 70
     0
 71
     0
  1
AcDbOsnapPointRef
 72
    13
331
5530C
 73
     0
 91
        0
 40
0.0
 10
0.0
 20
0.0
 30
2.000000000000000E+50
 75
     0
  1
AcDbOsnapPointRef
 72
    13
331
5530E
 73
     0
 91
        0
 40
0.0
 10
0.0
 20
0.0
 30
2.000000000000000E+50
 75
     0
  0
DIMASSOC
  5
55318
102
{ACAD_REACTORS
330
55317
102
}
330
55317
100
AcDbDimAssoc
330
55316
 90
        3
 70
     0
 71
     0
  1
AcDbOsnapPointRef
 72
     1
331
552EA
 73
     0
 91
        0
 40
0.0
 10
0.0
 20
0.0
 30
2.000000000000000E+50
 75
     0
  1
AcDbOsnapPointRef
 72
     1
331
552EB
 73
     0
 91
        0
 40
0.0
 10
0.0
 20
0.0
 30
2.000000000000000E+50
 75
     0
  0
LAYOUT
  5
52C17
102
{ACAD_REACTORS
330
52C0D
102
}
330
52C0D
100
AcDbPlotSettings
  1

  2
\\ABODESERVER\upstairs
  4

  6

 40
0.0
 41
0.0
 42
0.0
 43
0.0
 44
0.0
 45
0.0
 46
0.0
 47
0.0
 48
0.0
 49
0.0
140
0.0
141
0.0
142
1.0
143
1.0
 70
   688
 72
     0
 73
     0
 74
     5
  7

 75
    16
147
1.0
 76
     0
 77
     2
 78
   300
148
0.0
149
0.0
100
AcDbLayout
  1
Layout1
 70
     1
 71
     1
 10
0.0
 20
0.0
 11
420.0
 21
297.0
 12
0.0
 22
0.0
 32
0.0
 14
1.000000000000000E+20
 24
1.000000000000000E+20
 34
1.000000000000000E+20
 15
-1.000000000000000E+20
 25
-1.000000000000000E+20
 35
-1.000000000000000E+20
146
0.0
 13
0.0
 23
0.0
 33
0.0
 16
1.0
 26
0.0
 36
0.0
 17
0.0
 27
1.0
 37
0.0
 76
     0
330
52C14
  0
LAYOUT
  5
52C1B
102
{ACAD_REACTORS
330
52C0D
102
}
330
52C0D
100
AcDbPlotSettings
  1

  2
\\ABODESERVER\upstairs
  4

  6

 40
0.0
 41
0.0
 42
0.0
 43
0.0
 44
0.0
 45
0.0
 46
0.0
 47
0.0
 48
0.0
 49
0.0
140
0.0
141
0.0
142
1.0
143
1.0
 70
  1712
 72
     0
 73
     0
 74
     0
  7

 75
     0
147
1.0
 76
     0
 77
     2
 78
   300
148
0.0
149
0.0
100
AcDbLayout
  1
Model
 70
     1
 71
     0
 10
0.0
 20
0.0
 11
12.0
 21
9.0
 12
0.0
 22
0.0
 32
0.0
 14
0.0
 24
0.0
 34
0.0
 15
0.0
 25
0.0
 35
0.0
146
0.0
 13
0.0
 23
0.0
 33
0.0
 16
1.0
 26
0.0
 36
0.0
 17
0.0
 27
1.0
 37
0.0
 76
     0
330
52C18
331
52C1C
  0
MATERIAL
  5
52BBD
102
{ACAD_XDICTIONARY
360
52BBE
102
}
102
{ACAD_REACTORS
330
52BB4
102
}
330
52BB4
100
AcDbMaterial
  1
ByBlock
 72
     0
 43
0.0208333333333333
 43
0.0
 43
0.0
 43
0.0
 43
0.0
 43
0.0208333333333333
 43
0.0
 43
0.0
 43
0.0
 43
0.0
 43
1.0
 43
0.0
 43
0.0
 43
0.0
 43
0.0
 43
1.0
 77
     0
 47
0.0208333333333333
 47
0.0
 47
0.0
 47
0.0
 47
0.0
 47
0.0208333333333333
 47
0.0
 47
0.0
 47
0.0
 47
0.0
 47
1.0
 47
0.0
 47
0.0
 47
0.0
 47
0.0
 47
1.0
171
     0
 49
0.0208333333333333
 49
0.0
 49
0.0
 49
0.0
 49
0.0
 49
0.0208333333333333
 49
0.0
 49
0.0
 49
0.0
 49
0.0
 49
1.0
 49
0.0
 49
0.0
 49
0.0
 49
0.0
 49
1.0
175
     0
142
0.0208333333333333
142
0.0
142
0.0
142
0.0
142
0.0
142
0.0208333333333333
142
0.0
142
0.0
142
0.0
142
0.0
142
1.0
142
0.0
142
0.0
142
0.0
142
0.0
142
1.0
179
     0
144
0.0208333333333333
144
0.0
144
0.0
144
0.0
144
0.0
144
0.0208333333333333
144
0.0
144
0.0
144
0.0
144
0.0
144
1.0
144
0.0
144
0.0
144
0.0
144
0.0
144
1.0
147
0.0208333333333333
147
0.0
147
0.0
147
0.0
147
0.0
147
0.0208333333333333
147
0.0
147
0.0
147
0.0
147
0.0
147
1.0
147
0.0
147
0.0
147
0.0
147
0.0
147
1.0
  0
MATERIAL
  5
52BB5
102
{ACAD_XDICTIONARY
360
52BB6
102
}
102
{ACAD_REACTORS
330
52BB4
102
}
330
52BB4
100
AcDbMaterial
  1
ByLayer
 72
     0
 43
0.0208333333333333
 43
0.0
 43
0.0
 43
0.0
 43
0.0
 43
0.0208333333333333
 43
0.0
 43
0.0
 43
0.0
 43
0.0
 43
1.0
 43
0.0
 43
0.0
 43
0.0
 43
0.0
 43
1.0
 77
     0
 47
0.0208333333333333
 47
0.0
 47
0.0
 47
0.0
 47
0.0
 47
0.0208333333333333
 47
0.0
 47
0.0
 47
0.0
 47
0.0
 47
1.0
 47
0.0
 47
0.0
 47
0.0
 47
0.0
 47
1.0
171
     0
 49
0.0208333333333333
 49
0.0
 49
0.0
 49
0.0
 49
0.0
 49
0.0208333333333333
 49
0.0
 49
0.0
 49
0.0
 49
0.0
 49
1.0
 49
0.0
 49
0.0
 49
0.0
 49
0.0
 49
1.0
175
     0
142
0.0208333333333333
142
0.0
142
0.0
142
0.0
142
0.0
142
0.0208333333333333
142
0.0
142
0.0
142
0.0
142
0.0
142
1.0
142
0.0
142
0.0
142
0.0
142
0.0
142
1.0
179
     0
144
0.0208333333333333
144
0.0
144
0.0
144
0.0
144
0.0
144
0.0208333333333333
144
0.0
144
0.0
144
0.0
144
0.0
144
1.0
144
0.0
144
0.0
144
0.0
144
0.0
144
1.0
147
0.0208333333333333
147
0.0
147
0.0
147
0.0
147
0.0
147
0.0208333333333333
147
0.0
147
0.0
147
0.0
147
0.0
147
1.0
147
0.0
147
0.0
147
0.0
147
0.0
147
1.0
  0
MATERIAL
  5
52BC5
102
{ACAD_XDICTIONARY
360
52BC6
102
}
102
{ACAD_REACTORS
330
52BB4
102
}
330
52BB4
100
AcDbMaterial
  1
Global
 72
     0
 43
0.0208333333333333
 43
0.0
 43
0.0
 43
0.0
 43
0.0
 43
0.0208333333333333
 43
0.0
 43
0.0
 43
0.0
 43
0.0
 43
1.0
 43
0.0
 43
0.0
 43
0.0
 43
0.0
 43
1.0
 77
     0
 47
0.0208333333333333
 47
0.0
 47
0.0
 47
0.0
 47
0.0
 47
0.0208333333333333
 47
0.0
 47
0.0
 47
0.0
 47
0.0
 47
1.0
 47
0.0
 47
0.0
 47
0.0
 47
0.0
 47
1.0
171
     0
 49
0.0208333333333333
 49
0.0
 49
0.0
 49
0.0
 49
0.0
 49
0.0208333333333333
 49
0.0
 49
0.0
 49
0.0
 49
0.0
 49
1.0
 49
0.0
 49
0.0
 49
0.0
 49
0.0
 49
1.0
175
     0
142
0.0208333333333333
142
0.0
142
0.0
142
0.0
142
0.0
142
0.0208333333333333
142
0.0
142
0.0
142
0.0
142
0.0
142
1.0
142
0.0
142
0.0
142
0.0
142
0.0
142
1.0
179
     0
144
0.0208333333333333
144
0.0
144
0.0
144
0.0
144
0.0
144
0.0208333333333333
144
0.0
144
0.0
144
0.0
144
0.0
144
1.0
144
0.0
144
0.0
144
0.0
144
0.0
144
1.0
147
0.0208333333333333
147
0.0
147
0.0
147
0.0
147
0.0
147
0.0208333333333333
147
0.0
147
0.0
147
0.0
147
0.0
147
1.0
147
0.0
147
0.0
147
0.0
147
0.0
147
1.0
  0
MLEADERSTYLE
  5
52C12
102
{ACAD_REACTORS
330
52C11
102
}
330
52C11
100
AcDbMLeaderStyle
170
     2
171
     1
172
     0
 90
        2
 40
0.0
 41
0.0
173
     1
 91
-1056964608
340
52C06
 92
       -2
290
     1
 42
0.09
291
     1
 43
0.36
  3
Standard
 44
0.18
300

342
52C01
174
     1
178
     6
175
     1
176
     0
 93
-1056964608
 45
0.18
292
     0
297
     0
 46
0.18
 94
-1056964608
 47
1.0
 49
1.0
140
1.0
293
     1
141
0.0
294
     1
177
     0
142
1.0
295
     0
296
     0
143
0.125
1001
ACAD_MLEADERVER
1070
     2
  0
MLINESTYLE
  5
52C0B
102
{ACAD_REACTORS
330
52C0A
102
}
330
52C0A
100
AcDbMlineStyle
  2
STANDARD
 70
     0
  3

 62
   256
 51
90.0
 52
90.0
 71
     2
 49
0.5
 62
   256
  6
BYLAYER
 49
-0.5
 62
   256
  6
BYLAYER
  0
ACDBPLACEHOLDER
  5
52BB3
102
{ACAD_REACTORS
330
52BB2
102
}
330
52BB2
  0
SCALE
  5
52BDF
102
{ACAD_REACTORS
330
52BDE
102
}
330
52BDE
100
AcDbScale
 70
     0
300
1:1
140
1.0
141
1.0
290
     1
  0
SCALE
  5
52BE0
102
{ACAD_REACTORS
330
52BDE
102
}
330
52BDE
100
AcDbScale
 70
     0
300
1:2
140
1.0
141
2.0
290
     0
  0
SCALE
  5
52BE1
102
{ACAD_REACTORS
330
52BDE
102
}
330
52BDE
100
AcDbScale
 70
     0
300
1:4
140
1.0
141
4.0
290
     0
  0
SCALE
  5
52BE2
102
{ACAD_REACTORS
330
52BDE
102
}
330
52BDE
100
AcDbScale
 70
     0
300
1:5
140
1.0
141
5.0
290
     0
  0
SCALE
  5
52BE3
102
{ACAD_REACTORS
330
52BDE
102
}
330
52BDE
100
AcDbScale
 70
     0
300
1:8
140
1.0
141
8.0
290
     0
  0
SCALE
  5
52BE4
102
{ACAD_REACTORS
330
52BDE
102
}
330
52BDE
100
AcDbScale
 70
     0
300
1:10
140
1.0
141
10.0
290
     0
  0
SCALE
  5
52BE5
102
{ACAD_REACTORS
330
52BDE
102
}
330
52BDE
100
AcDbScale
 70
     0
300
1:16
140
1.0
141
16.0
290
     0
  0
SCALE
  5
52BE6
102
{ACAD_REACTORS
330
52BDE
102
}
330
52BDE
100
AcDbScale
 70
     0
300
1:20
140
1.0
141
20.0
290
     0
  0
SCALE
  5
52BE7
102
{ACAD_REACTORS
330
52BDE
102
}
330
52BDE
100
AcDbScale
 70
     0
300
1:30
140
1.0
141
30.0
290
     0
  0
SCALE
  5
52BE8
102
{ACAD_REACTORS
330
52BDE
102
}
330
52BDE
100
AcDbScale
 70
     0
300
1:40
140
1.0
141
40.0
290
     0
  0
SCALE
  5
52BE9
102
{ACAD_REACTORS
330
52BDE
102
}
330
52BDE
100
AcDbScale
 70
     0
300
1:50
140
1.0
141
50.0
290
     0
  0
SCALE
  5
52BEA
102
{ACAD_REACTORS
330
52BDE
102
}
330
52BDE
100
AcDbScale
 70
     0
300
1:100
140
1.0
141
100.0
290
     0
  0
SCALE
  5
52BEB
102
{ACAD_REACTORS
330
52BDE
102
}
330
52BDE
100
AcDbScale
 70
     0
300
2:1
140
2.0
141
1.0
290
     0
  0
SCALE
  5
52BEC
102
{ACAD_REACTORS
330
52BDE
102
}
330
52BDE
100
AcDbScale
 70
     0
300
4:1
140
4.0
141
1.0
290
     0
  0
SCALE
  5
52BED
102
{ACAD_REACTORS
330
52BDE
102
}
330
52BDE
100
AcDbScale
 70
     0
300
8:1
140
8.0
141
1.0
290
     0
  0
SCALE
  5
52BEE
102
{ACAD_REACTORS
330
52BDE
102
}
330
52BDE
100
AcDbScale
 70
     0
300
10:1
140
10.0
141
1.0
290
     0
  0
SCALE
  5
52BEF
102
{ACAD_REACTORS
330
52BDE
102
}
330
52BDE
100
AcDbScale
 70
     0
300
100:1
140
100.0
141
1.0
290
     0
  0
SCALE
  5
52BF0
102
{ACAD_REACTORS
330
52BDE
102
}
330
52BDE
100
AcDbScale
 70
     0
300
1/128" = 1'-0"
140
0.0078125
141
12.0
290
     0
  0
SCALE
  5
52BF1
102
{ACAD_REACTORS
330
52BDE
102
}
330
52BDE
100
AcDbScale
 70
     0
300
1/64" = 1'-0"
140
0.015625
141
12.0
290
     0
  0
SCALE
  5
52BF2
102
{ACAD_REACTORS
330
52BDE
102
}
330
52BDE
100
AcDbScale
 70
     0
300
1/32" = 1'-0"
140
0.03125
141
12.0
290
     0
  0
SCALE
  5
52BF3
102
{ACAD_REACTORS
330
52BDE
102
}
330
52BDE
100
AcDbScale
 70
     0
300
1/16" = 1'-0"
140
0.0625
141
12.0
290
     0
  0
SCALE
  5
52BF4
102
{ACAD_REACTORS
330
52BDE
102
}
330
52BDE
100
AcDbScale
 70
     0
300
3/32" = 1'-0"
140
0.09375
141
12.0
290
     0
  0
SCALE
  5
52BF5
102
{ACAD_REACTORS
330
52BDE
102
}
330
52BDE
100
AcDbScale
 70
     0
300
1/8" = 1'-0"
140
0.125
141
12.0
290
     0
  0
SCALE
  5
52BF6
102
{ACAD_REACTORS
330
52BDE
102
}
330
52BDE
100
AcDbScale
 70
     0
300
3/16" = 1'-0"
140
0.1875
141
12.0
290
     0
  0
SCALE
  5
52BF7
102
{ACAD_REACTORS
330
52BDE
102
}
330
52BDE
100
AcDbScale
 70
     0
300
1/4" = 1'-0"
140
0.25
141
12.0
290
     0
  0
SCALE
  5
52BF8
102
{ACAD_REACTORS
330
52BDE
102
}
330
52BDE
100
AcDbScale
 70
     0
300
3/8" = 1'-0"
140
0.375
141
12.0
290
     0
  0
SCALE
  5
52BF9
102
{ACAD_REACTORS
330
52BDE
102
}
330
52BDE
100
AcDbScale
 70
     0
300
1/2" = 1'-0"
140
0.5
141
12.0
290
     0
  0
SCALE
  5
52BFA
102
{ACAD_REACTORS
330
52BDE
102
}
330
52BDE
100
AcDbScale
 70
     0
300
3/4" = 1'-0"
140
0.75
141
12.0
290
     0
  0
SCALE
  5
52BFB
102
{ACAD_REACTORS
330
52BDE
102
}
330
52BDE
100
AcDbScale
 70
     0
300
1" = 1'-0"
140
1.0
141
12.0
290
     0
  0
SCALE
  5
52BFC
102
{ACAD_REACTORS
330
52BDE
102
}
330
52BDE
100
AcDbScale
 70
     0
300
1-1/2" = 1'-0"
140
1.5
141
12.0
290
     0
  0
SCALE
  5
52BFD
102
{ACAD_REACTORS
330
52BDE
102
}
330
52BDE
100
AcDbScale
 70
     0
300
3" = 1'-0"
140
3.0
141
12.0
290
     0
  0
SCALE
  5
52BFE
102
{ACAD_REACTORS
330
52BDE
102
}
330
52BDE
100
AcDbScale
 70
     0
300
6" = 1'-0"
140
6.0
141
12.0
290
     0
  0
SCALE
  5
52BFF
102
{ACAD_REACTORS
330
52BDE
102
}
330
52BDE
100
AcDbScale
 70
     0
300
1'-0" = 1'-0"
140
12.0
141
12.0
290
     0
  0
TABLESTYLE
  5
52C10
102
{ACAD_XDICTIONARY
360
52DB8
102
}
102
{ACAD_REACTORS
330
52C0F
102
}
330
52C0F
100
AcDbTableStyle
  3
Standard
 70
     0
 71
     0
 40
0.06
 41
0.06
280
     0
281
     0
  7
STANDARD
140
0.18
170
     2
 62
     0
 63
     7
283
     0
 90
      512
 91
        0
  1

274
    -2
284
     1
 64
     0
275
    -2
285
     1
 65
     0
276
    -2
286
     1
 66
     0
277
    -2
287
     1
 67
     0
278
    -2
288
     1
 68
     0
279
    -2
289
     1
 69
     0
  7
STANDARD
140
0.25
170
     5
 62
     0
 63
     7
283
     0
 90
      512
 91
        0
  1

274
    -2
284
     1
 64
     0
275
    -2
285
     1
 65
     0
276
    -2
286
     1
 66
     0
277
    -2
287
     1
 67
     0
278
    -2
288
     1
 68
     0
279
    -2
289
     1
 69
     0
  7
STANDARD
140
0.18
170
     5
 62
     0
 63
     7
283
     0
 90
      512
 91
        0
  1

274
    -2
284
     1
 64
     0
275
    -2
285
     1
 65
     0
276
    -2
286
     1
 66
     0
277
    -2
287
     1
 67
     0
278
    -2
288
     1
 68
     0
279
    -2
289
     1
 69
     0
  0
VISUALSTYLE
  5
52BD3
102
{ACAD_REACTORS
330
52BCD
102
}
330
52BCD
100
AcDbVisualStyle
  2
2dWireframe
 70
     4
 71
     0
 72
     2
 73
     0
 90
        0
 40
-0.6
 41
-30.0
 62
     5
 63
     7
421
 16777215
 74
     1
 91
        4
 64
     7
 65
   257
 75
     1
175
     1
 42
1.0
 92
        0
 66
   257
 43
1.0
 76
     1
 77
     6
 78
     2
 67
     7
 79
     5
170
     0
171
     0
290
     0
174
     0
 93
        1
 44
0.0
173
     0
291
     0
 45
0.0
  0
VISUALSTYLE
  5
52BD5
102
{ACAD_REACTORS
330
52BCD
102
}
330
52BCD
100
AcDbVisualStyle
  2
3D Hidden
 70
     6
 71
     1
 72
     2
 73
     2
 90
        0
 40
-0.6
 41
-30.0
 62
     5
 63
     7
421
 16777215
 74
     2
 91
        2
 64
     7
 65
   257
 75
     2
175
     1
 42
40.0
 92
        0
 66
   257
 43
1.0
 76
     1
 77
     6
 78
     2
 67
     7
 79
     3
170
     0
171
     0
290
     0
174
     0
 93
        1
 44
0.0
173
     0
291
     0
 45
0.0
  0
VISUALSTYLE
  5
52BD4
102
{ACAD_REACTORS
330
52BCD
102
}
330
52BCD
100
AcDbVisualStyle
  2
3dWireframe
 70
     5
 71
     0
 72
     2
 73
     0
 90
        0
 40
-0.6
 41
-30.0
 62
     5
 63
     7
421
 16777215
 74
     1
 91
        4
 64
     7
 65
   257
 75
     1
175
     1
 42
1.0
 92
        0
 66
   257
 43
1.0
 76
     1
 77
     6
 78
     2
 67
     7
 79
     5
170
     0
171
     0
290
     0
174
     0
 93
        1
 44
0.0
173
     0
291
     0
 45
0.0
  0
VISUALSTYLE
  5
52BD2
102
{ACAD_REACTORS
330
52BCD
102
}
330
52BCD
100
AcDbVisualStyle
  2
Basic
 70
     7
 71
     1
 72
     0
 73
     1
 90
        0
 40
-0.6
 41
-30.0
 62
     5
 63
     7
421
 16777215
 74
     0
 91
        4
 64
     7
 65
   257
 75
     1
175
     1
 42
1.0
 92
        8
 66
     7
 43
1.0
 76
     1
 77
     6
 78
     2
 67
     7
 79
     5
170
     0
171
     0
290
     0
174
     0
 93
        1
 44
0.0
173
     0
291
     1
 45
0.0
  0
VISUALSTYLE
  5
52BD9
102
{ACAD_REACTORS
330
52BCD
102
}
330
52BCD
100
AcDbVisualStyle
  2
Brighten
 70
    12
 71
     2
 72
     2
 73
     0
 90
        0
 40
-0.6
 41
-30.0
 62
     5
 63
     7
421
 16777215
 74
     1
 91
        4
 64
     7
 65
   257
 75
     1
175
     1
 42
1.0
 92
        8
 66
     7
 43
1.0
 76
     1
 77
     6
 78
     2
 67
     7
 79
     5
170
     0
171
     0
290
     0
174
     0
 93
        1
 44
50.0
173
     0
291
     1
 45
0.0
  0
VISUALSTYLE
  5
52BDD
102
{ACAD_REACTORS
330
52BCD
102
}
330
52BCD
100
AcDbVisualStyle
  2
ColorChange
 70
    16
 71
     2
 72
     2
 73
     3
 90
        0
 40
-0.6
 41
-30.0
 62
     5
 63
     8
421
  8421504
 74
     1
 91
        4
 64
     7
 65
   257
 75
     1
175
     1
 42
1.0
 92
        8
 66
     8
424
  8421504
 43
1.0
 76
     1
 77
     6
 78
     2
 67
     7
 79
     5
170
     0
171
     0
290
     0
174
     0
 93
        1
 44
0.0
173
     0
291
     1
 45
0.0
  0
VISUALSTYLE
  5
52BD6
102
{ACAD_REACTORS
330
52BCD
102
}
330
52BCD
100
AcDbVisualStyle
  2
Conceptual
 70
     9
 71
     3
 72
     2
 73
     0
 90
        0
 40
-0.6
 41
-30.0
 62
     5
 63
     7
421
 16777215
 74
     2
 91
        2
 64
     7
 65
   257
 75
     1
175
     1
 42
40.0
 92
        8
 66
     7
 43
1.0
 76
     1
 77
     6
 78
     2
 67
     7
 79
     3
170
     0
171
     0
290
     0
174
     0
 93
        1
 44
0.0
173
     0
291
     0
 45
0.0
  0
VISUALSTYLE
  5
52BD8
102
{ACAD_REACTORS
330
52BCD
102
}
330
52BCD
100
AcDbVisualStyle
  2
Dim
 70
    11
 71
     2
 72
     2
 73
     0
 90
        0
 40
-0.6
 41
-30.0
 62
     5
 63
     7
421
 16777215
 74
     1
 91
        4
 64
     7
 65
   257
 75
     1
175
     1
 42
1.0
 92
        8
 66
     7
 43
1.0
 76
     1
 77
     6
 78
     2
 67
     7
 79
     5
170
     0
171
     0
290
     0
174
     0
 93
        1
 44
-50.0
173
     0
291
     1
 45
0.0
  0
VISUALSTYLE
  5
52BDC
102
{ACAD_REACTORS
330
52BCD
102
}
330
52BCD
100
AcDbVisualStyle
  2
Facepattern
 70
    15
 71
     2
 72
     2
 73
     0
 90
        0
 40
-0.6
 41
-30.0
 62
     5
 63
     7
421
 16777215
 74
     1
 91
        4
 64
     7
 65
   257
 75
     1
175
     1
 42
1.0
 92
        8
 66
     7
 43
1.0
 76
     1
 77
     6
 78
     2
 67
     7
 79
     5
170
     0
171
     0
290
     0
174
     0
 93
        1
 44
0.0
173
     0
291
     1
 45
0.0
  0
VISUALSTYLE
  5
52BCE
102
{ACAD_REACTORS
330
52BCD
102
}
330
52BCD
100
AcDbVisualStyle
  2
Flat
 70
     0
 71
     2
 72
     1
 73
     1
 90
        2
 40
-0.6
 41
30.0
 62
     5
 63
     7
421
 16777215
 74
     0
 91
        4
 64
     7
 65
   257
 75
     1
175
     1
 42
1.0
 92
        8
 66
     7
 43
1.0
 76
     1
 77
     6
 78
     2
 67
     7
 79
     5
170
     0
171
     0
290
     0
174
     0
 93
       13
 44
0.0
173
     0
291
     1
 45
0.0
  0
VISUALSTYLE
  5
52BCF
102
{ACAD_REACTORS
330
52BCD
102
}
330
52BCD
100
AcDbVisualStyle
  2
FlatWithEdges
 70
     1
 71
     2
 72
     1
 73
     1
 90
        2
 40
-0.6
 41
30.0
 62
     5
 63
     7
421
 16777215
 74
     1
 91
        4
 64
     7
 65
   257
 75
     1
175
     1
 42
1.0
 92
        0
 66
   257
 43
1.0
 76
     1
 77
     6
 78
     2
 67
     7
 79
     5
170
     0
171
     0
290
     0
174
     0
 93
       13
 44
0.0
173
     0
291
     1
 45
0.0
  0
VISUALSTYLE
  5
52BD0
102
{ACAD_REACTORS
330
52BCD
102
}
330
52BCD
100
AcDbVisualStyle
  2
Gouraud
 70
     2
 71
     2
 72
     2
 73
     1
 90
        2
 40
-0.6
 41
30.0
 62
     5
 63
     7
421
 16777215
 74
     0
 91
        4
 64
     7
 65
   257
 75
     1
175
     1
 42
1.0
 92
        0
 66
     7
 43
1.0
 76
     1
 77
     6
 78
     2
 67
     7
 79
     5
170
     0
171
     0
290
     0
174
     0
 93
       13
 44
0.0
173
     0
291
     1
 45
0.0
  0
VISUALSTYLE
  5
52BD1
102
{ACAD_REACTORS
330
52BCD
102
}
330
52BCD
100
AcDbVisualStyle
  2
GouraudWithEdges
 70
     3
 71
     2
 72
     2
 73
     1
 90
        2
 40
-0.6
 41
30.0
 62
     5
 63
     7
421
 16777215
 74
     1
 91
        4
 64
     7
 65
   257
 75
     1
175
     1
 42
1.0
 92
        0
 66
   257
 43
1.0
 76
     1
 77
     6
 78
     2
 67
     7
 79
     5
170
     0
171
     0
290
     0
174
     0
 93
       13
 44
0.0
173
     0
291
     1
 45
0.0
  0
VISUALSTYLE
  5
52BDB
102
{ACAD_REACTORS
330
52BCD
102
}
330
52BCD
100
AcDbVisualStyle
  2
Linepattern
 70
    14
 71
     2
 72
     2
 73
     0
 90
        0
 40
-0.6
 41
-30.0
 62
     5
 63
     7
421
 16777215
 74
     1
 91
        4
 64
     7
 65
   257
 75
     7
175
     7
 42
1.0
 92
        8
 66
     7
 43
1.0
 76
     1
 77
     6
 78
     2
 67
     7
 79
     5
170
     0
171
     0
290
     0
174
     0
 93
        1
 44
0.0
173
     0
291
     1
 45
0.0
  0
VISUALSTYLE
  5
52BD7
102
{ACAD_REACTORS
330
52BCD
102
}
330
52BCD
100
AcDbVisualStyle
  2
Realistic
 70
     8
 71
     2
 72
     2
 73
     0
 90
        0
 40
-0.6
 41
-30.0
 62
     5
 63
     7
421
 16777215
 74
     1
 91
        0
 64
     7
 65
   257
 75
     1
175
     1
 42
1.0
 92
        8
 66
     8
424
  7895160
 43
1.0
 76
     1
 77
     6
 78
     2
 67
     7
 79
     5
170
     0
171
     0
290
     0
174
     0
 93
       13
 44
0.0
173
     0
291
     0
 45
0.0
  0
VISUALSTYLE
  5
52BDA
102
{ACAD_REACTORS
330
52BCD
102
}
330
52BCD
100
AcDbVisualStyle
  2
Thicken
 70
    13
 71
     2
 72
     2
 73
     0
 90
        0
 40
-0.6
 41
-30.0
 62
     5
 63
     7
421
 16777215
 74
     1
 91
        4
 64
     7
 65
   257
 75
     1
175
     1
 42
1.0
 92
       12
 66
     7
 43
1.0
 76
     1
 77
     6
 78
     2
 67
     7
 79
     5
170
     0
171
     0
290
     0
174
     0
 93
        1
 44
0.0
173
     0
291
     1
 45
0.0
  0
DICTIONARYVAR
  5
52DB4
102
{ACAD_REACTORS
330
52DB0
102
}
330
52DB0
100
DictionaryVariables
280
     0
  1
1:1
  0
DICTIONARYVAR
  5
52DB2
102
{ACAD_REACTORS
330
52DB0
102
}
330
52DB0
100
DictionaryVariables
280
     0
  1
STANDARD
  0
DICTIONARYVAR
  5
52DB1
102
{ACAD_REACTORS
330
52DB0
102
}
330
52DB0
100
DictionaryVariables
280
     0
  1
STANDARD
  0
DICTIONARYVAR
  5
52DB6
102
{ACAD_REACTORS
330
52DB0
102
}
330
52DB0
100
DictionaryVariables
280
     0
  1
1
  0
DICTIONARYVAR
  5
52DB7
102
{ACAD_REACTORS
330
52DB0
102
}
330
52DB0
100
DictionaryVariables
280
     0
  1
15
  0
DICTIONARYVAR
  5
52DB5
102
{ACAD_REACTORS
330
52DB0
102
}
330
52DB0
100
DictionaryVariables
280
     0
  1
0
  0
DICTIONARYVAR
  5
52DB3
102
{ACAD_REACTORS
330
52DB0
102
}
330
52DB0
100
DictionaryVariables
280
     0
  1
0
  0
DICTIONARY
  5
53119
102
{ACAD_REACTORS
330
5310E
102
}
330
5310E
100
AcDbDictionary
281
     1
  0
DICTIONARY
  5
52BBE
330
52BBD
100
AcDbDictionary
280
     1
281
     1
  3
BUMPTILE
360
52BC0
  3
DIFFUSETILE
360
52BBF
  3
OPACITYTILE
360
52BC3
  3
REFLECTIONTILE
360
52BC2
  3
REFRACTIONTILE
360
52BC4
  3
SPECULARTILE
360
52BC1
  0
DICTIONARY
  5
52BB6
330
52BB5
100
AcDbDictionary
280
     1
281
     1
  3
BUMPTILE
360
52BB8
  3
DIFFUSETILE
360
52BB7
  3
OPACITYTILE
360
52BBB
  3
REFLECTIONTILE
360
52BBA
  3
REFRACTIONTILE
360
52BBC
  3
SPECULARTILE
360
52BB9
  0
DICTIONARY
  5
52BC6
330
52BC5
100
AcDbDictionary
280
     1
281
     1
  3
BUMPTILE
360
52BC8
  3
DIFFUSETILE
360
52BC7
  3
OPACITYTILE
360
52BCB
  3
REFLECTIONTILE
360
52BCA
  3
REFRACTIONTILE
360
52BCC
  3
SPECULARTILE
360
52BC9
  0
DICTIONARY
  5
52DB8
330
52C10
100
AcDbDictionary
280
     1
281
     1
  3
ACAD_ROUNDTRIP_2008_TABLESTYLE_CELLSTYLEMAP
360
55361
  0
XRECORD
  5
52BC0
102
{ACAD_REACTORS
330
52BBE
102
}
330
52BBE
100
AcDbXrecord
280
     1
270
     1
271
     1
  0
XRECORD
  5
52BBF
102
{ACAD_REACTORS
330
52BBE
102
}
330
52BBE
100
AcDbXrecord
280
     1
270
     1
271
     1
  0
XRECORD
  5
52BC3
102
{ACAD_REACTORS
330
52BBE
102
}
330
52BBE
100
AcDbXrecord
280
     1
270
     1
271
     1
  0
XRECORD
  5
52BC2
102
{ACAD_REACTORS
330
52BBE
102
}
330
52BBE
100
AcDbXrecord
280
     1
270
     1
271
     1
  0
XRECORD
  5
52BC4
102
{ACAD_REACTORS
330
52BBE
102
}
330
52BBE
100
AcDbXrecord
280
     1
270
     1
271
     1
  0
XRECORD
  5
52BC1
102
{ACAD_REACTORS
330
52BBE
102
}
330
52BBE
100
AcDbXrecord
280
     1
270
     1
271
     1
  0
XRECORD
  5
52BB8
102
{ACAD_REACTORS
330
52BB6
102
}
330
52BB6
100
AcDbXrecord
280
     1
270
     1
271
     1
  0
XRECORD
  5
52BB7
102
{ACAD_REACTORS
330
52BB6
102
}
330
52BB6
100
AcDbXrecord
280
     1
270
     1
271
     1
  0
XRECORD
  5
52BBB
102
{ACAD_REACTORS
330
52BB6
102
}
330
52BB6
100
AcDbXrecord
280
     1
270
     1
271
     1
  0
XRECORD
  5
52BBA
102
{ACAD_REACTORS
330
52BB6
102
}
330
52BB6
100
AcDbXrecord
280
     1
270
     1
271
     1
  0
XRECORD
  5
52BBC
102
{ACAD_REACTORS
330
52BB6
102
}
330
52BB6
100
AcDbXrecord
280
     1
270
     1
271
     1
  0
XRECORD
  5
52BB9
102
{ACAD_REACTORS
330
52BB6
102
}
330
52BB6
100
AcDbXrecord
280
     1
270
     1
271
     1
  0
XRECORD
  5
52BC8
102
{ACAD_REACTORS
330
52BC6
102
}
330
52BC6
100
AcDbXrecord
280
     1
270
     1
271
     1
  0
XRECORD
  5
52BC7
102
{ACAD_REACTORS
330
52BC6
102
}
330
52BC6
100
AcDbXrecord
280
     1
270
     1
271
     1
  0
XRECORD
  5
52BCB
102
{ACAD_REACTORS
330
52BC6
102
}
330
52BC6
100
AcDbXrecord
280
     1
270
     1
271
     1
  0
XRECORD
  5
52BCA
102
{ACAD_REACTORS
330
52BC6
102
}
330
52BC6
100
AcDbXrecord
280
     1
270
     1
271
     1
  0
XRECORD
  5
52BCC
102
{ACAD_REACTORS
330
52BC6
102
}
330
52BC6
100
AcDbXrecord
280
     1
270
     1
271
     1
  0
XRECORD
  5
52BC9
102
{ACAD_REACTORS
330
52BC6
102
}
330
52BC6
100
AcDbXrecord
280
     1
270
     1
271
     1
  0
CELLSTYLEMAP
  5
55361
102
{ACAD_REACTORS
330
52DB8
102
}
330
52DB8
100
AcDbCellStyleMap
 90
        3
300
CELLSTYLE
  1
TABLEFORMAT_BEGIN
 90
        5
170
     1
 91
        0
 92
    32768
 62
   257
 93
        1
300
CONTENTFORMAT
  1
CONTENTFORMAT_BEGIN
 90
        0
 91
        0
 92
      512
 93
        0
300

 40
0.0
140
1.0
 94
        5
 62
     0
340
52C01
144
0.25
309
CONTENTFORMAT_END
171
     1
301
MARGIN
  1
CELLMARGIN_BEGIN
 40
0.06
 40
0.06
 40
0.06
 40
0.06
 40
0.18
 40
0.18
309
CELLMARGIN_END
 94
        6
 95
        1
302
GRIDFORMAT
  1
GRIDFORMAT_BEGIN
 90
        0
 91
        1
 62
     0
 92
       -2
340
0
 93
        0
 40
0.045
309
GRIDFORMAT_END
 95
        2
302
GRIDFORMAT
  1
GRIDFORMAT_BEGIN
 90
        0
 91
        1
 62
     0
 92
       -2
340
0
 93
        0
 40
0.045
309
GRIDFORMAT_END
 95
        4
302
GRIDFORMAT
  1
GRIDFORMAT_BEGIN
 90
        0
 91
        1
 62
     0
 92
       -2
340
0
 93
        0
 40
0.045
309
GRIDFORMAT_END
 95
        8
302
GRIDFORMAT
  1
GRIDFORMAT_BEGIN
 90
        0
 91
        1
 62
     0
 92
       -2
340
0
 93
        0
 40
0.045
309
GRIDFORMAT_END
 95
       16
302
GRIDFORMAT
  1
GRIDFORMAT_BEGIN
 90
        0
 91
        1
 62
     0
 92
       -2
340
0
 93
        0
 40
0.045
309
GRIDFORMAT_END
 95
       32
302
GRIDFORMAT
  1
GRIDFORMAT_BEGIN
 90
        0
 91
        1
 62
     0
 92
       -2
340
0
 93
        0
 40
0.045
309
GRIDFORMAT_END
309
TABLEFORMAT_END
  1
CELLSTYLE_BEGIN
 90
        1
 91
        1
300
_TITLE
309
CELLSTYLE_END
300
CELLSTYLE
  1
TABLEFORMAT_BEGIN
 90
        5
170
     1
 91
        0
 92
        0
 62
   257
 93
        1
300
CONTENTFORMAT
  1
CONTENTFORMAT_BEGIN
 90
        0
 91
        0
 92
      512
 93
        0
300

 40
0.0
140
1.0
 94
        5
 62
     0
340
52C01
144
0.18
309
CONTENTFORMAT_END
171
     1
301
MARGIN
  1
CELLMARGIN_BEGIN
 40
0.06
 40
0.06
 40
0.06
 40
0.06
 40
0.18
 40
0.18
309
CELLMARGIN_END
 94
        6
 95
        1
302
GRIDFORMAT
  1
GRIDFORMAT_BEGIN
 90
        0
 91
        1
 62
     0
 92
       -2
340
0
 93
        0
 40
0.045
309
GRIDFORMAT_END
 95
        2
302
GRIDFORMAT
  1
GRIDFORMAT_BEGIN
 90
        0
 91
        1
 62
     0
 92
       -2
340
0
 93
        0
 40
0.045
309
GRIDFORMAT_END
 95
        4
302
GRIDFORMAT
  1
GRIDFORMAT_BEGIN
 90
        0
 91
        1
 62
     0
 92
       -2
340
0
 93
        0
 40
0.045
309
GRIDFORMAT_END
 95
        8
302
GRIDFORMAT
  1
GRIDFORMAT_BEGIN
 90
        0
 91
        1
 62
     0
 92
       -2
340
0
 93
        0
 40
0.045
309
GRIDFORMAT_END
 95
       16
302
GRIDFORMAT
  1
GRIDFORMAT_BEGIN
 90
        0
 91
        1
 62
     0
 92
       -2
340
0
 93
        0
 40
0.045
309
GRIDFORMAT_END
 95
       32
302
GRIDFORMAT
  1
GRIDFORMAT_BEGIN
 90
        0
 91
        1
 62
     0
 92
       -2
340
0
 93
        0
 40
0.045
309
GRIDFORMAT_END
309
TABLEFORMAT_END
  1
CELLSTYLE_BEGIN
 90
        2
 91
        1
300
_HEADER
309
CELLSTYLE_END
300
CELLSTYLE
  1
TABLEFORMAT_BEGIN
 90
        5
170
     1
 91
        0
 92
        0
 62
   257
 93
        1
300
CONTENTFORMAT
  1
CONTENTFORMAT_BEGIN
 90
        0
 91
        0
 92
      512
 93
        0
300

 40
0.0
140
1.0
 94
        2
 62
     0
340
52C01
144
0.18
309
CONTENTFORMAT_END
171
     1
301
MARGIN
  1
CELLMARGIN_BEGIN
 40
0.06
 40
0.06
 40
0.06
 40
0.06
 40
0.18
 40
0.18
309
CELLMARGIN_END
 94
        6
 95
        1
302
GRIDFORMAT
  1
GRIDFORMAT_BEGIN
 90
        0
 91
        1
 62
     0
 92
       -2
340
0
 93
        0
 40
0.045
309
GRIDFORMAT_END
 95
        2
302
GRIDFORMAT
  1
GRIDFORMAT_BEGIN
 90
        0
 91
        1
 62
     0
 92
       -2
340
0
 93
        0
 40
0.045
309
GRIDFORMAT_END
 95
        4
302
GRIDFORMAT
  1
GRIDFORMAT_BEGIN
 90
        0
 91
        1
 62
     0
 92
       -2
340
0
 93
        0
 40
0.045
309
GRIDFORMAT_END
 95
        8
302
GRIDFORMAT
  1
GRIDFORMAT_BEGIN
 90
        0
 91
        1
 62
     0
 92
       -2
340
0
 93
        0
 40
0.045
309
GRIDFORMAT_END
 95
       16
302
GRIDFORMAT
  1
GRIDFORMAT_BEGIN
 90
        0
 91
        1
 62
     0
 92
       -2
340
0
 93
        0
 40
0.045
309
GRIDFORMAT_END
 95
       32
302
GRIDFORMAT
  1
GRIDFORMAT_BEGIN
 90
        0
 91
        1
 62
     0
 92
       -2
340
0
 93
        0
 40
0.045
309
GRIDFORMAT_END
309
TABLEFORMAT_END
  1
CELLSTYLE_BEGIN
 90
        3
 91
        2
300
_DATA
309
CELLSTYLE_END
  0
ENDSEC
  0
EOF
