  0
SECTION
  2
HEADER
  9
$ACADVER
  1
AC1021
  9
$ACADMAINTVER
 70
    50
  9
$DWGCODEPAGE
  3
ANSI_1252
  9
$LASTSAVEDBY
  1
mstaweczny
  9
$INSBASE
 10
0.0
 20
0.0
 30
0.0
  9
$EXTMIN
 10
29050.77647794923
 20
25526.89191687497
 30
0.0
  9
$EXTMAX
 10
31625.33342050904
 20
26676.40104386972
 30
0.0
  9
$LIMMIN
 10
0.0
 20
0.0
  9
$LIMMAX
 10
420.0
 20
297.0
  9
$ORTHOMODE
 70
     0
  9
$REGENMODE
 70
     1
  9
$FILLMODE
 70
     1
  9
$QTEXTMODE
 70
     0
  9
$MIRRTEXT
 70
     0
  9
$LTSCALE
 40
1.0
  9
$ATTMODE
 70
     1
  9
$TEXTSIZE
 40
2.5
  9
$TRACEWID
 40
1.0
  9
$TEXTSTYLE
  7
STANDARD
  9
$CLAYER
  8
0
  9
$CELTYPE
  6
ByLayer
  9
$CECOLOR
 62
   256
  9
$CELTSCALE
 40
1.0
  9
$DISPSILH
 70
     0
  9
$DIMSCALE
 40
1.0
  9
$DIMASZ
 40
0.12
  9
$DIMEXO
 40
0.05
  9
$DIMDLI
 40
0.5
  9
$DIMRND
 40
0.0
  9
$DIMDLE
 40
0.0
  9
$DIMEXE
 40
0.1
  9
$DIMTP
 40
0.1
  9
$DIMTM
 40
0.1
  9
$DIMTXT
 40
0.12
  9
$DIMCEN
 40
0.0
  9
$DIMTSZ
 40
0.0
  9
$DIMTOL
 70
     0
  9
$DIMLIM
 70
     0
  9
$DIMTIH
 70
     1
  9
$DIMTOH
 70
     1
  9
$DIMSE1
 70
     0
  9
$DIMSE2
 70
     0
  9
$DIMTAD
 70
     0
  9
$DIMZIN
 70
     7
  9
$DIMBLK
  1

  9
$DIMASO
 70
     1
  9
$DIMSHO
 70
     1
  9
$DIMPOST
  1

  9
$DIMAPOST
  1
mm
  9
$DIMALT
 70
     0
  9
$DIMALTD
 70
     2
  9
$DIMALTF
 40
25.4
  9
$DIMLFAC
 40
1.0
  9
$DIMTOFL
 70
     0
  9
$DIMTVP
 40
0.0
  9
$DIMTIX
 70
     0
  9
$DIMSOXD
 70
     0
  9
$DIMSAH
 70
     0
  9
$DIMBLK1
  1

  9
$DIMBLK2
  1

  9
$DIMSTYLE
  2
AM_ANSI
  9
$DIMCLRD
 70
   256
  9
$DIMCLRE
 70
   256
  9
$DIMCLRT
 70
   140
  9
$DIMTFAC
 40
0.71
  9
$DIMGAP
 40
0.06
  9
$DIMJUST
 70
     0
  9
$DIMSD1
 70
     0
  9
$DIMSD2
 70
     0
  9
$DIMTOLJ
 70
     1
  9
$DIMTZIN
 70
     7
  9
$DIMALTZ
 70
     0
  9
$DIMALTTZ
 70
     0
  9
$DIMUPT
 70
     0
  9
$DIMDEC
 70
     4
  9
$DIMTDEC
 70
     4
  9
$DIMALTU
 70
     2
  9
$DIMALTTD
 70
     4
  9
$DIMTXSTY
  7
STANDARD
  9
$DIMAUNIT
 70
     0
  9
$DIMADEC
 70
     0
  9
$DIMALTRND
 40
0.0
  9
$DIMAZIN
 70
     2
  9
$DIMDSEP
 70
    46
  9
$DIMATFIT
 70
     3
  9
$DIMFRAC
 70
     0
  9
$DIMLDRBLK
  1

  9
$DIMLUNIT
 70
     2
  9
$DIMLWD
 70
    -1
  9
$DIMLWE
 70
    -1
  9
$DIMTMOVE
 70
     0
  9
$DIMFXL
 40
1.0
  9
$DIMFXLON
 70
     0
  9
$DIMJOGANG
 40
0.7853981633974483
  9
$DIMTFILL
 70
     0
  9
$DIMTFILLCLR
 70
     0
  9
$DIMARCSYM
 70
     1
  9
$DIMLTYPE
  6
ByBlock
  9
$DIMLTEX1
  6
ByBlock
  9
$DIMLTEX2
  6
ByBlock
  9
$LUNITS
 70
     2
  9
$LUPREC
 70
     2
  9
$SKETCHINC
 40
1.0
  9
$FILLETRAD
 40
2.5
  9
$AUNITS
 70
     0
  9
$AUPREC
 70
     0
  9
$MENU
  1
.
  9
$ELEVATION
 40
0.0
  9
$PELEVATION
 40
0.0
  9
$THICKNESS
 40
0.0
  9
$LIMCHECK
 70
     0
  9
$CHAMFERA
 40
2.5
  9
$CHAMFERB
 40
2.5
  9
$CHAMFERC
 40
0.0
  9
$CHAMFERD
 40
0.0
  9
$SKPOLY
 70
     0
  9
$TDCREATE
 40
2455251.684584873
  9
$TDUCREATE
 40
2455251.642918206
  9
$TDUPDATE
 40
2458305.385311030
  9
$TDUUPDATE
 40
2458305.343644363
  9
$TDINDWG
 40
0.0539407986
  9
$TDUSRTIMER
 40
0.0539402894
  9
$USRTIMER
 70
     1
  9
$ANGBASE
 50
0.0
  9
$ANGDIR
 70
     0
  9
$PDMODE
 70
     0
  9
$PDSIZE
 40
0.0
  9
$PLINEWID
 40
0.0
  9
$SPLFRAME
 70
     0
  9
$SPLINETYPE
 70
     6
  9
$SPLINESEGS
 70
     8
  9
$HANDSEED
  5
533DD
  9
$SURFTAB1
 70
     6
  9
$SURFTAB2
 70
     6
  9
$SURFTYPE
 70
     6
  9
$SURFU
 70
     6
  9
$SURFV
 70
     6
  9
$UCSBASE
  2

  9
$UCSNAME
  2

  9
$UCSORG
 10
0.0
 20
0.0
 30
0.0
  9
$UCSXDIR
 10
1.0
 20
0.0
 30
0.0
  9
$UCSYDIR
 10
0.0
 20
1.0
 30
0.0
  9
$UCSORTHOREF
  2

  9
$UCSORTHOVIEW
 70
     0
  9
$UCSORGTOP
 10
0.0
 20
0.0
 30
0.0
  9
$UCSORGBOTTOM
 10
0.0
 20
0.0
 30
0.0
  9
$UCSORGLEFT
 10
0.0
 20
0.0
 30
0.0
  9
$UCSORGRIGHT
 10
0.0
 20
0.0
 30
0.0
  9
$UCSORGFRONT
 10
0.0
 20
0.0
 30
0.0
  9
$UCSORGBACK
 10
0.0
 20
0.0
 30
0.0
  9
$PUCSBASE
  2

  9
$PUCSNAME
  2

  9
$PUCSORG
 10
0.0
 20
0.0
 30
0.0
  9
$PUCSXDIR
 10
1.0
 20
0.0
 30
0.0
  9
$PUCSYDIR
 10
0.0
 20
1.0
 30
0.0
  9
$PUCSORTHOREF
  2

  9
$PUCSORTHOVIEW
 70
     0
  9
$PUCSORGTOP
 10
0.0
 20
0.0
 30
0.0
  9
$PUCSORGBOTTOM
 10
0.0
 20
0.0
 30
0.0
  9
$PUCSORGLEFT
 10
0.0
 20
0.0
 30
0.0
  9
$PUCSORGRIGHT
 10
0.0
 20
0.0
 30
0.0
  9
$PUCSORGFRONT
 10
0.0
 20
0.0
 30
0.0
  9
$PUCSORGBACK
 10
0.0
 20
0.0
 30
0.0
  9
$USERI1
 70
     0
  9
$USERI2
 70
     0
  9
$USERI3
 70
     0
  9
$USERI4
 70
     0
  9
$USERI5
 70
     0
  9
$USERR1
 40
0.0
  9
$USERR2
 40
0.0
  9
$USERR3
 40
0.0
  9
$USERR4
 40
0.0
  9
$USERR5
 40
0.0
  9
$WORLDVIEW
 70
     1
  9
$SHADEDGE
 70
     3
  9
$SHADEDIF
 70
    70
  9
$TILEMODE
 70
     1
  9
$MAXACTVP
 70
    64
  9
$PINSBASE
 10
0.0
 20
0.0
 30
0.0
  9
$PLIMCHECK
 70
     0
  9
$PEXTMIN
 10
1.000000000000000E+20
 20
1.000000000000000E+20
 30
1.000000000000000E+20
  9
$PEXTMAX
 10
-1.000000000000000E+20
 20
-1.000000000000000E+20
 30
-1.000000000000000E+20
  9
$PLIMMIN
 10
0.0
 20
0.0
  9
$PLIMMAX
 10
420.0
 20
297.0
  9
$UNITMODE
 70
     0
  9
$VISRETAIN
 70
     1
  9
$PLINEGEN
 70
     0
  9
$PSLTSCALE
 70
     1
  9
$TREEDEPTH
 70
  3020
  9
$CMLSTYLE
  2
Standard
  9
$CMLJUST
 70
     0
  9
$CMLSCALE
 40
1.0
  9
$PROXYGRAPHICS
 70
     1
  9
$MEASUREMENT
 70
     0
  9
$CELWEIGHT
370
    -1
  9
$ENDCAPS
280
     0
  9
$JOINSTYLE
280
     0
  9
$LWDISPLAY
290
     0
  9
$INSUNITS
 70
     0
  9
$HYPERLINKBASE
  1

  9
$STYLESHEET
  1

  9
$XEDIT
290
     1
  9
$CEPSNTYPE
380
     0
  9
$PSTYLEMODE
290
     1
  9
$FINGERPRINTGUID
  2
{7CA7D69D-36B4-42EF-92E2-8442B4B9647F}
  9
$VERSIONGUID
  2
{2570DFD2-2B6E-42BE-B54B-09B8A82FA907}
  9
$EXTNAMES
290
     1
  9
$PSVPSCALE
 40
0.0
  9
$OLESTARTUP
290
     0
  9
$SORTENTS
280
   127
  9
$INDEXCTL
280
     0
  9
$HIDETEXT
280
     0
  9
$XCLIPFRAME
290
     0
  9
$HALOGAP
280
     0
  9
$OBSCOLOR
 70
   257
  9
$OBSLTYPE
280
     0
  9
$INTERSECTIONDISPLAY
280
     0
  9
$INTERSECTIONCOLOR
 70
   257
  9
$DIMASSOC
280
     1
  9
$PROJECTNAME
  1

  9
$CAMERADISPLAY
290
     0
  9
$LENSLENGTH
 40
50.0
  9
$CAMERAHEIGHT
 40
0.0
  9
$STEPSPERSEC
 40
2.0
  9
$STEPSIZE
 40
6.0
  9
$3DDWFPREC
 40
2.0
  9
$PSOLWIDTH
 40
0.25
  9
$PSOLHEIGHT
 40
4.0
  9
$LOFTANG1
 40
1.570796326794896
  9
$LOFTANG2
 40
1.570796326794896
  9
$LOFTMAG1
 40
0.0
  9
$LOFTMAG2
 40
0.0
  9
$LOFTPARAM
 70
     7
  9
$LOFTNORMALS
280
     1
  9
$LATITUDE
 40
37.795
  9
$LONGITUDE
 40
-122.394
  9
$NORTHDIRECTION
 40
0.0
  9
$TIMEZONE
 70
 -8000
  9
$LIGHTGLYPHDISPLAY
280
     1
  9
$TILEMODELIGHTSYNCH
280
     1
  9
$CMATERIAL
347
52BB5
  9
$SOLIDHIST
280
     1
  9
$SHOWHIST
280
     1
  9
$DWFFRAME
280
     2
  9
$DGNFRAME
280
     0
  9
$REALWORLDSCALE
290
     1
  9
$INTERFERECOLOR
 62
     1
  9
$INTERFEREOBJVS
345
52BD7
  9
$INTERFEREVPVS
346
52BD4
  9
$CSHADOW
280
     0
  9
$SHADOWPLANELOCATION
 40
0.0
  0
ENDSEC
  0
SECTION
  2
CLASSES
  0
CLASS
  1
ACDBDICTIONARYWDFLT
  2
AcDbDictionaryWithDefault
  3
ObjectDBX Classes
 90
        0
 91
        1
280
     0
281
     0
  0
CLASS
  1
MATERIAL
  2
AcDbMaterial
  3
ObjectDBX Classes
 90
     1153
 91
        3
280
     0
281
     0
  0
CLASS
  1
VISUALSTYLE
  2
AcDbVisualStyle
  3
ObjectDBX Classes
 90
     4095
 91
       16
280
     0
281
     0
  0
CLASS
  1
SCALE
  2
AcDbScale
  3
ObjectDBX Classes
 90
     1153
 91
       33
280
     0
281
     0
  0
CLASS
  1
TABLESTYLE
  2
AcDbTableStyle
  3
ObjectDBX Classes
 90
     4095
 91
        1
280
     0
281
     0
  0
CLASS
  1
MLEADERSTYLE
  2
AcDbMLeaderStyle
  3
ACDB_MLEADERSTYLE_CLASS
 90
     4095
 91
        1
280
     0
281
     0
  0
CLASS
  1
EXACXREFPANELOBJECT
  2
ExAcXREFPanelObject
  3
EXAC_ESW
 90
     1025
 91
        1
280
     0
281
     0
  0
CLASS
  1
NPOCOLLECTION
  2
AcDbImpNonPersistentObjectsCollection
  3
ObjectDBX Classes
 90
     1153
 91
        1
280
     0
281
     0
  0
CLASS
  1
DIMASSOC
  2
AcDbDimAssoc
  3
"AcDbDimAssoc|Product Desc:     AcDim ARX App For Dimension|Company:          Autodesk, Inc.|WEB Address:      www.autodesk.com"
 90
        0
 91
        6
280
     0
281
     0
  0
CLASS
  1
SORTENTSTABLE
  2
AcDbSortentsTable
  3
ObjectDBX Classes
 90
        0
 91
        1
280
     0
281
     0
  0
CLASS
  1
DICTIONARYVAR
  2
AcDbDictionaryVar
  3
ObjectDBX Classes
 90
        0
 91
        7
280
     0
281
     0
  0
CLASS
  1
CELLSTYLEMAP
  2
AcDbCellStyleMap
  3
ObjectDBX Classes
 90
     1152
 91
        2
280
     0
281
     0
  0
CLASS
  1
AMGSETTINGSOBJ
  2
AmgSettingsObj
  3
"AcadM|Product Description: AutoCAD Mechanical|Company: Autodesk, Inc."
 90
     1024
 91
        2
280
     0
281
     0
  0
CLASS
  1
ACME_DOCUMENT
  2
AcMeDbDoc
  3
AcMeServices
 90
     1024
 91
        1
280
     0
281
     0
  0
CLASS
  1
ACMESCOPE
  2
AcMeScope
  3
AcMeServices
 90
     1024
 91
        1
280
     0
281
     0
  0
CLASS
  1
ACMECOMMANDHISTORY
  2
AcMeCommandHistory
  3
AcMeServices
 90
     1024
 91
        1
280
     0
281
     0
  0
CLASS
  1
ACIMSYSVARMAN
  2
AcImSysVarManager
  3
AcMeServices
 90
     1024
 91
        5
280
     0
281
     0
  0
CLASS
  1
ACIMINTSYSVAR
  2
AcImIntSysVar
  3
AcMeServices
 90
     1024
 91
       27
280
     0
281
     0
  0
CLASS
  1
ACMEDRAWINGMAN
  2
AcMeDrawingMan
  3
AcMeServices
 90
     1024
 91
        1
280
     0
281
     0
  0
CLASS
  1
ACMEVIEW
  2
AcMeView
  3
AcMeServices
 90
     1024
 91
        1
280
     0
281
     0
  0
CLASS
  1
ACDBENTITYCACHE
  2
AcMeEntityCache
  3
AcMeServices
 90
     1024
 91
        1
280
     0
281
     0
  0
CLASS
  1
GSMANAGER
  2
AcMeGSManager
  3
AcMeServices
 90
     1024
 91
        1
280
     0
281
     0
  0
CLASS
  1
AMDTINTERNALREACTOR
  2
AmdtInternalReactor
  3
AcMeServices
 90
     1024
 91
        2
280
     0
281
     0
  0
CLASS
  1
ACMESTATEMGR
  2
AcMeStateMgr
  3
AcMeServices
 90
     1024
 91
        1
280
     0
281
     0
  0
CLASS
  1
ACGREFMASTER
  2
AcGrefMaster
  3
AcAttribServices
 90
     1024
 91
        1
280
     0
281
     0
  0
CLASS
  1
AM_DRAWING_MGR
  2
AcDmDwgMgr
  3
AcMechDwgViewMgmt
 90
     1024
 91
        1
280
     0
281
     0
  0
CLASS
  1
AM_DWG_DOCUMENT
  2
AcDmDwgDocument
  3
AcMechDwgViewMgmt
 90
     1024
 91
        1
280
     0
281
     0
  0
CLASS
  1
AM_DWG_SHEET
  2
AcDmSheet
  3
AcMechDwgViewMgmt
 90
     1024
 91
        1
280
     0
281
     0
  0
CLASS
  1
AM_VIEWDIMPARMAP
  2
AcDmViewDimParMap
  3
AcMechDwgViewMgmt
 90
     1024
 91
        1
280
     0
281
     0
  0
CLASS
  1
ACIMREALSYSVAR
  2
AcImRealSysVar
  3
AcMeServices
 90
     1024
 91
        1
280
     0
281
     0
  0
CLASS
  1
AM_DWGMGR_NAME
  2
AcDmDwgMgrName
  3
AcMechDwgViewMgmt
 90
     1024
 91
        1
280
     0
281
     0
  0
CLASS
  1
ACME_DATABASE
  2
AcMeDbDatabase
  3
AcMeServices
 90
     1024
 91
        2
280
     0
281
     0
  0
CLASS
  1
ACRFINSADJUSTERMGR
  2
AcRfInsAdjusterMgr
  3
AcMeServices
 90
     1024
 91
        1
280
     0
281
     0
  0
CLASS
  1
ACGREFACADMASTER
  2
AcGrefacadMaster
  3
AcGrefServices
 90
     1024
 91
        1
280
     0
281
     0
  0
CLASS
  1
AMDTMENUSTATEMGR
  2
AmdtMenuStateMgr
  3
McadcomServices
 90
     1024
 91
        1
280
     0
281
     0
  0
CLASS
  1
AMDTMCOMMENUSTATE
  2
AmdtMcomMenuState
  3
McadcomServices
 90
     1024
 91
        1
280
     0
281
     0
  0
CLASS
  1
AMIMASTER
  2
AmiMaster
  3
AmiServices
 90
     1024
 91
        1
280
     0
281
     0
  0
CLASS
  1
MAPIAMMOUDLE
  2
MApiAmModule
  3
MApiAmServices
 90
     1024
 91
        1
280
     0
281
     0
  0
CLASS
  1
ACIMSTRSYSVAR
  2
AcImStrSysVar
  3
AcMeServices
 90
     1024
 91
        5
280
     0
281
     0
  0
CLASS
  1
AMDTADMENUSTATE
  2
AmdtAdMenuState
  3
DesignerServices
 90
     1024
 91
        1
280
     0
281
     0
  0
CLASS
  1
ADAPPL
  2
AcAdAppl
  3
DesignerServices
 90
     1024
 91
        1
280
     0
281
     0
  0
CLASS
  1
DEPMGR
  2
AcAdDepMgr
  3
DesignerServices
 90
     1024
 91
        1
280
     0
281
     0
  0
CLASS
  1
PARAMMGR
  2
AcAdParamMgr
  3
DesignerServices
 90
     1024
 91
        1
280
     0
281
     0
  0
CLASS
  1
PARAMSCOPE
  2
AcAdParamScope
  3
DesignerServices
 90
     1024
 91
        1
280
     0
281
     0
  0
CLASS
  1
NAMEDAPPL
  2
AcAdNamedAppl
  3
DesignerServices
 90
     1024
 91
        1
280
     0
281
     0
  0
CLASS
  1
AMDTDMMENUSTATE
  2
AmdtDmMenuState
  3
AcMechDwgViewMgmt
 90
     1024
 91
        1
280
     0
281
     0
  0
CLASS
  1
AMDTAMMENUSTATE
  2
AmdtAmMenuState
  3
DesignerAssemblies
 90
     1024
 91
        1
280
     0
281
     0
  0
CLASS
  1
ACAMPROJECT
  2
AcAmProject
  3
DesignerAssemblies
 90
     1024
 91
        1
280
     0
281
     0
  0
CLASS
  1
ACAMGRCOMPDEF
  2
AcAmGrCompDef
  3
DesignerAssemblies
 90
     1024
 91
        1
280
     0
281
     0
  0
CLASS
  1
ACCMCONTEXT
  2
AcCmContext
  3
DesignerAssemblies
 90
     1024
 91
        1
280
     0
281
     0
  0
CLASS
  1
ACAMCOMPDEF
  2
AcAmCompDef
  3
DesignerAssemblies
 90
     1024
 91
        1
280
     0
281
     0
  0
CLASS
  1
ACAMCOMPDEFMGR
  2
AcAmCompDefMgr
  3
DesignerAssemblies
 90
     1024
 91
        1
280
     0
281
     0
  0
CLASS
  1
AMCONTEXTMGR
  2
AcAmContextMgr
  3
DesignerAssemblies
 90
     1024
 91
        1
280
     0
281
     0
  0
CLASS
  1
ACAMCONTEXTMODELER
  2
AcAmContextModeler
  3
DesignerAssemblies
 90
     1024
 91
        1
280
     0
281
     0
  0
CLASS
  1
ACMDATADICTIONARY
  2
AcmDataDictionary
  3
"AcmSymBB|Product Description: AutoCAD Mechanical|Company: Autodesk, Inc."
 90
     1024
 91
        1
280
     0
281
     0
  0
CLASS
  1
CATALOGSTATE
  2
AcAmCatalogState
  3
DesignerAssemblies
 90
     1024
 91
        1
280
     0
281
     0
  0
CLASS
  1
ACAMGRCOMPDEFSET
  2
AcAmGrCompDefSet
  3
DesignerAssemblies
 90
     1024
 91
        1
280
     0
281
     0
  0
CLASS
  1
AMDTBROWSERDBTAB
  2
AmdtBrowserDbTab
  3
McadcomServices
 90
     1024
 91
        1
280
     0
281
     0
  0
CLASS
  1
CBROWSERAPPOBJECT
  2
CBrowserAppObject
  3
McadcomServices
 90
     1024
 91
        3
280
     0
281
     0
  0
CLASS
  1
DM_PLACEHOLDER
  2
AcDmSelsetPlaceholder
  3
AcMechDwgViewMgmt
 90
     1024
 91
        1
280
     0
281
     0
  0
CLASS
  1
ACMSTANDARDANSI
  2
AcmStandardANSI
  3
"Amdt_StdImp|Product Description: AutoCAD Mechanical|Company: Autodesk, Inc."
 90
     1024
 91
        1
280
     0
281
     0
  0
CLASS
  1
ACMSURFSTANDARDANSI
  2
AcmSurfTextStdANSI
  3
"Amdt_StdImp|Product Description: AutoCAD Mechanical|Company: Autodesk, Inc."
 90
     1024
 91
        1
280
     0
281
     0
  0
CLASS
  1
ACMFCFSTANDARDANSI
  2
AcmFCFStdANSI
  3
"Amdt_StdImp|Product Description: AutoCAD Mechanical|Company: Autodesk, Inc."
 90
     1024
 91
        1
280
     0
281
     0
  0
CLASS
  1
ACMWELDSTANDARDANSI
  2
AcmWeldingStdANSI
  3
"Amdt_StdImp|Product Description: AutoCAD Mechanical|Company: Autodesk, Inc."
 90
     1024
 91
        1
280
     0
281
     0
  0
CLASS
  1
ACMIDSTANDARDANSI
  2
AcmIdStdANSI
  3
"Amdt_StdImp|Product Description: AutoCAD Mechanical|Company: Autodesk, Inc."
 90
     1024
 91
        1
280
     0
281
     0
  0
CLASS
  1
ACMDATUMSTANDARDANSI
  2
AcmDatumStdANSI
  3
"Amdt_StdImp|Product Description: AutoCAD Mechanical|Company: Autodesk, Inc."
 90
     1024
 91
        1
280
     0
281
     0
  0
CLASS
  1
ACMBOMSTANDARDANSI
  2
AcmBOMStdANSI
  3
"Amdt_StdImp|Product Description: AutoCAD Mechanical|Company: Autodesk, Inc."
 90
     1024
 91
        1
280
     0
281
     0
  0
CLASS
  1
ACMDETAILSTANDARDANSI
  2
AmdtDetailSymStdANSI
  3
"Amdt_StdImp|Product Description: AutoCAD Mechanical|Company: Autodesk, Inc."
 90
     1024
 91
        1
280
     0
281
     0
  0
CLASS
  1
ACMSECTIONSTANDARDANSI
  2
AmdtSectionSymStdANSI
  3
"Amdt_StdImp|Product Description: AutoCAD Mechanical|Company: Autodesk, Inc."
 90
     1024
 91
        1
280
     0
281
     0
  0
CLASS
  1
ACMCENTERLINESTANDARDANSI
  2
AmdtCenterLineStdANSI
  3
"Amdt_StdImp|Product Description: AutoCAD Mechanical|Company: Autodesk, Inc."
 90
     1024
 91
        1
280
     0
281
     0
  0
CLASS
  1
ACMTHREADLINESTANDARDANSI
  2
AmdtThreadLineStdANSI
  3
"Amdt_StdImp|Product Description: AutoCAD Mechanical|Company: Autodesk, Inc."
 90
     1024
 91
        1
280
     0
281
     0
  0
CLASS
  1
ACMNOTESTANDARDANSI
  2
AmdtNoteStdANSI
  3
"Amdt_StdImp|Product Description: AutoCAD Mechanical|Company: Autodesk, Inc."
 90
     1024
 91
        1
280
     0
281
     0
  0
CLASS
  1
ACMTAPERSTANDARDANSI
  2
AcmTaperStdANSI
  3
"Amdt_StdImp|Product Description: AutoCAD Mechanical|Company: Autodesk, Inc."
 90
     1024
 91
        1
280
     0
281
     0
  0
CLASS
  1
ACMANOOTATIONVIEWSTANDARDANSI
  2
AmdtAnViewStdANSI
  3
"Amdt_StdImp|Product Description: AutoCAD Mechanical|Company: Autodesk, Inc."
 90
     1024
 91
        1
280
     0
281
     0
  0
CLASS
  1
ACAMGLAYSTD
  2
AcAmgLayStd
  3
"AmgLay|Product Description: AutoCAD Mechanical|Company: Autodesk, Inc."
 90
     1024
 91
        2
280
     0
281
     0
  0
CLASS
  1
ACAMGDIMSTD
  2
AcAmgDimStd
  3
"AmgDim|Product Description: AutoCAD Mechanical|Company: Autodesk, Inc."
 90
     1024
 91
        2
280
     0
281
     0
  0
CLASS
  1
AMGOBJPROPCFG
  2
AmgObjPropCfg
  3
"AmgLay|Product Description: AutoCAD Mechanical|Company: Autodesk, Inc."
 90
     1025
 91
        1
280
     0
281
     0
  0
CLASS
  1
ACAMGHOLECHARTSTDANSI
  2
AcAmgHoleChartStdANSI
  3
AmgDim|Product Description: AutoCAD Mechanical|Company: Autodesk, Inc.
 90
     1024
 91
        1
280
     0
281
     0
  0
CLASS
  1
ACAMGTITLESTD
  2
AcAmgTitleStd
  3
"AmgTitle|Product Description: AutoCAD Mechanical|Company: Autodesk, Inc."
 90
     4095
 91
        2
280
     0
281
     0
  0
CLASS
  1
AMDTNOTETEMPLATEDB
  2
AmdtNoteTemplateDB
  3
AcmSymBB|Product Description: AutoCAD Mechanical|Company: Autodesk, Inc.
 90
     1024
 91
       12
280
     0
281
     0
  0
CLASS
  1
ACMSTANDARDISO
  2
AcmStandardISO
  3
"Amdt_StdImp|Product Description: AutoCAD Mechanical|Company: Autodesk, Inc."
 90
     1024
 91
        1
280
     0
281
     0
  0
CLASS
  1
ACMSURFSTANDARDISO2002
  2
AcmSurfTextStdISO2002
  3
"Amdt_StdImp|Product Description: AutoCAD Mechanical|Company: Autodesk, Inc."
 90
     1024
 91
        1
280
     0
281
     0
  0
CLASS
  1
ACMFCFSTANDARDISO
  2
AcmFCFStdISO
  3
"Amdt_StdImp|Product Description: AutoCAD Mechanical|Company: Autodesk, Inc."
 90
     1024
 91
        1
280
     0
281
     0
  0
CLASS
  1
ACMWELDSTANDARDISO
  2
AcmWeldingStdISO
  3
"Amdt_StdImp|Product Description: AutoCAD Mechanical|Company: Autodesk, Inc."
 90
     1024
 91
        1
280
     0
281
     0
  0
CLASS
  1
ACMIDSTANDARDISO
  2
AcmIdStdISO
  3
"Amdt_StdImp|Product Description: AutoCAD Mechanical|Company: Autodesk, Inc."
 90
     1024
 91
        1
280
     0
281
     0
  0
CLASS
  1
ACMDATUMSTANDARDISO
  2
AcmDatumStdISO
  3
"Amdt_StdImp|Product Description: AutoCAD Mechanical|Company: Autodesk, Inc."
 90
     1024
 91
        1
280
     0
281
     0
  0
CLASS
  1
ACMBOMSTANDARDISO
  2
AcmBOMStdISO
  3
"Amdt_StdImp|Product Description: AutoCAD Mechanical|Company: Autodesk, Inc."
 90
     1024
 91
        1
280
     0
281
     0
  0
CLASS
  1
ACMDETAILSTANDARDISO
  2
AmdtDetailSymStdISO
  3
"Amdt_StdImp|Product Description: AutoCAD Mechanical|Company: Autodesk, Inc."
 90
     1024
 91
        1
280
     0
281
     0
  0
CLASS
  1
ACMSECTIONSTANDARDISO2001
  2
AmdtSectionSymStdISO2001
  3
"Amdt_StdImp|Product Description: AutoCAD Mechanical|Company: Autodesk, Inc."
 90
     1024
 91
        1
280
     0
281
     0
  0
CLASS
  1
ACMCENTERLINESTANDARDISO
  2
AmdtCenterLineStdISO
  3
"Amdt_StdImp|Product Description: AutoCAD Mechanical|Company: Autodesk, Inc."
 90
     1024
 91
        1
280
     0
281
     0
  0
CLASS
  1
ACMNOTESTANDARDISO
  2
AmdtNoteStdISO
  3
"Amdt_StdImp|Product Description: AutoCAD Mechanical|Company: Autodesk, Inc."
 90
     1024
 91
        1
280
     0
281
     0
  0
CLASS
  1
ACAMGHOLECHARTSTDISO
  2
AcAmgHoleChartStdISO
  3
AmgDim|Product Description: AutoCAD Mechanical|Company: Autodesk, Inc.
 90
     1024
 91
        1
280
     0
281
     0
  0
CLASS
  1
ACMTHREADLINESTANDARDISO
  2
AmdtThreadLineStdISO
  3
"Amdt_StdImp|Product Description: AutoCAD Mechanical|Company: Autodesk, Inc."
 90
     1024
 91
        1
280
     0
281
     0
  0
CLASS
  1
ACMTAPERSTANDARDISO
  2
AcmTaperStdISO
  3
"Amdt_StdImp|Product Description: AutoCAD Mechanical|Company: Autodesk, Inc."
 90
     1024
 91
        1
280
     0
281
     0
  0
CLASS
  1
ACMANOOTATIONVIEWSTANDARDISO
  2
AmdtAnViewStdISO
  3
"Amdt_StdImp|Product Description: AutoCAD Mechanical|Company: Autodesk, Inc."
 90
     1024
 91
        1
280
     0
281
     0
  0
CLASS
  1
AMDTEDGESTANDARDISO13715
  2
AmdtEdgeStdISO13715
  3
"Amdt_StdImp|Product Description: AutoCAD Mechanical|Company: Autodesk, Inc."
 90
     1024
 91
        1
280
     0
281
     0
  0
CLASS
  1
ACMDATAENTRYBLOCK
  2
AcmDataEntryBlock
  3
AcmSymBB|Product Description: AutoCAD Mechanical|Company: Autodesk, Inc.
 90
     1024
 91
        1
280
     0
281
     0
  0
CLASS
  1
ACAMGFILTERDAT
  2
AcAmgFilterDat
  3
"AcadM|Product Description: AutoCAD Mechanical|Company: Autodesk, Inc."
 90
     1024
 91
        6
280
     0
281
     0
  0
ENDSEC
  0
SECTION
  2
TABLES
  0
TABLE
  2
VPORT
  5
52BAC
330
0
100
AcDbSymbolTable
 70
     1
  0
VPORT
  5
52C1C
330
52BAC
100
AcDbSymbolTableRecord
100
AcDbViewportTableRecord
  2
*ACTIVE
 70
     0
 10
0.0
 20
0.0
 11
1.0
 21
1.0
 12
30765.65872806656
 22
25991.70861195972
 13
0.0
 23
0.0
 14
2.5
 24
2.5
 15
10.0
 25
10.0
 16
0.0
 26
0.0
 36
1.0
 17
0.0
 27
0.0
 37
0.0
 40
2473.926395204177
 41
1.929455445544554
 42
50.0
 43
0.0
 44
0.0
 50
0.0
 51
0.0
 71
     0
 72
  1000
 73
     1
 74
     3
 75
     0
 76
     0
 77
     0
 78
     0
281
     0
 65
     0
110
0.0
120
0.0
130
0.0
111
1.0
121
0.0
131
0.0
112
0.0
122
1.0
132
0.0
 79
     0
146
0.0
348
52BD3
 60
     3
 61
     5
292
     1
282
     0
141
0.0
142
0.0
 63
   250
421
  3355443
  0
ENDTAB
  0
TABLE
  2
LTYPE
  5
52BA9
330
0
100
AcDbSymbolTable
 70
    22
  0
LTYPE
  5
52C06
330
52BA9
100
AcDbSymbolTableRecord
100
AcDbLinetypeTableRecord
  2
ByBlock
 70
     0
  3

 72
    65
 73
     0
 40
0.0
  0
LTYPE
  5
52C07
330
52BA9
100
AcDbSymbolTableRecord
100
AcDbLinetypeTableRecord
  2
ByLayer
 70
     0
  3

 72
    65
 73
     0
 40
0.0
  0
LTYPE
  5
52C08
330
52BA9
100
AcDbSymbolTableRecord
100
AcDbLinetypeTableRecord
  2
CONTINUOUS
 70
     0
  3
Solid line
 72
    65
 73
     0
 40
0.0
  0
LTYPE
  5
52C1D
330
52BA9
100
AcDbSymbolTableRecord
100
AcDbLinetypeTableRecord
  2
DASHED2
 70
     0
  3
Dashed (.5x) _ _ _ _ _ _ _ _ _ _ _ _ _ _ _ _ _
 72
    65
 73
     2
 40
9.524999999999996
 49
6.349999999999997
 74
     0
 49
-3.174999999999998
 74
     0
  0
LTYPE
  5
530E8
330
52BA9
100
AcDbSymbolTableRecord
100
AcDbLinetypeTableRecord
  2
HIDDEN
 70
     0
  3
Hidden __ __ __ __ __ __ __ __ __ __ __ __ __ _
 72
    65
 73
     2
 40
0.375
 49
0.25
 74
     0
 49
-0.125
 74
     0
  0
LTYPE
  5
530E9
330
52BA9
100
AcDbSymbolTableRecord
100
AcDbLinetypeTableRecord
  2
PHANTOM2
 70
     0
  3
Phantom (.5x) ___ _ _ ___ _ _ ___ _ _ ___ _ _
 72
    65
 73
     6
 40
1.25
 49
0.625
 74
     0
 49
-0.125
 74
     0
 49
0.125
 74
     0
 49
-0.125
 74
     0
 49
0.125
 74
     0
 49
-0.125
 74
     0
  0
LTYPE
  5
530EA
330
52BA9
100
AcDbSymbolTableRecord
100
AcDbLinetypeTableRecord
  2
CENTER
 70
     0
  3
Center ____ _ ____ _ ____ _ ____ _ ____ _ ____
 72
    65
 73
     4
 40
2.0
 49
1.25
 74
     0
 49
-0.25
 74
     0
 49
0.25
 74
     0
 49
-0.25
 74
     0
  0
LTYPE
  5
5312F
330
52BA9
100
AcDbSymbolTableRecord
100
AcDbLinetypeTableRecord
  2
Amconstr
 70
     0
  3
_______________________
 72
    65
 73
     2
 40
9999.0
 49
9999.0
 74
     0
 49
0.0
 74
     0
  0
LTYPE
  5
53135
330
52BA9
100
AcDbSymbolTableRecord
100
AcDbLinetypeTableRecord
  2
CENTER2
 70
     0
  3
Center (.5x) ___ _ ___ _ ___ _ ___ _ ___ _ ___
 72
    65
 73
     4
 40
1.125
 49
0.75
 74
     0
 49
-0.125
 74
     0
 49
0.125
 74
     0
 49
-0.125
 74
     0
  0
LTYPE
  5
53136
330
52BA9
100
AcDbSymbolTableRecord
100
AcDbLinetypeTableRecord
  2
HIDDEN2
 70
     0
  3
Hidden (.5x) _ _ _ _ _ _ _ _ _ _ _ _ _ _ _ _ _
 72
    65
 73
     2
 40
0.1875
 49
0.125
 74
     0
 49
-0.0625
 74
     0
  0
LTYPE
  5
53137
330
52BA9
100
AcDbSymbolTableRecord
100
AcDbLinetypeTableRecord
  2
Amzigzag2
 70
     0
  3
/\/-/\/-/\/-/\/-/\/-/\/
 72
    65
 73
     2
 40
0.4401
 49
0.0001
 74
     4
 75
   136
340
53133
 46
0.0016
 50
0.0
 44
0.0
 45
0.0
 49
-0.4400000000000001
 74
     0
  0
LTYPE
  5
53145
330
52BA9
100
AcDbSymbolTableRecord
100
AcDbLinetypeTableRecord
  2
ACANSTGB
 70
     0
  3
__ . . __ . .
 72
    65
 73
     6
 40
0.35433070866
 49
0.15748031496
 74
     0
 49
-0.03937007874
 74
     0
 49
0.03937007874
 74
     0
 49
-0.03937007874
 74
     0
 49
0.03937007874
 74
     0
 49
-0.03937007874
 74
     0
  0
LTYPE
  5
53146
330
52BA9
100
AcDbSymbolTableRecord
100
AcDbLinetypeTableRecord
  2
ACANSTGL
 70
     0
  3
_ _ _ _ _
 72
    65
 73
     2
 40
0.11811023622
 49
0.07874015748
 74
     0
 49
-0.03937007874
 74
     0
  0
LTYPE
  5
5317A
330
52BA9
100
AcDbSymbolTableRecord
100
AcDbLinetypeTableRecord
  2
ACISOWELD
 70
     0
  3
_ _ _ _ _
 72
    65
 73
     2
 40
2.0
 49
2.0
 74
     0
 49
-1.0
 74
     0
  0
LTYPE
  5
5317B
330
52BA9
100
AcDbSymbolTableRecord
100
AcDbLinetypeTableRecord
  2
ACISOTGB
 70
     0
  3
__ . . __ . .
 72
    65
 73
     6
 40
9.0
 49
4.0
 74
     0
 49
-1.0
 74
     0
 49
1.0
 74
     0
 49
-1.0
 74
     0
 49
1.0
 74
     0
 49
-1.0
 74
     0
  0
LTYPE
  5
5317C
330
52BA9
100
AcDbSymbolTableRecord
100
AcDbLinetypeTableRecord
  2
ACISOTGL
 70
     0
  3
_ _ _ _ _
 72
    65
 73
     2
 40
3.0
 49
2.0
 74
     0
 49
-1.0
 74
     0
  0
ENDTAB
  0
TABLE
  2
LAYER
  5
52BA6
102
{ACAD_XDICTIONARY
360
52CA6
102
}
330
0
100
AcDbSymbolTable
 70
    10
  0
LAYER
  5
52C00
102
{ACAD_XDICTIONARY
360
52DA2
102
}
330
52BA6
100
AcDbSymbolTableRecord
100
AcDbLayerTableRecord
  2
0
 70
     0
 62
     7
  6
CONTINUOUS
370
    -3
390
52BB3
347
52BC5
  0
LAYER
  5
52C1E
102
{ACAD_XDICTIONARY
360
52DA4
102
}
330
52BA6
100
AcDbSymbolTableRecord
100
AcDbLayerTableRecord
  2
LAYER1
 70
     0
 62
     1
  6
CONTINUOUS
370
    -3
390
52BB3
347
52BC5
  0
LAYER
  5
52C1F
330
52BA6
100
AcDbSymbolTableRecord
100
AcDbLayerTableRecord
  2
DEFPOINTS
 70
     0
 62
     7
  6
CONTINUOUS
290
     0
370
    -3
390
52BB3
347
52BC5
  0
LAYER
  5
52C21
102
{ACAD_XDICTIONARY
360
52DA8
102
}
330
52BA6
100
AcDbSymbolTableRecord
100
AcDbLayerTableRecord
  2
CUTOUT
 70
     0
 62
    60
  6
CONTINUOUS
370
    -3
390
52BB3
347
52BC5
  0
LAYER
  5
52C9C
102
{ACAD_XDICTIONARY
360
52DAC
102
}
330
52BA6
100
AcDbSymbolTableRecord
100
AcDbLayerTableRecord
  2
DIMS SPECS
 70
     0
 62
    41
  6
CONTINUOUS
370
    35
390
52BB3
347
52BC5
  0
LAYER
  5
5317E
330
52BA6
100
AcDbSymbolTableRecord
100
AcDbLayerTableRecord
  2
sink_label
 70
     0
 62
    80
  6
CONTINUOUS
370
    -3
390
52BB3
347
52BC5
1001
ACAECLAYERSTANDARD
1000

1000

  0
ENDTAB
  0
TABLE
  2
STYLE
  5
52BA7
330
0
100
AcDbSymbolTable
 70
    10
  0
STYLE
  5
52C01
330
52BA7
100
AcDbSymbolTableRecord
100
AcDbTextStyleTableRecord
  2
STANDARD
 70
     0
 40
0.0
 41
1.0
 50
0.0
 71
     0
 42
2.5
  3
ISOCP.SHX
  4

  0
STYLE
  5
52C23
330
52BA7
100
AcDbSymbolTableRecord
100
AcDbTextStyleTableRecord
  2
ACISOTS
 70
     0
 40
1.0
 41
1.0
 50
0.0
 71
     0
 42
2.5
  3
isocp.shx
  4

  0
STYLE
  5
52C24
330
52BA7
100
AcDbSymbolTableRecord
100
AcDbTextStyleTableRecord
  2
ABODE-ISO
 70
     0
 40
17.0
 41
0.9
 50
0.0
 71
     0
 42
0.2
  3
txt
  4

  0
STYLE
  5
53133
330
52BA7
100
AcDbSymbolTableRecord
100
AcDbTextStyleTableRecord
  2

 70
     1
 40
0.0
 41
1.0
 50
0.0
 71
     0
 42
2.5
  3
genltshp.shx
  4

  0
STYLE
  5
53144
330
52BA7
100
AcDbSymbolTableRecord
100
AcDbTextStyleTableRecord
  2
ACANSGDT
 70
     0
 40
0.0
 41
1.0
 50
0.0
 71
     0
 42
2.5
  3
amgdt.shx
  4

  0
STYLE
  5
53180
330
52BA7
100
AcDbSymbolTableRecord
100
AcDbTextStyleTableRecord
  2
ACISOGDT
 70
     0
 40
0.0
 41
1.0
 50
0.0
 71
     0
 42
2.5
  3
amgdt.shx
  4

  0
STYLE
  5
53181
330
52BA7
100
AcDbSymbolTableRecord
100
AcDbTextStyleTableRecord
  2
Abode ISO Bold
 70
     0
 40
17.0
 41
0.9
 50
0.0
 71
     0
 42
1.0
  3
GOTHICB.TTF
  4

1001
ACAD
1000
Century Gothic
1071
 33554466
  0
ENDTAB
  0
TABLE
  2
VIEW
  5
52BAA
330
0
100
AcDbSymbolTable
 70
     0
  0
ENDTAB
  0
TABLE
  2
UCS
  5
52BAB
330
0
100
AcDbSymbolTable
 70
     0
  0
ENDTAB
  0
TABLE
  2
APPID
  5
52BAD
330
0
100
AcDbSymbolTable
 70
    23
  0
APPID
  5
52C02
330
52BAD
100
AcDbSymbolTableRecord
100
AcDbRegAppTableRecord
  2
ACAD
 70
     0
  0
APPID
  5
52C09
330
52BAD
100
AcDbSymbolTableRecord
100
AcDbRegAppTableRecord
  2
ACADANNOTATIVE
 70
     0
  0
APPID
  5
52C13
330
52BAD
100
AcDbSymbolTableRecord
100
AcDbRegAppTableRecord
  2
ACAD_MLEADERVER
 70
     0
  0
APPID
  5
52C25
330
52BAD
100
AcDbSymbolTableRecord
100
AcDbRegAppTableRecord
  2
MCAD_NO_VIS
 70
     0
  0
APPID
  5
52C26
330
52BAD
100
AcDbSymbolTableRecord
100
AcDbRegAppTableRecord
  2
ACAD_TEMP_GRAPHIC
 70
     0
  0
APPID
  5
52C27
330
52BAD
100
AcDbSymbolTableRecord
100
AcDbRegAppTableRecord
  2
AD_DRAW
 70
     0
  0
APPID
  5
52C28
330
52BAD
100
AcDbSymbolTableRecord
100
AcDbRegAppTableRecord
  2
ACATTRIBSERVICES
 70
     0
  0
APPID
  5
52C29
330
52BAD
100
AcDbSymbolTableRecord
100
AcDbRegAppTableRecord
  2
DESIGNERASSEMBLIES
 70
     0
  0
APPID
  5
52C2A
330
52BAD
100
AcDbSymbolTableRecord
100
AcDbRegAppTableRecord
  2
ACADM_DIM_EDIT
 70
     0
  0
APPID
  5
52C2B
330
52BAD
100
AcDbSymbolTableRecord
100
AcDbRegAppTableRecord
  2
AMDT_DM_ADJ
 70
     0
  0
APPID
  5
52C2C
330
52BAD
100
AcDbSymbolTableRecord
100
AcDbRegAppTableRecord
  2
ACAD_DSTYLE_DIMJOGGED_JOGA
 70
     0
  0
APPID
  5
52C2D
330
52BAD
100
AcDbSymbolTableRecord
100
AcDbRegAppTableRecord
  2
ACAECLAYERSTANDARD
 70
     0
  0
APPID
  5
52C2E
330
52BAD
100
AcDbSymbolTableRecord
100
AcDbRegAppTableRecord
  2
ACAD_PSEXT
 70
     0
  0
APPID
  5
52C2F
330
52BAD
100
AcDbSymbolTableRecord
100
AcDbRegAppTableRecord
  2
ACAD_DSTYLE_DIMJAG
 70
     0
  0
APPID
  5
52C30
330
52BAD
100
AcDbSymbolTableRecord
100
AcDbRegAppTableRecord
  2
ACAD_DSTYLE_DIMTALN
 70
     0
  0
APPID
  5
52C31
330
52BAD
100
AcDbSymbolTableRecord
100
AcDbRegAppTableRecord
  2
GENIUS_GENODEF_13
 70
     0
  0
APPID
  5
52C32
330
52BAD
100
AcDbSymbolTableRecord
100
AcDbRegAppTableRecord
  2
ACAD_DSTYLE_DIMINSPECT
 70
     0
  0
APPID
  5
52C33
330
52BAD
100
AcDbSymbolTableRecord
100
AcDbRegAppTableRecord
  2
GENIUS_GENREC_14
 70
     0
  0
APPID
  5
52C34
330
52BAD
100
AcDbSymbolTableRecord
100
AcDbRegAppTableRecord
  2
GENIUS_GENOBJ-N-REC_13
 70
     0
  0
APPID
  5
52C35
330
52BAD
100
AcDbSymbolTableRecord
100
AcDbRegAppTableRecord
  2
ACAD_DSTYLE_DIMRADIAL_EXTENSION
 70
     0
  0
APPID
  5
52C36
330
52BAD
100
AcDbSymbolTableRecord
100
AcDbRegAppTableRecord
  2
ACAD_DSTYLE_DIMBREAK
 70
     0
  0
APPID
  5
52C5D
330
52BAD
100
AcDbSymbolTableRecord
100
AcDbRegAppTableRecord
  2
ACAD_EXEMPT_FROM_CAD_STANDARDS
 70
     0
  0
APPID
  5
53185
330
52BAD
100
AcDbSymbolTableRecord
100
AcDbRegAppTableRecord
  2
ACAD_DSTYLE_DIMJOGGED_JOGANGLE_SYMBOL
 70
     0
  0
ENDTAB
  0
TABLE
  2
DIMSTYLE
  5
52BAE
330
0
100
AcDbSymbolTable
 70
    19
100
AcDbDimStyleTable
 71
     1
340
5312A
  0
DIMSTYLE
105
52C03
330
52BAE
100
AcDbSymbolTableRecord
100
AcDbDimStyleTableRecord
  2
STANDARD
 70
     0
271
     2
272
     2
279
     2
284
     8
285
     8
286
     8
340
52C01
  0
DIMSTYLE
105
52C37
330
52BAE
100
AcDbSymbolTableRecord
100
AcDbDimStyleTableRecord
  2
AM_ISO
 70
     0
  4
"
 41
3.5
 42
1.0
 43
10.0
 44
1.0
 47
0.1
 48
0.1
 73
     0
 74
     0
 77
     1
 78
     8
140
3.5
141
0.0
143
0.0393701
146
0.71
147
1.5
172
     1
176
   256
177
   256
178
     2
271
     2
272
     2
279
     2
284
     8
285
     8
286
     8
340
52C01
  0
DIMSTYLE
105
52CA0
330
52BAE
100
AcDbSymbolTableRecord
100
AcDbDimStyleTableRecord
  2
abode-iso
 70
     0
 40
10.0
 41
1.25
 42
1.5
 43
6.0
 44
0.0
 45
0.00000001
 46
10.0
 77
     1
 78
    12
 79
     3
140
17.0
143
0.03937
147
0.75
171
     3
172
     1
176
   256
177
   256
178
   256
271
     0
272
     0
274
     3
340
52C24
342
52C3E
371
    25
372
    25
1001
ACAD_DSTYLE_DIMJAG
1070
   388
1040
1.5
1001
ACAD_DSTYLE_DIMTALN
1070
   392
1070
     0
  0
DIMSTYLE
105
52CA1
102
{ACAD_REACTORS
330
5338B
330
5338C
102
}
330
52BAE
100
AcDbSymbolTableRecord
100
AcDbDimStyleTableRecord
  2
abode-iso$4
 70
     0
 40
10.0
 41
1.25
 42
1.5
 43
6.0
 44
0.0
 45
0.00000001
 46
10.0
 77
     1
 78
    12
 79
     3
140
17.0
143
0.03937
147
0.75
171
     3
172
     1
176
   256
177
   256
178
   256
271
     0
272
     0
274
     3
340
52C24
342
52C3E
371
    25
372
    25
1001
ACAD_DSTYLE_DIMBREAK
1070
   391
1040
3.75
1001
ACAD_DSTYLE_DIMJAG
1070
   388
1040
1.5
1001
ACAD_DSTYLE_DIMTALN
1070
   392
1070
     0
  0
DIMSTYLE
105
52CA2
102
{ACAD_REACTORS
330
53385
330
53388
102
}
330
52BAE
100
AcDbSymbolTableRecord
100
AcDbDimStyleTableRecord
  2
abode-iso$0
 70
     0
 40
10.0
 41
1.25
 42
1.5
 43
6.0
 44
0.0
 45
0.00000001
 46
10.0
 77
     1
 78
    12
 79
     3
140
17.0
143
0.03937
147
0.75
171
     3
172
     1
176
   256
177
   256
178
   256
271
     0
272
     0
274
     3
340
52C24
342
52C3E
371
    25
372
    25
1001
ACAD_DSTYLE_DIMJAG
1070
   388
1040
1.5
1001
ACAD_DSTYLE_DIMTALN
1070
   392
1070
     0
  0
DIMSTYLE
105
5312A
102
{ACAD_REACTORS
330
5311A
102
}
330
52BAE
100
AcDbSymbolTableRecord
100
AcDbDimStyleTableRecord
  2
AM_ANSI
 70
     0
  4
mm
 41
0.12
 42
0.05
 43
0.5
 44
0.1
 47
0.1
 48
0.1
 78
     7
 79
     2
 90
     1
140
0.12
141
0.0
146
0.71
147
0.06
176
   256
177
   256
178
   140
274
     4
284
     7
340
52C01
345
52C06
346
52C06
347
52C06
371
    -1
372
    -1
  0
DIMSTYLE
105
53138
330
52BAE
100
AcDbSymbolTableRecord
100
AcDbDimStyleTableRecord
  2
AM_ANSI$3
 70
     0
  4
mm
 41
0.12
 42
0.05
 43
0.5
 44
0.1
 47
0.1
 48
0.1
 78
     7
 79
     2
 90
     1
140
0.12
141
0.0
146
0.71
147
0.06
176
   256
177
   256
178
   140
274
     4
284
     7
288
     1
289
     0
340
52C01
345
52C06
346
52C06
347
52C06
371
    -1
372
    -1
  0
DIMSTYLE
105
53139
330
52BAE
100
AcDbSymbolTableRecord
100
AcDbDimStyleTableRecord
  2
AM_ANSI$4
 70
     0
  4
mm
 41
0.12
 42
0.05
 43
0.5
 44
0.1
 47
0.1
 48
0.1
 78
     7
 79
     2
 90
     1
140
0.12
141
0.0
146
0.71
147
0.06
176
   256
177
   256
178
   140
274
     4
284
     7
340
52C01
345
52C06
346
52C06
347
52C06
371
    -1
372
    -1
  0
DIMSTYLE
105
5313A
330
52BAE
100
AcDbSymbolTableRecord
100
AcDbDimStyleTableRecord
  2
AM_ANSI$7
 70
     0
  4
mm
 41
0.12
 42
0.05
 43
0.5
 44
0.1
 47
0.1
 48
0.1
 78
     7
 79
     2
 90
     1
140
0.12
141
0.0
146
0.71
147
0.06
176
   256
177
   256
178
   140
274
     4
284
     7
340
52C01
345
52C06
346
52C06
347
52C06
371
    -1
372
    -1
  0
DIMSTYLE
105
5313B
330
52BAE
100
AcDbSymbolTableRecord
100
AcDbDimStyleTableRecord
  2
AM_ANSI$SF
 70
     0
  4
mm
 41
0.12
 42
0.05
 43
0.5
 44
0.1
 47
0.1
 48
0.1
 75
     1
 76
     1
 78
     7
 79
     2
 90
     1
140
0.12
141
0.0
146
0.71
147
0.06
176
   256
177
   256
178
   140
274
     4
284
     7
340
52C01
345
52C06
346
52C06
347
52C06
371
    -1
372
    -1
  0
DIMSTYLE
105
53140
330
52BAE
100
AcDbSymbolTableRecord
100
AcDbDimStyleTableRecord
  2
AM_ANSI$SH
 70
     0
  4
mm
 41
0.12
 42
0.05
 43
0.5
 44
0.1
 47
0.1
 48
0.1
 75
     1
 76
     1
 78
     7
 79
     2
 90
     1
140
0.12
141
0.0
146
0.71
147
0.06
173
     1
176
   256
177
   256
178
   140
274
     4
284
     7
340
52C01
343
5313C
345
52C06
346
52C06
347
52C06
371
    -1
372
    -1
  0
DIMSTYLE
105
53182
330
52BAE
100
AcDbSymbolTableRecord
100
AcDbDimStyleTableRecord
  2
abode-iso$7
 70
     0
 40
10.0
 41
2.5
 42
1.5
 43
6.0
 44
3.174999999999999
 45
0.00000001
 46
10.0
 70
   256
 77
     1
 78
    12
 79
     3
140
2.5
143
0.03937
146
1.399999999999999
147
0.762
171
     3
172
     1
176
     7
177
   256
178
   256
271
     0
272
     0
274
     3
340
52C24
371
    25
372
    25
1001
ACAD_DSTYLE_DIMBREAK
1070
   391
1040
3.75
1001
ACAD_DSTYLE_DIMJAG
1070
   388
1040
1.5
1001
ACAD_DSTYLE_DIMTALN
1070
   392
1070
     0
  0
DIMSTYLE
105
53183
330
52BAE
100
AcDbSymbolTableRecord
100
AcDbDimStyleTableRecord
  2
abode-iso$2
 70
     0
 40
10.0
 41
1.25
 42
1.5
 43
6.0
 44
0.0
 45
0.00000001
 46
10.0
 70
   256
 77
     1
 78
    12
 79
     3
140
17.0
143
0.03937
147
0.75
171
     3
172
     1
176
   256
177
   256
178
   256
271
     0
272
     0
274
     3
340
52C24
342
52C3E
371
    25
372
    25
1001
ACAD_DSTYLE_DIMJAG
1070
   388
1040
1.5
1001
ACAD_DSTYLE_DIMTALN
1070
   392
1070
     0
  0
DIMSTYLE
105
53184
330
52BAE
100
AcDbSymbolTableRecord
100
AcDbDimStyleTableRecord
  2
abode-iso$3
 70
     0
 40
10.0
 41
1.25
 42
1.5
 43
6.0
 44
0.0
 45
0.00000001
 46
10.0
 70
   256
 77
     1
 78
    12
 79
     3
140
17.0
143
0.03937
147
0.75
171
     3
172
     1
176
   256
177
   256
178
   256
271
     0
272
     0
274
     3
340
52C24
342
52C3E
371
    25
372
    25
1001
ACAD_DSTYLE_DIMJAG
1070
   388
1040
1.5
1001
ACAD_DSTYLE_DIMTALN
1070
   392
1070
     0
  0
ENDTAB
  0
TABLE
  2
BLOCK_RECORD
  5
52BA5
330
0
100
AcDbSymbolTable
 70
    67
  0
BLOCK_RECORD
  5
52C18
330
52BA5
100
AcDbSymbolTableRecord
100
AcDbBlockTableRecord
  2
*Model_Space
340
52C1B
 70
     0
280
     1
281
     0
  0
BLOCK_RECORD
  5
52C14
330
52BA5
100
AcDbSymbolTableRecord
100
AcDbBlockTableRecord
  2
*Paper_Space
340
52C17
 70
     0
280
     1
281
     0
  0
BLOCK_RECORD
  5
52C3E
330
52BA5
100
AcDbSymbolTableRecord
100
AcDbBlockTableRecord
  2
FILLED-1
340
0
102
{BLKREFS
331
4EFF2
331
4EFF3
331
4EFFE
331
4EFFF
331
4F00B
331
4F016
331
4F017
331
4F022
331
4F023
331
52C65
331
52C66
331
52C71
331
52C72
331
52C7E
331
52C89
331
52C8A
331
52C95
331
52C96
331
52D70
331
52D71
331
52D7A
331
52D7B
331
52D83
331
52D84
331
52D95
331
52D96
331
52D9F
331
52DD9
331
52DDA
331
52DE7
331
52DE8
331
52DF3
331
52DF4
331
52E00
331
52E01
331
52E0D
331
52EA0
331
52EA1
331
52EA9
331
52EAA
331
52EB3
331
52EBB
331
52EBC
331
52EC4
331
52EC5
331
52EF7
331
52F01
331
52F02
331
52F0D
331
52F0E
331
52F19
331
52F1A
331
52F27
331
52F28
331
52F33
331
52F34
331
52F41
331
52F42
331
52F4D
331
52F4E
331
52F5A
331
52F5B
331
52F67
331
53006
331
53010
331
53011
331
5301C
331
5301D
331
53028
331
53029
331
53036
331
53037
331
53074
331
53075
331
5307D
331
5307E
331
53087
331
5308F
331
53090
331
53098
331
53099
331
53160
331
53161
331
5316C
331
53176
331
53153
331
53154
331
533BC
331
533BD
331
533C6
331
533C7
331
533CF
331
533D6
102
}
 70
     0
280
     1
281
     0
  0
BLOCK_RECORD
  5
52C58
330
52BA5
100
AcDbSymbolTableRecord
100
AcDbBlockTableRecord
  2
*U15
340
0
102
{BLKREFS
331
4EFE9
102
}
 70
     0
280
     1
281
     0
  0
BLOCK_RECORD
  5
5313C
330
52BA5
100
AcDbSymbolTableRecord
100
AcDbBlockTableRecord
  2
GENAXEH
340
0
 70
     0
280
     1
281
     0
  0
BLOCK_RECORD
  5
5338D
330
52BA5
100
AcDbSymbolTableRecord
100
AcDbBlockTableRecord
  2
*D63
340
0
 70
     0
280
     1
281
     0
  0
BLOCK_RECORD
  5
53399
330
52BA5
100
AcDbSymbolTableRecord
100
AcDbBlockTableRecord
  2
*D64
340
0
 70
     0
280
     1
281
     0
  0
BLOCK_RECORD
  5
533A6
330
52BA5
100
AcDbSymbolTableRecord
100
AcDbBlockTableRecord
  2
*D65
340
0
 70
     0
280
     1
281
     0
  0
BLOCK_RECORD
  5
533B0
330
52BA5
100
AcDbSymbolTableRecord
100
AcDbBlockTableRecord
  2
*D66
340
0
 70
     0
280
     1
281
     0
  0
ENDTAB
  0
ENDSEC
  0
SECTION
  2
BLOCKS
  0
BLOCK
  5
52C19
330
52C18
100
AcDbEntity
  8
0
100
AcDbBlockBegin
  2
*Model_Space
 70
     0
 10
0.0
 20
0.0
 30
0.0
  3
*Model_Space
  1

  0
ENDBLK
  5
52C1A
330
52C18
100
AcDbEntity
  8
0
100
AcDbBlockEnd
  0
BLOCK
  5
52C15
330
52C14
100
AcDbEntity
 67
     1
  8
0
100
AcDbBlockBegin
  2
*Paper_Space
 70
     0
 10
0.0
 20
0.0
 30
0.0
  3
*Paper_Space
  1

  0
ENDBLK
  5
52C16
330
52C14
100
AcDbEntity
 67
     1
  8
0
100
AcDbBlockEnd
  0
BLOCK
  5
52C3F
330
52C3E
100
AcDbEntity
  8
0
100
AcDbBlockBegin
  2
FILLED-1
 70
     0
 10
0.0
 20
0.0
 30
0.0
  3
FILLED-1
  1

  0
LINE
  5
13A
330
52C3E
100
AcDbEntity
  8
0
 62
     0
100
AcDbLine
 10
-1.0
 20
0.0
 30
0.0
 11
0.0
 21
0.0
 31
0.0
  0
LWPOLYLINE
  5
13B
330
52C3E
100
AcDbEntity
  8
0
 62
     0
100
AcDbPolyline
 90
        4
 70
   128
 43
0.0
 10
-1.0
 20
-0.3333333333333333
 10
0.0
 20
0.0
 10
-1.0
 20
0.3333333333333333
 10
-1.0
 20
-0.3333333333333333
  0
SOLID
  5
141
330
52C3E
100
AcDbEntity
  8
0
 62
     0
100
AcDbTrace
 10
-1.0
 20
-0.3333333333333333
 30
0.0
 11
0.0
 21
0.0
 31
0.0
 12
-1.0
 22
0.3333333333333333
 32
0.0
 13
-1.0
 23
-0.3333333333333333
 33
0.0
  0
LINE
  5
142
330
52C3E
100
AcDbEntity
  8
0
 62
     0
100
AcDbLine
 10
-1.0
 20
-0.3333333333333333
 30
0.0
 11
0.0
 21
0.0
 31
0.0
  0
LINE
  5
143
330
52C3E
100
AcDbEntity
  8
0
 62
     0
100
AcDbLine
 10
0.0
 20
0.0
 30
0.0
 11
-1.0
 21
0.3333333333333333
 31
0.0
  0
LINE
  5
144
330
52C3E
100
AcDbEntity
  8
0
 62
     0
100
AcDbLine
 10
-1.0
 20
0.3333333333333333
 30
0.0
 11
-1.0
 21
-0.3333333333333333
 31
0.0
  0
ENDBLK
  5
145
330
52C3E
100
AcDbEntity
  8
0
100
AcDbBlockEnd
  0
BLOCK
  5
52C59
330
52C58
100
AcDbEntity
  8
0
100
AcDbBlockBegin
  2
*U15
 70
     1
 10
0.0
 20
0.0
 30
0.0
  3
*U15
  1

  0
TEXT
  5
51B8B
330
52C58
100
AcDbEntity
  8
0
 62
     1
100
AcDbText
 10
29068.05134894387
 20
25957.69496399888
 30
0.0
 40
8.0
  1
All details are provided in good faith and
  7
ACISOTS
100
AcDbText
  0
TEXT
  5
51B8C
330
52C58
100
AcDbEntity
  8
0
 62
     1
100
AcDbText
 10
29049.60334894387
 20
25944.36163066555
 30
0.0
 40
8.0
  1
within
  7
ACISOTS
100
AcDbText
  0
TEXT
  5
51B8D
330
52C58
100
AcDbEntity
  8
0
 62
     1
100
AcDbText
 10
29085.57434894387
 20
25931.02829733222
 30
0.0
 40
8.0
  1
the tolerances of the manufacturing process.
  7
ACISOTS
100
AcDbText
  0
TEXT
  5
51B8E
330
52C58
100
AcDbEntity
  8
0
 62
     1
100
AcDbText
 10
29050.90814894387
 20
25917.69496399888
 30
0.0
 40
8.0
  1
Note: the dimensions on ceramic fireclay
  7
ACISOTS
100
AcDbText
  0
TEXT
  5
51B8F
330
52C58
100
AcDbEntity
  8
0
 62
     1
100
AcDbText
 10
29049.60334894387
 20
25904.36163066556
 30
0.0
 40
8.0
  1
products
  7
ACISOTS
100
AcDbText
  0
TEXT
  5
51B90
330
52C58
100
AcDbEntity
  8
0
 62
     1
100
AcDbText
 10
29052.43194894387
 20
25891.02829733223
 30
0.0
 40
8.0
  1
are subject to wider tolerances due to the
  7
ACISOTS
100
AcDbText
  0
TEXT
  5
51B91
330
52C58
100
AcDbEntity
  8
0
 62
     1
100
AcDbText
 10
29049.60334894387
 20
25877.69496399888
 30
0.0
 40
8.0
  1
nature
  7
ACISOTS
100
AcDbText
  0
TEXT
  5
51B92
330
52C58
100
AcDbEntity
  8
0
 62
     1
100
AcDbText
 10
29074.14634894387
 20
25864.36163066556
 30
0.0
 40
8.0
  1
of this natural material and the firing
  7
ACISOTS
100
AcDbText
  0
TEXT
  5
51B93
330
52C58
100
AcDbEntity
  8
0
 62
     1
100
AcDbText
 10
29049.60334894387
 20
25851.02829733223
 30
0.0
 40
8.0
  1
process.
  7
ACISOTS
100
AcDbText
  0
TEXT
  5
51B94
330
52C58
100
AcDbEntity
  8
0
 62
     1
100
AcDbText
 10
29079.09834894386
 20
25824.36163066557
 30
0.0
 40
8.0
  1
We recommend that a test cutout is made in
  7
ACISOTS
100
AcDbText
  0
TEXT
  5
51B95
330
52C58
100
AcDbEntity
  8
0
 62
     1
100
AcDbText
 10
29054.71764894387
 20
25811.02829733223
 30
0.0
 40
8.0
  1
scrap timber and checked against the actual
  7
ACISOTS
100
AcDbText
  0
TEXT
  5
51B96
330
52C58
100
AcDbEntity
  8
0
 62
     1
100
AcDbText
 10
29049.60334894387
 20
25797.6949639989
 30
0.0
 40
8.0
  1
sink
  7
ACISOTS
100
AcDbText
  0
TEXT
  5
51B97
330
52C58
100
AcDbEntity
  8
0
 62
     1
100
AcDbText
 10
29105.76534894387
 20
25784.36163066557
 30
0.0
 40
8.0
  1
supplied before committing to cutting
  7
ACISOTS
100
AcDbText
  0
TEXT
  5
51B98
330
52C58
100
AcDbEntity
  8
0
 62
     1
100
AcDbText
 10
29049.60334894387
 20
25771.02829733223
 30
0.0
 40
8.0
  1
the
  7
ACISOTS
100
AcDbText
  0
TEXT
  5
51B99
330
52C58
100
AcDbEntity
  8
0
 62
     1
100
AcDbText
 10
29296.24334894387
 20
25757.6949639989
 30
0.0
 40
8.0
  1
worksurface.
  7
ACISOTS
100
AcDbText
  0
TEXT
  5
51B9A
330
52C58
100
AcDbEntity
  8
0
 62
     1
100
AcDbText
 10
29076.43234894387
 20
25731.02829733224
 30
0.0
 40
8.0
  1
Abode can not accept liability for problems
  7
ACISOTS
100
AcDbText
  0
TEXT
  5
51B9B
330
52C58
100
AcDbEntity
  8
0
 62
     1
100
AcDbText
 10
29049.60334894387
 20
25717.69496399891
 30
0.0
 40
8.0
  1
or
  7
ACISOTS
100
AcDbText
  0
TEXT
  5
51B9C
330
52C58
100
AcDbEntity
  8
0
 62
     1
100
AcDbText
 10
29080.62234894387
 20
25704.36163066557
 30
0.0
 40
8.0
  1
costs incurred by failure to follow this advise,
  7
ACISOTS
100
AcDbText
  0
TEXT
  5
51B9D
330
52C58
100
AcDbEntity
  8
0
 62
     1
100
AcDbText
 10
29073.38434894387
 20
25691.02829733224
 30
0.0
 40
8.0
  1
dimensions weights & measures are subject
  7
ACISOTS
100
AcDbText
  0
TEXT
  5
51B9E
330
52C58
100
AcDbEntity
  8
0
 62
     1
100
AcDbText
 10
29049.60334894387
 20
25677.69496399891
 30
0.0
 40
8.0
  1
to
  7
ACISOTS
100
AcDbText
  0
TEXT
  5
51B9F
330
52C58
100
AcDbEntity
  8
0
 62
     1
100
AcDbText
 10
29056.62234894387
 20
25664.36163066557
 30
0.0
 40
8.0
  1
change without prior notice. Errors and omissions
  7
ACISOTS
100
AcDbText
  0
TEXT
  5
51BA0
330
52C58
100
AcDbEntity
  8
0
 62
     1
100
AcDbText
 10
29317.19334894387
 20
25651.02829733225
 30
0.0
 40
8.0
  1
excepted
  7
ACISOTS
100
AcDbText
  0
ENDBLK
  5
51BA2
330
52C58
100
AcDbEntity
  8
0
100
AcDbBlockEnd
  0
BLOCK
  5
5313E
330
5313C
100
AcDbEntity
  8
0
100
AcDbBlockBegin
  2
GENAXEH
 70
     0
 10
0.0
 20
0.0
 30
0.0
  3
GENAXEH
  1

  0
LINE
  5
5313D
330
5313C
100
AcDbEntity
  8
0
100
AcDbLine
 10
-1.0
 20
0.0
 30
0.0
 11
1.0
 21
0.0
 31
0.0
  0
ENDBLK
  5
5313F
330
5313C
100
AcDbEntity
  8
0
100
AcDbBlockEnd
  0
BLOCK
  5
5338E
330
5338D
100
AcDbEntity
  8
0
100
AcDbBlockBegin
  2
*D63
 70
     1
 10
0.0
 20
0.0
 30
0.0
  3
*D63
  1

  0
LINE
  5
533B9
330
5338D
100
AcDbEntity
  8
DIMS SPECS
100
AcDbLine
 10
29696.71071178898
 20
25597.89919878321
 30
0.0
 11
29696.71071178898
 21
25531.05858354164
 31
0.0
  0
LINE
  5
533BA
330
5338D
100
AcDbEntity
  8
DIMS SPECS
100
AcDbLine
 10
30244.70426179545
 20
25597.89919878321
 30
0.0
 11
30244.70426179545
 21
25531.05858354164
 31
0.0
  0
LINE
  5
533BB
330
5338D
100
AcDbEntity
  8
DIMS SPECS
100
AcDbLine
 10
29709.21071178898
 20
25531.05858354164
 30
0.0
 11
30232.20426179545
 21
25531.05858354164
 31
0.0
  0
INSERT
  5
533BC
330
5338D
100
AcDbEntity
  8
DIMS SPECS
100
AcDbBlockReference
  2
FILLED-1
 10
29696.71071178898
 20
25531.05858354164
 30
0.0
 41
12.5
 42
12.5
 43
12.5
 50
180.0
  0
INSERT
  5
533BD
330
5338D
100
AcDbEntity
  8
DIMS SPECS
100
AcDbBlockReference
  2
FILLED-1
 10
30244.70426179545
 20
25531.05858354164
 30
0.0
 41
12.5
 42
12.5
 43
12.5
  0
MTEXT
  5
533BE
330
5338D
100
AcDbEntity
  8
DIMS SPECS
100
AcDbMText
 10
29970.70748679222
 20
25547.48618381356
 30
0.0
 40
17.0
 41
0.0
 46
0.0
 71
     5
 72
     1
  1
\A1;548
  7
Abode ISO Bold
 73
     1
 44
1.0
  0
POINT
  5
533BF
330
5338D
100
AcDbEntity
  8
DEFPOINTS
 62
     0
100
AcDbPoint
 10
29696.71071178898
 20
25612.89919878321
 30
0.0
  0
POINT
  5
533C0
330
5338D
100
AcDbEntity
  8
DEFPOINTS
 62
     0
100
AcDbPoint
 10
30244.70426179545
 20
25612.89919878321
 30
0.0
  0
POINT
  5
533C1
330
5338D
100
AcDbEntity
  8
DEFPOINTS
 62
     0
100
AcDbPoint
 10
30244.70426179545
 20
25531.05858354164
 30
0.0
  0
ENDBLK
  5
5338F
330
5338D
100
AcDbEntity
  8
0
100
AcDbBlockEnd
  0
BLOCK
  5
5339A
330
53399
100
AcDbEntity
  8
0
100
AcDbBlockBegin
  2
*D64
 70
     1
 10
0.0
 20
0.0
 30
0.0
  3
*D64
  1

  0
LINE
  5
533C2
330
53399
100
AcDbEntity
  8
DIMS SPECS
100
AcDbLine
 10
29768.71071178898
 20
26010.93654206462
 30
0.0
 11
29776.54332100815
 21
26010.93654206462
 31
0.0
  0
LINE
  5
533C3
330
53399
100
AcDbEntity
  8
DIMS SPECS
100
AcDbLine
 10
29701.71071178898
 20
25602.89919878321
 30
0.0
 11
29776.54332100815
 21
25602.89919878321
 31
0.0
  0
LINE
  5
533C4
330
53399
100
AcDbEntity
  8
DIMS SPECS
100
AcDbLine
 10
29776.54332100815
 20
25998.43654206462
 30
0.0
 11
29776.54332100815
 21
25823.34547069584
 31
0.0
  0
LINE
  5
533C5
330
53399
100
AcDbEntity
  8
DIMS SPECS
100
AcDbLine
 10
29776.54332100815
 20
25615.39919878321
 30
0.0
 11
29776.54332100815
 21
25790.49027015199
 31
0.0
  0
INSERT
  5
533C6
330
53399
100
AcDbEntity
  8
DIMS SPECS
100
AcDbBlockReference
  2
FILLED-1
 10
29776.54332100815
 20
26010.93654206462
 30
0.0
 41
12.5
 42
12.5
 43
12.5
 50
90.0
  0
INSERT
  5
533C7
330
53399
100
AcDbEntity
  8
DIMS SPECS
100
AcDbBlockReference
  2
FILLED-1
 10
29776.54332100815
 20
25602.89919878321
 30
0.0
 41
12.5
 42
12.5
 43
12.5
 50
270.0
  0
MTEXT
  5
533C8
330
53399
100
AcDbEntity
  8
DIMS SPECS
100
AcDbMText
 10
29776.54332100815
 20
25806.91787042392
 30
0.0
 40
17.0
 41
0.0
 46
0.0
 71
     5
 72
     1
  1
\A1;408
  7
Abode ISO Bold
 73
     1
 44
1.0
  0
POINT
  5
533C9
330
53399
100
AcDbEntity
  8
DEFPOINTS
 62
     0
100
AcDbPoint
 10
29753.71071178898
 20
26010.93654206462
 30
0.0
  0
POINT
  5
533CA
330
53399
100
AcDbEntity
  8
DEFPOINTS
 62
     0
100
AcDbPoint
 10
29686.71071178898
 20
25602.89919878321
 30
0.0
  0
POINT
  5
533CB
330
53399
100
AcDbEntity
  8
DEFPOINTS
 62
     0
100
AcDbPoint
 10
29776.54332100815
 20
25602.89919878321
 30
0.0
  0
ENDBLK
  5
5339B
330
53399
100
AcDbEntity
  8
0
100
AcDbBlockEnd
  0
BLOCK
  5
533A7
330
533A6
100
AcDbEntity
  8
0
100
AcDbBlockBegin
  2
*D65
 70
     1
 10
0.0
 20
0.0
 30
0.0
  3
*D65
  1

  0
LINE
  5
533CC
330
533A6
100
AcDbEntity
  8
DIMS SPECS
100
AcDbLine
 10
29710.89841486028
 20
25944.20374705248
 30
0.0
 11
29764.55633464276
 21
25944.20374705248
 31
0.0
  0
LINE
  5
533CD
330
533A6
100
AcDbEntity
  8
DIMS SPECS
100
AcDbLine
 10
29764.55633464276
 20
25944.20374705248
 30
0.0
 11
29786.83018600044
 21
25924.21533031348
 31
0.0
  0
MTEXT
  5
533CE
330
533A6
100
AcDbEntity
  8
DIMS SPECS
100
AcDbMText
 10
29727.72737475151
 20
25960.41754718844
 30
0.0
 40
17.0
 41
0.0
 46
0.0
 71
     5
 72
     1
  1
\A1;R57
  7
Abode ISO Bold
 73
     1
 44
1.0
  0
INSERT
  5
533CF
330
533A6
100
AcDbEntity
  8
DIMS SPECS
100
AcDbBlockReference
  2
FILLED-1
 10
29796.13340909355
 20
25915.86667532721
 30
0.0
 41
12.5
 42
12.5
 43
12.5
 50
318.0953931928982
  0
ARC
  5
533D0
330
533A6
100
AcDbEntity
  8
DIMS SPECS
100
AcDbCircle
 10
29753.71071178898
 20
25953.93654206462
 30
0.0
 40
57.00000000000364
100
AcDbArc
 50
318.0953931929009
 51
74.92216328603196
  0
POINT
  5
533D1
330
533A6
100
AcDbEntity
  8
DEFPOINTS
 62
     0
100
AcDbPoint
 10
29796.13340909355
 20
25915.86667532721
 30
0.0
  0
POINT
  5
533D2
330
533A6
100
AcDbEntity
  8
DEFPOINTS
 62
     0
100
AcDbPoint
 10
29753.71071178898
 20
25953.93654206462
 30
0.0
  0
ENDBLK
  5
533A8
330
533A6
100
AcDbEntity
  8
0
100
AcDbBlockEnd
  0
BLOCK
  5
533B1
330
533B0
100
AcDbEntity
  8
0
100
AcDbBlockBegin
  2
*D66
 70
     1
 10
0.0
 20
0.0
 30
0.0
  3
*D66
  1

  0
LINE
  5
533D3
330
533B0
100
AcDbEntity
  8
DIMS SPECS
100
AcDbLine
 10
29607.25923368082
 20
25644.09027300664
 30
0.0
 11
29648.55236760343
 21
25644.09027300663
 31
0.0
  0
LINE
  5
533D4
330
533B0
100
AcDbEntity
  8
DIMS SPECS
100
AcDbLine
 10
29648.55236760343
 20
25644.09027300663
 30
0.0
 11
29684.77508810778
 21
25614.4814000867
 31
0.0
  0
MTEXT
  5
533D5
330
533B0
100
AcDbEntity
  8
DIMS SPECS
100
AcDbMText
 10
29624.09859465975
 20
25660.51787327856
 30
0.0
 40
17.0
 41
0.0
 46
0.0
 71
     5
 72
     1
  1
\A1;R10
  7
Abode ISO Bold
 73
     1
 44
1.0
  0
INSERT
  5
533D6
330
533B0
100
AcDbEntity
  8
DIMS SPECS
100
AcDbBlockReference
  2
FILLED-1
 10
29694.45320651382
 20
25606.57039356928
 30
0.0
 41
12.5
 42
12.5
 43
12.5
 50
320.737036630777
  0
POINT
  5
533D7
330
533B0
100
AcDbEntity
  8
DEFPOINTS
 62
     0
100
AcDbPoint
 10
29694.45320651382
 20
25606.57039356928
 30
0.0
  0
POINT
  5
533D8
330
533B0
100
AcDbEntity
  8
DEFPOINTS
 62
     0
100
AcDbPoint
 10
29686.71071178899
 20
25612.89919878321
 30
0.0
  0
ENDBLK
  5
533B2
330
533B0
100
AcDbEntity
  8
0
100
AcDbBlockEnd
  0
ENDSEC
  0
SECTION
  2
ENTITIES
  0
TEXT
  5
4EFD5
330
52C18
100
AcDbEntity
  8
LAYER1
100
AcDbText
 10
29536.60103082985
 20
26533.84198875161
 30
0.0
 40
150.0
  1
AW1022
100
AcDbText
  0
INSERT
  5
4EFE9
330
52C18
100
AcDbEntity
  8
0
100
AcDbBlockReference
  2
*U15
 10
0.0
 20
0.0
 30
0.0
  0
TEXT
  5
4EFEA
330
52C18
100
AcDbEntity
  8
LAYER1
100
AcDbText
 10
29141.6042719676
 20
25696.20060721863
 30
0.0
 40
30.0
  1
file version 1
100
AcDbText
  0
MTEXT
  5
5329F
102
{ACAD_XDICTIONARY
360
533DB
102
}
330
52C18
100
AcDbEntity
  8
CUTOUT
100
AcDbMText
 10
29699.25144876132
 20
26268.1401538981
 30
0.0
 40
40.0
 41
559.4757407245924
 46
0.0
 71
     1
 72
     5
  1
\pi7.7379;APRON FRONT CUT OUT
 73
     1
 44
1.0
  0
LINE
  5
532A0
330
52C18
100
AcDbEntity
  8
sink_label
  6
DASHED2
 48
5.0
370
     0
100
AcDbLine
 10
29698.19387496672
 20
25579.39628162315
 30
0.0
 11
30243.2210986177
 21
25579.39628162315
 31
0.0
  0
LINE
  5
532A1
330
52C18
100
AcDbEntity
  8
sink_label
  6
DASHED2
 48
5.0
370
     0
100
AcDbLine
 10
29673.20748679221
 20
26009.24142538719
 30
0.0
 11
29673.20748679221
 21
25604.38180819807
 31
0.0
  0
LINE
  5
532A2
330
52C18
100
AcDbEntity
  8
sink_label
  6
DASHED2
 48
5.0
370
     0
100
AcDbLine
 10
30268.20748679222
 20
25604.38180819807
 30
0.0
 11
30268.20748679222
 21
26009.24142538719
 31
0.0
  0
LINE
  5
532A3
330
52C18
100
AcDbEntity
  8
sink_label
  6
DASHED2
 48
5.0
370
     0
100
AcDbLine
 10
30243.2210986177
 20
26034.2278135617
 30
0.0
 11
29698.19387496672
 21
26034.2278135617
 31
0.0
  0
POLYLINE
  5
532A4
330
52C18
100
AcDbEntity
  8
sink_label
  6
DASHED2
 48
5.0
370
     0
100
AcDb2dPolyline
 66
     1
 10
0.0
 20
0.0
 30
0.0
  0
VERTEX
  5
532A5
330
532A4
100
AcDbEntity
  8
sink_label
  6
DASHED2
 48
5.0
370
     0
100
AcDbVertex
100
AcDb2dVertex
 10
30237.92743072307
 20
25954.18779624283
 30
0.0
  0
VERTEX
  5
532A6
330
532A4
100
AcDbEntity
  8
sink_label
  6
DASHED2
 48
5.0
370
     0
100
AcDbVertex
100
AcDb2dVertex
 10
30237.71547722339
 20
25959.05755713808
 30
0.0
  0
VERTEX
  5
532A7
330
532A4
100
AcDbEntity
  8
sink_label
  6
DASHED2
 48
5.0
370
     0
100
AcDbVertex
100
AcDb2dVertex
 10
30237.08047832392
 20
25963.92817963292
 30
0.0
  0
VERTEX
  5
532A8
330
532A4
100
AcDbEntity
  8
sink_label
  6
DASHED2
 48
5.0
370
     0
100
AcDbVertex
100
AcDb2dVertex
 10
30235.81048052498
 20
25968.58598702849
 30
0.0
  0
VERTEX
  5
532A9
330
532A4
100
AcDbEntity
  8
sink_label
  6
DASHED2
 48
5.0
370
     0
100
AcDbVertex
100
AcDb2dVertex
 10
30234.11571412708
 20
25973.24465602365
 30
0.0
  0
VERTEX
  5
532AA
330
532A4
100
AcDbEntity
  8
sink_label
  6
DASHED2
 48
5.0
370
     0
100
AcDbVertex
100
AcDb2dVertex
 10
30231.99876392898
 20
25977.69137151912
 30
0.0
  0
VERTEX
  5
532AB
330
532A4
100
AcDbEntity
  8
sink_label
  6
DASHED2
 48
5.0
370
     0
100
AcDbVertex
100
AcDb2dVertex
 10
30229.6698602312
 20
25981.9261335149
 30
0.0
  0
VERTEX
  5
532AC
330
532A4
100
AcDbEntity
  8
sink_label
  6
DASHED2
 48
5.0
370
     0
100
AcDbVertex
100
AcDb2dVertex
 10
30226.70509603435
 20
25985.94980361059
 30
0.0
  0
VERTEX
  5
532AD
330
532A4
100
AcDbEntity
  8
sink_label
  6
DASHED2
 48
5.0
370
     0
100
AcDbVertex
100
AcDb2dVertex
 10
30223.31728643773
 20
25989.5495667069
 30
0.0
  0
VERTEX
  5
532AE
330
532A4
100
AcDbEntity
  8
sink_label
  6
DASHED2
 48
5.0
370
     0
100
AcDbVertex
100
AcDb2dVertex
 10
30219.71752334141
 20
25992.72542280384
 30
0.0
  0
VERTEX
  5
532AF
330
532A4
100
AcDbEntity
  8
sink_label
  6
DASHED2
 48
5.0
370
     0
100
AcDbVertex
100
AcDb2dVertex
 10
30215.69471484532
 20
25995.69018700068
 30
0.0
  0
VERTEX
  5
532B0
330
532A4
100
AcDbEntity
  8
sink_label
  6
DASHED2
 48
5.0
370
     0
100
AcDbVertex
100
AcDb2dVertex
 10
30211.67104474963
 20
25998.23104419816
 30
0.0
  0
VERTEX
  5
532B1
330
532A4
100
AcDbEntity
  8
sink_label
  6
DASHED2
 48
5.0
370
     0
100
AcDbVertex
100
AcDb2dVertex
 10
30207.22432925416
 20
26000.34799439625
 30
0.0
  0
VERTEX
  5
532B2
330
532A4
100
AcDbEntity
  8
sink_label
  6
DASHED2
 48
5.0
370
     0
100
AcDbVertex
100
AcDb2dVertex
 10
30202.565660259
 20
26002.04276079416
 30
0.0
  0
VERTEX
  5
532B3
330
532A4
100
AcDbEntity
  8
sink_label
  6
DASHED2
 48
5.0
370
     0
100
AcDbVertex
100
AcDb2dVertex
 10
30197.69589936375
 20
26003.10080509341
 30
0.0
  0
VERTEX
  5
532B4
330
532A4
100
AcDbEntity
  8
sink_label
  6
DASHED2
 48
5.0
370
     0
100
AcDbVertex
100
AcDb2dVertex
 10
30192.8261384685
 20
26003.94775749257
 30
0.0
  0
VERTEX
  5
532B5
330
532A4
100
AcDbEntity
  8
sink_label
  6
DASHED2
 48
5.0
370
     0
100
AcDbVertex
100
AcDb2dVertex
 10
30187.95551597365
 20
26004.15971099225
 30
0.0
  0
SEQEND
  5
532B6
330
532A4
100
AcDbEntity
  8
sink_label
  6
DASHED2
 48
5.0
370
     0
  0
LINE
  5
532B7
330
52C18
100
AcDbEntity
  8
sink_label
  6
DASHED2
 48
5.0
370
     0
100
AcDbLine
 10
30253.38538900717
 20
25783.73151771592
 30
0.0
 11
30253.38538900717
 21
25829.89257746893
 31
0.0
  0
POLYLINE
  5
532B8
330
52C18
100
AcDbEntity
  8
sink_label
  6
DASHED2
 48
5.0
370
     0
100
AcDb2dPolyline
 66
     1
 10
0.0
 20
0.0
 30
0.0
  0
VERTEX
  5
532B9
330
532B8
100
AcDbEntity
  8
sink_label
  6
DASHED2
 48
5.0
370
     0
100
AcDbVertex
100
AcDb2dVertex
 10
30237.92743072307
 20
25659.43629894202
 30
0.0
  0
VERTEX
  5
532BA
330
532B8
100
AcDbEntity
  8
sink_label
  6
DASHED2
 48
5.0
370
     0
100
AcDbVertex
100
AcDb2dVertex
 10
30237.92743072307
 20
25675.52925612559
 30
0.0
  0
VERTEX
  5
532BB
330
532B8
100
AcDbEntity
  8
sink_label
  6
DASHED2
 48
5.0
370
     0
100
AcDbVertex
100
AcDb2dVertex
 10
30238.13938422277
 20
25739.4763162609
 30
0.0
  0
VERTEX
  5
532BC
330
532B8
100
AcDbEntity
  8
sink_label
  6
DASHED2
 48
5.0
370
     0
100
AcDbVertex
100
AcDb2dVertex
 10
30238.13938422277
 20
25755.99231884425
 30
0.0
  0
SEQEND
  5
532BD
330
532B8
100
AcDbEntity
  8
sink_label
  6
DASHED2
 48
5.0
370
     0
  0
LINE
  5
532BE
330
52C18
100
AcDbEntity
  8
sink_label
  6
DASHED2
 48
5.0
370
     0
100
AcDbLine
 10
30238.13617340007
 20
25857.8428682407
 30
0.0
 11
30237.92743072307
 21
25954.18779624283
 31
0.0
  0
POLYLINE
  5
532BF
330
52C18
100
AcDbEntity
  8
sink_label
  6
DASHED2
 48
5.0
370
     0
100
AcDb2dPolyline
 66
     1
 10
0.0
 20
0.0
 30
0.0
  0
VERTEX
  5
532C0
330
532BF
100
AcDbEntity
  8
sink_label
  6
DASHED2
 48
5.0
370
     0
100
AcDbVertex
100
AcDb2dVertex
 10
30253.38538900717
 20
25829.89257746893
 30
0.0
  0
VERTEX
  5
532C1
330
532BF
100
AcDbEntity
  8
sink_label
  6
DASHED2
 48
5.0
370
     0
100
AcDbVertex
100
AcDb2dVertex
 10
30252.75039010771
 20
25833.91538596503
 30
0.0
  0
VERTEX
  5
532C2
330
532BF
100
AcDbEntity
  8
sink_label
  6
DASHED2
 48
5.0
370
     0
100
AcDbVertex
100
AcDb2dVertex
 10
30251.26757720949
 20
25837.72710256103
 30
0.0
  0
VERTEX
  5
532C3
330
532BF
100
AcDbEntity
  8
sink_label
  6
DASHED2
 48
5.0
370
     0
100
AcDbVertex
100
AcDb2dVertex
 10
30248.72672001202
 20
25840.90295865797
 30
0.0
  0
VERTEX
  5
532C4
330
532BF
100
AcDbEntity
  8
sink_label
  6
DASHED2
 48
5.0
370
     0
100
AcDbVertex
100
AcDb2dVertex
 10
30245.55086391508
 20
25843.44381585544
 30
0.0
  0
SEQEND
  5
532C5
330
532BF
100
AcDbEntity
  8
sink_label
  6
DASHED2
 48
5.0
370
     0
  0
POLYLINE
  5
532C6
330
52C18
100
AcDbEntity
  8
sink_label
  6
DASHED2
 48
5.0
370
     0
100
AcDb2dPolyline
 66
     1
 10
0.0
 20
0.0
 30
0.0
  0
VERTEX
  5
532C7
330
532C6
100
AcDbEntity
  8
sink_label
  6
DASHED2
 48
5.0
370
     0
100
AcDbVertex
100
AcDb2dVertex
 10
30245.55086391508
 20
25770.17941772982
 30
0.0
  0
VERTEX
  5
532C8
330
532C6
100
AcDbEntity
  8
sink_label
  6
DASHED2
 48
5.0
370
     0
100
AcDbVertex
100
AcDb2dVertex
 10
30248.72672001202
 20
25772.72027492729
 30
0.0
  0
VERTEX
  5
532C9
330
532C6
100
AcDbEntity
  8
sink_label
  6
DASHED2
 48
5.0
370
     0
100
AcDbVertex
100
AcDb2dVertex
 10
30251.26757720949
 20
25775.89699262382
 30
0.0
  0
VERTEX
  5
532CA
330
532C6
100
AcDbEntity
  8
sink_label
  6
DASHED2
 48
5.0
370
     0
100
AcDbVertex
100
AcDb2dVertex
 10
30252.75039010771
 20
25779.70870921982
 30
0.0
  0
VERTEX
  5
532CB
330
532C6
100
AcDbEntity
  8
sink_label
  6
DASHED2
 48
5.0
370
     0
100
AcDbVertex
100
AcDb2dVertex
 10
30253.38538900717
 20
25783.73151771592
 30
0.0
  0
SEQEND
  5
532CC
330
532C6
100
AcDbEntity
  8
sink_label
  6
DASHED2
 48
5.0
370
     0
  0
LINE
  5
532CD
330
52C18
100
AcDbEntity
  8
sink_label
  6
DASHED2
 48
5.0
370
     0
100
AcDbLine
 10
30187.95551597365
 20
26004.15971099225
 30
0.0
 11
29753.45945761078
 21
26004.15971099225
 31
0.0
  0
POLYLINE
  5
532CE
330
52C18
100
AcDbEntity
  8
sink_label
  6
DASHED2
 48
5.0
370
     0
100
AcDb2dPolyline
 66
     1
 10
0.0
 20
0.0
 30
0.0
  0
VERTEX
  5
532CF
330
532CE
100
AcDbEntity
  8
sink_label
  6
DASHED2
 48
5.0
370
     0
100
AcDbVertex
100
AcDb2dVertex
 10
29753.45945761078
 20
26004.15971099225
 30
0.0
  0
VERTEX
  5
532D0
330
532CE
100
AcDbEntity
  8
sink_label
  6
DASHED2
 48
5.0
370
     0
100
AcDbVertex
100
AcDb2dVertex
 10
29744.77798011953
 20
26003.3127585931
 30
0.0
  0
VERTEX
  5
532D1
330
532CE
100
AcDbEntity
  8
sink_label
  6
DASHED2
 48
5.0
370
     0
100
AcDbVertex
100
AcDb2dVertex
 10
29736.30845612795
 20
26000.98385489531
 30
0.0
  0
VERTEX
  5
532D2
330
532CE
100
AcDbEntity
  8
sink_label
  6
DASHED2
 48
5.0
370
     0
100
AcDbVertex
100
AcDb2dVertex
 10
29728.47393103586
 20
25997.384091799
 30
0.0
  0
VERTEX
  5
532D3
330
532CE
100
AcDbEntity
  8
sink_label
  6
DASHED2
 48
5.0
370
     0
100
AcDbVertex
100
AcDb2dVertex
 10
29721.27440484323
 20
25992.51346930416
 30
0.0
  0
VERTEX
  5
532D4
330
532CE
100
AcDbEntity
  8
sink_label
  6
DASHED2
 48
5.0
370
     0
100
AcDbVertex
100
AcDb2dVertex
 10
29715.13378454945
 20
25986.16175711028
 30
0.0
  0
VERTEX
  5
532D5
330
532CE
100
AcDbEntity
  8
sink_label
  6
DASHED2
 48
5.0
370
     0
100
AcDbVertex
100
AcDb2dVertex
 10
29710.26316205461
 20
25979.17332281774
 30
0.0
  0
VERTEX
  5
532D6
330
532CE
100
AcDbEntity
  8
sink_label
  6
DASHED2
 48
5.0
370
     0
100
AcDbVertex
100
AcDb2dVertex
 10
29706.4514454586
 20
25971.12770582555
 30
0.0
  0
VERTEX
  5
532D7
330
532CE
100
AcDbEntity
  8
sink_label
  6
DASHED2
 48
5.0
370
     0
100
AcDbVertex
100
AcDb2dVertex
 10
29704.33449526051
 20
25962.86927373408
 30
0.0
  0
VERTEX
  5
532D8
330
532CE
100
AcDbEntity
  8
sink_label
  6
DASHED2
 48
5.0
370
     0
100
AcDbVertex
100
AcDb2dVertex
 10
29703.48754286135
 20
25954.18779624283
 30
0.0
  0
SEQEND
  5
532D9
330
532CE
100
AcDbEntity
  8
sink_label
  6
DASHED2
 48
5.0
370
     0
  0
LINE
  5
532DA
330
52C18
100
AcDbEntity
  8
sink_label
  6
DASHED2
 48
5.0
370
     0
100
AcDbLine
 10
29703.48754286135
 20
25954.18779624283
 30
0.0
 11
29703.48754286135
 21
25659.64825244171
 31
0.0
  0
POLYLINE
  5
532DB
330
52C18
100
AcDbEntity
  8
sink_label
  6
DASHED2
 48
5.0
370
     0
100
AcDb2dPolyline
 66
     1
 10
0.0
 20
0.0
 30
0.0
  0
VERTEX
  5
532DC
330
532DB
100
AcDbEntity
  8
sink_label
  6
DASHED2
 48
5.0
370
     0
100
AcDbVertex
100
AcDb2dVertex
 10
30187.95551597365
 20
25609.67547609269
 30
0.0
  0
VERTEX
  5
532DD
330
532DB
100
AcDbEntity
  8
sink_label
  6
DASHED2
 48
5.0
370
     0
100
AcDbVertex
100
AcDb2dVertex
 10
30192.8261384685
 20
25609.88742959238
 30
0.0
  0
VERTEX
  5
532DE
330
532DB
100
AcDbEntity
  8
sink_label
  6
DASHED2
 48
5.0
370
     0
100
AcDbVertex
100
AcDb2dVertex
 10
30197.69589936375
 20
25610.52242849185
 30
0.0
  0
VERTEX
  5
532DF
330
532DB
100
AcDbEntity
  8
sink_label
  6
DASHED2
 48
5.0
370
     0
100
AcDbVertex
100
AcDb2dVertex
 10
30202.565660259
 20
25611.79328789038
 30
0.0
  0
VERTEX
  5
532E0
330
532DB
100
AcDbEntity
  8
sink_label
  6
DASHED2
 48
5.0
370
     0
100
AcDbVertex
100
AcDb2dVertex
 10
30207.22432925416
 20
25613.48719268869
 30
0.0
  0
VERTEX
  5
532E1
330
532DB
100
AcDbEntity
  8
sink_label
  6
DASHED2
 48
5.0
370
     0
100
AcDbVertex
100
AcDb2dVertex
 10
30211.67104474963
 20
25615.39305098669
 30
0.0
  0
VERTEX
  5
532E2
330
532DB
100
AcDbEntity
  8
sink_label
  6
DASHED2
 48
5.0
370
     0
100
AcDbVertex
100
AcDb2dVertex
 10
30215.69471484532
 20
25617.93390818416
 30
0.0
  0
VERTEX
  5
532E3
330
532DB
100
AcDbEntity
  8
sink_label
  6
DASHED2
 48
5.0
370
     0
100
AcDbVertex
100
AcDb2dVertex
 10
30219.71752334141
 20
25620.89867238101
 30
0.0
  0
VERTEX
  5
532E4
330
532DB
100
AcDbEntity
  8
sink_label
  6
DASHED2
 48
5.0
370
     0
100
AcDbVertex
100
AcDb2dVertex
 10
30223.31728643773
 20
25624.28648197764
 30
0.0
  0
VERTEX
  5
532E5
330
532DB
100
AcDbEntity
  8
sink_label
  6
DASHED2
 48
5.0
370
     0
100
AcDbVertex
100
AcDb2dVertex
 10
30226.70509603435
 20
25627.88624507395
 30
0.0
  0
VERTEX
  5
532E6
330
532DB
100
AcDbEntity
  8
sink_label
  6
DASHED2
 48
5.0
370
     0
100
AcDbVertex
100
AcDb2dVertex
 10
30229.6698602312
 20
25631.69710007036
 30
0.0
  0
VERTEX
  5
532E7
330
532DB
100
AcDbEntity
  8
sink_label
  6
DASHED2
 48
5.0
370
     0
100
AcDbVertex
100
AcDb2dVertex
 10
30231.99876392898
 20
25635.93272366573
 30
0.0
  0
VERTEX
  5
532E8
330
532DB
100
AcDbEntity
  8
sink_label
  6
DASHED2
 48
5.0
370
     0
100
AcDbVertex
100
AcDb2dVertex
 10
30234.11571412708
 20
25640.37857756161
 30
0.0
  0
VERTEX
  5
532E9
330
532DB
100
AcDbEntity
  8
sink_label
  6
DASHED2
 48
5.0
370
     0
100
AcDbVertex
100
AcDb2dVertex
 10
30235.81048052498
 20
25645.03724655677
 30
0.0
  0
VERTEX
  5
532EA
330
532DB
100
AcDbEntity
  8
sink_label
  6
DASHED2
 48
5.0
370
     0
100
AcDbVertex
100
AcDb2dVertex
 10
30237.08047832392
 20
25649.69591555192
 30
0.0
  0
VERTEX
  5
532EB
330
532DB
100
AcDbEntity
  8
sink_label
  6
DASHED2
 48
5.0
370
     0
100
AcDbVertex
100
AcDb2dVertex
 10
30237.71547722339
 20
25654.56567644718
 30
0.0
  0
VERTEX
  5
532EC
330
532DB
100
AcDbEntity
  8
sink_label
  6
DASHED2
 48
5.0
370
     0
100
AcDbVertex
100
AcDb2dVertex
 10
30237.92743072307
 20
25659.43629894202
 30
0.0
  0
SEQEND
  5
532ED
330
532DB
100
AcDbEntity
  8
sink_label
  6
DASHED2
 48
5.0
370
     0
  0
POLYLINE
  5
532EE
330
52C18
100
AcDbEntity
  8
sink_label
  6
DASHED2
 48
5.0
370
     0
100
AcDb2dPolyline
 66
     1
 10
0.0
 20
0.0
 30
0.0
  0
VERTEX
  5
532EF
330
532EE
100
AcDbEntity
  8
sink_label
  6
DASHED2
 48
5.0
370
     0
100
AcDbVertex
100
AcDb2dVertex
 10
29703.48754286135
 20
25659.64825244171
 30
0.0
  0
VERTEX
  5
532F0
330
532EE
100
AcDbEntity
  8
sink_label
  6
DASHED2
 48
5.0
370
     0
100
AcDbVertex
100
AcDb2dVertex
 10
29704.33449526051
 20
25650.96591335087
 30
0.0
  0
VERTEX
  5
532F1
330
532EE
100
AcDbEntity
  8
sink_label
  6
DASHED2
 48
5.0
370
     0
100
AcDbVertex
100
AcDb2dVertex
 10
29706.4514454586
 20
25642.4963893593
 30
0.0
  0
VERTEX
  5
532F2
330
532EE
100
AcDbEntity
  8
sink_label
  6
DASHED2
 48
5.0
370
     0
100
AcDbVertex
100
AcDb2dVertex
 10
29710.26316205461
 20
25634.6618642672
 30
0.0
  0
VERTEX
  5
532F3
330
532EE
100
AcDbEntity
  8
sink_label
  6
DASHED2
 48
5.0
370
     0
100
AcDbVertex
100
AcDb2dVertex
 10
29715.13378454945
 20
25627.46233807458
 30
0.0
  0
VERTEX
  5
532F4
330
532EE
100
AcDbEntity
  8
sink_label
  6
DASHED2
 48
5.0
370
     0
100
AcDbVertex
100
AcDb2dVertex
 10
29721.27440484323
 20
25621.32171778079
 30
0.0
  0
VERTEX
  5
532F5
330
532EE
100
AcDbEntity
  8
sink_label
  6
DASHED2
 48
5.0
370
     0
100
AcDbVertex
100
AcDb2dVertex
 10
29728.47393103586
 20
25616.24000338585
 30
0.0
  0
VERTEX
  5
532F6
330
532EE
100
AcDbEntity
  8
sink_label
  6
DASHED2
 48
5.0
370
     0
100
AcDbVertex
100
AcDb2dVertex
 10
29736.30845612795
 20
25612.64024028954
 30
0.0
  0
VERTEX
  5
532F7
330
532EE
100
AcDbEntity
  8
sink_label
  6
DASHED2
 48
5.0
370
     0
100
AcDbVertex
100
AcDb2dVertex
 10
29744.77798011953
 20
25610.31133659176
 30
0.0
  0
VERTEX
  5
532F8
330
532EE
100
AcDbEntity
  8
sink_label
  6
DASHED2
 48
5.0
370
     0
100
AcDbVertex
100
AcDb2dVertex
 10
29753.45945761078
 20
25609.67547609269
 30
0.0
  0
SEQEND
  5
532F9
330
532EE
100
AcDbEntity
  8
sink_label
  6
DASHED2
 48
5.0
370
     0
  0
LINE
  5
532FA
330
52C18
100
AcDbEntity
  8
sink_label
  6
DASHED2
 48
5.0
370
     0
100
AcDbLine
 10
29753.45945761078
 20
25609.67547609269
 30
0.0
 11
30187.95551597365
 21
25609.67547609269
 31
0.0
  0
POLYLINE
  5
532FB
330
52C18
100
AcDbEntity
  8
sink_label
  6
DASHED2
 48
5.0
370
     0
100
AcDb2dPolyline
 66
     1
 10
0.0
 20
0.0
 30
0.0
  0
VERTEX
  5
532FC
330
532FB
100
AcDbEntity
  8
sink_label
  6
DASHED2
 48
5.0
370
     0
100
AcDbVertex
100
AcDb2dVertex
 10
30244.70304991633
 20
25843.23272395534
 30
0.0
  0
VERTEX
  5
532FD
330
532FB
100
AcDbEntity
  8
sink_label
  6
DASHED2
 48
5.0
370
     0
100
AcDbVertex
100
AcDb2dVertex
 10
30242.16305431845
 20
25844.50272175428
 30
0.0
  0
VERTEX
  5
532FE
330
532FB
100
AcDbEntity
  8
sink_label
  6
DASHED2
 48
5.0
370
     0
100
AcDbVertex
100
AcDb2dVertex
 10
30239.62133552139
 20
25845.13772065375
 30
0.0
  0
VERTEX
  5
532FF
330
532FB
100
AcDbEntity
  8
sink_label
  6
DASHED2
 48
5.0
370
     0
100
AcDbVertex
100
AcDb2dVertex
 10
30236.86938642383
 20
25845.34967415344
 30
0.0
  0
SEQEND
  5
53300
330
532FB
100
AcDbEntity
  8
sink_label
  6
DASHED2
 48
5.0
370
     0
  0
POLYLINE
  5
53301
330
52C18
100
AcDbEntity
  8
sink_label
  6
DASHED2
 48
5.0
370
     0
100
AcDb2dPolyline
 66
     1
 10
0.0
 20
0.0
 30
0.0
  0
VERTEX
  5
53302
330
53301
100
AcDbEntity
  8
sink_label
  6
DASHED2
 48
5.0
370
     0
100
AcDbVertex
100
AcDb2dVertex
 10
30245.55086391508
 20
25843.44381585544
 30
0.0
  0
VERTEX
  5
53303
330
53301
100
AcDbEntity
  8
sink_label
  6
DASHED2
 48
5.0
370
     0
100
AcDbVertex
100
AcDb2dVertex
 10
30244.91500341602
 20
25843.23272395534
 30
0.0
  0
VERTEX
  5
53304
330
53301
100
AcDbEntity
  8
sink_label
  6
DASHED2
 48
5.0
370
     0
100
AcDbVertex
100
AcDb2dVertex
 10
30244.70304991633
 20
25843.23272395534
 30
0.0
  0
SEQEND
  5
53305
330
53301
100
AcDbEntity
  8
sink_label
  6
DASHED2
 48
5.0
370
     0
  0
LINE
  5
53306
330
52C18
100
AcDbEntity
  8
sink_label
  6
DASHED2
 48
5.0
370
     0
100
AcDbLine
 10
30244.70304991633
 20
25770.3913712295
 30
0.0
 11
30245.55086391508
 21
25770.17941772982
 31
0.0
  0
POLYLINE
  5
53307
330
52C18
100
AcDbEntity
  8
sink_label
  6
DASHED2
 48
5.0
370
     0
100
AcDb2dPolyline
 66
     1
 10
0.0
 20
0.0
 30
0.0
  0
VERTEX
  5
53308
330
53307
100
AcDbEntity
  8
sink_label
  6
DASHED2
 48
5.0
370
     0
100
AcDbVertex
100
AcDb2dVertex
 10
30236.86938642383
 20
25768.27442103141
 30
0.0
  0
VERTEX
  5
53309
330
53307
100
AcDbEntity
  8
sink_label
  6
DASHED2
 48
5.0
370
     0
100
AcDbVertex
100
AcDb2dVertex
 10
30239.62133552139
 20
25768.69746643119
 30
0.0
  0
VERTEX
  5
5330A
330
53307
100
AcDbEntity
  8
sink_label
  6
DASHED2
 48
5.0
370
     0
100
AcDbVertex
100
AcDb2dVertex
 10
30242.16305431845
 20
25769.33246533066
 30
0.0
  0
VERTEX
  5
5330B
330
53307
100
AcDbEntity
  8
sink_label
  6
DASHED2
 48
5.0
370
     0
100
AcDbVertex
100
AcDb2dVertex
 10
30244.70304991633
 20
25770.3913712295
 30
0.0
  0
SEQEND
  5
5330C
330
53307
100
AcDbEntity
  8
sink_label
  6
DASHED2
 48
5.0
370
     0
  0
POLYLINE
  5
5330D
330
52C18
100
AcDbEntity
  8
sink_label
  6
DASHED2
 48
5.0
370
     0
100
AcDb2dPolyline
 66
     1
 10
0.0
 20
0.0
 30
0.0
  0
VERTEX
  5
5330E
330
5330D
100
AcDbEntity
  8
sink_label
  6
DASHED2
 48
5.0
370
     0
100
AcDbVertex
100
AcDb2dVertex
 10
30233.26962332751
 20
25852.97310734544
 30
0.0
  0
VERTEX
  5
5330F
330
5330D
100
AcDbEntity
  8
sink_label
  6
DASHED2
 48
5.0
370
     0
100
AcDbVertex
100
AcDb2dVertex
 10
30234.75157462614
 20
25853.60810624491
 30
0.0
  0
VERTEX
  5
53310
330
5330D
100
AcDbEntity
  8
sink_label
  6
DASHED2
 48
5.0
370
     0
100
AcDbVertex
100
AcDb2dVertex
 10
30236.02157242507
 20
25854.66701214375
 30
0.0
  0
VERTEX
  5
53311
330
5330D
100
AcDbEntity
  8
sink_label
  6
DASHED2
 48
5.0
370
     0
100
AcDbVertex
100
AcDb2dVertex
 10
30236.86938642383
 20
25856.14896344238
 30
0.0
  0
VERTEX
  5
53312
330
5330D
100
AcDbEntity
  8
sink_label
  6
DASHED2
 48
5.0
370
     0
100
AcDbVertex
100
AcDb2dVertex
 10
30238.13617340007
 20
25857.8428682407
 30
0.0
  0
SEQEND
  5
53313
330
5330D
100
AcDbEntity
  8
sink_label
  6
DASHED2
 48
5.0
370
     0
  0
POLYLINE
  5
53314
330
52C18
100
AcDbEntity
  8
sink_label
  6
DASHED2
 48
5.0
370
     0
100
AcDb2dPolyline
 66
     1
 10
0.0
 20
0.0
 30
0.0
  0
VERTEX
  5
53315
330
53314
100
AcDbEntity
  8
sink_label
  6
DASHED2
 48
5.0
370
     0
100
AcDbVertex
100
AcDb2dVertex
 10
30238.13938422277
 20
25755.99231884425
 30
0.0
  0
VERTEX
  5
53316
330
53314
100
AcDbEntity
  8
sink_label
  6
DASHED2
 48
5.0
370
     0
100
AcDbVertex
100
AcDb2dVertex
 10
30236.86938642383
 20
25757.47513174247
 30
0.0
  0
VERTEX
  5
53317
330
53314
100
AcDbEntity
  8
sink_label
  6
DASHED2
 48
5.0
370
     0
100
AcDbVertex
100
AcDb2dVertex
 10
30236.02157242507
 20
25758.95708304109
 30
0.0
  0
VERTEX
  5
53318
330
53314
100
AcDbEntity
  8
sink_label
  6
DASHED2
 48
5.0
370
     0
100
AcDbVertex
100
AcDb2dVertex
 10
30234.75157462614
 20
25760.22794243962
 30
0.0
  0
VERTEX
  5
53319
330
53314
100
AcDbEntity
  8
sink_label
  6
DASHED2
 48
5.0
370
     0
100
AcDbVertex
100
AcDb2dVertex
 10
30233.26962332751
 20
25760.86294133909
 30
0.0
  0
SEQEND
  5
5331A
330
53314
100
AcDbEntity
  8
sink_label
  6
DASHED2
 48
5.0
370
     0
  0
POLYLINE
  5
5331B
330
52C18
100
AcDbEntity
  8
sink_label
  6
DASHED2
 48
5.0
370
     0
100
AcDb2dPolyline
 66
     1
 10
0.0
 20
0.0
 30
0.0
  0
VERTEX
  5
5331C
330
5331B
100
AcDbEntity
  8
sink_label
  6
DASHED2
 48
5.0
370
     0
100
AcDbVertex
100
AcDb2dVertex
 10
30219.29447794163
 20
25835.39733726365
 30
0.0
  0
VERTEX
  5
5331D
330
5331B
100
AcDbEntity
  8
sink_label
  6
DASHED2
 48
5.0
370
     0
100
AcDbVertex
100
AcDb2dVertex
 10
30219.50556984172
 20
25838.3621014605
 30
0.0
  0
VERTEX
  5
5331E
330
5331B
100
AcDbEntity
  8
sink_label
  6
DASHED2
 48
5.0
370
     0
100
AcDbVertex
100
AcDb2dVertex
 10
30220.35252224088
 20
25841.32686565734
 30
0.0
  0
VERTEX
  5
5331F
330
5331B
100
AcDbEntity
  8
sink_label
  6
DASHED2
 48
5.0
370
     0
100
AcDbVertex
100
AcDb2dVertex
 10
30221.62338163941
 20
25844.0796763545
 30
0.0
  0
VERTEX
  5
53320
330
5331B
100
AcDbEntity
  8
sink_label
  6
DASHED2
 48
5.0
370
     0
100
AcDbVertex
100
AcDb2dVertex
 10
30223.10533293804
 20
25846.62053355197
 30
0.0
  0
VERTEX
  5
53321
330
5331B
100
AcDbEntity
  8
sink_label
  6
DASHED2
 48
5.0
370
     0
100
AcDbVertex
100
AcDb2dVertex
 10
30225.22314473573
 20
25848.73748375006
 30
0.0
  0
VERTEX
  5
53322
330
5331B
100
AcDbEntity
  8
sink_label
  6
DASHED2
 48
5.0
370
     0
100
AcDbVertex
100
AcDb2dVertex
 10
30227.7640019332
 20
25850.64334204806
 30
0.0
  0
VERTEX
  5
53323
330
5331B
100
AcDbEntity
  8
sink_label
  6
DASHED2
 48
5.0
370
     0
100
AcDbVertex
100
AcDb2dVertex
 10
30230.30485913067
 20
25851.9142014466
 30
0.0
  0
VERTEX
  5
53324
330
5331B
100
AcDbEntity
  8
sink_label
  6
DASHED2
 48
5.0
370
     0
100
AcDbVertex
100
AcDb2dVertex
 10
30233.26962332751
 20
25852.97310734544
 30
0.0
  0
SEQEND
  5
53325
330
5331B
100
AcDbEntity
  8
sink_label
  6
DASHED2
 48
5.0
370
     0
  0
LINE
  5
53326
330
52C18
100
AcDbEntity
  8
sink_label
  6
DASHED2
 48
5.0
370
     0
100
AcDbLine
 10
30236.86938642383
 20
25845.34967415344
 30
0.0
 11
30235.38657352561
 21
25845.34967415344
 31
0.0
  0
POLYLINE
  5
53327
330
52C18
100
AcDbEntity
  8
sink_label
  6
DASHED2
 48
5.0
370
     0
100
AcDb2dPolyline
 66
     1
 10
0.0
 20
0.0
 30
0.0
  0
VERTEX
  5
53328
330
53327
100
AcDbEntity
  8
sink_label
  6
DASHED2
 48
5.0
370
     0
100
AcDbVertex
100
AcDb2dVertex
 10
30235.38657352561
 20
25845.34967415344
 30
0.0
  0
VERTEX
  5
53329
330
53327
100
AcDbEntity
  8
sink_label
  6
DASHED2
 48
5.0
370
     0
100
AcDbVertex
100
AcDb2dVertex
 10
30233.69266872729
 20
25845.13772065375
 30
0.0
  0
VERTEX
  5
5332A
330
53327
100
AcDbEntity
  8
sink_label
  6
DASHED2
 48
5.0
370
     0
100
AcDbVertex
100
AcDb2dVertex
 10
30232.21071742867
 20
25844.71467525397
 30
0.0
  0
VERTEX
  5
5332B
330
53327
100
AcDbEntity
  8
sink_label
  6
DASHED2
 48
5.0
370
     0
100
AcDbVertex
100
AcDb2dVertex
 10
30230.93985803014
 20
25844.0796763545
 30
0.0
  0
VERTEX
  5
5332C
330
53327
100
AcDbEntity
  8
sink_label
  6
DASHED2
 48
5.0
370
     0
100
AcDbVertex
100
AcDb2dVertex
 10
30229.6698602312
 20
25843.02077045566
 30
0.0
  0
VERTEX
  5
5332D
330
53327
100
AcDbEntity
  8
sink_label
  6
DASHED2
 48
5.0
370
     0
100
AcDbVertex
100
AcDb2dVertex
 10
30228.61095433235
 20
25841.74991105713
 30
0.0
  0
VERTEX
  5
5332E
330
53327
100
AcDbEntity
  8
sink_label
  6
DASHED2
 48
5.0
370
     0
100
AcDbVertex
100
AcDb2dVertex
 10
30227.97595543288
 20
25840.47991325819
 30
0.0
  0
VERTEX
  5
5332F
330
53327
100
AcDbEntity
  8
sink_label
  6
DASHED2
 48
5.0
370
     0
100
AcDbVertex
100
AcDb2dVertex
 10
30227.55204843351
 20
25838.99710035997
 30
0.0
  0
VERTEX
  5
53330
330
53327
100
AcDbEntity
  8
sink_label
  6
DASHED2
 48
5.0
370
     0
100
AcDbVertex
100
AcDb2dVertex
 10
30227.34009493383
 20
25837.30319556166
 30
0.0
  0
SEQEND
  5
53331
330
53327
100
AcDbEntity
  8
sink_label
  6
DASHED2
 48
5.0
370
     0
  0
LINE
  5
53332
330
52C18
100
AcDbEntity
  8
sink_label
  6
DASHED2
 48
5.0
370
     0
100
AcDbLine
 10
30227.34009493383
 20
25837.30319556166
 30
0.0
 11
30227.34009493383
 21
25776.3200380236
 31
0.0
  0
LINE
  5
53333
330
52C18
100
AcDbEntity
  8
sink_label
  6
DASHED2
 48
5.0
370
     0
100
AcDbLine
 10
30219.29447794163
 20
25778.43784982129
 30
0.0
 11
30219.29447794163
 21
25835.39733726365
 31
0.0
  0
POLYLINE
  5
53334
330
52C18
100
AcDbEntity
  8
sink_label
  6
DASHED2
 48
5.0
370
     0
100
AcDb2dPolyline
 66
     1
 10
0.0
 20
0.0
 30
0.0
  0
VERTEX
  5
53335
330
53334
100
AcDbEntity
  8
sink_label
  6
DASHED2
 48
5.0
370
     0
100
AcDbVertex
100
AcDb2dVertex
 10
30233.26962332751
 20
25760.86294133909
 30
0.0
  0
VERTEX
  5
53336
330
53334
100
AcDbEntity
  8
sink_label
  6
DASHED2
 48
5.0
370
     0
100
AcDbVertex
100
AcDb2dVertex
 10
30230.30485913067
 20
25761.70989373825
 30
0.0
  0
VERTEX
  5
53337
330
53334
100
AcDbEntity
  8
sink_label
  6
DASHED2
 48
5.0
370
     0
100
AcDbVertex
100
AcDb2dVertex
 10
30227.7640019332
 20
25763.19184503688
 30
0.0
  0
VERTEX
  5
53338
330
53334
100
AcDbEntity
  8
sink_label
  6
DASHED2
 48
5.0
370
     0
100
AcDbVertex
100
AcDb2dVertex
 10
30225.22314473573
 20
25764.88574983519
 30
0.0
  0
VERTEX
  5
53339
330
53334
100
AcDbEntity
  8
sink_label
  6
DASHED2
 48
5.0
370
     0
100
AcDbVertex
100
AcDb2dVertex
 10
30223.31728643773
 20
25767.00356163288
 30
0.0
  0
VERTEX
  5
5333A
330
53334
100
AcDbEntity
  8
sink_label
  6
DASHED2
 48
5.0
370
     0
100
AcDbVertex
100
AcDb2dVertex
 10
30221.62338163941
 20
25769.54441883035
 30
0.0
  0
VERTEX
  5
5333B
330
53334
100
AcDbEntity
  8
sink_label
  6
DASHED2
 48
5.0
370
     0
100
AcDbVertex
100
AcDb2dVertex
 10
30220.35252224088
 20
25772.2972295275
 30
0.0
  0
VERTEX
  5
5333C
330
53334
100
AcDbEntity
  8
sink_label
  6
DASHED2
 48
5.0
370
     0
100
AcDbVertex
100
AcDb2dVertex
 10
30219.50556984172
 20
25775.26199372435
 30
0.0
  0
VERTEX
  5
5333D
330
53334
100
AcDbEntity
  8
sink_label
  6
DASHED2
 48
5.0
370
     0
100
AcDbVertex
100
AcDb2dVertex
 10
30219.29447794163
 20
25778.43784982129
 30
0.0
  0
SEQEND
  5
5333E
330
53334
100
AcDbEntity
  8
sink_label
  6
DASHED2
 48
5.0
370
     0
  0
POLYLINE
  5
5333F
330
52C18
100
AcDbEntity
  8
sink_label
  6
DASHED2
 48
5.0
370
     0
100
AcDb2dPolyline
 66
     1
 10
0.0
 20
0.0
 30
0.0
  0
VERTEX
  5
53340
330
5333F
100
AcDbEntity
  8
sink_label
  6
DASHED2
 48
5.0
370
     0
100
AcDbVertex
100
AcDb2dVertex
 10
30227.34009493383
 20
25776.3200380236
 30
0.0
  0
VERTEX
  5
53341
330
5333F
100
AcDbEntity
  8
sink_label
  6
DASHED2
 48
5.0
370
     0
100
AcDbVertex
100
AcDb2dVertex
 10
30227.55204843351
 20
25774.83808672497
 30
0.0
  0
VERTEX
  5
53342
330
5333F
100
AcDbEntity
  8
sink_label
  6
DASHED2
 48
5.0
370
     0
100
AcDbVertex
100
AcDb2dVertex
 10
30227.97595543288
 20
25773.35613542635
 30
0.0
  0
VERTEX
  5
53343
330
5333F
100
AcDbEntity
  8
sink_label
  6
DASHED2
 48
5.0
370
     0
100
AcDbVertex
100
AcDb2dVertex
 10
30228.61095433235
 20
25771.87332252813
 30
0.0
  0
VERTEX
  5
53344
330
5333F
100
AcDbEntity
  8
sink_label
  6
DASHED2
 48
5.0
370
     0
100
AcDbVertex
100
AcDb2dVertex
 10
30229.6698602312
 20
25770.60332472919
 30
0.0
  0
VERTEX
  5
53345
330
5333F
100
AcDbEntity
  8
sink_label
  6
DASHED2
 48
5.0
370
     0
100
AcDbVertex
100
AcDb2dVertex
 10
30230.93985803014
 20
25769.75637233003
 30
0.0
  0
VERTEX
  5
53346
330
5333F
100
AcDbEntity
  8
sink_label
  6
DASHED2
 48
5.0
370
     0
100
AcDbVertex
100
AcDb2dVertex
 10
30232.21071742867
 20
25768.90941993088
 30
0.0
  0
VERTEX
  5
53347
330
5333F
100
AcDbEntity
  8
sink_label
  6
DASHED2
 48
5.0
370
     0
100
AcDbVertex
100
AcDb2dVertex
 10
30233.69266872729
 20
25768.48551293151
 30
0.0
  0
VERTEX
  5
53348
330
5333F
100
AcDbEntity
  8
sink_label
  6
DASHED2
 48
5.0
370
     0
100
AcDbVertex
100
AcDb2dVertex
 10
30235.38657352561
 20
25768.27442103141
 30
0.0
  0
SEQEND
  5
53349
330
5333F
100
AcDbEntity
  8
sink_label
  6
DASHED2
 48
5.0
370
     0
  0
LINE
  5
5334A
330
52C18
100
AcDbEntity
  8
sink_label
  6
DASHED2
 48
5.0
370
     0
100
AcDbLine
 10
30235.38657352561
 20
25768.27442103141
 30
0.0
 11
30236.86938642383
 21
25768.27442103141
 31
0.0
  0
POLYLINE
  5
5334B
330
52C18
100
AcDbEntity
  8
sink_label
  6
DASHED2
 48
5.0
370
     0
100
AcDb2dPolyline
 66
     1
 10
0.0
 20
0.0
 30
0.0
  0
VERTEX
  5
5334C
330
5334B
100
AcDbEntity
  8
sink_label
  6
DASHED2
 48
5.0
370
     0
100
AcDbVertex
100
AcDb2dVertex
 10
29698.19387496672
 20
26034.2278135617
 30
0.0
  0
VERTEX
  5
5334D
330
5334B
100
AcDbEntity
  8
sink_label
  6
DASHED2
 48
5.0
370
     0
100
AcDbVertex
100
AcDb2dVertex
 10
29693.32411407147
 20
26033.80476816192
 30
0.0
  0
VERTEX
  5
5334E
330
5334B
100
AcDbEntity
  8
sink_label
  6
DASHED2
 48
5.0
370
     0
100
AcDbVertex
100
AcDb2dVertex
 10
29688.66544507631
 20
26032.3219552637
 30
0.0
  0
VERTEX
  5
5334F
330
5334B
100
AcDbEntity
  8
sink_label
  6
DASHED2
 48
5.0
370
     0
100
AcDbVertex
100
AcDb2dVertex
 10
29684.43068308053
 20
26030.20500506561
 30
0.0
  0
VERTEX
  5
53350
330
5334B
100
AcDbEntity
  8
sink_label
  6
DASHED2
 48
5.0
370
     0
100
AcDbVertex
100
AcDb2dVertex
 10
29680.61896648453
 20
26027.02828736907
 30
0.0
  0
VERTEX
  5
53351
330
5334B
100
AcDbEntity
  8
sink_label
  6
DASHED2
 48
5.0
370
     0
100
AcDbVertex
100
AcDb2dVertex
 10
29677.44311038759
 20
26023.21743237267
 30
0.0
  0
VERTEX
  5
53352
330
5334B
100
AcDbEntity
  8
sink_label
  6
DASHED2
 48
5.0
370
     0
100
AcDbVertex
100
AcDb2dVertex
 10
29675.11334509021
 20
26018.98180877729
 30
0.0
  0
VERTEX
  5
53353
330
5334B
100
AcDbEntity
  8
sink_label
  6
DASHED2
 48
5.0
370
     0
100
AcDbVertex
100
AcDb2dVertex
 10
29673.84334729128
 20
26014.11204788204
 30
0.0
  0
VERTEX
  5
53354
330
5334B
100
AcDbEntity
  8
sink_label
  6
DASHED2
 48
5.0
370
     0
100
AcDbVertex
100
AcDb2dVertex
 10
29673.20748679221
 20
26009.24142538719
 30
0.0
  0
SEQEND
  5
53355
330
5334B
100
AcDbEntity
  8
sink_label
  6
DASHED2
 48
5.0
370
     0
  0
POLYLINE
  5
53356
330
52C18
100
AcDbEntity
  8
sink_label
  6
DASHED2
 48
5.0
370
     0
100
AcDb2dPolyline
 66
     1
 10
0.0
 20
0.0
 30
0.0
  0
VERTEX
  5
53357
330
53356
100
AcDbEntity
  8
sink_label
  6
DASHED2
 48
5.0
370
     0
100
AcDbVertex
100
AcDb2dVertex
 10
30268.20748679222
 20
26009.24142538719
 30
0.0
  0
VERTEX
  5
53358
330
53356
100
AcDbEntity
  8
sink_label
  6
DASHED2
 48
5.0
370
     0
100
AcDbVertex
100
AcDb2dVertex
 10
30267.78357979284
 20
26014.11204788204
 30
0.0
  0
VERTEX
  5
53359
330
53356
100
AcDbEntity
  8
sink_label
  6
DASHED2
 48
5.0
370
     0
100
AcDbVertex
100
AcDb2dVertex
 10
30266.30162849421
 20
26018.98180877729
 30
0.0
  0
VERTEX
  5
5335A
330
53356
100
AcDbEntity
  8
sink_label
  6
DASHED2
 48
5.0
370
     0
100
AcDbVertex
100
AcDb2dVertex
 10
30263.97272479643
 20
26023.21743237267
 30
0.0
  0
VERTEX
  5
5335B
330
53356
100
AcDbEntity
  8
sink_label
  6
DASHED2
 48
5.0
370
     0
100
AcDbVertex
100
AcDb2dVertex
 10
30261.00796059959
 20
26027.02828736907
 30
0.0
  0
VERTEX
  5
5335C
330
53356
100
AcDbEntity
  8
sink_label
  6
DASHED2
 48
5.0
370
     0
100
AcDbVertex
100
AcDb2dVertex
 10
30257.19624400359
 20
26030.20500506561
 30
0.0
  0
VERTEX
  5
5335D
330
53356
100
AcDbEntity
  8
sink_label
  6
DASHED2
 48
5.0
370
     0
100
AcDbVertex
100
AcDb2dVertex
 10
30252.75039010771
 20
26032.3219552637
 30
0.0
  0
VERTEX
  5
5335E
330
53356
100
AcDbEntity
  8
sink_label
  6
DASHED2
 48
5.0
370
     0
100
AcDbVertex
100
AcDb2dVertex
 10
30248.09172111255
 20
26033.80476816192
 30
0.0
  0
VERTEX
  5
5335F
330
53356
100
AcDbEntity
  8
sink_label
  6
DASHED2
 48
5.0
370
     0
100
AcDbVertex
100
AcDb2dVertex
 10
30243.2210986177
 20
26034.2278135617
 30
0.0
  0
SEQEND
  5
53360
330
53356
100
AcDbEntity
  8
sink_label
  6
DASHED2
 48
5.0
370
     0
  0
POLYLINE
  5
53361
330
52C18
100
AcDbEntity
  8
sink_label
  6
DASHED2
 48
5.0
370
     0
100
AcDb2dPolyline
 66
     1
 10
0.0
 20
0.0
 30
0.0
  0
VERTEX
  5
53362
330
53361
100
AcDbEntity
  8
sink_label
  6
DASHED2
 48
5.0
370
     0
100
AcDbVertex
100
AcDb2dVertex
 10
29673.20748679221
 20
25604.38180819807
 30
0.0
  0
VERTEX
  5
53363
330
53361
100
AcDbEntity
  8
sink_label
  6
DASHED2
 48
5.0
370
     0
100
AcDbVertex
100
AcDb2dVertex
 10
29673.84334729128
 20
25599.51204730281
 30
0.0
  0
VERTEX
  5
53364
330
53361
100
AcDbEntity
  8
sink_label
  6
DASHED2
 48
5.0
370
     0
100
AcDbVertex
100
AcDb2dVertex
 10
29675.11334509021
 20
25594.85337830766
 30
0.0
  0
VERTEX
  5
53365
330
53361
100
AcDbEntity
  8
sink_label
  6
DASHED2
 48
5.0
370
     0
100
AcDbVertex
100
AcDb2dVertex
 10
29677.44311038759
 20
25590.40666281219
 30
0.0
  0
VERTEX
  5
53366
330
53361
100
AcDbEntity
  8
sink_label
  6
DASHED2
 48
5.0
370
     0
100
AcDbVertex
100
AcDb2dVertex
 10
29680.61896648453
 20
25586.80689971587
 30
0.0
  0
VERTEX
  5
53367
330
53361
100
AcDbEntity
  8
sink_label
  6
DASHED2
 48
5.0
370
     0
100
AcDbVertex
100
AcDb2dVertex
 10
29684.43068308053
 20
25583.63104361893
 30
0.0
  0
VERTEX
  5
53368
330
53361
100
AcDbEntity
  8
sink_label
  6
DASHED2
 48
5.0
370
     0
100
AcDbVertex
100
AcDb2dVertex
 10
29688.66544507631
 20
25581.30127832155
 30
0.0
  0
VERTEX
  5
53369
330
53361
100
AcDbEntity
  8
sink_label
  6
DASHED2
 48
5.0
370
     0
100
AcDbVertex
100
AcDb2dVertex
 10
29693.32411407147
 20
25579.81932702293
 30
0.0
  0
VERTEX
  5
5336A
330
53361
100
AcDbEntity
  8
sink_label
  6
DASHED2
 48
5.0
370
     0
100
AcDbVertex
100
AcDb2dVertex
 10
29698.19387496672
 20
25579.39628162315
 30
0.0
  0
SEQEND
  5
5336B
330
53361
100
AcDbEntity
  8
sink_label
  6
DASHED2
 48
5.0
370
     0
  0
POLYLINE
  5
5336C
330
52C18
100
AcDbEntity
  8
sink_label
  6
DASHED2
 48
5.0
370
     0
100
AcDb2dPolyline
 66
     1
 10
0.0
 20
0.0
 30
0.0
  0
VERTEX
  5
5336D
330
5336C
100
AcDbEntity
  8
sink_label
  6
DASHED2
 48
5.0
370
     0
100
AcDbVertex
100
AcDb2dVertex
 10
30243.2210986177
 20
25579.39628162315
 30
0.0
  0
VERTEX
  5
5336E
330
5336C
100
AcDbEntity
  8
sink_label
  6
DASHED2
 48
5.0
370
     0
100
AcDbVertex
100
AcDb2dVertex
 10
30248.09172111255
 20
25579.81932702293
 30
0.0
  0
VERTEX
  5
5336F
330
5336C
100
AcDbEntity
  8
sink_label
  6
DASHED2
 48
5.0
370
     0
100
AcDbVertex
100
AcDb2dVertex
 10
30252.75039010771
 20
25581.30127832155
 30
0.0
  0
VERTEX
  5
53370
330
5336C
100
AcDbEntity
  8
sink_label
  6
DASHED2
 48
5.0
370
     0
100
AcDbVertex
100
AcDb2dVertex
 10
30257.19624400359
 20
25583.63104361893
 30
0.0
  0
VERTEX
  5
53371
330
5336C
100
AcDbEntity
  8
sink_label
  6
DASHED2
 48
5.0
370
     0
100
AcDbVertex
100
AcDb2dVertex
 10
30261.00796059959
 20
25586.80689971587
 30
0.0
  0
VERTEX
  5
53372
330
5336C
100
AcDbEntity
  8
sink_label
  6
DASHED2
 48
5.0
370
     0
100
AcDbVertex
100
AcDb2dVertex
 10
30263.97272479643
 20
25590.40666281219
 30
0.0
  0
VERTEX
  5
53373
330
5336C
100
AcDbEntity
  8
sink_label
  6
DASHED2
 48
5.0
370
     0
100
AcDbVertex
100
AcDb2dVertex
 10
30266.30162849421
 20
25594.85337830766
 30
0.0
  0
VERTEX
  5
53374
330
5336C
100
AcDbEntity
  8
sink_label
  6
DASHED2
 48
5.0
370
     0
100
AcDbVertex
100
AcDb2dVertex
 10
30267.78357979284
 20
25599.51204730281
 30
0.0
  0
VERTEX
  5
53375
330
5336C
100
AcDbEntity
  8
sink_label
  6
DASHED2
 48
5.0
370
     0
100
AcDbVertex
100
AcDb2dVertex
 10
30268.20748679222
 20
25604.38180819807
 30
0.0
  0
SEQEND
  5
53376
330
5336C
100
AcDbEntity
  8
sink_label
  6
DASHED2
 48
5.0
370
     0
  0
CIRCLE
  5
53377
330
52C18
100
AcDbEntity
  8
sink_label
  6
DASHED2
 48
5.0
370
     0
100
AcDbCircle
 10
30109.82191734484
 20
25806.81204759242
 30
0.0
 40
31.0
  0
CIRCLE
  5
53378
330
52C18
100
AcDbEntity
  8
sink_label
  6
DASHED2
 48
5.0
370
     0
100
AcDbCircle
 10
30109.82191734484
 20
25806.81204759242
 30
0.0
 40
50.0
  0
LINE
  5
53379
102
{ACAD_REACTORS
330
53387
102
}
330
52C18
100
AcDbEntity
  8
CUTOUT
100
AcDbLine
 10
29696.71071178898
 20
25612.89919878321
 30
0.0
 11
29696.71071178898
 21
25953.93654206462
 31
0.0
  0
ARC
  5
5337A
330
52C18
100
AcDbEntity
  8
CUTOUT
100
AcDbCircle
 10
29753.71071178898
 20
25953.93654206462
 30
0.0
 40
57.0
100
AcDbArc
 50
90.0
 51
180.0
  0
LINE
  5
5337B
102
{ACAD_REACTORS
330
5338A
102
}
330
52C18
100
AcDbEntity
  8
CUTOUT
100
AcDbLine
 10
30187.70426179545
 20
26010.93654206462
 30
0.0
 11
29753.71071178898
 21
26010.93654206462
 31
0.0
  0
LINE
  5
5337C
330
52C18
100
AcDbEntity
  8
CUTOUT
100
AcDbLine
 10
29686.71071178898
 20
25602.89919878321
 30
0.0
 11
29548.84838117918
 21
25602.89919878321
 31
0.0
  0
LINE
  5
5337D
330
52C18
100
AcDbEntity
  8
CUTOUT
100
AcDbLine
 10
30425.50120518049
 20
26202.89919878321
 30
0.0
 11
29608.81804288803
 21
26202.89919878321
 31
0.0
  0
ARC
  5
5337E
330
52C18
100
AcDbEntity
  8
CUTOUT
100
AcDbCircle
 10
29686.71071178898
 20
25612.89919878321
 30
0.0
 40
10.0
100
AcDbArc
 50
270.0
 51
0.0
  0
SPLINE
  5
5337F
330
52C18
100
AcDbEntity
  8
CUTOUT
100
AcDbSpline
210
0.0
220
0.0
230
1.0
 70
     8
 71
     3
 72
    10
 73
     6
 74
     4
 42
0.0000000001
 43
0.0000000001
 44
0.0000000001
 40
0.0
 40
0.0
 40
0.0
 40
0.0
 40
291.7901295660274
 40
468.3400027843151
 40
677.0081312009022
 40
677.0081312009022
 40
677.0081312009022
 40
677.0081312009022
 10
29621.43721922156
 20
26222.39269688602
 30
0.0
 10
29561.43281931904
 20
26129.90467510851
 30
0.0
 10
29465.12229346538
 20
25981.45606088973
 30
0.0
 10
29631.02310762976
 20
25776.74168961169
 30
0.0
 10
29571.42312166881
 20
25650.58777564179
 30
0.0
 10
29539.13849978888
 20
25582.25166204169
 30
0.0
 11
29621.43721922156
 21
26222.39269688602
 31
0.0
 11
29523.35724628839
 21
25947.58039981475
 31
0.0
 11
29590.80540152959
 21
25784.42218185454
 31
0.0
 11
29539.13849978888
 21
25582.25166204169
 31
0.0
  0
SPLINE
  5
53380
330
52C18
100
AcDbEntity
  8
CUTOUT
100
AcDbSpline
210
0.0
220
0.0
230
1.0
 70
     8
 71
     3
 72
    10
 73
     6
 74
     4
 42
0.0000000001
 43
0.0000000001
 44
0.0000000001
 40
0.0
 40
0.0
 40
0.0
 40
0.0
 40
291.7901295660274
 40
468.3400027843151
 40
677.0081312009022
 40
677.0081312009022
 40
677.0081312009022
 40
677.0081312009022
 10
30438.12038151402
 20
26222.39269688602
 30
0.0
 10
30378.11598161151
 20
26129.90467510851
 30
0.0
 10
30281.80545575784
 20
25981.45606088973
 30
0.0
 10
30447.70626992222
 20
25776.74168961169
 30
0.0
 10
30388.10628396128
 20
25650.58777564179
 30
0.0
 10
30355.82166208135
 20
25582.25166204169
 30
0.0
 11
30438.12038151402
 21
26222.39269688602
 31
0.0
 11
30340.04040858086
 21
25947.58039981475
 31
0.0
 11
30407.48856382206
 21
25784.42218185454
 31
0.0
 11
30355.82166208135
 21
25582.25166204169
 31
0.0
  0
LINE
  5
53381
330
52C18
100
AcDbEntity
  8
CUTOUT
100
AcDbLine
 10
30244.70426179545
 20
25612.89919878321
 30
0.0
 11
30244.70426179545
 21
25953.93654206462
 31
0.0
  0
LINE
  5
53382
330
52C18
100
AcDbEntity
  8
CUTOUT
100
AcDbLine
 10
30254.70426179545
 20
25602.89919878321
 30
0.0
 11
30365.53154347165
 21
25602.89919878321
 31
0.0
  0
ARC
  5
53383
102
{ACAD_REACTORS
330
53387
102
}
330
52C18
100
AcDbEntity
  8
CUTOUT
100
AcDbCircle
 10
30254.70426179545
 20
25612.89919878321
 30
0.0
 40
10.0
100
AcDbArc
 50
180.0
 51
270.0
  0
ARC
  5
53384
330
52C18
100
AcDbEntity
  8
CUTOUT
100
AcDbCircle
 10
30187.70426179545
 20
25953.93654206462
 30
0.0
 40
57.0
100
AcDbArc
 50
0.0
 51
90.0
  0
DIMENSION
  5
53385
102
{ACAD_XDICTIONARY
360
53386
102
}
102
{ACAD_REACTORS
330
53387
102
}
330
52C18
100
AcDbEntity
  8
DIMS SPECS
100
AcDbDimension
  2
*D63
 10
30244.70426179545
 20
25531.05858354164
 30
0.0
 11
29970.70748679222
 21
25547.48618381356
 31
0.0
 70
    32
 71
     5
 42
547.9935500064676
 73
     0
 74
     0
 75
     0
  3
abode-iso$0
100
AcDbAlignedDimension
 13
29696.71071178898
 23
25612.89919878321
 33
0.0
 14
30244.70426179545
 24
25612.89919878321
 34
0.0
100
AcDbRotatedDimension
1001
ACAD_DSTYLE_DIMINSPECT
1070
   396
1000
100%
1070
   395
1000

1070
   394
1070
    33
1070
   393
1070
     0
1001
ACAD
1000
DSTYLE
1002
{
1070
   340
1005
53181
1070
   371
1070
    -1
1070
   372
1070
    -1
1002
}
  0
DIMENSION
  5
53388
102
{ACAD_XDICTIONARY
360
53389
102
}
102
{ACAD_REACTORS
330
5338A
102
}
330
52C18
100
AcDbEntity
  8
DIMS SPECS
100
AcDbDimension
  2
*D64
 10
29776.54332100815
 20
25602.89919878321
 30
0.0
 11
29776.54332100815
 21
25806.91787042392
 31
0.0
 70
    32
 71
     5
 42
408.0373432814085
 73
     0
 74
     0
 75
     0
  3
abode-iso$0
100
AcDbAlignedDimension
 13
29753.71071178898
 23
26010.93654206462
 33
0.0
 14
29686.71071178898
 24
25602.89919878321
 34
0.0
 50
90.0
100
AcDbRotatedDimension
1001
ACAD_DSTYLE_DIMINSPECT
1070
   396
1000
100%
1070
   395
1000

1070
   394
1070
    33
1070
   393
1070
     0
1001
ACAD
1000
DSTYLE
1002
{
1070
   340
1005
53181
1070
   371
1070
    -1
1070
   372
1070
    -1
1002
}
  0
DIMENSION
  5
5338B
330
52C18
100
AcDbEntity
  8
DIMS SPECS
100
AcDbDimension
  2
*D65
 10
29753.71071178898
 20
25953.93654206462
 30
0.0
 11
29727.72737475151
 21
25944.20374705248
 31
0.0
 70
   164
 71
     5
 42
57.00000000000364
 73
     0
 74
     0
 75
     0
  3
abode-iso$4
100
AcDbRadialDimension
 15
29796.13340909355
 25
25915.86667532721
 35
0.0
 40
0.0
1001
ACAD_DSTYLE_DIMINSPECT
1070
   396
1000
100%
1070
   395
1000

1070
   394
1070
    33
1070
   393
1070
     0
1001
ACAD
1000
DSTYLE
1002
{
1070
   340
1005
53181
1070
   371
1070
    -1
1070
   372
1070
    -1
1002
}
1001
ACAD_DSTYLE_DIMRADIAL_EXTENSION
1070
   387
1070
     1
1070
   388
1040
1.570796326794896
1070
   390
1040
3.141592653589793
  0
DIMENSION
  5
5338C
330
52C18
100
AcDbEntity
  8
DIMS SPECS
100
AcDbDimension
  2
*D66
 10
29686.71071178899
 20
25612.89919878321
 30
0.0
 11
29624.09859465975
 21
25644.09027300663
 31
0.0
 70
   164
 71
     5
 42
9.999999999992724
 73
     0
 74
     0
 75
     0
  3
abode-iso$4
100
AcDbRadialDimension
 15
29694.45320651382
 25
25606.57039356928
 35
0.0
 40
0.0
1001
ACAD_DSTYLE_DIMINSPECT
1070
   396
1000
100%
1070
   395
1000

1070
   394
1070
    33
1070
   393
1070
     0
1001
ACAD_DSTYLE_DIMRADIAL_EXTENSION
1070
   387
1070
     1
1070
   388
1040
4.712388980384689
1070
   390
1040
0.0
1001
ACAD
1000
DSTYLE
1002
{
1070
   340
1005
53181
1070
   371
1070
    -1
1070
   372
1070
    -1
1002
}
  0
ENDSEC
  0
SECTION
  2
OBJECTS
  0
DICTIONARY
  5
52BB0
330
0
100
AcDbDictionary
281
     1
  3
ACAD_COLOR
350
52C0E
  3
ACAD_GROUP
350
52BB1
  3
ACAD_LAYOUT
350
52C0D
  3
ACAD_MATERIAL
350
52BB4
  3
ACAD_MLEADERSTYLE
350
52C11
  3
ACAD_MLINESTYLE
350
52C0A
  3
ACAD_PLOTSETTINGS
350
52C0C
  3
ACAD_PLOTSTYLENAME
350
52BB2
  3
ACAD_SCALELIST
350
52BDE
  3
ACAD_TABLESTYLE
350
52C0F
  3
ACAD_VISUALSTYLE
350
52BCD
  3
ACDB_RECOMPOSE_DATA
350
52DBE
  3
AcDbVariableDictionary
350
52DB0
  3
AcmDictionary
350
5310E
  3
AMG
350
530B8
  3
AMGSNAPSETTINGS
350
53296
  0
DICTIONARY
  5
52CA6
330
52BA6
100
AcDbDictionary
280
     1
281
     1
  3
ACAD_LAYERSTATES
360
52CA7
  0
DICTIONARY
  5
52DA2
330
52C00
100
AcDbDictionary
280
     1
281
     1
  3
ADSK_XREC_LAYER_RECONCILED
360
52DA3
  0
DICTIONARY
  5
52DA4
330
52C1E
100
AcDbDictionary
280
     1
281
     1
  3
ADSK_XREC_LAYER_RECONCILED
360
52DA5
  0
DICTIONARY
  5
52DA8
330
52C21
100
AcDbDictionary
280
     1
281
     1
  3
ADSK_XREC_LAYER_RECONCILED
360
52DA9
  0
DICTIONARY
  5
52DAC
330
52C9C
100
AcDbDictionary
280
     1
281
     1
  3
ADSK_XREC_LAYER_RECONCILED
360
52DAD
  0
DICTIONARY
  5
533DB
330
5329F
100
AcDbDictionary
280
     1
281
     1
  3
ACAD_MTEXT_2008_RT
360
533DC
  0
DICTIONARY
  5
53386
330
53385
100
AcDbDictionary
280
     1
281
     1
  3
ACAD_DIMASSOC
360
53387
  0
DICTIONARY
  5
53389
330
53388
100
AcDbDictionary
280
     1
281
     1
  3
ACAD_DIMASSOC
360
5338A
  0
DICTIONARY
  5
52C0E
102
{ACAD_REACTORS
330
52BB0
102
}
330
52BB0
100
AcDbDictionary
281
     1
  0
DICTIONARY
  5
52BB1
102
{ACAD_REACTORS
330
52BB0
102
}
330
52BB0
100
AcDbDictionary
281
     1
  0
DICTIONARY
  5
52C0D
102
{ACAD_REACTORS
330
52BB0
102
}
330
52BB0
100
AcDbDictionary
281
     1
  3
Layout1
350
52C17
  3
Model
350
52C1B
  0
DICTIONARY
  5
52BB4
102
{ACAD_REACTORS
330
52BB0
102
}
330
52BB0
100
AcDbDictionary
281
     1
  3
ByBlock
350
52BBD
  3
ByLayer
350
52BB5
  3
Global
350
52BC5
  0
DICTIONARY
  5
52C11
102
{ACAD_REACTORS
330
52BB0
102
}
330
52BB0
100
AcDbDictionary
281
     1
  3
Standard
350
52C12
  0
DICTIONARY
  5
52C0A
102
{ACAD_REACTORS
330
52BB0
102
}
330
52BB0
100
AcDbDictionary
281
     1
  3
Standard
350
52C0B
  0
DICTIONARY
  5
52C0C
102
{ACAD_REACTORS
330
52BB0
102
}
330
52BB0
100
AcDbDictionary
281
     1
  0
ACDBDICTIONARYWDFLT
  5
52BB2
102
{ACAD_REACTORS
330
52BB0
102
}
330
52BB0
100
AcDbDictionary
281
     1
  3
Normal
350
52BB3
100
AcDbDictionaryWithDefault
340
52BB3
  0
DICTIONARY
  5
52BDE
102
{ACAD_REACTORS
330
52BB0
102
}
330
52BB0
100
AcDbDictionary
281
     1
  3
A0
350
52BDF
  3
A1
350
52BE0
  3
A2
350
52BE1
  3
A3
350
52BE2
  3
A4
350
52BE3
  3
A5
350
52BE4
  3
A6
350
52BE5
  3
A7
350
52BE6
  3
A8
350
52BE7
  3
A9
350
52BE8
  3
B0
350
52BE9
  3
B1
350
52BEA
  3
B2
350
52BEB
  3
B3
350
52BEC
  3
B4
350
52BED
  3
B5
350
52BEE
  3
B6
350
52BEF
  3
B7
350
52BF0
  3
B8
350
52BF1
  3
B9
350
52BF2
  3
C0
350
52BF3
  3
C1
350
52BF4
  3
C2
350
52BF5
  3
C3
350
52BF6
  3
C4
350
52BF7
  3
C5
350
52BF8
  3
C6
350
52BF9
  3
C7
350
52BFA
  3
C8
350
52BFB
  3
C9
350
52BFC
  3
D0
350
52BFD
  3
D1
350
52BFE
  3
D2
350
52BFF
  0
DICTIONARY
  5
52C0F
102
{ACAD_REACTORS
330
52BB0
102
}
330
52BB0
100
AcDbDictionary
281
     1
  3
Standard
350
52C10
  0
DICTIONARY
  5
52BCD
102
{ACAD_REACTORS
330
52BB0
102
}
330
52BB0
100
AcDbDictionary
281
     1
  3
2dWireframe
350
52BD3
  3
3D Hidden
350
52BD5
  3
3dWireframe
350
52BD4
  3
Basic
350
52BD2
  3
Brighten
350
52BD9
  3
ColorChange
350
52BDD
  3
Conceptual
350
52BD6
  3
Dim
350
52BD8
  3
Facepattern
350
52BDC
  3
Flat
350
52BCE
  3
FlatWithEdges
350
52BCF
  3
Gouraud
350
52BD0
  3
GouraudWithEdges
350
52BD1
  3
Linepattern
350
52BDB
  3
Realistic
350
52BD7
  3
Thicken
350
52BDA
  0
XRECORD
  5
52DBE
102
{ACAD_REACTORS
330
52BB0
102
}
330
52BB0
100
AcDbXrecord
280
     1
 90
        1
330
52C10
330
5329F
  0
DICTIONARY
  5
52DB0
102
{ACAD_REACTORS
330
52BB0
102
}
330
52BB0
100
AcDbDictionary
281
     1
  3
CANNOSCALE
350
52DB4
  3
CMLEADERSTYLE
350
52DB2
  3
CTABLESTYLE
350
52DB1
  3
LAYEREVAL
350
52DB6
  3
LAYERNOTIFY
350
52DB7
  3
LIGHTINGUNITS
350
52DB5
  3
MSLTSCALE
350
52DB3
  0
DICTIONARY
  5
5310E
102
{ACAD_REACTORS
330
52BB0
102
}
330
52BB0
100
AcDbDictionary
281
     1
  3
AcmStdDictionary
350
53119
  0
DICTIONARY
  5
530B8
102
{ACAD_REACTORS
330
52BB0
102
}
330
52BB0
100
AcDbDictionary
281
     1
  0
DICTIONARY
  5
53296
102
{ACAD_REACTORS
330
52BB0
102
}
330
52BB0
100
AcDbDictionary
281
     1
  0
DICTIONARY
  5
52CA7
102
{ACAD_REACTORS
330
52CA6
102
}
330
52CA6
100
AcDbDictionary
281
     1
  0
XRECORD
  5
52DA3
102
{ACAD_REACTORS
330
52DA2
102
}
330
52DA2
100
AcDbXrecord
280
     1
290
     1
  0
XRECORD
  5
52DA5
102
{ACAD_REACTORS
330
52DA4
102
}
330
52DA4
100
AcDbXrecord
280
     1
290
     1
  0
XRECORD
  5
52DA9
102
{ACAD_REACTORS
330
52DA8
102
}
330
52DA8
100
AcDbXrecord
280
     1
290
     1
  0
XRECORD
  5
52DAD
102
{ACAD_REACTORS
330
52DAC
102
}
330
52DAC
100
AcDbXrecord
280
     1
290
     1
  0
XRECORD
  5
533DC
102
{ACAD_REACTORS
330
533DB
102
}
330
533DB
100
AcDbXrecord
280
     1
 40
30497.0
  1
\pxqc;APRON FRONT CUT OUT
  0
DIMASSOC
  5
53387
102
{ACAD_REACTORS
330
53386
102
}
330
53386
100
AcDbDimAssoc
330
53385
 90
        3
 70
     0
 71
     0
  1
AcDbOsnapPointRef
 72
    13
331
53379
 73
     0
 91
        0
 40
0.0
 10
0.0
 20
0.0
 30
2.000000000000000E+50
 75
     0
  1
AcDbOsnapPointRef
 72
    13
331
53383
 73
     0
 91
        0
 40
0.0
 10
0.0
 20
0.0
 30
2.000000000000000E+50
 75
     0
  0
DIMASSOC
  5
5338A
102
{ACAD_REACTORS
330
53389
102
}
330
53389
100
AcDbDimAssoc
330
53388
 90
        1
 70
     0
 71
     0
  1
AcDbOsnapPointRef
 72
     1
331
5337B
 73
     0
 91
        0
 40
0.0
 10
0.0
 20
0.0
 30
2.000000000000000E+50
 75
     0
  0
LAYOUT
  5
52C17
102
{ACAD_REACTORS
330
52C0D
102
}
330
52C0D
100
AcDbPlotSettings
  1

  2
\\ABODESERVER\upstairs
  4

  6

 40
0.0
 41
0.0
 42
0.0
 43
0.0
 44
0.0
 45
0.0
 46
0.0
 47
0.0
 48
0.0
 49
0.0
140
0.0
141
0.0
142
1.0
143
1.0
 70
   688
 72
     0
 73
     0
 74
     5
  7

 75
    16
147
1.0
 76
     0
 77
     2
 78
   300
148
0.0
149
0.0
100
AcDbLayout
  1
Layout1
 70
     1
 71
     1
 10
0.0
 20
0.0
 11
420.0
 21
297.0
 12
0.0
 22
0.0
 32
0.0
 14
1.000000000000000E+20
 24
1.000000000000000E+20
 34
1.000000000000000E+20
 15
-1.000000000000000E+20
 25
-1.000000000000000E+20
 35
-1.000000000000000E+20
146
0.0
 13
0.0
 23
0.0
 33
0.0
 16
1.0
 26
0.0
 36
0.0
 17
0.0
 27
1.0
 37
0.0
 76
     0
330
52C14
  0
LAYOUT
  5
52C1B
102
{ACAD_REACTORS
330
52C0D
102
}
330
52C0D
100
AcDbPlotSettings
  1

  2
\\ABODESERVER\upstairs
  4

  6

 40
0.0
 41
0.0
 42
0.0
 43
0.0
 44
0.0
 45
0.0
 46
0.0
 47
0.0
 48
0.0
 49
0.0
140
0.0
141
0.0
142
1.0
143
1.0
 70
  1712
 72
     0
 73
     0
 74
     0
  7

 75
     0
147
1.0
 76
     0
 77
     2
 78
   300
148
0.0
149
0.0
100
AcDbLayout
  1
Model
 70
     1
 71
     0
 10
0.0
 20
0.0
 11
12.0
 21
9.0
 12
0.0
 22
0.0
 32
0.0
 14
0.0
 24
0.0
 34
0.0
 15
0.0
 25
0.0
 35
0.0
146
0.0
 13
0.0
 23
0.0
 33
0.0
 16
1.0
 26
0.0
 36
0.0
 17
0.0
 27
1.0
 37
0.0
 76
     0
330
52C18
331
52C1C
  0
MATERIAL
  5
52BBD
102
{ACAD_XDICTIONARY
360
52BBE
102
}
102
{ACAD_REACTORS
330
52BB4
102
}
330
52BB4
100
AcDbMaterial
  1
ByBlock
 72
     0
 43
0.0208333333333333
 43
0.0
 43
0.0
 43
0.0
 43
0.0
 43
0.0208333333333333
 43
0.0
 43
0.0
 43
0.0
 43
0.0
 43
1.0
 43
0.0
 43
0.0
 43
0.0
 43
0.0
 43
1.0
 77
     0
 47
0.0208333333333333
 47
0.0
 47
0.0
 47
0.0
 47
0.0
 47
0.0208333333333333
 47
0.0
 47
0.0
 47
0.0
 47
0.0
 47
1.0
 47
0.0
 47
0.0
 47
0.0
 47
0.0
 47
1.0
171
     0
 49
0.0208333333333333
 49
0.0
 49
0.0
 49
0.0
 49
0.0
 49
0.0208333333333333
 49
0.0
 49
0.0
 49
0.0
 49
0.0
 49
1.0
 49
0.0
 49
0.0
 49
0.0
 49
0.0
 49
1.0
175
     0
142
0.0208333333333333
142
0.0
142
0.0
142
0.0
142
0.0
142
0.0208333333333333
142
0.0
142
0.0
142
0.0
142
0.0
142
1.0
142
0.0
142
0.0
142
0.0
142
0.0
142
1.0
179
     0
144
0.0208333333333333
144
0.0
144
0.0
144
0.0
144
0.0
144
0.0208333333333333
144
0.0
144
0.0
144
0.0
144
0.0
144
1.0
144
0.0
144
0.0
144
0.0
144
0.0
144
1.0
147
0.0208333333333333
147
0.0
147
0.0
147
0.0
147
0.0
147
0.0208333333333333
147
0.0
147
0.0
147
0.0
147
0.0
147
1.0
147
0.0
147
0.0
147
0.0
147
0.0
147
1.0
  0
MATERIAL
  5
52BB5
102
{ACAD_XDICTIONARY
360
52BB6
102
}
102
{ACAD_REACTORS
330
52BB4
102
}
330
52BB4
100
AcDbMaterial
  1
ByLayer
 72
     0
 43
0.0208333333333333
 43
0.0
 43
0.0
 43
0.0
 43
0.0
 43
0.0208333333333333
 43
0.0
 43
0.0
 43
0.0
 43
0.0
 43
1.0
 43
0.0
 43
0.0
 43
0.0
 43
0.0
 43
1.0
 77
     0
 47
0.0208333333333333
 47
0.0
 47
0.0
 47
0.0
 47
0.0
 47
0.0208333333333333
 47
0.0
 47
0.0
 47
0.0
 47
0.0
 47
1.0
 47
0.0
 47
0.0
 47
0.0
 47
0.0
 47
1.0
171
     0
 49
0.0208333333333333
 49
0.0
 49
0.0
 49
0.0
 49
0.0
 49
0.0208333333333333
 49
0.0
 49
0.0
 49
0.0
 49
0.0
 49
1.0
 49
0.0
 49
0.0
 49
0.0
 49
0.0
 49
1.0
175
     0
142
0.0208333333333333
142
0.0
142
0.0
142
0.0
142
0.0
142
0.0208333333333333
142
0.0
142
0.0
142
0.0
142
0.0
142
1.0
142
0.0
142
0.0
142
0.0
142
0.0
142
1.0
179
     0
144
0.0208333333333333
144
0.0
144
0.0
144
0.0
144
0.0
144
0.0208333333333333
144
0.0
144
0.0
144
0.0
144
0.0
144
1.0
144
0.0
144
0.0
144
0.0
144
0.0
144
1.0
147
0.0208333333333333
147
0.0
147
0.0
147
0.0
147
0.0
147
0.0208333333333333
147
0.0
147
0.0
147
0.0
147
0.0
147
1.0
147
0.0
147
0.0
147
0.0
147
0.0
147
1.0
  0
MATERIAL
  5
52BC5
102
{ACAD_XDICTIONARY
360
52BC6
102
}
102
{ACAD_REACTORS
330
52BB4
102
}
330
52BB4
100
AcDbMaterial
  1
Global
 72
     0
 43
0.0208333333333333
 43
0.0
 43
0.0
 43
0.0
 43
0.0
 43
0.0208333333333333
 43
0.0
 43
0.0
 43
0.0
 43
0.0
 43
1.0
 43
0.0
 43
0.0
 43
0.0
 43
0.0
 43
1.0
 77
     0
 47
0.0208333333333333
 47
0.0
 47
0.0
 47
0.0
 47
0.0
 47
0.0208333333333333
 47
0.0
 47
0.0
 47
0.0
 47
0.0
 47
1.0
 47
0.0
 47
0.0
 47
0.0
 47
0.0
 47
1.0
171
     0
 49
0.0208333333333333
 49
0.0
 49
0.0
 49
0.0
 49
0.0
 49
0.0208333333333333
 49
0.0
 49
0.0
 49
0.0
 49
0.0
 49
1.0
 49
0.0
 49
0.0
 49
0.0
 49
0.0
 49
1.0
175
     0
142
0.0208333333333333
142
0.0
142
0.0
142
0.0
142
0.0
142
0.0208333333333333
142
0.0
142
0.0
142
0.0
142
0.0
142
1.0
142
0.0
142
0.0
142
0.0
142
0.0
142
1.0
179
     0
144
0.0208333333333333
144
0.0
144
0.0
144
0.0
144
0.0
144
0.0208333333333333
144
0.0
144
0.0
144
0.0
144
0.0
144
1.0
144
0.0
144
0.0
144
0.0
144
0.0
144
1.0
147
0.0208333333333333
147
0.0
147
0.0
147
0.0
147
0.0
147
0.0208333333333333
147
0.0
147
0.0
147
0.0
147
0.0
147
1.0
147
0.0
147
0.0
147
0.0
147
0.0
147
1.0
  0
MLEADERSTYLE
  5
52C12
102
{ACAD_REACTORS
330
52C11
102
}
330
52C11
100
AcDbMLeaderStyle
170
     2
171
     1
172
     0
 90
        2
 40
0.0
 41
0.0
173
     1
 91
-1056964608
340
52C06
 92
       -2
290
     1
 42
0.09
291
     1
 43
0.36
  3
Standard
 44
0.18
300

342
52C01
174
     1
178
     6
175
     1
176
     0
 93
-1056964608
 45
0.18
292
     0
297
     0
 46
0.18
 94
-1056964608
 47
1.0
 49
1.0
140
1.0
293
     1
141
0.0
294
     1
177
     0
142
1.0
295
     0
296
     0
143
0.125
1001
ACAD_MLEADERVER
1070
     2
  0
MLINESTYLE
  5
52C0B
102
{ACAD_REACTORS
330
52C0A
102
}
330
52C0A
100
AcDbMlineStyle
  2
STANDARD
 70
     0
  3

 62
   256
 51
90.0
 52
90.0
 71
     2
 49
0.5
 62
   256
  6
BYLAYER
 49
-0.5
 62
   256
  6
BYLAYER
  0
ACDBPLACEHOLDER
  5
52BB3
102
{ACAD_REACTORS
330
52BB2
102
}
330
52BB2
  0
SCALE
  5
52BDF
102
{ACAD_REACTORS
330
52BDE
102
}
330
52BDE
100
AcDbScale
 70
     0
300
1:1
140
1.0
141
1.0
290
     1
  0
SCALE
  5
52BE0
102
{ACAD_REACTORS
330
52BDE
102
}
330
52BDE
100
AcDbScale
 70
     0
300
1:2
140
1.0
141
2.0
290
     0
  0
SCALE
  5
52BE1
102
{ACAD_REACTORS
330
52BDE
102
}
330
52BDE
100
AcDbScale
 70
     0
300
1:4
140
1.0
141
4.0
290
     0
  0
SCALE
  5
52BE2
102
{ACAD_REACTORS
330
52BDE
102
}
330
52BDE
100
AcDbScale
 70
     0
300
1:5
140
1.0
141
5.0
290
     0
  0
SCALE
  5
52BE3
102
{ACAD_REACTORS
330
52BDE
102
}
330
52BDE
100
AcDbScale
 70
     0
300
1:8
140
1.0
141
8.0
290
     0
  0
SCALE
  5
52BE4
102
{ACAD_REACTORS
330
52BDE
102
}
330
52BDE
100
AcDbScale
 70
     0
300
1:10
140
1.0
141
10.0
290
     0
  0
SCALE
  5
52BE5
102
{ACAD_REACTORS
330
52BDE
102
}
330
52BDE
100
AcDbScale
 70
     0
300
1:16
140
1.0
141
16.0
290
     0
  0
SCALE
  5
52BE6
102
{ACAD_REACTORS
330
52BDE
102
}
330
52BDE
100
AcDbScale
 70
     0
300
1:20
140
1.0
141
20.0
290
     0
  0
SCALE
  5
52BE7
102
{ACAD_REACTORS
330
52BDE
102
}
330
52BDE
100
AcDbScale
 70
     0
300
1:30
140
1.0
141
30.0
290
     0
  0
SCALE
  5
52BE8
102
{ACAD_REACTORS
330
52BDE
102
}
330
52BDE
100
AcDbScale
 70
     0
300
1:40
140
1.0
141
40.0
290
     0
  0
SCALE
  5
52BE9
102
{ACAD_REACTORS
330
52BDE
102
}
330
52BDE
100
AcDbScale
 70
     0
300
1:50
140
1.0
141
50.0
290
     0
  0
SCALE
  5
52BEA
102
{ACAD_REACTORS
330
52BDE
102
}
330
52BDE
100
AcDbScale
 70
     0
300
1:100
140
1.0
141
100.0
290
     0
  0
SCALE
  5
52BEB
102
{ACAD_REACTORS
330
52BDE
102
}
330
52BDE
100
AcDbScale
 70
     0
300
2:1
140
2.0
141
1.0
290
     0
  0
SCALE
  5
52BEC
102
{ACAD_REACTORS
330
52BDE
102
}
330
52BDE
100
AcDbScale
 70
     0
300
4:1
140
4.0
141
1.0
290
     0
  0
SCALE
  5
52BED
102
{ACAD_REACTORS
330
52BDE
102
}
330
52BDE
100
AcDbScale
 70
     0
300
8:1
140
8.0
141
1.0
290
     0
  0
SCALE
  5
52BEE
102
{ACAD_REACTORS
330
52BDE
102
}
330
52BDE
100
AcDbScale
 70
     0
300
10:1
140
10.0
141
1.0
290
     0
  0
SCALE
  5
52BEF
102
{ACAD_REACTORS
330
52BDE
102
}
330
52BDE
100
AcDbScale
 70
     0
300
100:1
140
100.0
141
1.0
290
     0
  0
SCALE
  5
52BF0
102
{ACAD_REACTORS
330
52BDE
102
}
330
52BDE
100
AcDbScale
 70
     0
300
1/128" = 1'-0"
140
0.0078125
141
12.0
290
     0
  0
SCALE
  5
52BF1
102
{ACAD_REACTORS
330
52BDE
102
}
330
52BDE
100
AcDbScale
 70
     0
300
1/64" = 1'-0"
140
0.015625
141
12.0
290
     0
  0
SCALE
  5
52BF2
102
{ACAD_REACTORS
330
52BDE
102
}
330
52BDE
100
AcDbScale
 70
     0
300
1/32" = 1'-0"
140
0.03125
141
12.0
290
     0
  0
SCALE
  5
52BF3
102
{ACAD_REACTORS
330
52BDE
102
}
330
52BDE
100
AcDbScale
 70
     0
300
1/16" = 1'-0"
140
0.0625
141
12.0
290
     0
  0
SCALE
  5
52BF4
102
{ACAD_REACTORS
330
52BDE
102
}
330
52BDE
100
AcDbScale
 70
     0
300
3/32" = 1'-0"
140
0.09375
141
12.0
290
     0
  0
SCALE
  5
52BF5
102
{ACAD_REACTORS
330
52BDE
102
}
330
52BDE
100
AcDbScale
 70
     0
300
1/8" = 1'-0"
140
0.125
141
12.0
290
     0
  0
SCALE
  5
52BF6
102
{ACAD_REACTORS
330
52BDE
102
}
330
52BDE
100
AcDbScale
 70
     0
300
3/16" = 1'-0"
140
0.1875
141
12.0
290
     0
  0
SCALE
  5
52BF7
102
{ACAD_REACTORS
330
52BDE
102
}
330
52BDE
100
AcDbScale
 70
     0
300
1/4" = 1'-0"
140
0.25
141
12.0
290
     0
  0
SCALE
  5
52BF8
102
{ACAD_REACTORS
330
52BDE
102
}
330
52BDE
100
AcDbScale
 70
     0
300
3/8" = 1'-0"
140
0.375
141
12.0
290
     0
  0
SCALE
  5
52BF9
102
{ACAD_REACTORS
330
52BDE
102
}
330
52BDE
100
AcDbScale
 70
     0
300
1/2" = 1'-0"
140
0.5
141
12.0
290
     0
  0
SCALE
  5
52BFA
102
{ACAD_REACTORS
330
52BDE
102
}
330
52BDE
100
AcDbScale
 70
     0
300
3/4" = 1'-0"
140
0.75
141
12.0
290
     0
  0
SCALE
  5
52BFB
102
{ACAD_REACTORS
330
52BDE
102
}
330
52BDE
100
AcDbScale
 70
     0
300
1" = 1'-0"
140
1.0
141
12.0
290
     0
  0
SCALE
  5
52BFC
102
{ACAD_REACTORS
330
52BDE
102
}
330
52BDE
100
AcDbScale
 70
     0
300
1-1/2" = 1'-0"
140
1.5
141
12.0
290
     0
  0
SCALE
  5
52BFD
102
{ACAD_REACTORS
330
52BDE
102
}
330
52BDE
100
AcDbScale
 70
     0
300
3" = 1'-0"
140
3.0
141
12.0
290
     0
  0
SCALE
  5
52BFE
102
{ACAD_REACTORS
330
52BDE
102
}
330
52BDE
100
AcDbScale
 70
     0
300
6" = 1'-0"
140
6.0
141
12.0
290
     0
  0
SCALE
  5
52BFF
102
{ACAD_REACTORS
330
52BDE
102
}
330
52BDE
100
AcDbScale
 70
     0
300
1'-0" = 1'-0"
140
12.0
141
12.0
290
     0
  0
TABLESTYLE
  5
52C10
102
{ACAD_XDICTIONARY
360
52DB8
102
}
102
{ACAD_REACTORS
330
52C0F
102
}
330
52C0F
100
AcDbTableStyle
  3
Standard
 70
     0
 71
     0
 40
0.06
 41
0.06
280
     0
281
     0
  7
STANDARD
140
0.18
170
     2
 62
     0
 63
     7
283
     0
 90
      512
 91
        0
  1

274
    -2
284
     1
 64
     0
275
    -2
285
     1
 65
     0
276
    -2
286
     1
 66
     0
277
    -2
287
     1
 67
     0
278
    -2
288
     1
 68
     0
279
    -2
289
     1
 69
     0
  7
STANDARD
140
0.25
170
     5
 62
     0
 63
     7
283
     0
 90
      512
 91
        0
  1

274
    -2
284
     1
 64
     0
275
    -2
285
     1
 65
     0
276
    -2
286
     1
 66
     0
277
    -2
287
     1
 67
     0
278
    -2
288
     1
 68
     0
279
    -2
289
     1
 69
     0
  7
STANDARD
140
0.18
170
     5
 62
     0
 63
     7
283
     0
 90
      512
 91
        0
  1

274
    -2
284
     1
 64
     0
275
    -2
285
     1
 65
     0
276
    -2
286
     1
 66
     0
277
    -2
287
     1
 67
     0
278
    -2
288
     1
 68
     0
279
    -2
289
     1
 69
     0
  0
VISUALSTYLE
  5
52BD3
102
{ACAD_REACTORS
330
52BCD
102
}
330
52BCD
100
AcDbVisualStyle
  2
2dWireframe
 70
     4
 71
     0
 72
     2
 73
     0
 90
        0
 40
-0.6
 41
-30.0
 62
     5
 63
     7
421
 16777215
 74
     1
 91
        4
 64
     7
 65
   257
 75
     1
175
     1
 42
1.0
 92
        0
 66
   257
 43
1.0
 76
     1
 77
     6
 78
     2
 67
     7
 79
     5
170
     0
171
     0
290
     0
174
     0
 93
        1
 44
0.0
173
     0
291
     0
 45
0.0
  0
VISUALSTYLE
  5
52BD5
102
{ACAD_REACTORS
330
52BCD
102
}
330
52BCD
100
AcDbVisualStyle
  2
3D Hidden
 70
     6
 71
     1
 72
     2
 73
     2
 90
        0
 40
-0.6
 41
-30.0
 62
     5
 63
     7
421
 16777215
 74
     2
 91
        2
 64
     7
 65
   257
 75
     2
175
     1
 42
40.0
 92
        0
 66
   257
 43
1.0
 76
     1
 77
     6
 78
     2
 67
     7
 79
     3
170
     0
171
     0
290
     0
174
     0
 93
        1
 44
0.0
173
     0
291
     0
 45
0.0
  0
VISUALSTYLE
  5
52BD4
102
{ACAD_REACTORS
330
52BCD
102
}
330
52BCD
100
AcDbVisualStyle
  2
3dWireframe
 70
     5
 71
     0
 72
     2
 73
     0
 90
        0
 40
-0.6
 41
-30.0
 62
     5
 63
     7
421
 16777215
 74
     1
 91
        4
 64
     7
 65
   257
 75
     1
175
     1
 42
1.0
 92
        0
 66
   257
 43
1.0
 76
     1
 77
     6
 78
     2
 67
     7
 79
     5
170
     0
171
     0
290
     0
174
     0
 93
        1
 44
0.0
173
     0
291
     0
 45
0.0
  0
VISUALSTYLE
  5
52BD2
102
{ACAD_REACTORS
330
52BCD
102
}
330
52BCD
100
AcDbVisualStyle
  2
Basic
 70
     7
 71
     1
 72
     0
 73
     1
 90
        0
 40
-0.6
 41
-30.0
 62
     5
 63
     7
421
 16777215
 74
     0
 91
        4
 64
     7
 65
   257
 75
     1
175
     1
 42
1.0
 92
        8
 66
     7
 43
1.0
 76
     1
 77
     6
 78
     2
 67
     7
 79
     5
170
     0
171
     0
290
     0
174
     0
 93
        1
 44
0.0
173
     0
291
     1
 45
0.0
  0
VISUALSTYLE
  5
52BD9
102
{ACAD_REACTORS
330
52BCD
102
}
330
52BCD
100
AcDbVisualStyle
  2
Brighten
 70
    12
 71
     2
 72
     2
 73
     0
 90
        0
 40
-0.6
 41
-30.0
 62
     5
 63
     7
421
 16777215
 74
     1
 91
        4
 64
     7
 65
   257
 75
     1
175
     1
 42
1.0
 92
        8
 66
     7
 43
1.0
 76
     1
 77
     6
 78
     2
 67
     7
 79
     5
170
     0
171
     0
290
     0
174
     0
 93
        1
 44
50.0
173
     0
291
     1
 45
0.0
  0
VISUALSTYLE
  5
52BDD
102
{ACAD_REACTORS
330
52BCD
102
}
330
52BCD
100
AcDbVisualStyle
  2
ColorChange
 70
    16
 71
     2
 72
     2
 73
     3
 90
        0
 40
-0.6
 41
-30.0
 62
     5
 63
     8
421
  8421504
 74
     1
 91
        4
 64
     7
 65
   257
 75
     1
175
     1
 42
1.0
 92
        8
 66
     8
424
  8421504
 43
1.0
 76
     1
 77
     6
 78
     2
 67
     7
 79
     5
170
     0
171
     0
290
     0
174
     0
 93
        1
 44
0.0
173
     0
291
     1
 45
0.0
  0
VISUALSTYLE
  5
52BD6
102
{ACAD_REACTORS
330
52BCD
102
}
330
52BCD
100
AcDbVisualStyle
  2
Conceptual
 70
     9
 71
     3
 72
     2
 73
     0
 90
        0
 40
-0.6
 41
-30.0
 62
     5
 63
     7
421
 16777215
 74
     2
 91
        2
 64
     7
 65
   257
 75
     1
175
     1
 42
40.0
 92
        8
 66
     7
 43
1.0
 76
     1
 77
     6
 78
     2
 67
     7
 79
     3
170
     0
171
     0
290
     0
174
     0
 93
        1
 44
0.0
173
     0
291
     0
 45
0.0
  0
VISUALSTYLE
  5
52BD8
102
{ACAD_REACTORS
330
52BCD
102
}
330
52BCD
100
AcDbVisualStyle
  2
Dim
 70
    11
 71
     2
 72
     2
 73
     0
 90
        0
 40
-0.6
 41
-30.0
 62
     5
 63
     7
421
 16777215
 74
     1
 91
        4
 64
     7
 65
   257
 75
     1
175
     1
 42
1.0
 92
        8
 66
     7
 43
1.0
 76
     1
 77
     6
 78
     2
 67
     7
 79
     5
170
     0
171
     0
290
     0
174
     0
 93
        1
 44
-50.0
173
     0
291
     1
 45
0.0
  0
VISUALSTYLE
  5
52BDC
102
{ACAD_REACTORS
330
52BCD
102
}
330
52BCD
100
AcDbVisualStyle
  2
Facepattern
 70
    15
 71
     2
 72
     2
 73
     0
 90
        0
 40
-0.6
 41
-30.0
 62
     5
 63
     7
421
 16777215
 74
     1
 91
        4
 64
     7
 65
   257
 75
     1
175
     1
 42
1.0
 92
        8
 66
     7
 43
1.0
 76
     1
 77
     6
 78
     2
 67
     7
 79
     5
170
     0
171
     0
290
     0
174
     0
 93
        1
 44
0.0
173
     0
291
     1
 45
0.0
  0
VISUALSTYLE
  5
52BCE
102
{ACAD_REACTORS
330
52BCD
102
}
330
52BCD
100
AcDbVisualStyle
  2
Flat
 70
     0
 71
     2
 72
     1
 73
     1
 90
        2
 40
-0.6
 41
30.0
 62
     5
 63
     7
421
 16777215
 74
     0
 91
        4
 64
     7
 65
   257
 75
     1
175
     1
 42
1.0
 92
        8
 66
     7
 43
1.0
 76
     1
 77
     6
 78
     2
 67
     7
 79
     5
170
     0
171
     0
290
     0
174
     0
 93
       13
 44
0.0
173
     0
291
     1
 45
0.0
  0
VISUALSTYLE
  5
52BCF
102
{ACAD_REACTORS
330
52BCD
102
}
330
52BCD
100
AcDbVisualStyle
  2
FlatWithEdges
 70
     1
 71
     2
 72
     1
 73
     1
 90
        2
 40
-0.6
 41
30.0
 62
     5
 63
     7
421
 16777215
 74
     1
 91
        4
 64
     7
 65
   257
 75
     1
175
     1
 42
1.0
 92
        0
 66
   257
 43
1.0
 76
     1
 77
     6
 78
     2
 67
     7
 79
     5
170
     0
171
     0
290
     0
174
     0
 93
       13
 44
0.0
173
     0
291
     1
 45
0.0
  0
VISUALSTYLE
  5
52BD0
102
{ACAD_REACTORS
330
52BCD
102
}
330
52BCD
100
AcDbVisualStyle
  2
Gouraud
 70
     2
 71
     2
 72
     2
 73
     1
 90
        2
 40
-0.6
 41
30.0
 62
     5
 63
     7
421
 16777215
 74
     0
 91
        4
 64
     7
 65
   257
 75
     1
175
     1
 42
1.0
 92
        0
 66
     7
 43
1.0
 76
     1
 77
     6
 78
     2
 67
     7
 79
     5
170
     0
171
     0
290
     0
174
     0
 93
       13
 44
0.0
173
     0
291
     1
 45
0.0
  0
VISUALSTYLE
  5
52BD1
102
{ACAD_REACTORS
330
52BCD
102
}
330
52BCD
100
AcDbVisualStyle
  2
GouraudWithEdges
 70
     3
 71
     2
 72
     2
 73
     1
 90
        2
 40
-0.6
 41
30.0
 62
     5
 63
     7
421
 16777215
 74
     1
 91
        4
 64
     7
 65
   257
 75
     1
175
     1
 42
1.0
 92
        0
 66
   257
 43
1.0
 76
     1
 77
     6
 78
     2
 67
     7
 79
     5
170
     0
171
     0
290
     0
174
     0
 93
       13
 44
0.0
173
     0
291
     1
 45
0.0
  0
VISUALSTYLE
  5
52BDB
102
{ACAD_REACTORS
330
52BCD
102
}
330
52BCD
100
AcDbVisualStyle
  2
Linepattern
 70
    14
 71
     2
 72
     2
 73
     0
 90
        0
 40
-0.6
 41
-30.0
 62
     5
 63
     7
421
 16777215
 74
     1
 91
        4
 64
     7
 65
   257
 75
     7
175
     7
 42
1.0
 92
        8
 66
     7
 43
1.0
 76
     1
 77
     6
 78
     2
 67
     7
 79
     5
170
     0
171
     0
290
     0
174
     0
 93
        1
 44
0.0
173
     0
291
     1
 45
0.0
  0
VISUALSTYLE
  5
52BD7
102
{ACAD_REACTORS
330
52BCD
102
}
330
52BCD
100
AcDbVisualStyle
  2
Realistic
 70
     8
 71
     2
 72
     2
 73
     0
 90
        0
 40
-0.6
 41
-30.0
 62
     5
 63
     7
421
 16777215
 74
     1
 91
        0
 64
     7
 65
   257
 75
     1
175
     1
 42
1.0
 92
        8
 66
     8
424
  7895160
 43
1.0
 76
     1
 77
     6
 78
     2
 67
     7
 79
     5
170
     0
171
     0
290
     0
174
     0
 93
       13
 44
0.0
173
     0
291
     0
 45
0.0
  0
VISUALSTYLE
  5
52BDA
102
{ACAD_REACTORS
330
52BCD
102
}
330
52BCD
100
AcDbVisualStyle
  2
Thicken
 70
    13
 71
     2
 72
     2
 73
     0
 90
        0
 40
-0.6
 41
-30.0
 62
     5
 63
     7
421
 16777215
 74
     1
 91
        4
 64
     7
 65
   257
 75
     1
175
     1
 42
1.0
 92
       12
 66
     7
 43
1.0
 76
     1
 77
     6
 78
     2
 67
     7
 79
     5
170
     0
171
     0
290
     0
174
     0
 93
        1
 44
0.0
173
     0
291
     1
 45
0.0
  0
DICTIONARYVAR
  5
52DB4
102
{ACAD_REACTORS
330
52DB0
102
}
330
52DB0
100
DictionaryVariables
280
     0
  1
1:1
  0
DICTIONARYVAR
  5
52DB2
102
{ACAD_REACTORS
330
52DB0
102
}
330
52DB0
100
DictionaryVariables
280
     0
  1
STANDARD
  0
DICTIONARYVAR
  5
52DB1
102
{ACAD_REACTORS
330
52DB0
102
}
330
52DB0
100
DictionaryVariables
280
     0
  1
STANDARD
  0
DICTIONARYVAR
  5
52DB6
102
{ACAD_REACTORS
330
52DB0
102
}
330
52DB0
100
DictionaryVariables
280
     0
  1
1
  0
DICTIONARYVAR
  5
52DB7
102
{ACAD_REACTORS
330
52DB0
102
}
330
52DB0
100
DictionaryVariables
280
     0
  1
15
  0
DICTIONARYVAR
  5
52DB5
102
{ACAD_REACTORS
330
52DB0
102
}
330
52DB0
100
DictionaryVariables
280
     0
  1
0
  0
DICTIONARYVAR
  5
52DB3
102
{ACAD_REACTORS
330
52DB0
102
}
330
52DB0
100
DictionaryVariables
280
     0
  1
0
  0
DICTIONARY
  5
53119
102
{ACAD_REACTORS
330
5310E
102
}
330
5310E
100
AcDbDictionary
281
     1
  0
DICTIONARY
  5
52BBE
330
52BBD
100
AcDbDictionary
280
     1
281
     1
  3
BUMPTILE
360
52BC0
  3
DIFFUSETILE
360
52BBF
  3
OPACITYTILE
360
52BC3
  3
REFLECTIONTILE
360
52BC2
  3
REFRACTIONTILE
360
52BC4
  3
SPECULARTILE
360
52BC1
  0
DICTIONARY
  5
52BB6
330
52BB5
100
AcDbDictionary
280
     1
281
     1
  3
BUMPTILE
360
52BB8
  3
DIFFUSETILE
360
52BB7
  3
OPACITYTILE
360
52BBB
  3
REFLECTIONTILE
360
52BBA
  3
REFRACTIONTILE
360
52BBC
  3
SPECULARTILE
360
52BB9
  0
DICTIONARY
  5
52BC6
330
52BC5
100
AcDbDictionary
280
     1
281
     1
  3
BUMPTILE
360
52BC8
  3
DIFFUSETILE
360
52BC7
  3
OPACITYTILE
360
52BCB
  3
REFLECTIONTILE
360
52BCA
  3
REFRACTIONTILE
360
52BCC
  3
SPECULARTILE
360
52BC9
  0
DICTIONARY
  5
52DB8
330
52C10
100
AcDbDictionary
280
     1
281
     1
  3
ACAD_ROUNDTRIP_2008_TABLESTYLE_CELLSTYLEMAP
360
533DA
  0
XRECORD
  5
52BC0
102
{ACAD_REACTORS
330
52BBE
102
}
330
52BBE
100
AcDbXrecord
280
     1
270
     1
271
     1
  0
XRECORD
  5
52BBF
102
{ACAD_REACTORS
330
52BBE
102
}
330
52BBE
100
AcDbXrecord
280
     1
270
     1
271
     1
  0
XRECORD
  5
52BC3
102
{ACAD_REACTORS
330
52BBE
102
}
330
52BBE
100
AcDbXrecord
280
     1
270
     1
271
     1
  0
XRECORD
  5
52BC2
102
{ACAD_REACTORS
330
52BBE
102
}
330
52BBE
100
AcDbXrecord
280
     1
270
     1
271
     1
  0
XRECORD
  5
52BC4
102
{ACAD_REACTORS
330
52BBE
102
}
330
52BBE
100
AcDbXrecord
280
     1
270
     1
271
     1
  0
XRECORD
  5
52BC1
102
{ACAD_REACTORS
330
52BBE
102
}
330
52BBE
100
AcDbXrecord
280
     1
270
     1
271
     1
  0
XRECORD
  5
52BB8
102
{ACAD_REACTORS
330
52BB6
102
}
330
52BB6
100
AcDbXrecord
280
     1
270
     1
271
     1
  0
XRECORD
  5
52BB7
102
{ACAD_REACTORS
330
52BB6
102
}
330
52BB6
100
AcDbXrecord
280
     1
270
     1
271
     1
  0
XRECORD
  5
52BBB
102
{ACAD_REACTORS
330
52BB6
102
}
330
52BB6
100
AcDbXrecord
280
     1
270
     1
271
     1
  0
XRECORD
  5
52BBA
102
{ACAD_REACTORS
330
52BB6
102
}
330
52BB6
100
AcDbXrecord
280
     1
270
     1
271
     1
  0
XRECORD
  5
52BBC
102
{ACAD_REACTORS
330
52BB6
102
}
330
52BB6
100
AcDbXrecord
280
     1
270
     1
271
     1
  0
XRECORD
  5
52BB9
102
{ACAD_REACTORS
330
52BB6
102
}
330
52BB6
100
AcDbXrecord
280
     1
270
     1
271
     1
  0
XRECORD
  5
52BC8
102
{ACAD_REACTORS
330
52BC6
102
}
330
52BC6
100
AcDbXrecord
280
     1
270
     1
271
     1
  0
XRECORD
  5
52BC7
102
{ACAD_REACTORS
330
52BC6
102
}
330
52BC6
100
AcDbXrecord
280
     1
270
     1
271
     1
  0
XRECORD
  5
52BCB
102
{ACAD_REACTORS
330
52BC6
102
}
330
52BC6
100
AcDbXrecord
280
     1
270
     1
271
     1
  0
XRECORD
  5
52BCA
102
{ACAD_REACTORS
330
52BC6
102
}
330
52BC6
100
AcDbXrecord
280
     1
270
     1
271
     1
  0
XRECORD
  5
52BCC
102
{ACAD_REACTORS
330
52BC6
102
}
330
52BC6
100
AcDbXrecord
280
     1
270
     1
271
     1
  0
XRECORD
  5
52BC9
102
{ACAD_REACTORS
330
52BC6
102
}
330
52BC6
100
AcDbXrecord
280
     1
270
     1
271
     1
  0
CELLSTYLEMAP
  5
533DA
102
{ACAD_REACTORS
330
52DB8
102
}
330
52DB8
100
AcDbCellStyleMap
 90
        3
300
CELLSTYLE
  1
TABLEFORMAT_BEGIN
 90
        5
170
     1
 91
        0
 92
    32768
 62
   257
 93
        1
300
CONTENTFORMAT
  1
CONTENTFORMAT_BEGIN
 90
        0
 91
        0
 92
      512
 93
        0
300

 40
0.0
140
1.0
 94
        5
 62
     0
340
52C01
144
0.25
309
CONTENTFORMAT_END
171
     1
301
MARGIN
  1
CELLMARGIN_BEGIN
 40
0.06
 40
0.06
 40
0.06
 40
0.06
 40
0.18
 40
0.18
309
CELLMARGIN_END
 94
        6
 95
        1
302
GRIDFORMAT
  1
GRIDFORMAT_BEGIN
 90
        0
 91
        1
 62
     0
 92
       -2
340
0
 93
        0
 40
0.045
309
GRIDFORMAT_END
 95
        2
302
GRIDFORMAT
  1
GRIDFORMAT_BEGIN
 90
        0
 91
        1
 62
     0
 92
       -2
340
0
 93
        0
 40
0.045
309
GRIDFORMAT_END
 95
        4
302
GRIDFORMAT
  1
GRIDFORMAT_BEGIN
 90
        0
 91
        1
 62
     0
 92
       -2
340
0
 93
        0
 40
0.045
309
GRIDFORMAT_END
 95
        8
302
GRIDFORMAT
  1
GRIDFORMAT_BEGIN
 90
        0
 91
        1
 62
     0
 92
       -2
340
0
 93
        0
 40
0.045
309
GRIDFORMAT_END
 95
       16
302
GRIDFORMAT
  1
GRIDFORMAT_BEGIN
 90
        0
 91
        1
 62
     0
 92
       -2
340
0
 93
        0
 40
0.045
309
GRIDFORMAT_END
 95
       32
302
GRIDFORMAT
  1
GRIDFORMAT_BEGIN
 90
        0
 91
        1
 62
     0
 92
       -2
340
0
 93
        0
 40
0.045
309
GRIDFORMAT_END
309
TABLEFORMAT_END
  1
CELLSTYLE_BEGIN
 90
        1
 91
        1
300
_TITLE
309
CELLSTYLE_END
300
CELLSTYLE
  1
TABLEFORMAT_BEGIN
 90
        5
170
     1
 91
        0
 92
        0
 62
   257
 93
        1
300
CONTENTFORMAT
  1
CONTENTFORMAT_BEGIN
 90
        0
 91
        0
 92
      512
 93
        0
300

 40
0.0
140
1.0
 94
        5
 62
     0
340
52C01
144
0.18
309
CONTENTFORMAT_END
171
     1
301
MARGIN
  1
CELLMARGIN_BEGIN
 40
0.06
 40
0.06
 40
0.06
 40
0.06
 40
0.18
 40
0.18
309
CELLMARGIN_END
 94
        6
 95
        1
302
GRIDFORMAT
  1
GRIDFORMAT_BEGIN
 90
        0
 91
        1
 62
     0
 92
       -2
340
0
 93
        0
 40
0.045
309
GRIDFORMAT_END
 95
        2
302
GRIDFORMAT
  1
GRIDFORMAT_BEGIN
 90
        0
 91
        1
 62
     0
 92
       -2
340
0
 93
        0
 40
0.045
309
GRIDFORMAT_END
 95
        4
302
GRIDFORMAT
  1
GRIDFORMAT_BEGIN
 90
        0
 91
        1
 62
     0
 92
       -2
340
0
 93
        0
 40
0.045
309
GRIDFORMAT_END
 95
        8
302
GRIDFORMAT
  1
GRIDFORMAT_BEGIN
 90
        0
 91
        1
 62
     0
 92
       -2
340
0
 93
        0
 40
0.045
309
GRIDFORMAT_END
 95
       16
302
GRIDFORMAT
  1
GRIDFORMAT_BEGIN
 90
        0
 91
        1
 62
     0
 92
       -2
340
0
 93
        0
 40
0.045
309
GRIDFORMAT_END
 95
       32
302
GRIDFORMAT
  1
GRIDFORMAT_BEGIN
 90
        0
 91
        1
 62
     0
 92
       -2
340
0
 93
        0
 40
0.045
309
GRIDFORMAT_END
309
TABLEFORMAT_END
  1
CELLSTYLE_BEGIN
 90
        2
 91
        1
300
_HEADER
309
CELLSTYLE_END
300
CELLSTYLE
  1
TABLEFORMAT_BEGIN
 90
        5
170
     1
 91
        0
 92
        0
 62
   257
 93
        1
300
CONTENTFORMAT
  1
CONTENTFORMAT_BEGIN
 90
        0
 91
        0
 92
      512
 93
        0
300

 40
0.0
140
1.0
 94
        2
 62
     0
340
52C01
144
0.18
309
CONTENTFORMAT_END
171
     1
301
MARGIN
  1
CELLMARGIN_BEGIN
 40
0.06
 40
0.06
 40
0.06
 40
0.06
 40
0.18
 40
0.18
309
CELLMARGIN_END
 94
        6
 95
        1
302
GRIDFORMAT
  1
GRIDFORMAT_BEGIN
 90
        0
 91
        1
 62
     0
 92
       -2
340
0
 93
        0
 40
0.045
309
GRIDFORMAT_END
 95
        2
302
GRIDFORMAT
  1
GRIDFORMAT_BEGIN
 90
        0
 91
        1
 62
     0
 92
       -2
340
0
 93
        0
 40
0.045
309
GRIDFORMAT_END
 95
        4
302
GRIDFORMAT
  1
GRIDFORMAT_BEGIN
 90
        0
 91
        1
 62
     0
 92
       -2
340
0
 93
        0
 40
0.045
309
GRIDFORMAT_END
 95
        8
302
GRIDFORMAT
  1
GRIDFORMAT_BEGIN
 90
        0
 91
        1
 62
     0
 92
       -2
340
0
 93
        0
 40
0.045
309
GRIDFORMAT_END
 95
       16
302
GRIDFORMAT
  1
GRIDFORMAT_BEGIN
 90
        0
 91
        1
 62
     0
 92
       -2
340
0
 93
        0
 40
0.045
309
GRIDFORMAT_END
 95
       32
302
GRIDFORMAT
  1
GRIDFORMAT_BEGIN
 90
        0
 91
        1
 62
     0
 92
       -2
340
0
 93
        0
 40
0.045
309
GRIDFORMAT_END
309
TABLEFORMAT_END
  1
CELLSTYLE_BEGIN
 90
        3
 91
        2
300
_DATA
309
CELLSTYLE_END
  0
ENDSEC
  0
EOF
