  0
SECTION
  2
HEADER
  9
$ACADVER
  1
AC1021
  9
$ACADMAINTVER
 70
    50
  9
$DWGCODEPAGE
  3
ANSI_1252
  9
$LASTSAVEDBY
  1
mstaweczny
  9
$INSBASE
 10
0.0
 20
0.0
 30
0.0
  9
$EXTMIN
 10
3236.124940186259
 20
1006.872900430052
 30
0.0
  9
$EXTMAX
 10
31090.84545361959
 20
26676.40104386972
 30
0.0
  9
$LIMMIN
 10
0.0
 20
0.0
  9
$LIMMAX
 10
420.0
 20
297.0
  9
$ORTHOMODE
 70
     0
  9
$REGENMODE
 70
     1
  9
$FILLMODE
 70
     1
  9
$QTEXTMODE
 70
     0
  9
$MIRRTEXT
 70
     0
  9
$LTSCALE
 40
1.0
  9
$ATTMODE
 70
     1
  9
$TEXTSIZE
 40
2.5
  9
$TRACEWID
 40
1.0
  9
$TEXTSTYLE
  7
STANDARD
  9
$CLAYER
  8
0
  9
$CELTYPE
  6
ByLayer
  9
$CECOLOR
 62
   256
  9
$CELTSCALE
 40
1.0
  9
$DISPSILH
 70
     0
  9
$DIMSCALE
 40
1.0
  9
$DIMASZ
 40
0.12
  9
$DIMEXO
 40
0.05
  9
$DIMDLI
 40
0.5
  9
$DIMRND
 40
0.0
  9
$DIMDLE
 40
0.0
  9
$DIMEXE
 40
0.1
  9
$DIMTP
 40
0.1
  9
$DIMTM
 40
0.1
  9
$DIMTXT
 40
0.12
  9
$DIMCEN
 40
0.0
  9
$DIMTSZ
 40
0.0
  9
$DIMTOL
 70
     0
  9
$DIMLIM
 70
     0
  9
$DIMTIH
 70
     1
  9
$DIMTOH
 70
     1
  9
$DIMSE1
 70
     0
  9
$DIMSE2
 70
     0
  9
$DIMTAD
 70
     0
  9
$DIMZIN
 70
     7
  9
$DIMBLK
  1

  9
$DIMASO
 70
     1
  9
$DIMSHO
 70
     1
  9
$DIMPOST
  1

  9
$DIMAPOST
  1
mm
  9
$DIMALT
 70
     0
  9
$DIMALTD
 70
     2
  9
$DIMALTF
 40
25.4
  9
$DIMLFAC
 40
1.0
  9
$DIMTOFL
 70
     0
  9
$DIMTVP
 40
0.0
  9
$DIMTIX
 70
     0
  9
$DIMSOXD
 70
     0
  9
$DIMSAH
 70
     0
  9
$DIMBLK1
  1

  9
$DIMBLK2
  1

  9
$DIMSTYLE
  2
AM_ANSI
  9
$DIMCLRD
 70
   256
  9
$DIMCLRE
 70
   256
  9
$DIMCLRT
 70
   140
  9
$DIMTFAC
 40
0.71
  9
$DIMGAP
 40
0.06
  9
$DIMJUST
 70
     0
  9
$DIMSD1
 70
     0
  9
$DIMSD2
 70
     0
  9
$DIMTOLJ
 70
     1
  9
$DIMTZIN
 70
     7
  9
$DIMALTZ
 70
     0
  9
$DIMALTTZ
 70
     0
  9
$DIMUPT
 70
     0
  9
$DIMDEC
 70
     4
  9
$DIMTDEC
 70
     4
  9
$DIMALTU
 70
     2
  9
$DIMALTTD
 70
     4
  9
$DIMTXSTY
  7
STANDARD
  9
$DIMAUNIT
 70
     0
  9
$DIMADEC
 70
     0
  9
$DIMALTRND
 40
0.0
  9
$DIMAZIN
 70
     2
  9
$DIMDSEP
 70
    46
  9
$DIMATFIT
 70
     3
  9
$DIMFRAC
 70
     0
  9
$DIMLDRBLK
  1

  9
$DIMLUNIT
 70
     2
  9
$DIMLWD
 70
    -1
  9
$DIMLWE
 70
    -1
  9
$DIMTMOVE
 70
     0
  9
$DIMFXL
 40
1.0
  9
$DIMFXLON
 70
     0
  9
$DIMJOGANG
 40
0.7853981633974483
  9
$DIMTFILL
 70
     0
  9
$DIMTFILLCLR
 70
     0
  9
$DIMARCSYM
 70
     1
  9
$DIMLTYPE
  6
ByBlock
  9
$DIMLTEX1
  6
ByBlock
  9
$DIMLTEX2
  6
ByBlock
  9
$LUNITS
 70
     2
  9
$LUPREC
 70
     2
  9
$SKETCHINC
 40
1.0
  9
$FILLETRAD
 40
2.5
  9
$AUNITS
 70
     0
  9
$AUPREC
 70
     0
  9
$MENU
  1
.
  9
$ELEVATION
 40
0.0
  9
$PELEVATION
 40
0.0
  9
$THICKNESS
 40
0.0
  9
$LIMCHECK
 70
     0
  9
$CHAMFERA
 40
2.5
  9
$CHAMFERB
 40
2.5
  9
$CHAMFERC
 40
0.0
  9
$CHAMFERD
 40
0.0
  9
$SKPOLY
 70
     0
  9
$TDCREATE
 40
2455251.684584873
  9
$TDUCREATE
 40
2455251.642918206
  9
$TDUPDATE
 40
2458305.389486412
  9
$TDUUPDATE
 40
2458305.347819746
  9
$TDINDWG
 40
0.0572845718
  9
$TDUSRTIMER
 40
0.0572838773
  9
$USRTIMER
 70
     1
  9
$ANGBASE
 50
0.0
  9
$ANGDIR
 70
     0
  9
$PDMODE
 70
     0
  9
$PDSIZE
 40
0.0
  9
$PLINEWID
 40
0.0
  9
$SPLFRAME
 70
     0
  9
$SPLINETYPE
 70
     6
  9
$SPLINESEGS
 70
     8
  9
$HANDSEED
  5
551B9
  9
$SURFTAB1
 70
     6
  9
$SURFTAB2
 70
     6
  9
$SURFTYPE
 70
     6
  9
$SURFU
 70
     6
  9
$SURFV
 70
     6
  9
$UCSBASE
  2

  9
$UCSNAME
  2

  9
$UCSORG
 10
0.0
 20
0.0
 30
0.0
  9
$UCSXDIR
 10
1.0
 20
0.0
 30
0.0
  9
$UCSYDIR
 10
0.0
 20
1.0
 30
0.0
  9
$UCSORTHOREF
  2

  9
$UCSORTHOVIEW
 70
     0
  9
$UCSORGTOP
 10
0.0
 20
0.0
 30
0.0
  9
$UCSORGBOTTOM
 10
0.0
 20
0.0
 30
0.0
  9
$UCSORGLEFT
 10
0.0
 20
0.0
 30
0.0
  9
$UCSORGRIGHT
 10
0.0
 20
0.0
 30
0.0
  9
$UCSORGFRONT
 10
0.0
 20
0.0
 30
0.0
  9
$UCSORGBACK
 10
0.0
 20
0.0
 30
0.0
  9
$PUCSBASE
  2

  9
$PUCSNAME
  2

  9
$PUCSORG
 10
0.0
 20
0.0
 30
0.0
  9
$PUCSXDIR
 10
1.0
 20
0.0
 30
0.0
  9
$PUCSYDIR
 10
0.0
 20
1.0
 30
0.0
  9
$PUCSORTHOREF
  2

  9
$PUCSORTHOVIEW
 70
     0
  9
$PUCSORGTOP
 10
0.0
 20
0.0
 30
0.0
  9
$PUCSORGBOTTOM
 10
0.0
 20
0.0
 30
0.0
  9
$PUCSORGLEFT
 10
0.0
 20
0.0
 30
0.0
  9
$PUCSORGRIGHT
 10
0.0
 20
0.0
 30
0.0
  9
$PUCSORGFRONT
 10
0.0
 20
0.0
 30
0.0
  9
$PUCSORGBACK
 10
0.0
 20
0.0
 30
0.0
  9
$USERI1
 70
     0
  9
$USERI2
 70
     0
  9
$USERI3
 70
     0
  9
$USERI4
 70
     0
  9
$USERI5
 70
     0
  9
$USERR1
 40
0.0
  9
$USERR2
 40
0.0
  9
$USERR3
 40
0.0
  9
$USERR4
 40
0.0
  9
$USERR5
 40
0.0
  9
$WORLDVIEW
 70
     1
  9
$SHADEDGE
 70
     3
  9
$SHADEDIF
 70
    70
  9
$TILEMODE
 70
     1
  9
$MAXACTVP
 70
    64
  9
$PINSBASE
 10
0.0
 20
0.0
 30
0.0
  9
$PLIMCHECK
 70
     0
  9
$PEXTMIN
 10
1.000000000000000E+20
 20
1.000000000000000E+20
 30
1.000000000000000E+20
  9
$PEXTMAX
 10
-1.000000000000000E+20
 20
-1.000000000000000E+20
 30
-1.000000000000000E+20
  9
$PLIMMIN
 10
0.0
 20
0.0
  9
$PLIMMAX
 10
420.0
 20
297.0
  9
$UNITMODE
 70
     0
  9
$VISRETAIN
 70
     1
  9
$PLINEGEN
 70
     0
  9
$PSLTSCALE
 70
     1
  9
$TREEDEPTH
 70
  3020
  9
$CMLSTYLE
  2
Standard
  9
$CMLJUST
 70
     0
  9
$CMLSCALE
 40
1.0
  9
$PROXYGRAPHICS
 70
     1
  9
$MEASUREMENT
 70
     0
  9
$CELWEIGHT
370
    -1
  9
$ENDCAPS
280
     0
  9
$JOINSTYLE
280
     0
  9
$LWDISPLAY
290
     0
  9
$INSUNITS
 70
     0
  9
$HYPERLINKBASE
  1

  9
$STYLESHEET
  1

  9
$XEDIT
290
     1
  9
$CEPSNTYPE
380
     0
  9
$PSTYLEMODE
290
     1
  9
$FINGERPRINTGUID
  2
{7CA7D69D-36B4-42EF-92E2-8442B4B9647F}
  9
$VERSIONGUID
  2
{2719EDCE-E203-4FBD-8B87-9B9E465DB734}
  9
$EXTNAMES
290
     1
  9
$PSVPSCALE
 40
0.0
  9
$OLESTARTUP
290
     0
  9
$SORTENTS
280
   127
  9
$INDEXCTL
280
     0
  9
$HIDETEXT
280
     0
  9
$XCLIPFRAME
290
     0
  9
$HALOGAP
280
     0
  9
$OBSCOLOR
 70
   257
  9
$OBSLTYPE
280
     0
  9
$INTERSECTIONDISPLAY
280
     0
  9
$INTERSECTIONCOLOR
 70
   257
  9
$DIMASSOC
280
     1
  9
$PROJECTNAME
  1

  9
$CAMERADISPLAY
290
     0
  9
$LENSLENGTH
 40
50.0
  9
$CAMERAHEIGHT
 40
0.0
  9
$STEPSPERSEC
 40
2.0
  9
$STEPSIZE
 40
6.0
  9
$3DDWFPREC
 40
2.0
  9
$PSOLWIDTH
 40
0.25
  9
$PSOLHEIGHT
 40
4.0
  9
$LOFTANG1
 40
1.570796326794896
  9
$LOFTANG2
 40
1.570796326794896
  9
$LOFTMAG1
 40
0.0
  9
$LOFTMAG2
 40
0.0
  9
$LOFTPARAM
 70
     7
  9
$LOFTNORMALS
280
     1
  9
$LATITUDE
 40
37.795
  9
$LONGITUDE
 40
-122.394
  9
$NORTHDIRECTION
 40
0.0
  9
$TIMEZONE
 70
 -8000
  9
$LIGHTGLYPHDISPLAY
280
     1
  9
$TILEMODELIGHTSYNCH
280
     1
  9
$CMATERIAL
347
52BB5
  9
$SOLIDHIST
280
     1
  9
$SHOWHIST
280
     1
  9
$DWFFRAME
280
     2
  9
$DGNFRAME
280
     0
  9
$REALWORLDSCALE
290
     1
  9
$INTERFERECOLOR
 62
     1
  9
$INTERFEREOBJVS
345
52BD7
  9
$INTERFEREVPVS
346
52BD4
  9
$CSHADOW
280
     0
  9
$SHADOWPLANELOCATION
 40
0.0
  0
ENDSEC
  0
SECTION
  2
CLASSES
  0
CLASS
  1
ACDBDICTIONARYWDFLT
  2
AcDbDictionaryWithDefault
  3
ObjectDBX Classes
 90
        0
 91
        1
280
     0
281
     0
  0
CLASS
  1
MATERIAL
  2
AcDbMaterial
  3
ObjectDBX Classes
 90
     1153
 91
        3
280
     0
281
     0
  0
CLASS
  1
VISUALSTYLE
  2
AcDbVisualStyle
  3
ObjectDBX Classes
 90
     4095
 91
       16
280
     0
281
     0
  0
CLASS
  1
SCALE
  2
AcDbScale
  3
ObjectDBX Classes
 90
     1153
 91
       33
280
     0
281
     0
  0
CLASS
  1
TABLESTYLE
  2
AcDbTableStyle
  3
ObjectDBX Classes
 90
     4095
 91
        1
280
     0
281
     0
  0
CLASS
  1
MLEADERSTYLE
  2
AcDbMLeaderStyle
  3
ACDB_MLEADERSTYLE_CLASS
 90
     4095
 91
        1
280
     0
281
     0
  0
CLASS
  1
EXACXREFPANELOBJECT
  2
ExAcXREFPanelObject
  3
EXAC_ESW
 90
     1025
 91
        1
280
     0
281
     0
  0
CLASS
  1
NPOCOLLECTION
  2
AcDbImpNonPersistentObjectsCollection
  3
ObjectDBX Classes
 90
     1153
 91
        1
280
     0
281
     0
  0
CLASS
  1
DIMASSOC
  2
AcDbDimAssoc
  3
"AcDbDimAssoc|Product Desc:     AcDim ARX App For Dimension|Company:          Autodesk, Inc.|WEB Address:      www.autodesk.com"
 90
        0
 91
       32
280
     0
281
     0
  0
CLASS
  1
SORTENTSTABLE
  2
AcDbSortentsTable
  3
ObjectDBX Classes
 90
        0
 91
        2
280
     0
281
     0
  0
CLASS
  1
DICTIONARYVAR
  2
AcDbDictionaryVar
  3
ObjectDBX Classes
 90
        0
 91
        7
280
     0
281
     0
  0
CLASS
  1
CELLSTYLEMAP
  2
AcDbCellStyleMap
  3
ObjectDBX Classes
 90
     1152
 91
        2
280
     0
281
     0
  0
CLASS
  1
AMGSETTINGSOBJ
  2
AmgSettingsObj
  3
"AcadM|Product Description: AutoCAD Mechanical|Company: Autodesk, Inc."
 90
     1024
 91
        2
280
     0
281
     0
  0
CLASS
  1
ACME_DOCUMENT
  2
AcMeDbDoc
  3
AcMeServices
 90
     1024
 91
        1
280
     0
281
     0
  0
CLASS
  1
ACMESCOPE
  2
AcMeScope
  3
AcMeServices
 90
     1024
 91
        1
280
     0
281
     0
  0
CLASS
  1
ACMECOMMANDHISTORY
  2
AcMeCommandHistory
  3
AcMeServices
 90
     1024
 91
        1
280
     0
281
     0
  0
CLASS
  1
ACIMSYSVARMAN
  2
AcImSysVarManager
  3
AcMeServices
 90
     1024
 91
        5
280
     0
281
     0
  0
CLASS
  1
ACIMINTSYSVAR
  2
AcImIntSysVar
  3
AcMeServices
 90
     1024
 91
       27
280
     0
281
     0
  0
CLASS
  1
ACMEDRAWINGMAN
  2
AcMeDrawingMan
  3
AcMeServices
 90
     1024
 91
        1
280
     0
281
     0
  0
CLASS
  1
ACMEVIEW
  2
AcMeView
  3
AcMeServices
 90
     1024
 91
        1
280
     0
281
     0
  0
CLASS
  1
ACDBENTITYCACHE
  2
AcMeEntityCache
  3
AcMeServices
 90
     1024
 91
        1
280
     0
281
     0
  0
CLASS
  1
GSMANAGER
  2
AcMeGSManager
  3
AcMeServices
 90
     1024
 91
        1
280
     0
281
     0
  0
CLASS
  1
AMDTINTERNALREACTOR
  2
AmdtInternalReactor
  3
AcMeServices
 90
     1024
 91
        2
280
     0
281
     0
  0
CLASS
  1
ACMESTATEMGR
  2
AcMeStateMgr
  3
AcMeServices
 90
     1024
 91
        1
280
     0
281
     0
  0
CLASS
  1
ACGREFMASTER
  2
AcGrefMaster
  3
AcAttribServices
 90
     1024
 91
        1
280
     0
281
     0
  0
CLASS
  1
AM_DRAWING_MGR
  2
AcDmDwgMgr
  3
AcMechDwgViewMgmt
 90
     1024
 91
        1
280
     0
281
     0
  0
CLASS
  1
AM_DWG_DOCUMENT
  2
AcDmDwgDocument
  3
AcMechDwgViewMgmt
 90
     1024
 91
        1
280
     0
281
     0
  0
CLASS
  1
AM_DWG_SHEET
  2
AcDmSheet
  3
AcMechDwgViewMgmt
 90
     1024
 91
        1
280
     0
281
     0
  0
CLASS
  1
AM_VIEWDIMPARMAP
  2
AcDmViewDimParMap
  3
AcMechDwgViewMgmt
 90
     1024
 91
        1
280
     0
281
     0
  0
CLASS
  1
ACIMREALSYSVAR
  2
AcImRealSysVar
  3
AcMeServices
 90
     1024
 91
        1
280
     0
281
     0
  0
CLASS
  1
AM_DWGMGR_NAME
  2
AcDmDwgMgrName
  3
AcMechDwgViewMgmt
 90
     1024
 91
        1
280
     0
281
     0
  0
CLASS
  1
ACME_DATABASE
  2
AcMeDbDatabase
  3
AcMeServices
 90
     1024
 91
        3
280
     0
281
     0
  0
CLASS
  1
ACRFINSADJUSTERMGR
  2
AcRfInsAdjusterMgr
  3
AcMeServices
 90
     1024
 91
        1
280
     0
281
     0
  0
CLASS
  1
ACGREFACADMASTER
  2
AcGrefacadMaster
  3
AcGrefServices
 90
     1024
 91
        1
280
     0
281
     0
  0
CLASS
  1
AMDTMENUSTATEMGR
  2
AmdtMenuStateMgr
  3
McadcomServices
 90
     1024
 91
        1
280
     0
281
     0
  0
CLASS
  1
AMDTMCOMMENUSTATE
  2
AmdtMcomMenuState
  3
McadcomServices
 90
     1024
 91
        1
280
     0
281
     0
  0
CLASS
  1
AMIMASTER
  2
AmiMaster
  3
AmiServices
 90
     1024
 91
        1
280
     0
281
     0
  0
CLASS
  1
MAPIAMMOUDLE
  2
MApiAmModule
  3
MApiAmServices
 90
     1024
 91
        1
280
     0
281
     0
  0
CLASS
  1
ACIMSTRSYSVAR
  2
AcImStrSysVar
  3
AcMeServices
 90
     1024
 91
        5
280
     0
281
     0
  0
CLASS
  1
AMDTADMENUSTATE
  2
AmdtAdMenuState
  3
DesignerServices
 90
     1024
 91
        1
280
     0
281
     0
  0
CLASS
  1
ADAPPL
  2
AcAdAppl
  3
DesignerServices
 90
     1024
 91
        1
280
     0
281
     0
  0
CLASS
  1
DEPMGR
  2
AcAdDepMgr
  3
DesignerServices
 90
     1024
 91
        1
280
     0
281
     0
  0
CLASS
  1
PARAMMGR
  2
AcAdParamMgr
  3
DesignerServices
 90
     1024
 91
        1
280
     0
281
     0
  0
CLASS
  1
PARAMSCOPE
  2
AcAdParamScope
  3
DesignerServices
 90
     1024
 91
        1
280
     0
281
     0
  0
CLASS
  1
NAMEDAPPL
  2
AcAdNamedAppl
  3
DesignerServices
 90
     1024
 91
        1
280
     0
281
     0
  0
CLASS
  1
AMDTDMMENUSTATE
  2
AmdtDmMenuState
  3
AcMechDwgViewMgmt
 90
     1024
 91
        1
280
     0
281
     0
  0
CLASS
  1
AMDTAMMENUSTATE
  2
AmdtAmMenuState
  3
DesignerAssemblies
 90
     1024
 91
        1
280
     0
281
     0
  0
CLASS
  1
ACAMPROJECT
  2
AcAmProject
  3
DesignerAssemblies
 90
     1024
 91
        1
280
     0
281
     0
  0
CLASS
  1
ACAMGRCOMPDEF
  2
AcAmGrCompDef
  3
DesignerAssemblies
 90
     1024
 91
        1
280
     0
281
     0
  0
CLASS
  1
ACCMCONTEXT
  2
AcCmContext
  3
DesignerAssemblies
 90
     1024
 91
        1
280
     0
281
     0
  0
CLASS
  1
ACAMCOMPDEF
  2
AcAmCompDef
  3
DesignerAssemblies
 90
     1024
 91
        1
280
     0
281
     0
  0
CLASS
  1
ACAMCOMPDEFMGR
  2
AcAmCompDefMgr
  3
DesignerAssemblies
 90
     1024
 91
        1
280
     0
281
     0
  0
CLASS
  1
AMCONTEXTMGR
  2
AcAmContextMgr
  3
DesignerAssemblies
 90
     1024
 91
        1
280
     0
281
     0
  0
CLASS
  1
ACAMCONTEXTMODELER
  2
AcAmContextModeler
  3
DesignerAssemblies
 90
     1024
 91
        1
280
     0
281
     0
  0
CLASS
  1
ACMDATADICTIONARY
  2
AcmDataDictionary
  3
"AcmSymBB|Product Description: AutoCAD Mechanical|Company: Autodesk, Inc."
 90
     1024
 91
        1
280
     0
281
     0
  0
CLASS
  1
CATALOGSTATE
  2
AcAmCatalogState
  3
DesignerAssemblies
 90
     1024
 91
        1
280
     0
281
     0
  0
CLASS
  1
ACAMGRCOMPDEFSET
  2
AcAmGrCompDefSet
  3
DesignerAssemblies
 90
     1024
 91
        1
280
     0
281
     0
  0
CLASS
  1
AMDTBROWSERDBTAB
  2
AmdtBrowserDbTab
  3
McadcomServices
 90
     1024
 91
        1
280
     0
281
     0
  0
CLASS
  1
CBROWSERAPPOBJECT
  2
CBrowserAppObject
  3
McadcomServices
 90
     1024
 91
        3
280
     0
281
     0
  0
CLASS
  1
DM_PLACEHOLDER
  2
AcDmSelsetPlaceholder
  3
AcMechDwgViewMgmt
 90
     1024
 91
        1
280
     0
281
     0
  0
CLASS
  1
ACMSTANDARDANSI
  2
AcmStandardANSI
  3
"Amdt_StdImp|Product Description: AutoCAD Mechanical|Company: Autodesk, Inc."
 90
     1024
 91
        1
280
     0
281
     0
  0
CLASS
  1
ACMSURFSTANDARDANSI
  2
AcmSurfTextStdANSI
  3
"Amdt_StdImp|Product Description: AutoCAD Mechanical|Company: Autodesk, Inc."
 90
     1024
 91
        1
280
     0
281
     0
  0
CLASS
  1
ACMFCFSTANDARDANSI
  2
AcmFCFStdANSI
  3
"Amdt_StdImp|Product Description: AutoCAD Mechanical|Company: Autodesk, Inc."
 90
     1024
 91
        1
280
     0
281
     0
  0
CLASS
  1
ACMWELDSTANDARDANSI
  2
AcmWeldingStdANSI
  3
"Amdt_StdImp|Product Description: AutoCAD Mechanical|Company: Autodesk, Inc."
 90
     1024
 91
        1
280
     0
281
     0
  0
CLASS
  1
ACMIDSTANDARDANSI
  2
AcmIdStdANSI
  3
"Amdt_StdImp|Product Description: AutoCAD Mechanical|Company: Autodesk, Inc."
 90
     1024
 91
        1
280
     0
281
     0
  0
CLASS
  1
ACMDATUMSTANDARDANSI
  2
AcmDatumStdANSI
  3
"Amdt_StdImp|Product Description: AutoCAD Mechanical|Company: Autodesk, Inc."
 90
     1024
 91
        1
280
     0
281
     0
  0
CLASS
  1
ACMBOMSTANDARDANSI
  2
AcmBOMStdANSI
  3
"Amdt_StdImp|Product Description: AutoCAD Mechanical|Company: Autodesk, Inc."
 90
     1024
 91
        1
280
     0
281
     0
  0
CLASS
  1
ACMDETAILSTANDARDANSI
  2
AmdtDetailSymStdANSI
  3
"Amdt_StdImp|Product Description: AutoCAD Mechanical|Company: Autodesk, Inc."
 90
     1024
 91
        1
280
     0
281
     0
  0
CLASS
  1
ACMSECTIONSTANDARDANSI
  2
AmdtSectionSymStdANSI
  3
"Amdt_StdImp|Product Description: AutoCAD Mechanical|Company: Autodesk, Inc."
 90
     1024
 91
        1
280
     0
281
     0
  0
CLASS
  1
ACMCENTERLINESTANDARDANSI
  2
AmdtCenterLineStdANSI
  3
"Amdt_StdImp|Product Description: AutoCAD Mechanical|Company: Autodesk, Inc."
 90
     1024
 91
        1
280
     0
281
     0
  0
CLASS
  1
ACMTHREADLINESTANDARDANSI
  2
AmdtThreadLineStdANSI
  3
"Amdt_StdImp|Product Description: AutoCAD Mechanical|Company: Autodesk, Inc."
 90
     1024
 91
        1
280
     0
281
     0
  0
CLASS
  1
ACMNOTESTANDARDANSI
  2
AmdtNoteStdANSI
  3
"Amdt_StdImp|Product Description: AutoCAD Mechanical|Company: Autodesk, Inc."
 90
     1024
 91
        1
280
     0
281
     0
  0
CLASS
  1
ACMTAPERSTANDARDANSI
  2
AcmTaperStdANSI
  3
"Amdt_StdImp|Product Description: AutoCAD Mechanical|Company: Autodesk, Inc."
 90
     1024
 91
        1
280
     0
281
     0
  0
CLASS
  1
ACMANOOTATIONVIEWSTANDARDANSI
  2
AmdtAnViewStdANSI
  3
"Amdt_StdImp|Product Description: AutoCAD Mechanical|Company: Autodesk, Inc."
 90
     1024
 91
        1
280
     0
281
     0
  0
CLASS
  1
ACAMGLAYSTD
  2
AcAmgLayStd
  3
"AmgLay|Product Description: AutoCAD Mechanical|Company: Autodesk, Inc."
 90
     1024
 91
        3
280
     0
281
     0
  0
CLASS
  1
ACAMGDIMSTD
  2
AcAmgDimStd
  3
"AmgDim|Product Description: AutoCAD Mechanical|Company: Autodesk, Inc."
 90
     1024
 91
        3
280
     0
281
     0
  0
CLASS
  1
AMGOBJPROPCFG
  2
AmgObjPropCfg
  3
"AmgLay|Product Description: AutoCAD Mechanical|Company: Autodesk, Inc."
 90
     1025
 91
        1
280
     0
281
     0
  0
CLASS
  1
ACAMGHOLECHARTSTDANSI
  2
AcAmgHoleChartStdANSI
  3
AmgDim|Product Description: AutoCAD Mechanical|Company: Autodesk, Inc.
 90
     1024
 91
        1
280
     0
281
     0
  0
CLASS
  1
ACAMGTITLESTD
  2
AcAmgTitleStd
  3
"AmgTitle|Product Description: AutoCAD Mechanical|Company: Autodesk, Inc."
 90
     4095
 91
        3
280
     0
281
     0
  0
CLASS
  1
AMDTNOTETEMPLATEDB
  2
AmdtNoteTemplateDB
  3
AcmSymBB|Product Description: AutoCAD Mechanical|Company: Autodesk, Inc.
 90
     1024
 91
       18
280
     0
281
     0
  0
CLASS
  1
ACMSTANDARDISO
  2
AcmStandardISO
  3
"Amdt_StdImp|Product Description: AutoCAD Mechanical|Company: Autodesk, Inc."
 90
     1024
 91
        2
280
     0
281
     0
  0
CLASS
  1
ACMSURFSTANDARDISO2002
  2
AcmSurfTextStdISO2002
  3
"Amdt_StdImp|Product Description: AutoCAD Mechanical|Company: Autodesk, Inc."
 90
     1024
 91
        2
280
     0
281
     0
  0
CLASS
  1
ACMFCFSTANDARDISO
  2
AcmFCFStdISO
  3
"Amdt_StdImp|Product Description: AutoCAD Mechanical|Company: Autodesk, Inc."
 90
     1024
 91
        2
280
     0
281
     0
  0
CLASS
  1
ACMWELDSTANDARDISO
  2
AcmWeldingStdISO
  3
"Amdt_StdImp|Product Description: AutoCAD Mechanical|Company: Autodesk, Inc."
 90
     1024
 91
        2
280
     0
281
     0
  0
CLASS
  1
ACMIDSTANDARDISO
  2
AcmIdStdISO
  3
"Amdt_StdImp|Product Description: AutoCAD Mechanical|Company: Autodesk, Inc."
 90
     1024
 91
        2
280
     0
281
     0
  0
CLASS
  1
ACMDATUMSTANDARDISO
  2
AcmDatumStdISO
  3
"Amdt_StdImp|Product Description: AutoCAD Mechanical|Company: Autodesk, Inc."
 90
     1024
 91
        2
280
     0
281
     0
  0
CLASS
  1
ACMBOMSTANDARDISO
  2
AcmBOMStdISO
  3
"Amdt_StdImp|Product Description: AutoCAD Mechanical|Company: Autodesk, Inc."
 90
     1024
 91
        2
280
     0
281
     0
  0
CLASS
  1
ACMDETAILSTANDARDISO
  2
AmdtDetailSymStdISO
  3
"Amdt_StdImp|Product Description: AutoCAD Mechanical|Company: Autodesk, Inc."
 90
     1024
 91
        2
280
     0
281
     0
  0
CLASS
  1
ACMSECTIONSTANDARDISO2001
  2
AmdtSectionSymStdISO2001
  3
"Amdt_StdImp|Product Description: AutoCAD Mechanical|Company: Autodesk, Inc."
 90
     1024
 91
        2
280
     0
281
     0
  0
CLASS
  1
ACMCENTERLINESTANDARDISO
  2
AmdtCenterLineStdISO
  3
"Amdt_StdImp|Product Description: AutoCAD Mechanical|Company: Autodesk, Inc."
 90
     1024
 91
        2
280
     0
281
     0
  0
CLASS
  1
ACMNOTESTANDARDISO
  2
AmdtNoteStdISO
  3
"Amdt_StdImp|Product Description: AutoCAD Mechanical|Company: Autodesk, Inc."
 90
     1024
 91
        2
280
     0
281
     0
  0
CLASS
  1
ACAMGHOLECHARTSTDISO
  2
AcAmgHoleChartStdISO
  3
AmgDim|Product Description: AutoCAD Mechanical|Company: Autodesk, Inc.
 90
     1024
 91
        2
280
     0
281
     0
  0
CLASS
  1
ACMTHREADLINESTANDARDISO
  2
AmdtThreadLineStdISO
  3
"Amdt_StdImp|Product Description: AutoCAD Mechanical|Company: Autodesk, Inc."
 90
     1024
 91
        2
280
     0
281
     0
  0
CLASS
  1
ACMTAPERSTANDARDISO
  2
AcmTaperStdISO
  3
"Amdt_StdImp|Product Description: AutoCAD Mechanical|Company: Autodesk, Inc."
 90
     1024
 91
        2
280
     0
281
     0
  0
CLASS
  1
ACMANOOTATIONVIEWSTANDARDISO
  2
AmdtAnViewStdISO
  3
"Amdt_StdImp|Product Description: AutoCAD Mechanical|Company: Autodesk, Inc."
 90
     1024
 91
        2
280
     0
281
     0
  0
CLASS
  1
AMDTEDGESTANDARDISO13715
  2
AmdtEdgeStdISO13715
  3
"Amdt_StdImp|Product Description: AutoCAD Mechanical|Company: Autodesk, Inc."
 90
     1024
 91
        2
280
     0
281
     0
  0
CLASS
  1
ACMDATAENTRYBLOCK
  2
AcmDataEntryBlock
  3
AcmSymBB|Product Description: AutoCAD Mechanical|Company: Autodesk, Inc.
 90
     1024
 91
        2
280
     0
281
     0
  0
CLASS
  1
ACAMGFILTERDAT
  2
AcAmgFilterDat
  3
"AcadM|Product Description: AutoCAD Mechanical|Company: Autodesk, Inc."
 90
     1024
 91
        0
280
     0
281
     0
  0
ENDSEC
  0
SECTION
  2
TABLES
  0
TABLE
  2
VPORT
  5
52BAC
330
0
100
AcDbSymbolTable
 70
     1
  0
VPORT
  5
52C1C
330
52BAC
100
AcDbSymbolTableRecord
100
AcDbViewportTableRecord
  2
*ACTIVE
 70
     0
 10
0.0
 20
0.0
 11
1.0
 21
1.0
 12
30531.62612432195
 22
25881.37486906428
 13
0.0
 23
0.0
 14
2.5
 24
2.5
 15
10.0
 25
10.0
 16
0.0
 26
0.0
 36
1.0
 17
0.0
 27
0.0
 37
0.0
 40
1893.807061541441
 41
1.929455445544554
 42
50.0
 43
0.0
 44
0.0
 50
0.0
 51
0.0
 71
     0
 72
  1000
 73
     1
 74
     3
 75
     0
 76
     0
 77
     0
 78
     0
281
     0
 65
     0
110
0.0
120
0.0
130
0.0
111
1.0
121
0.0
131
0.0
112
0.0
122
1.0
132
0.0
 79
     0
146
0.0
348
52BD3
 60
     3
 61
     5
292
     1
282
     0
141
0.0
142
0.0
 63
   250
421
  3355443
  0
ENDTAB
  0
TABLE
  2
LTYPE
  5
52BA9
330
0
100
AcDbSymbolTable
 70
    22
  0
LTYPE
  5
52C06
330
52BA9
100
AcDbSymbolTableRecord
100
AcDbLinetypeTableRecord
  2
ByBlock
 70
     0
  3

 72
    65
 73
     0
 40
0.0
  0
LTYPE
  5
52C07
330
52BA9
100
AcDbSymbolTableRecord
100
AcDbLinetypeTableRecord
  2
ByLayer
 70
     0
  3

 72
    65
 73
     0
 40
0.0
  0
LTYPE
  5
52C08
330
52BA9
100
AcDbSymbolTableRecord
100
AcDbLinetypeTableRecord
  2
CONTINUOUS
 70
     0
  3
Solid line
 72
    65
 73
     0
 40
0.0
  0
LTYPE
  5
52C1D
330
52BA9
100
AcDbSymbolTableRecord
100
AcDbLinetypeTableRecord
  2
DASHED2
 70
     0
  3
Dashed (.5x) _ _ _ _ _ _ _ _ _ _ _ _ _ _ _ _ _
 72
    65
 73
     2
 40
9.524999999999996
 49
6.349999999999997
 74
     0
 49
-3.174999999999998
 74
     0
  0
LTYPE
  5
530E8
330
52BA9
100
AcDbSymbolTableRecord
100
AcDbLinetypeTableRecord
  2
HIDDEN
 70
     0
  3
Hidden __ __ __ __ __ __ __ __ __ __ __ __ __ _
 72
    65
 73
     2
 40
0.375
 49
0.25
 74
     0
 49
-0.125
 74
     0
  0
LTYPE
  5
530E9
330
52BA9
100
AcDbSymbolTableRecord
100
AcDbLinetypeTableRecord
  2
PHANTOM2
 70
     0
  3
Phantom (.5x) ___ _ _ ___ _ _ ___ _ _ ___ _ _
 72
    65
 73
     6
 40
1.25
 49
0.625
 74
     0
 49
-0.125
 74
     0
 49
0.125
 74
     0
 49
-0.125
 74
     0
 49
0.125
 74
     0
 49
-0.125
 74
     0
  0
LTYPE
  5
530EA
330
52BA9
100
AcDbSymbolTableRecord
100
AcDbLinetypeTableRecord
  2
CENTER
 70
     0
  3
Center ____ _ ____ _ ____ _ ____ _ ____ _ ____
 72
    65
 73
     4
 40
2.0
 49
1.25
 74
     0
 49
-0.25
 74
     0
 49
0.25
 74
     0
 49
-0.25
 74
     0
  0
LTYPE
  5
5312F
330
52BA9
100
AcDbSymbolTableRecord
100
AcDbLinetypeTableRecord
  2
Amconstr
 70
     0
  3
_______________________
 72
    65
 73
     2
 40
9999.0
 49
9999.0
 74
     0
 49
0.0
 74
     0
  0
LTYPE
  5
53135
330
52BA9
100
AcDbSymbolTableRecord
100
AcDbLinetypeTableRecord
  2
CENTER2
 70
     0
  3
Center (.5x) ___ _ ___ _ ___ _ ___ _ ___ _ ___
 72
    65
 73
     4
 40
1.125
 49
0.75
 74
     0
 49
-0.125
 74
     0
 49
0.125
 74
     0
 49
-0.125
 74
     0
  0
LTYPE
  5
53136
330
52BA9
100
AcDbSymbolTableRecord
100
AcDbLinetypeTableRecord
  2
HIDDEN2
 70
     0
  3
Hidden (.5x) _ _ _ _ _ _ _ _ _ _ _ _ _ _ _ _ _
 72
    65
 73
     2
 40
0.1875
 49
0.125
 74
     0
 49
-0.0625
 74
     0
  0
LTYPE
  5
53137
330
52BA9
100
AcDbSymbolTableRecord
100
AcDbLinetypeTableRecord
  2
Amzigzag2
 70
     0
  3
/\/-/\/-/\/-/\/-/\/-/\/
 72
    65
 73
     2
 40
0.4401
 49
0.0001
 74
     4
 75
   136
340
53133
 46
0.0016
 50
0.0
 44
0.0
 45
0.0
 49
-0.4400000000000003
 74
     0
  0
LTYPE
  5
53145
330
52BA9
100
AcDbSymbolTableRecord
100
AcDbLinetypeTableRecord
  2
ACANSTGB
 70
     0
  3
__ . . __ . .
 72
    65
 73
     6
 40
0.35433070866
 49
0.15748031496
 74
     0
 49
-0.03937007874
 74
     0
 49
0.03937007874
 74
     0
 49
-0.03937007874
 74
     0
 49
0.03937007874
 74
     0
 49
-0.03937007874
 74
     0
  0
LTYPE
  5
53146
330
52BA9
100
AcDbSymbolTableRecord
100
AcDbLinetypeTableRecord
  2
ACANSTGL
 70
     0
  3
_ _ _ _ _
 72
    65
 73
     2
 40
0.11811023622
 49
0.07874015748
 74
     0
 49
-0.03937007874
 74
     0
  0
LTYPE
  5
5317A
330
52BA9
100
AcDbSymbolTableRecord
100
AcDbLinetypeTableRecord
  2
ACISOWELD
 70
     0
  3
_ _ _ _ _
 72
    65
 73
     2
 40
2.0
 49
2.0
 74
     0
 49
-1.0
 74
     0
  0
LTYPE
  5
5317B
330
52BA9
100
AcDbSymbolTableRecord
100
AcDbLinetypeTableRecord
  2
ACISOTGB
 70
     0
  3
__ . . __ . .
 72
    65
 73
     6
 40
9.0
 49
4.0
 74
     0
 49
-1.0
 74
     0
 49
1.0
 74
     0
 49
-1.0
 74
     0
 49
1.0
 74
     0
 49
-1.0
 74
     0
  0
LTYPE
  5
5317C
330
52BA9
100
AcDbSymbolTableRecord
100
AcDbLinetypeTableRecord
  2
ACISOTGL
 70
     0
  3
_ _ _ _ _
 72
    65
 73
     2
 40
3.0
 49
2.0
 74
     0
 49
-1.0
 74
     0
  0
ENDTAB
  0
TABLE
  2
LAYER
  5
52BA6
102
{ACAD_XDICTIONARY
360
52CA6
102
}
330
0
100
AcDbSymbolTable
 70
     8
  0
LAYER
  5
52C00
102
{ACAD_XDICTIONARY
360
52DA2
102
}
330
52BA6
100
AcDbSymbolTableRecord
100
AcDbLayerTableRecord
  2
0
 70
     0
 62
     7
  6
CONTINUOUS
370
    -3
390
52BB3
347
52BC5
  0
LAYER
  5
52C1E
102
{ACAD_XDICTIONARY
360
52DA4
102
}
330
52BA6
100
AcDbSymbolTableRecord
100
AcDbLayerTableRecord
  2
LAYER1
 70
     0
 62
     1
  6
CONTINUOUS
370
    -3
390
52BB3
347
52BC5
  0
LAYER
  5
52C1F
330
52BA6
100
AcDbSymbolTableRecord
100
AcDbLayerTableRecord
  2
DEFPOINTS
 70
     0
 62
     7
  6
CONTINUOUS
290
     0
370
    -3
390
52BB3
347
52BC5
  0
LAYER
  5
52C21
102
{ACAD_XDICTIONARY
360
52DA8
102
}
330
52BA6
100
AcDbSymbolTableRecord
100
AcDbLayerTableRecord
  2
CUTOUT
 70
     0
 62
    60
  6
CONTINUOUS
370
    -3
390
52BB3
347
52BC5
  0
LAYER
  5
52C9C
102
{ACAD_XDICTIONARY
360
52DAC
102
}
330
52BA6
100
AcDbSymbolTableRecord
100
AcDbLayerTableRecord
  2
DIMS SPECS
 70
     0
 62
    41
  6
CONTINUOUS
370
    35
390
52BB3
347
52BC5
  0
LAYER
  5
5317E
330
52BA6
100
AcDbSymbolTableRecord
100
AcDbLayerTableRecord
  2
sink_label
 70
     0
 62
    80
  6
CONTINUOUS
370
    -3
390
52BB3
347
52BC5
1001
ACAECLAYERSTANDARD
1000

1000

  0
LAYER
  5
53490
330
52BA6
100
AcDbSymbolTableRecord
100
AcDbLayerTableRecord
  2
sink_specs
 70
     0
 62
   254
  6
CONTINUOUS
370
    35
390
52BB3
347
52BC5
1001
ACAECLAYERSTANDARD
1000

1000

  0
ENDTAB
  0
TABLE
  2
STYLE
  5
52BA7
330
0
100
AcDbSymbolTable
 70
     8
  0
STYLE
  5
52C01
330
52BA7
100
AcDbSymbolTableRecord
100
AcDbTextStyleTableRecord
  2
STANDARD
 70
     0
 40
0.0
 41
1.0
 50
0.0
 71
     0
 42
2.5
  3
ISOCP.SHX
  4

  0
STYLE
  5
52C23
330
52BA7
100
AcDbSymbolTableRecord
100
AcDbTextStyleTableRecord
  2
ACISOTS
 70
     0
 40
1.0
 41
1.0
 50
0.0
 71
     0
 42
2.5
  3
isocp.shx
  4

  0
STYLE
  5
52C24
330
52BA7
100
AcDbSymbolTableRecord
100
AcDbTextStyleTableRecord
  2
ABODE-ISO
 70
     0
 40
17.0
 41
0.9
 50
0.0
 71
     0
 42
0.2
  3
txt
  4

  0
STYLE
  5
53133
330
52BA7
100
AcDbSymbolTableRecord
100
AcDbTextStyleTableRecord
  2

 70
     1
 40
0.0
 41
1.0
 50
0.0
 71
     0
 42
2.5
  3
genltshp.shx
  4

  0
STYLE
  5
53144
330
52BA7
100
AcDbSymbolTableRecord
100
AcDbTextStyleTableRecord
  2
ACANSGDT
 70
     0
 40
0.0
 41
1.0
 50
0.0
 71
     0
 42
2.5
  3
amgdt.shx
  4

  0
STYLE
  5
53180
330
52BA7
100
AcDbSymbolTableRecord
100
AcDbTextStyleTableRecord
  2
ACISOGDT
 70
     0
 40
0.0
 41
1.0
 50
0.0
 71
     0
 42
2.5
  3
amgdt.shx
  4

  0
STYLE
  5
53181
330
52BA7
100
AcDbSymbolTableRecord
100
AcDbTextStyleTableRecord
  2
Abode ISO Bold
 70
     0
 40
17.0
 41
0.9
 50
0.0
 71
     0
 42
1.0
  3
GOTHICB.TTF
  4

1001
ACAD
1000
Century Gothic
1071
 33554466
  0
ENDTAB
  0
TABLE
  2
VIEW
  5
52BAA
330
0
100
AcDbSymbolTable
 70
     0
  0
ENDTAB
  0
TABLE
  2
UCS
  5
52BAB
330
0
100
AcDbSymbolTable
 70
     0
  0
ENDTAB
  0
TABLE
  2
APPID
  5
52BAD
330
0
100
AcDbSymbolTable
 70
    23
  0
APPID
  5
52C02
330
52BAD
100
AcDbSymbolTableRecord
100
AcDbRegAppTableRecord
  2
ACAD
 70
     0
  0
APPID
  5
52C09
330
52BAD
100
AcDbSymbolTableRecord
100
AcDbRegAppTableRecord
  2
ACADANNOTATIVE
 70
     0
  0
APPID
  5
52C13
330
52BAD
100
AcDbSymbolTableRecord
100
AcDbRegAppTableRecord
  2
ACAD_MLEADERVER
 70
     0
  0
APPID
  5
52C25
330
52BAD
100
AcDbSymbolTableRecord
100
AcDbRegAppTableRecord
  2
MCAD_NO_VIS
 70
     0
  0
APPID
  5
52C26
330
52BAD
100
AcDbSymbolTableRecord
100
AcDbRegAppTableRecord
  2
ACAD_TEMP_GRAPHIC
 70
     0
  0
APPID
  5
52C27
330
52BAD
100
AcDbSymbolTableRecord
100
AcDbRegAppTableRecord
  2
AD_DRAW
 70
     0
  0
APPID
  5
52C28
330
52BAD
100
AcDbSymbolTableRecord
100
AcDbRegAppTableRecord
  2
ACATTRIBSERVICES
 70
     0
  0
APPID
  5
52C29
330
52BAD
100
AcDbSymbolTableRecord
100
AcDbRegAppTableRecord
  2
DESIGNERASSEMBLIES
 70
     0
  0
APPID
  5
52C2A
330
52BAD
100
AcDbSymbolTableRecord
100
AcDbRegAppTableRecord
  2
ACADM_DIM_EDIT
 70
     0
  0
APPID
  5
52C2B
330
52BAD
100
AcDbSymbolTableRecord
100
AcDbRegAppTableRecord
  2
AMDT_DM_ADJ
 70
     0
  0
APPID
  5
52C2C
330
52BAD
100
AcDbSymbolTableRecord
100
AcDbRegAppTableRecord
  2
ACAD_DSTYLE_DIMJOGGED_JOGA
 70
     0
  0
APPID
  5
52C2D
330
52BAD
100
AcDbSymbolTableRecord
100
AcDbRegAppTableRecord
  2
ACAECLAYERSTANDARD
 70
     0
  0
APPID
  5
52C2E
330
52BAD
100
AcDbSymbolTableRecord
100
AcDbRegAppTableRecord
  2
ACAD_PSEXT
 70
     0
  0
APPID
  5
52C2F
330
52BAD
100
AcDbSymbolTableRecord
100
AcDbRegAppTableRecord
  2
ACAD_DSTYLE_DIMJAG
 70
     0
  0
APPID
  5
52C30
330
52BAD
100
AcDbSymbolTableRecord
100
AcDbRegAppTableRecord
  2
ACAD_DSTYLE_DIMTALN
 70
     0
  0
APPID
  5
52C31
330
52BAD
100
AcDbSymbolTableRecord
100
AcDbRegAppTableRecord
  2
GENIUS_GENODEF_13
 70
     0
  0
APPID
  5
52C32
330
52BAD
100
AcDbSymbolTableRecord
100
AcDbRegAppTableRecord
  2
ACAD_DSTYLE_DIMINSPECT
 70
     0
  0
APPID
  5
52C33
330
52BAD
100
AcDbSymbolTableRecord
100
AcDbRegAppTableRecord
  2
GENIUS_GENREC_14
 70
     0
  0
APPID
  5
52C34
330
52BAD
100
AcDbSymbolTableRecord
100
AcDbRegAppTableRecord
  2
GENIUS_GENOBJ-N-REC_13
 70
     0
  0
APPID
  5
52C35
330
52BAD
100
AcDbSymbolTableRecord
100
AcDbRegAppTableRecord
  2
ACAD_DSTYLE_DIMRADIAL_EXTENSION
 70
     0
  0
APPID
  5
52C36
330
52BAD
100
AcDbSymbolTableRecord
100
AcDbRegAppTableRecord
  2
ACAD_DSTYLE_DIMBREAK
 70
     0
  0
APPID
  5
52C5D
330
52BAD
100
AcDbSymbolTableRecord
100
AcDbRegAppTableRecord
  2
ACAD_EXEMPT_FROM_CAD_STANDARDS
 70
     0
  0
APPID
  5
53185
330
52BAD
100
AcDbSymbolTableRecord
100
AcDbRegAppTableRecord
  2
ACAD_DSTYLE_DIMJOGGED_JOGANGLE_SYMBOL
 70
     0
  0
ENDTAB
  0
TABLE
  2
DIMSTYLE
  5
52BAE
330
0
100
AcDbSymbolTable
 70
    15
100
AcDbDimStyleTable
 71
     1
340
5312A
  0
DIMSTYLE
105
52C03
330
52BAE
100
AcDbSymbolTableRecord
100
AcDbDimStyleTableRecord
  2
STANDARD
 70
     0
271
     2
272
     2
279
     2
284
     8
285
     8
286
     8
340
52C01
  0
DIMSTYLE
105
52C37
330
52BAE
100
AcDbSymbolTableRecord
100
AcDbDimStyleTableRecord
  2
AM_ISO
 70
     0
  4
"
 41
3.5
 42
1.0
 43
10.0
 44
1.0
 47
0.1
 48
0.1
 73
     0
 74
     0
 77
     1
 78
     8
140
3.5
141
0.0
143
0.0393701
146
0.71
147
1.5
172
     1
176
   256
177
   256
178
     2
271
     2
272
     2
279
     2
284
     8
285
     8
286
     8
340
52C01
  0
DIMSTYLE
105
52CA0
330
52BAE
100
AcDbSymbolTableRecord
100
AcDbDimStyleTableRecord
  2
abode-iso
 70
     0
 40
10.0
 41
1.25
 42
1.5
 43
6.0
 44
0.0
 45
0.00000001
 46
10.0
 77
     1
 78
    12
 79
     3
140
17.0
143
0.03937
147
0.75
171
     3
172
     1
176
   256
177
   256
178
   256
271
     0
272
     0
274
     3
340
52C24
342
52C3E
371
    25
372
    25
1001
ACAD_DSTYLE_DIMJAG
1070
   388
1040
1.5
1001
ACAD_DSTYLE_DIMTALN
1070
   392
1070
     0
  0
DIMSTYLE
105
52CA1
102
{ACAD_REACTORS
330
550E3
330
550E6
330
550E7
330
550EA
330
55101
102
}
330
52BAE
100
AcDbSymbolTableRecord
100
AcDbDimStyleTableRecord
  2
abode-iso$4
 70
     0
 40
10.0
 41
1.25
 42
1.5
 43
6.0
 44
0.0
 45
0.00000001
 46
10.0
 77
     1
 78
    12
 79
     3
140
17.0
143
0.03937
147
0.75
171
     3
172
     1
176
   256
177
   256
178
   256
271
     0
272
     0
274
     3
340
52C24
342
52C3E
371
    25
372
    25
1001
ACAD_DSTYLE_DIMBREAK
1070
   391
1040
3.75
1001
ACAD_DSTYLE_DIMJAG
1070
   388
1040
1.5
1001
ACAD_DSTYLE_DIMTALN
1070
   392
1070
     0
  0
DIMSTYLE
105
52CA2
102
{ACAD_REACTORS
330
550E0
330
550EF
330
550F2
330
550F5
102
}
330
52BAE
100
AcDbSymbolTableRecord
100
AcDbDimStyleTableRecord
  2
abode-iso$0
 70
     0
 40
10.0
 41
1.25
 42
1.5
 43
6.0
 44
0.0
 45
0.00000001
 46
10.0
 77
     1
 78
    12
 79
     3
140
17.0
143
0.03937
147
0.75
171
     3
172
     1
176
   256
177
   256
178
   256
271
     0
272
     0
274
     3
340
52C24
342
52C3E
371
    25
372
    25
1001
ACAD_DSTYLE_DIMJAG
1070
   388
1040
1.5
1001
ACAD_DSTYLE_DIMTALN
1070
   392
1070
     0
  0
DIMSTYLE
105
5312A
102
{ACAD_REACTORS
330
53A79
102
}
330
52BAE
100
AcDbSymbolTableRecord
100
AcDbDimStyleTableRecord
  2
AM_ANSI
 70
     0
  4
mm
 41
0.12
 42
0.05
 43
0.5
 44
0.1
 47
0.1
 48
0.1
 78
     7
 79
     2
 90
     1
140
0.12
141
0.0
146
0.71
147
0.06
176
   256
177
   256
178
   140
274
     4
284
     7
340
52C01
345
52C06
346
52C06
347
52C06
371
    -1
372
    -1
  0
DIMSTYLE
105
53138
330
52BAE
100
AcDbSymbolTableRecord
100
AcDbDimStyleTableRecord
  2
AM_ANSI$3
 70
     0
  4
mm
 41
0.12
 42
0.05
 43
0.5
 44
0.1
 47
0.1
 48
0.1
 78
     7
 79
     2
 90
     1
140
0.12
141
0.0
146
0.71
147
0.06
176
   256
177
   256
178
   140
274
     4
284
     7
288
     1
289
     0
340
52C01
345
52C06
346
52C06
347
52C06
371
    -1
372
    -1
  0
DIMSTYLE
105
53139
330
52BAE
100
AcDbSymbolTableRecord
100
AcDbDimStyleTableRecord
  2
AM_ANSI$4
 70
     0
  4
mm
 41
0.12
 42
0.05
 43
0.5
 44
0.1
 47
0.1
 48
0.1
 78
     7
 79
     2
 90
     1
140
0.12
141
0.0
146
0.71
147
0.06
176
   256
177
   256
178
   140
274
     4
284
     7
340
52C01
345
52C06
346
52C06
347
52C06
371
    -1
372
    -1
  0
DIMSTYLE
105
5313A
330
52BAE
100
AcDbSymbolTableRecord
100
AcDbDimStyleTableRecord
  2
AM_ANSI$7
 70
     0
  4
mm
 41
0.12
 42
0.05
 43
0.5
 44
0.1
 47
0.1
 48
0.1
 78
     7
 79
     2
 90
     1
140
0.12
141
0.0
146
0.71
147
0.06
176
   256
177
   256
178
   140
274
     4
284
     7
340
52C01
345
52C06
346
52C06
347
52C06
371
    -1
372
    -1
  0
DIMSTYLE
105
5313B
330
52BAE
100
AcDbSymbolTableRecord
100
AcDbDimStyleTableRecord
  2
AM_ANSI$SF
 70
     0
  4
mm
 41
0.12
 42
0.05
 43
0.5
 44
0.1
 47
0.1
 48
0.1
 75
     1
 76
     1
 78
     7
 79
     2
 90
     1
140
0.12
141
0.0
146
0.71
147
0.06
176
   256
177
   256
178
   140
274
     4
284
     7
340
52C01
345
52C06
346
52C06
347
52C06
371
    -1
372
    -1
  0
DIMSTYLE
105
53140
330
52BAE
100
AcDbSymbolTableRecord
100
AcDbDimStyleTableRecord
  2
AM_ANSI$SH
 70
     0
  4
mm
 41
0.12
 42
0.05
 43
0.5
 44
0.1
 47
0.1
 48
0.1
 75
     1
 76
     1
 78
     7
 79
     2
 90
     1
140
0.12
141
0.0
146
0.71
147
0.06
173
     1
176
   256
177
   256
178
   140
274
     4
284
     7
340
52C01
343
5313C
345
52C06
346
52C06
347
52C06
371
    -1
372
    -1
  0
DIMSTYLE
105
53182
330
52BAE
100
AcDbSymbolTableRecord
100
AcDbDimStyleTableRecord
  2
abode-iso$7
 70
     0
 40
10.0
 41
2.5
 42
1.5
 43
6.0
 44
3.174999999999998
 45
0.00000001
 46
10.0
 77
     1
 78
    12
 79
     3
140
2.5
143
0.03937
146
1.399999999999999
147
0.762
171
     3
172
     1
176
     7
177
   256
178
   256
271
     0
272
     0
274
     3
340
52C24
371
    25
372
    25
1001
ACAD_DSTYLE_DIMBREAK
1070
   391
1040
3.75
1001
ACAD_DSTYLE_DIMJAG
1070
   388
1040
1.5
1001
ACAD_DSTYLE_DIMTALN
1070
   392
1070
     0
  0
DIMSTYLE
105
53183
102
{ACAD_REACTORS
330
550F8
102
}
330
52BAE
100
AcDbSymbolTableRecord
100
AcDbDimStyleTableRecord
  2
abode-iso$2
 70
     0
 40
10.0
 41
1.25
 42
1.5
 43
6.0
 44
0.0
 45
0.00000001
 46
10.0
 77
     1
 78
    12
 79
     3
140
17.0
143
0.03937
147
0.75
171
     3
172
     1
176
   256
177
   256
178
   256
271
     0
272
     0
274
     3
340
52C24
342
52C3E
371
    25
372
    25
1001
ACAD_DSTYLE_DIMJAG
1070
   388
1040
1.5
1001
ACAD_DSTYLE_DIMTALN
1070
   392
1070
     0
  0
DIMSTYLE
105
53184
330
52BAE
100
AcDbSymbolTableRecord
100
AcDbDimStyleTableRecord
  2
abode-iso$3
 70
     0
 40
10.0
 41
1.25
 42
1.5
 43
6.0
 44
0.0
 45
0.00000001
 46
10.0
 77
     1
 78
    12
 79
     3
140
17.0
143
0.03937
147
0.75
171
     3
172
     1
176
   256
177
   256
178
   256
271
     0
272
     0
274
     3
340
52C24
342
52C3E
371
    25
372
    25
1001
ACAD_DSTYLE_DIMJAG
1070
   388
1040
1.5
1001
ACAD_DSTYLE_DIMTALN
1070
   392
1070
     0
  0
ENDTAB
  0
TABLE
  2
BLOCK_RECORD
  5
52BA5
330
0
100
AcDbSymbolTable
 70
    33
  0
BLOCK_RECORD
  5
52C18
330
52BA5
100
AcDbSymbolTableRecord
100
AcDbBlockTableRecord
  2
*Model_Space
340
52C1B
 70
     0
280
     1
281
     0
  0
BLOCK_RECORD
  5
52C14
330
52BA5
100
AcDbSymbolTableRecord
100
AcDbBlockTableRecord
  2
*Paper_Space
340
52C17
 70
     0
280
     1
281
     0
  0
BLOCK_RECORD
  5
52C3E
330
52BA5
100
AcDbSymbolTableRecord
100
AcDbBlockTableRecord
  2
FILLED-1
340
0
102
{BLKREFS
331
539F4
331
539FA
331
53A00
331
53A01
331
53A0A
331
53A0B
331
546B0
331
5462E
331
5462F
331
5463A
331
54644
331
5464E
331
54658
331
54663
331
54664
331
54670
331
54671
331
5467D
331
5467E
331
54688
331
54689
331
54698
331
54699
331
546A4
331
546A5
331
55108
331
55109
331
5511E
331
55132
331
5513D
331
5513E
331
5514A
331
5514B
331
55157
331
55158
331
5518A
331
55190
331
55197
331
5519D
331
5519E
331
551A5
331
551A6
331
551B0
331
551B1
102
}
 70
     0
280
     1
281
     0
  0
BLOCK_RECORD
  5
52C58
330
52BA5
100
AcDbSymbolTableRecord
100
AcDbBlockTableRecord
  2
*U1
340
0
102
{BLKREFS
331
4EFE9
102
}
 70
     0
280
     1
281
     0
  0
BLOCK_RECORD
  5
5313C
330
52BA5
100
AcDbSymbolTableRecord
100
AcDbBlockTableRecord
  2
GENAXEH
340
0
 70
     0
280
     1
281
     0
  0
BLOCK_RECORD
  5
55102
330
52BA5
100
AcDbSymbolTableRecord
100
AcDbBlockTableRecord
  2
*D21
340
0
 70
     0
280
     1
281
     0
  0
BLOCK_RECORD
  5
5510E
330
52BA5
100
AcDbSymbolTableRecord
100
AcDbBlockTableRecord
  2
*D22
340
0
 70
     0
280
     1
281
     0
  0
BLOCK_RECORD
  5
55117
330
52BA5
100
AcDbSymbolTableRecord
100
AcDbBlockTableRecord
  2
*D23
340
0
 70
     0
280
     1
281
     0
  0
BLOCK_RECORD
  5
55121
330
52BA5
100
AcDbSymbolTableRecord
100
AcDbBlockTableRecord
  2
*D24
340
0
 70
     0
280
     1
281
     0
  0
BLOCK_RECORD
  5
5512B
330
52BA5
100
AcDbSymbolTableRecord
100
AcDbBlockTableRecord
  2
*D25
340
0
 70
     0
280
     1
281
     0
  0
BLOCK_RECORD
  5
55135
330
52BA5
100
AcDbSymbolTableRecord
100
AcDbBlockTableRecord
  2
*D26
340
0
 70
     0
280
     1
281
     0
  0
BLOCK_RECORD
  5
55143
330
52BA5
100
AcDbSymbolTableRecord
100
AcDbBlockTableRecord
  2
*D27
340
0
 70
     0
280
     1
281
     0
  0
BLOCK_RECORD
  5
55150
330
52BA5
100
AcDbSymbolTableRecord
100
AcDbBlockTableRecord
  2
*D28
340
0
 70
     0
280
     1
281
     0
  0
BLOCK_RECORD
  5
5515D
330
52BA5
100
AcDbSymbolTableRecord
100
AcDbBlockTableRecord
  2
*D29
340
0
 70
     0
280
     1
281
     0
  0
BLOCK_RECORD
  5
55184
330
52BA5
100
AcDbSymbolTableRecord
100
AcDbBlockTableRecord
  2
*D32
340
0
 70
     0
280
     1
281
     0
  0
ENDTAB
  0
ENDSEC
  0
SECTION
  2
BLOCKS
  0
BLOCK
  5
52C19
330
52C18
100
AcDbEntity
  8
0
100
AcDbBlockBegin
  2
*Model_Space
 70
     0
 10
0.0
 20
0.0
 30
0.0
  3
*Model_Space
  1

  0
ENDBLK
  5
52C1A
330
52C18
100
AcDbEntity
  8
0
100
AcDbBlockEnd
  0
BLOCK
  5
52C15
330
52C14
100
AcDbEntity
 67
     1
  8
0
100
AcDbBlockBegin
  2
*Paper_Space
 70
     0
 10
0.0
 20
0.0
 30
0.0
  3
*Paper_Space
  1

  0
ENDBLK
  5
52C16
330
52C14
100
AcDbEntity
 67
     1
  8
0
100
AcDbBlockEnd
  0
BLOCK
  5
52C3F
330
52C3E
100
AcDbEntity
  8
0
100
AcDbBlockBegin
  2
FILLED-1
 70
     0
 10
0.0
 20
0.0
 30
0.0
  3
FILLED-1
  1

  0
LINE
  5
13A
330
52C3E
100
AcDbEntity
  8
0
 62
     0
100
AcDbLine
 10
-1.0
 20
0.0
 30
0.0
 11
0.0
 21
0.0
 31
0.0
  0
LWPOLYLINE
  5
13B
330
52C3E
100
AcDbEntity
  8
0
 62
     0
100
AcDbPolyline
 90
        4
 70
   128
 43
0.0
 10
-1.0
 20
-0.3333333333333333
 10
0.0
 20
0.0
 10
-1.0
 20
0.3333333333333333
 10
-1.0
 20
-0.3333333333333333
  0
SOLID
  5
141
330
52C3E
100
AcDbEntity
  8
0
 62
     0
100
AcDbTrace
 10
-1.0
 20
-0.3333333333333333
 30
0.0
 11
0.0
 21
0.0
 31
0.0
 12
-1.0
 22
0.3333333333333333
 32
0.0
 13
-1.0
 23
-0.3333333333333333
 33
0.0
  0
LINE
  5
142
330
52C3E
100
AcDbEntity
  8
0
 62
     0
100
AcDbLine
 10
-1.0
 20
-0.3333333333333333
 30
0.0
 11
0.0
 21
0.0
 31
0.0
  0
LINE
  5
143
330
52C3E
100
AcDbEntity
  8
0
 62
     0
100
AcDbLine
 10
0.0
 20
0.0
 30
0.0
 11
-1.0
 21
0.3333333333333333
 31
0.0
  0
LINE
  5
144
330
52C3E
100
AcDbEntity
  8
0
 62
     0
100
AcDbLine
 10
-1.0
 20
0.3333333333333333
 30
0.0
 11
-1.0
 21
-0.3333333333333333
 31
0.0
  0
ENDBLK
  5
145
330
52C3E
100
AcDbEntity
  8
0
100
AcDbBlockEnd
  0
BLOCK
  5
52C59
330
52C58
100
AcDbEntity
  8
0
100
AcDbBlockBegin
  2
*U1
 70
     1
 10
0.0
 20
0.0
 30
0.0
  3
*U1
  1

  0
TEXT
  5
51B8B
330
52C58
100
AcDbEntity
  8
0
 62
     1
100
AcDbText
 10
29068.05134894387
 20
25957.69496399888
 30
0.0
 40
8.0
  1
All details are provided in good faith and
  7
ACISOTS
100
AcDbText
  0
TEXT
  5
51B8C
330
52C58
100
AcDbEntity
  8
0
 62
     1
100
AcDbText
 10
29049.60334894387
 20
25944.36163066555
 30
0.0
 40
8.0
  1
within
  7
ACISOTS
100
AcDbText
  0
TEXT
  5
51B8D
330
52C58
100
AcDbEntity
  8
0
 62
     1
100
AcDbText
 10
29085.57434894387
 20
25931.02829733222
 30
0.0
 40
8.0
  1
the tolerances of the manufacturing process.
  7
ACISOTS
100
AcDbText
  0
TEXT
  5
51B8E
330
52C58
100
AcDbEntity
  8
0
 62
     1
100
AcDbText
 10
29050.90814894387
 20
25917.69496399888
 30
0.0
 40
8.0
  1
Note: the dimensions on ceramic fireclay
  7
ACISOTS
100
AcDbText
  0
TEXT
  5
51B8F
330
52C58
100
AcDbEntity
  8
0
 62
     1
100
AcDbText
 10
29049.60334894387
 20
25904.36163066556
 30
0.0
 40
8.0
  1
products
  7
ACISOTS
100
AcDbText
  0
TEXT
  5
51B90
330
52C58
100
AcDbEntity
  8
0
 62
     1
100
AcDbText
 10
29052.43194894387
 20
25891.02829733223
 30
0.0
 40
8.0
  1
are subject to wider tolerances due to the
  7
ACISOTS
100
AcDbText
  0
TEXT
  5
51B91
330
52C58
100
AcDbEntity
  8
0
 62
     1
100
AcDbText
 10
29049.60334894387
 20
25877.69496399888
 30
0.0
 40
8.0
  1
nature
  7
ACISOTS
100
AcDbText
  0
TEXT
  5
51B92
330
52C58
100
AcDbEntity
  8
0
 62
     1
100
AcDbText
 10
29074.14634894387
 20
25864.36163066556
 30
0.0
 40
8.0
  1
of this natural material and the firing
  7
ACISOTS
100
AcDbText
  0
TEXT
  5
51B93
330
52C58
100
AcDbEntity
  8
0
 62
     1
100
AcDbText
 10
29049.60334894387
 20
25851.02829733223
 30
0.0
 40
8.0
  1
process.
  7
ACISOTS
100
AcDbText
  0
TEXT
  5
51B94
330
52C58
100
AcDbEntity
  8
0
 62
     1
100
AcDbText
 10
29079.09834894386
 20
25824.36163066557
 30
0.0
 40
8.0
  1
We recommend that a test cutout is made in
  7
ACISOTS
100
AcDbText
  0
TEXT
  5
51B95
330
52C58
100
AcDbEntity
  8
0
 62
     1
100
AcDbText
 10
29054.71764894387
 20
25811.02829733223
 30
0.0
 40
8.0
  1
scrap timber and checked against the actual
  7
ACISOTS
100
AcDbText
  0
TEXT
  5
51B96
330
52C58
100
AcDbEntity
  8
0
 62
     1
100
AcDbText
 10
29049.60334894387
 20
25797.6949639989
 30
0.0
 40
8.0
  1
sink
  7
ACISOTS
100
AcDbText
  0
TEXT
  5
51B97
330
52C58
100
AcDbEntity
  8
0
 62
     1
100
AcDbText
 10
29105.76534894387
 20
25784.36163066557
 30
0.0
 40
8.0
  1
supplied before committing to cutting
  7
ACISOTS
100
AcDbText
  0
TEXT
  5
51B98
330
52C58
100
AcDbEntity
  8
0
 62
     1
100
AcDbText
 10
29049.60334894387
 20
25771.02829733223
 30
0.0
 40
8.0
  1
the
  7
ACISOTS
100
AcDbText
  0
TEXT
  5
51B99
330
52C58
100
AcDbEntity
  8
0
 62
     1
100
AcDbText
 10
29296.24334894387
 20
25757.6949639989
 30
0.0
 40
8.0
  1
worksurface.
  7
ACISOTS
100
AcDbText
  0
TEXT
  5
51B9A
330
52C58
100
AcDbEntity
  8
0
 62
     1
100
AcDbText
 10
29076.43234894387
 20
25731.02829733224
 30
0.0
 40
8.0
  1
Abode can not accept liability for problems
  7
ACISOTS
100
AcDbText
  0
TEXT
  5
51B9B
330
52C58
100
AcDbEntity
  8
0
 62
     1
100
AcDbText
 10
29049.60334894387
 20
25717.69496399891
 30
0.0
 40
8.0
  1
or
  7
ACISOTS
100
AcDbText
  0
TEXT
  5
51B9C
330
52C58
100
AcDbEntity
  8
0
 62
     1
100
AcDbText
 10
29080.62234894387
 20
25704.36163066557
 30
0.0
 40
8.0
  1
costs incurred by failure to follow this advise,
  7
ACISOTS
100
AcDbText
  0
TEXT
  5
51B9D
330
52C58
100
AcDbEntity
  8
0
 62
     1
100
AcDbText
 10
29073.38434894387
 20
25691.02829733224
 30
0.0
 40
8.0
  1
dimensions weights & measures are subject
  7
ACISOTS
100
AcDbText
  0
TEXT
  5
51B9E
330
52C58
100
AcDbEntity
  8
0
 62
     1
100
AcDbText
 10
29049.60334894387
 20
25677.69496399891
 30
0.0
 40
8.0
  1
to
  7
ACISOTS
100
AcDbText
  0
TEXT
  5
51B9F
330
52C58
100
AcDbEntity
  8
0
 62
     1
100
AcDbText
 10
29056.62234894387
 20
25664.36163066557
 30
0.0
 40
8.0
  1
change without prior notice. Errors and omissions
  7
ACISOTS
100
AcDbText
  0
TEXT
  5
51BA0
330
52C58
100
AcDbEntity
  8
0
 62
     1
100
AcDbText
 10
29317.19334894387
 20
25651.02829733225
 30
0.0
 40
8.0
  1
excepted
  7
ACISOTS
100
AcDbText
  0
ENDBLK
  5
51BA2
330
52C58
100
AcDbEntity
  8
0
100
AcDbBlockEnd
  0
BLOCK
  5
5313E
330
5313C
100
AcDbEntity
  8
0
100
AcDbBlockBegin
  2
GENAXEH
 70
     0
 10
0.0
 20
0.0
 30
0.0
  3
GENAXEH
  1

  0
LINE
  5
5313D
330
5313C
100
AcDbEntity
  8
0
100
AcDbLine
 10
-1.0
 20
0.0
 30
0.0
 11
1.0
 21
0.0
 31
0.0
  0
ENDBLK
  5
5313F
330
5313C
100
AcDbEntity
  8
0
100
AcDbBlockEnd
  0
BLOCK
  5
55103
330
55102
100
AcDbEntity
  8
0
100
AcDbBlockBegin
  2
*D21
 70
     1
 10
0.0
 20
0.0
 30
0.0
  3
*D21
  1

  0
LINE
  5
55105
330
55102
100
AcDbEntity
  8
DIMS SPECS
100
AcDbLine
 10
29928.8077247897
 20
25684.47664521544
 30
0.0
 11
29928.8077247897
 21
25616.4938068413
 31
0.0
  0
LINE
  5
55106
330
55102
100
AcDbEntity
  8
DIMS SPECS
100
AcDbLine
 10
30693.80772478971
 20
25684.47664521544
 30
0.0
 11
30693.80772478971
 21
25616.4938068413
 31
0.0
  0
LINE
  5
55107
330
55102
100
AcDbEntity
  8
DIMS SPECS
100
AcDbLine
 10
29941.30772478971
 20
25616.4938068413
 30
0.0
 11
30681.30772478971
 21
25616.4938068413
 31
0.0
  0
INSERT
  5
55108
330
55102
100
AcDbEntity
  8
DIMS SPECS
100
AcDbBlockReference
  2
FILLED-1
 10
29928.8077247897
 20
25616.4938068413
 30
0.0
 41
12.5
 42
12.5
 43
12.5
 50
180.0
  0
INSERT
  5
55109
330
55102
100
AcDbEntity
  8
DIMS SPECS
100
AcDbBlockReference
  2
FILLED-1
 10
30693.80772478971
 20
25616.4938068413
 30
0.0
 41
12.5
 42
12.5
 43
12.5
  0
MTEXT
  5
5510A
330
55102
100
AcDbEntity
  8
DIMS SPECS
100
AcDbMText
 10
30312.43689704224
 20
25632.92140711322
 30
0.0
 40
17.0
 41
0.0
 46
0.0
 71
     5
 72
     1
  1
\A1;765
  7
Abode ISO Bold
 73
     1
 44
1.0
  0
POINT
  5
5510B
330
55102
100
AcDbEntity
  8
DEFPOINTS
 62
     0
100
AcDbPoint
 10
29928.8077247897
 20
25699.47664521544
 30
0.0
  0
POINT
  5
5510C
330
55102
100
AcDbEntity
  8
DEFPOINTS
 62
     0
100
AcDbPoint
 10
30693.80772478971
 20
25699.47664521544
 30
0.0
  0
POINT
  5
5510D
330
55102
100
AcDbEntity
  8
DEFPOINTS
 62
     0
100
AcDbPoint
 10
30693.80772478971
 20
25616.4938068413
 30
0.0
  0
ENDBLK
  5
55104
330
55102
100
AcDbEntity
  8
0
100
AcDbBlockEnd
  0
BLOCK
  5
5510F
330
5510E
100
AcDbEntity
  8
0
100
AcDbBlockBegin
  2
*D22
 70
     1
 10
0.0
 20
0.0
 30
0.0
  3
*D22
  1

  0
LINE
  5
5518D
330
5510E
100
AcDbEntity
  8
DIMS SPECS
100
AcDbLine
 10
29850.0399102897
 20
25717.31778238428
 30
0.0
 11
29891.21863224756
 21
25717.31778238428
 31
0.0
  0
LINE
  5
5518E
330
5510E
100
AcDbEntity
  8
DIMS SPECS
100
AcDbLine
 10
29891.21863224756
 20
25717.31778238428
 30
0.0
 11
29916.70843060755
 21
25700.83420329404
 31
0.0
  0
MTEXT
  5
5518F
330
5510E
100
AcDbEntity
  8
DIMS SPECS
100
AcDbMText
 10
29866.87927126863
 20
25733.7453826562
 30
0.0
 40
17.0
 41
0.0
 46
0.0
 71
     5
 72
     1
  1
\A1;R10
  7
Abode ISO Bold
 73
     1
 44
1.0
  0
INSERT
  5
55190
330
5510E
100
AcDbEntity
  8
DIMS SPECS
100
AcDbBlockReference
  2
FILLED-1
 10
29927.20490151835
 20
25694.04641290107
 30
0.0
 41
12.5
 42
12.5
 43
12.5
 50
327.1103185719359
  0
POINT
  5
55191
330
5510E
100
AcDbEntity
  8
DEFPOINTS
 62
     0
100
AcDbPoint
 10
29927.20490151835
 20
25694.04641290107
 30
0.0
  0
POINT
  5
55192
330
5510E
100
AcDbEntity
  8
DEFPOINTS
 62
     0
100
AcDbPoint
 10
29918.80772478971
 20
25699.47664521544
 30
0.0
  0
ENDBLK
  5
55110
330
5510E
100
AcDbEntity
  8
0
100
AcDbBlockEnd
  0
BLOCK
  5
55118
330
55117
100
AcDbEntity
  8
0
100
AcDbBlockBegin
  2
*D23
 70
     1
 10
0.0
 20
0.0
 30
0.0
  3
*D23
  1

  0
LINE
  5
5511A
330
55117
100
AcDbEntity
  8
DIMS SPECS
100
AcDbLine
 10
30245.58091238321
 20
26172.30290520299
 30
0.0
 11
30205.08866221326
 21
26172.30290520301
 31
0.0
  0
LINE
  5
5511B
330
55117
100
AcDbEntity
  8
DIMS SPECS
100
AcDbLine
 10
30205.08866221326
 20
26172.30290520301
 30
0.0
 11
30197.3880869584
 21
26151.66670720407
 31
0.0
  0
MTEXT
  5
5511C
330
55117
100
AcDbEntity
  8
DIMS SPECS
100
AcDbMText
 10
30229.08478729823
 20
26188.73050547493
 30
0.0
 40
17.0
 41
0.0
 46
0.0
 71
     5
 72
     1
  1
\A1;R26
  7
Abode ISO Bold
 73
     1
 44
1.0
  0
LINE
  5
5511D
330
55117
100
AcDbEntity
  8
DIMS SPECS
100
AcDbLine
 10
30183.94174722854
 20
26115.63286299852
 30
0.0
 11
30193.01795570301
 21
26139.95551798988
 31
0.0
  0
INSERT
  5
5511E
330
55117
100
AcDbEntity
  8
DIMS SPECS
100
AcDbBlockReference
  2
FILLED-1
 10
30193.01795570301
 20
26139.95551798988
 30
0.0
 41
12.5
 42
12.5
 43
12.5
 50
249.5365065622774
  0
POINT
  5
5511F
330
55117
100
AcDbEntity
  8
DEFPOINTS
 62
     0
100
AcDbPoint
 10
30193.01795570301
 20
26139.95551798988
 30
0.0
  0
POINT
  5
55120
330
55117
100
AcDbEntity
  8
DEFPOINTS
 62
     0
100
AcDbPoint
 10
30183.94174722854
 20
26115.63286299852
 30
0.0
  0
ENDBLK
  5
55119
330
55117
100
AcDbEntity
  8
0
100
AcDbBlockEnd
  0
BLOCK
  5
55122
330
55121
100
AcDbEntity
  8
0
100
AcDbBlockBegin
  2
*D24
 70
     1
 10
0.0
 20
0.0
 30
0.0
  3
*D24
  1

  0
LINE
  5
55193
330
55121
100
AcDbEntity
  8
DIMS SPECS
100
AcDbLine
 10
29879.71771271152
 20
26166.72609235141
 30
0.0
 11
29920.20996288148
 21
26166.72609235141
 31
0.0
  0
LINE
  5
55194
330
55121
100
AcDbEntity
  8
DIMS SPECS
100
AcDbLine
 10
29920.20996288148
 20
26166.72609235141
 30
0.0
 11
29933.23228395188
 21
26147.48029597645
 31
0.0
  0
MTEXT
  5
55195
330
55121
100
AcDbEntity
  8
DIMS SPECS
100
AcDbMText
 10
29896.21383779649
 20
26183.15369262333
 30
0.0
 40
17.0
 41
0.0
 46
0.0
 71
     5
 72
     1
  1
\A1;R26
  7
Abode ISO Bold
 73
     1
 44
1.0
  0
LINE
  5
55196
330
55121
100
AcDbEntity
  8
DIMS SPECS
100
AcDbLine
 10
29954.80772478971
 20
26115.59377291962
 30
0.0
 11
29940.23729721091
 21
26137.12752875021
 31
0.0
  0
INSERT
  5
55197
330
55121
100
AcDbEntity
  8
DIMS SPECS
100
AcDbBlockReference
  2
FILLED-1
 10
29940.23729721091
 20
26137.12752875021
 30
0.0
 41
12.5
 42
12.5
 43
12.5
 50
304.08353830189
  0
POINT
  5
55198
330
55121
100
AcDbEntity
  8
DEFPOINTS
 62
     0
100
AcDbPoint
 10
29940.23729721091
 20
26137.12752875021
 30
0.0
  0
POINT
  5
55199
330
55121
100
AcDbEntity
  8
DEFPOINTS
 62
     0
100
AcDbPoint
 10
29954.80772478971
 20
26115.59377291962
 30
0.0
  0
ENDBLK
  5
55123
330
55121
100
AcDbEntity
  8
0
100
AcDbBlockEnd
  0
BLOCK
  5
5512C
330
5512B
100
AcDbEntity
  8
0
100
AcDbBlockBegin
  2
*D25
 70
     1
 10
0.0
 20
0.0
 30
0.0
  3
*D25
  1

  0
LINE
  5
5512E
330
5512B
100
AcDbEntity
  8
DIMS SPECS
100
AcDbLine
 10
30228.31402603916
 20
25985.4980246651
 30
0.0
 11
30269.49274799703
 21
25985.4980246651
 31
0.0
  0
LINE
  5
5512F
330
5512B
100
AcDbEntity
  8
DIMS SPECS
100
AcDbLine
 10
30269.49274799703
 20
25985.4980246651
 30
0.0
 11
30295.81111773156
 21
26023.29832868034
 31
0.0
  0
MTEXT
  5
55130
330
5512B
100
AcDbEntity
  8
DIMS SPECS
100
AcDbMText
 10
30245.15338701808
 20
26001.92562493703
 30
0.0
 40
17.0
 41
0.0
 46
0.0
 71
     5
 72
     1
  1
\A1;R10
  7
Abode ISO Bold
 73
     1
 44
1.0
  0
LINE
  5
55131
330
5512B
100
AcDbEntity
  8
DIMS SPECS
100
AcDbLine
 10
30308.66747642847
 20
26041.76354032429
 30
0.0
 11
30302.95353922985
 21
26033.55677959365
 31
0.0
  0
INSERT
  5
55132
330
5512B
100
AcDbEntity
  8
DIMS SPECS
100
AcDbBlockReference
  2
FILLED-1
 10
30302.95353922985
 20
26033.55677959365
 30
0.0
 41
12.5
 42
12.5
 43
12.5
 50
55.15252863086228
  0
POINT
  5
55133
330
5512B
100
AcDbEntity
  8
DEFPOINTS
 62
     0
100
AcDbPoint
 10
30302.95353922985
 20
26033.55677959365
 30
0.0
  0
POINT
  5
55134
330
5512B
100
AcDbEntity
  8
DEFPOINTS
 62
     0
100
AcDbPoint
 10
30308.66747642847
 20
26041.76354032429
 30
0.0
  0
ENDBLK
  5
5512D
330
5512B
100
AcDbEntity
  8
0
100
AcDbBlockEnd
  0
BLOCK
  5
55136
330
55135
100
AcDbEntity
  8
0
100
AcDbBlockBegin
  2
*D26
 70
     1
 10
0.0
 20
0.0
 30
0.0
  3
*D26
  1

  0
LINE
  5
55138
330
55135
100
AcDbEntity
  8
DIMS SPECS
100
AcDbLine
 10
30296.30811505423
 20
26084.90955464322
 30
0.0
 11
30271.53889794952
 21
26084.90955464322
 31
0.0
  0
LINE
  5
55139
330
55135
100
AcDbEntity
  8
DIMS SPECS
100
AcDbLine
 10
30296.30811505423
 20
26155.97300928792
 30
0.0
 11
30271.53889794952
 21
26155.97300928792
 31
0.0
  0
LINE
  5
5513A
330
55135
100
AcDbEntity
  8
DIMS SPECS
100
AcDbLine
 10
30271.53889794952
 20
26097.40955464323
 30
0.0
 11
30271.53889794952
 21
26143.47300928792
 31
0.0
  0
LINE
  5
5513B
330
55135
100
AcDbEntity
  8
DIMS SPECS
100
AcDbLine
 10
30271.53889794952
 20
26155.97300928792
 30
0.0
 11
30271.53889794952
 21
26168.47300928792
 31
0.0
  0
LINE
  5
5513C
330
55135
100
AcDbEntity
  8
DIMS SPECS
100
AcDbLine
 10
30271.53889794952
 20
26168.47300928792
 30
0.0
 11
30297.55283404741
 21
26168.47300928792
 31
0.0
  0
INSERT
  5
5513D
330
55135
100
AcDbEntity
  8
DIMS SPECS
100
AcDbBlockReference
  2
FILLED-1
 10
30271.53889794952
 20
26084.90955464322
 30
0.0
 41
12.5
 42
12.5
 43
12.5
 50
270.0
  0
INSERT
  5
5513E
330
55135
100
AcDbEntity
  8
DIMS SPECS
100
AcDbBlockReference
  2
FILLED-1
 10
30271.53889794952
 20
26155.97300928792
 30
0.0
 41
12.5
 42
12.5
 43
12.5
 50
90.0
  0
MTEXT
  5
5513F
330
55135
100
AcDbEntity
  8
DIMS SPECS
100
AcDbMText
 10
30288.29586599846
 20
26184.68680942389
 30
0.0
 40
17.0
 41
0.0
 46
0.0
 71
     5
 72
     1
  1
\A1;71
  7
Abode ISO Bold
 73
     1
 44
1.0
  0
POINT
  5
55140
330
55135
100
AcDbEntity
  8
DEFPOINTS
 62
     0
100
AcDbPoint
 10
30311.30811505423
 20
26084.90955464322
 30
0.0
  0
POINT
  5
55141
330
55135
100
AcDbEntity
  8
DEFPOINTS
 62
     0
100
AcDbPoint
 10
30311.30811505423
 20
26155.97300928792
 30
0.0
  0
POINT
  5
55142
330
55135
100
AcDbEntity
  8
DEFPOINTS
 62
     0
100
AcDbPoint
 10
30271.53889794952
 20
26155.97300928792
 30
0.0
  0
ENDBLK
  5
55137
330
55135
100
AcDbEntity
  8
0
100
AcDbBlockEnd
  0
BLOCK
  5
55144
330
55143
100
AcDbEntity
  8
0
100
AcDbBlockBegin
  2
*D27
 70
     1
 10
0.0
 20
0.0
 30
0.0
  3
*D27
  1

  0
LINE
  5
55146
330
55143
100
AcDbEntity
  8
DIMS SPECS
100
AcDbLine
 10
29969.80772478971
 20
26141.59377291962
 30
0.0
 11
30002.51492650017
 21
26141.59377291962
 31
0.0
  0
LINE
  5
55147
330
55143
100
AcDbEntity
  8
DIMS SPECS
100
AcDbLine
 10
29933.80772478971
 20
25689.47664521544
 30
0.0
 11
30002.51492650017
 21
25689.47664521544
 31
0.0
  0
LINE
  5
55148
330
55143
100
AcDbEntity
  8
DIMS SPECS
100
AcDbLine
 10
30002.51492650017
 20
26129.09377291962
 30
0.0
 11
30002.51492650017
 21
25931.96280933946
 31
0.0
  0
LINE
  5
55149
330
55143
100
AcDbEntity
  8
DIMS SPECS
100
AcDbLine
 10
30002.51492650017
 20
25701.97664521544
 30
0.0
 11
30002.51492650017
 21
25899.10760879561
 31
0.0
  0
INSERT
  5
5514A
330
55143
100
AcDbEntity
  8
DIMS SPECS
100
AcDbBlockReference
  2
FILLED-1
 10
30002.51492650017
 20
26141.59377291962
 30
0.0
 41
12.5
 42
12.5
 43
12.5
 50
90.0
  0
INSERT
  5
5514B
330
55143
100
AcDbEntity
  8
DIMS SPECS
100
AcDbBlockReference
  2
FILLED-1
 10
30002.51492650017
 20
25689.47664521544
 30
0.0
 41
12.5
 42
12.5
 43
12.5
 50
270.0
  0
MTEXT
  5
5514C
330
55143
100
AcDbEntity
  8
DIMS SPECS
100
AcDbMText
 10
30002.51492650016
 20
25915.53520906754
 30
0.0
 40
17.0
 41
0.0
 46
0.0
 71
     5
 72
     1
  1
\A1;452
  7
Abode ISO Bold
 73
     1
 44
1.0
  0
POINT
  5
5514D
330
55143
100
AcDbEntity
  8
DEFPOINTS
 62
     0
100
AcDbPoint
 10
29954.80772478971
 20
26141.59377291962
 30
0.0
  0
POINT
  5
5514E
330
55143
100
AcDbEntity
  8
DEFPOINTS
 62
     0
100
AcDbPoint
 10
29918.80772478971
 20
25689.47664521544
 30
0.0
  0
POINT
  5
5514F
330
55143
100
AcDbEntity
  8
DEFPOINTS
 62
     0
100
AcDbPoint
 10
30002.51492650017
 20
25689.47664521544
 30
0.0
  0
ENDBLK
  5
55145
330
55143
100
AcDbEntity
  8
0
100
AcDbBlockEnd
  0
BLOCK
  5
55151
330
55150
100
AcDbEntity
  8
0
100
AcDbBlockBegin
  2
*D28
 70
     1
 10
0.0
 20
0.0
 30
0.0
  3
*D28
  1

  0
LINE
  5
55153
330
55150
100
AcDbEntity
  8
DIMS SPECS
100
AcDbLine
 10
30293.66747642847
 20
26031.76354032429
 30
0.0
 11
30136.56880252886
 21
26031.76354032429
 31
0.0
  0
LINE
  5
55154
330
55150
100
AcDbEntity
  8
DIMS SPECS
100
AcDbLine
 10
30168.92555558771
 20
26141.59377291962
 30
0.0
 11
30136.56880252886
 21
26141.59377291962
 31
0.0
  0
LINE
  5
55155
330
55150
100
AcDbEntity
  8
DIMS SPECS
100
AcDbLine
 10
30136.56880252886
 20
26044.26354032429
 30
0.0
 11
30136.56880252886
 21
26070.25105635004
 31
0.0
  0
LINE
  5
55156
330
55150
100
AcDbEntity
  8
DIMS SPECS
100
AcDbLine
 10
30136.56880252886
 20
26129.09377291962
 30
0.0
 11
30136.56880252886
 21
26103.10625689388
 31
0.0
  0
INSERT
  5
55157
330
55150
100
AcDbEntity
  8
DIMS SPECS
100
AcDbBlockReference
  2
FILLED-1
 10
30136.56880252886
 20
26031.76354032429
 30
0.0
 41
12.5
 42
12.5
 43
12.5
 50
270.0
  0
INSERT
  5
55158
330
55150
100
AcDbEntity
  8
DIMS SPECS
100
AcDbBlockReference
  2
FILLED-1
 10
30136.56880252886
 20
26141.59377291962
 30
0.0
 41
12.5
 42
12.5
 43
12.5
 50
90.0
  0
MTEXT
  5
55159
330
55150
100
AcDbEntity
  8
DIMS SPECS
100
AcDbMText
 10
30136.56880252885
 20
26086.67865662197
 30
0.0
 40
17.0
 41
0.0
 46
0.0
 71
     5
 72
     1
  1
\A1;110
  7
Abode ISO Bold
 73
     1
 44
1.0
  0
POINT
  5
5515A
330
55150
100
AcDbEntity
  8
DEFPOINTS
 62
     0
100
AcDbPoint
 10
30308.66747642847
 20
26031.76354032429
 30
0.0
  0
POINT
  5
5515B
330
55150
100
AcDbEntity
  8
DEFPOINTS
 62
     0
100
AcDbPoint
 10
30183.92555558771
 20
26141.59377291962
 30
0.0
  0
POINT
  5
5515C
330
55150
100
AcDbEntity
  8
DEFPOINTS
 62
     0
100
AcDbPoint
 10
30136.56880252886
 20
26141.59377291962
 30
0.0
  0
ENDBLK
  5
55152
330
55150
100
AcDbEntity
  8
0
100
AcDbBlockEnd
  0
BLOCK
  5
5515E
330
5515D
100
AcDbEntity
  8
0
100
AcDbBlockBegin
  2
*D29
 70
     1
 10
0.0
 20
0.0
 30
0.0
  3
*D29
  1

  0
ARC
  5
551A3
330
5515D
100
AcDbEntity
  8
DIMS SPECS
100
AcDbCircle
 10
30311.30847902741
 20
26024.98040210162
 30
0.0
 40
103.5363020874631
100
AcDbArc
 50
51.92205025168439
 51
77.3229803035803
  0
ARC
  5
551A4
330
5515D
100
AcDbEntity
  8
DIMS SPECS
100
AcDbCircle
 10
30311.30847902741
 20
26024.98040210162
 30
0.0
 40
103.5363020874631
100
AcDbArc
 50
102.677520233521
 51
128.0784380831695
  0
INSERT
  5
551A5
330
5515D
100
AcDbEntity
  8
DIMS SPECS
100
AcDbBlockReference
  2
FILLED-1
 10
30384.5190763468
 20
26098.19224738697
 30
0.0
 41
12.5
 42
12.5
 43
12.5
 50
318.4612692932692
  0
INSERT
  5
551A6
330
5515D
100
AcDbEntity
  8
DIMS SPECS
100
AcDbBlockReference
  2
FILLED-1
 10
30238.09725772239
 20
26098.19162340665
 30
0.0
 41
12.5
 42
12.5
 43
12.5
 50
221.5392190415848
  0
MTEXT
  5
551A7
330
5515D
100
AcDbEntity
  8
DIMS SPECS
100
AcDbMText
 10
30311.30803780482
 20
26128.51670418814
 30
0.0
 40
17.0
 41
0.0
 46
0.0
 71
     5
 72
     1
  1
\A1;90\U+00B0
  7
Abode ISO Bold
 73
     1
 44
1.0
  0
POINT
  5
551A8
330
5515D
100
AcDbEntity
  8
DEFPOINTS
 62
     0
100
AcDbPoint
 10
30338.10507761564
 20
26124.98894250717
 30
0.0
  0
POINT
  5
551A9
330
5515D
100
AcDbEntity
  8
DEFPOINTS
 62
     0
100
AcDbPoint
 10
30420.32763006667
 20
26134.0014115083
 30
0.0
  0
POINT
  5
551AA
330
5515D
100
AcDbEntity
  8
DEFPOINTS
 62
     0
100
AcDbPoint
 10
30301.5964086166
 20
26034.69247251243
 30
0.0
  0
POINT
  5
551AB
330
5515D
100
AcDbEntity
  8
DEFPOINTS
 62
     0
100
AcDbPoint
 10
30202.2874334605
 20
26134.00144766854
 30
0.0
  0
POINT
  5
551AC
330
5515D
100
AcDbEntity
  8
DEFPOINTS
 62
     0
100
AcDbPoint
 10
30321.02044415298
 20
26034.69253277975
 30
0.0
  0
ENDBLK
  5
5515F
330
5515D
100
AcDbEntity
  8
0
100
AcDbBlockEnd
  0
BLOCK
  5
55185
330
55184
100
AcDbEntity
  8
0
100
AcDbBlockBegin
  2
*D32
 70
     1
 10
0.0
 20
0.0
 30
0.0
  3
*D32
  1

  0
LINE
  5
55187
330
55184
100
AcDbEntity
  8
DIMS SPECS
100
AcDbLine
 10
30488.21742301468
 20
26094.42765898696
 30
0.0
 11
30447.72517284473
 21
26094.42765898696
 31
0.0
  0
LINE
  5
55188
330
55184
100
AcDbEntity
  8
DIMS SPECS
100
AcDbLine
 10
30447.72517284473
 20
26094.42765898696
 30
0.0
 11
30433.38865852195
 21
26128.01303648228
 31
0.0
  0
MTEXT
  5
55189
330
55184
100
AcDbEntity
  8
DIMS SPECS
100
AcDbMText
 10
30471.7212979297
 20
26110.85525925888
 30
0.0
 40
17.0
 41
0.0
 46
0.0
 71
     5
 72
     1
  1
\A1;R26
  7
Abode ISO Bold
 73
     1
 44
1.0
  0
INSERT
  5
5518A
330
55184
100
AcDbEntity
  8
DIMS SPECS
100
AcDbBlockReference
  2
FILLED-1
 10
30428.4812193809
 20
26139.50942900677
 30
0.0
 41
12.5
 42
12.5
 43
12.5
 50
113.1160727238367
  0
POINT
  5
5518B
330
55184
100
AcDbEntity
  8
DEFPOINTS
 62
     0
100
AcDbPoint
 10
30428.4812193809
 20
26139.50942900677
 30
0.0
  0
POINT
  5
5518C
330
55184
100
AcDbEntity
  8
DEFPOINTS
 62
     0
100
AcDbPoint
 10
30438.67326775776
 20
26115.63306795551
 30
0.0
  0
ENDBLK
  5
55186
330
55184
100
AcDbEntity
  8
0
100
AcDbBlockEnd
  0
ENDSEC
  0
SECTION
  2
ENTITIES
  0
TEXT
  5
4EFD5
330
52C18
100
AcDbEntity
  8
LAYER1
100
AcDbText
 10
29536.60103082985
 20
26533.84198875161
 30
0.0
 40
150.0
  1
AW1021
100
AcDbText
  0
INSERT
  5
4EFE9
330
52C18
100
AcDbEntity
  8
0
100
AcDbBlockReference
  2
*U1
 10
0.0
 20
0.0
 30
0.0
  0
TEXT
  5
4EFEA
330
52C18
100
AcDbEntity
  8
LAYER1
100
AcDbText
 10
29141.6042719676
 20
25696.20060721863
 30
0.0
 40
30.0
  1
file version 1
100
AcDbText
  0
LINE
  5
54BED
330
52C18
100
AcDbEntity
  8
CUTOUT
100
AcDbLine
 10
29875.52686955692
 20
26289.47664521545
 30
0.0
 11
31078.22627728607
 21
26289.47664521545
 31
0.0
  0
SPLINE
  5
54BEE
330
52C18
100
AcDbEntity
  8
CUTOUT
100
AcDbSpline
210
0.0
220
0.0
230
1.0
 70
     8
 71
     3
 72
    10
 73
     6
 74
     4
 42
0.0000000001
 43
0.0000000001
 44
0.0000000001
 40
0.0
 40
0.0
 40
0.0
 40
0.0
 40
291.7901295660274
 40
468.3400027843151
 40
677.0081312009022
 40
677.0081312009022
 40
677.0081312009022
 40
677.0081312009022
 10
29888.14604589045
 20
26308.97014331825
 30
0.0
 10
29828.14164598794
 20
26216.48212154074
 30
0.0
 10
29731.83112013427
 20
26068.03350732197
 30
0.0
 10
29897.73193429865
 20
25863.31913604393
 30
0.0
 10
29838.13194833771
 20
25737.16522207403
 30
0.0
 10
29805.84732645778
 20
25668.82910847393
 30
0.0
 11
29888.14604589045
 21
26308.97014331825
 31
0.0
 11
29790.06607295728
 21
26034.15784624699
 31
0.0
 11
29857.51422819849
 21
25870.99962828677
 31
0.0
 11
29805.84732645778
 21
25668.82910847393
 31
0.0
  0
SPLINE
  5
54BEF
330
52C18
100
AcDbEntity
  8
CUTOUT
100
AcDbSpline
210
0.0
220
0.0
230
1.0
 70
     8
 71
     3
 72
    10
 73
     6
 74
     4
 42
0.0000000001
 43
0.0000000001
 44
0.0000000001
 40
0.0
 40
0.0
 40
0.0
 40
0.0
 40
291.7901295660274
 40
468.3400027843151
 40
677.0081312009022
 40
677.0081312009022
 40
677.0081312009022
 40
677.0081312009022
 10
31090.84545361959
 20
26308.97014331825
 30
0.0
 10
31030.84105371708
 20
26216.48212154074
 30
0.0
 10
30934.53052786342
 20
26068.03350732197
 30
0.0
 10
31100.4313420278
 20
25863.31913604393
 30
0.0
 10
31040.83135606686
 20
25737.16522207403
 30
0.0
 10
31008.54673418692
 20
25668.82910847393
 30
0.0
 11
31090.84545361959
 21
26308.97014331825
 31
0.0
 11
30992.76548068643
 21
26034.15784624699
 31
0.0
 11
31060.21363592764
 21
25870.99962828677
 31
0.0
 11
31008.54673418692
 21
25668.82910847393
 31
0.0
  0
POLYLINE
  5
54BF0
330
52C18
100
AcDbEntity
  8
sink_label
  6
DASHED2
 48
5.0
370
     0
100
AcDb2dPolyline
 66
     1
 10
0.0
 20
0.0
 30
0.0
  0
VERTEX
  5
54BF1
330
54BF0
100
AcDbEntity
  8
sink_label
  6
DASHED2
 48
5.0
370
     0
100
AcDbVertex
100
AcDb2dVertex
 10
30687.92941698176
 20
25706.27682938544
 30
0.0
  0
VERTEX
  5
54BF2
330
54BF0
100
AcDbEntity
  8
sink_label
  6
DASHED2
 48
5.0
370
     0
100
AcDbVertex
100
AcDb2dVertex
 10
30687.8728959135
 20
25704.85691249182
 30
0.0
  0
VERTEX
  5
54BF3
330
54BF0
100
AcDbEntity
  8
sink_label
  6
DASHED2
 48
5.0
370
     0
100
AcDbVertex
100
AcDb2dVertex
 10
30687.71592883253
 20
25703.44402035953
 30
0.0
  0
VERTEX
  5
54BF4
330
54BF0
100
AcDbEntity
  8
sink_label
  6
DASHED2
 48
5.0
370
     0
100
AcDbVertex
100
AcDb2dVertex
 10
30687.46023828569
 20
25702.04703487075
 30
0.0
  0
VERTEX
  5
54BF5
330
54BF0
100
AcDbEntity
  8
sink_label
  6
DASHED2
 48
5.0
370
     0
100
AcDbVertex
100
AcDb2dVertex
 10
30687.10560895461
 20
25700.67120441036
 30
0.0
  0
VERTEX
  5
54BF6
330
54BF0
100
AcDbEntity
  8
sink_label
  6
DASHED2
 48
5.0
370
     0
100
AcDbVertex
100
AcDb2dVertex
 10
30686.65408636368
 20
25699.32358065451
 30
0.0
  0
VERTEX
  5
54BF7
330
54BF0
100
AcDbEntity
  8
sink_label
  6
DASHED2
 48
5.0
370
     0
100
AcDbVertex
100
AcDb2dVertex
 10
30686.10728540055
 20
25698.01301857055
 30
0.0
  0
VERTEX
  5
54BF8
330
54BF0
100
AcDbEntity
  8
sink_label
  6
DASHED2
 48
5.0
370
     0
100
AcDbVertex
100
AcDb2dVertex
 10
30685.46875881808
 20
25696.74301708176
 30
0.0
  0
VERTEX
  5
54BF9
330
54BF0
100
AcDbEntity
  8
sink_label
  6
DASHED2
 48
5.0
370
     0
100
AcDbVertex
100
AcDb2dVertex
 10
30684.74205936916
 20
25695.52240424071
 30
0.0
  0
VERTEX
  5
54BFA
330
54BF0
100
AcDbEntity
  8
sink_label
  6
DASHED2
 48
5.0
370
     0
100
AcDbVertex
100
AcDb2dVertex
 10
30683.93063214744
 20
25694.35648226188
 30
0.0
  0
VERTEX
  5
54BFB
330
54BF0
100
AcDbEntity
  8
sink_label
  6
DASHED2
 48
5.0
370
     0
100
AcDbVertex
100
AcDb2dVertex
 10
30683.03986011181
 20
25693.25052644499
 30
0.0
  0
VERTEX
  5
54BFC
330
54BF0
100
AcDbEntity
  8
sink_label
  6
DASHED2
 48
5.0
370
     0
100
AcDbVertex
100
AcDb2dVertex
 10
30682.07146580912
 20
25692.20981208974
 30
0.0
  0
VERTEX
  5
54BFD
330
54BF0
100
AcDbEntity
  8
sink_label
  6
DASHED2
 48
5.0
370
     0
100
AcDbVertex
100
AcDb2dVertex
 10
30681.03083219825
 20
25691.24144470185
 30
0.0
  0
VERTEX
  5
54BFE
330
54BF0
100
AcDbEntity
  8
sink_label
  6
DASHED2
 48
5.0
370
     0
100
AcDbVertex
100
AcDb2dVertex
 10
30679.92484946657
 20
25690.34892320459
 30
0.0
  0
VERTEX
  5
54BFF
330
54BF0
100
AcDbEntity
  8
sink_label
  6
DASHED2
 48
5.0
370
     0
100
AcDbVertex
100
AcDb2dVertex
 10
30678.75890057295
 20
25689.53752289766
 30
0.0
  0
VERTEX
  5
54C00
330
54BF0
100
AcDbEntity
  8
sink_label
  6
DASHED2
 48
5.0
370
     0
100
AcDbVertex
100
AcDb2dVertex
 10
30677.53836847628
 20
25688.81257291037
 30
0.0
  0
VERTEX
  5
54C01
330
54BF0
100
AcDbEntity
  8
sink_label
  6
DASHED2
 48
5.0
370
     0
100
AcDbVertex
100
AcDb2dVertex
 10
30676.26831315791
 20
25688.1740463279
 30
0.0
  0
VERTEX
  5
54C02
330
54BF0
100
AcDbEntity
  8
sink_label
  6
DASHED2
 48
5.0
370
     0
100
AcDbVertex
100
AcDb2dVertex
 10
30674.95777798874
 20
25687.62724536478
 30
0.0
  0
VERTEX
  5
54C03
330
54BF0
100
AcDbEntity
  8
sink_label
  6
DASHED2
 48
5.0
370
     0
100
AcDbVertex
100
AcDb2dVertex
 10
30673.6101004033
 20
25687.17569585905
 30
0.0
  0
VERTEX
  5
54C04
330
54BF0
100
AcDbEntity
  8
sink_label
  6
DASHED2
 48
5.0
370
     0
100
AcDbVertex
100
AcDb2dVertex
 10
30672.2343237725
 20
25686.82114727235
 30
0.0
  0
VERTEX
  5
54C05
330
54BF0
100
AcDbEntity
  8
sink_label
  6
DASHED2
 48
5.0
370
     0
100
AcDbVertex
100
AcDb2dVertex
 10
30670.83733828371
 20
25686.56537598112
 30
0.0
  0
VERTEX
  5
54C06
330
54BF0
100
AcDbEntity
  8
sink_label
  6
DASHED2
 48
5.0
370
     0
100
AcDbVertex
100
AcDb2dVertex
 10
30669.42441923663
 20
25686.40840890015
 30
0.0
  0
VERTEX
  5
54C07
330
54BF0
100
AcDbEntity
  8
sink_label
  6
DASHED2
 48
5.0
370
     0
100
AcDbVertex
100
AcDb2dVertex
 10
30668.00450234301
 20
25686.35194166149
 30
0.0
  0
SEQEND
  5
54C08
330
54BF0
100
AcDbEntity
  8
sink_label
  6
DASHED2
 48
5.0
370
     0
  0
POLYLINE
  5
54C09
330
52C18
100
AcDbEntity
  8
sink_label
  6
DASHED2
 48
5.0
370
     0
100
AcDb2dPolyline
 66
     1
 10
0.0
 20
0.0
 30
0.0
  0
VERTEX
  5
54C0A
330
54C09
100
AcDbEntity
  8
sink_label
  6
DASHED2
 48
5.0
370
     0
100
AcDbVertex
100
AcDb2dVertex
 10
29934.68753982615
 20
26115.66993487266
 30
0.0
  0
VERTEX
  5
54C0B
330
54C09
100
AcDbEntity
  8
sink_label
  6
DASHED2
 48
5.0
370
     0
100
AcDbVertex
100
AcDb2dVertex
 10
29934.74398015002
 20
26117.08985176628
 30
0.0
  0
VERTEX
  5
54C0C
330
54C09
100
AcDbEntity
  8
sink_label
  6
DASHED2
 48
5.0
370
     0
100
AcDbVertex
100
AcDb2dVertex
 10
29934.89919776935
 20
26118.50094060734
 30
0.0
  0
VERTEX
  5
54C0D
330
54C09
100
AcDbEntity
  8
sink_label
  6
DASHED2
 48
5.0
370
     0
100
AcDbVertex
100
AcDb2dVertex
 10
29935.15671852221
 20
26119.89970247256
 30
0.0
  0
VERTEX
  5
54C0E
330
54C09
100
AcDbEntity
  8
sink_label
  6
DASHED2
 48
5.0
370
     0
100
AcDbVertex
100
AcDb2dVertex
 10
29935.51126710891
 20
26121.27553293295
 30
0.0
  0
VERTEX
  5
54C0F
330
54C09
100
AcDbEntity
  8
sink_label
  6
DASHED2
 48
5.0
370
     0
100
AcDbVertex
100
AcDb2dVertex
 10
29935.96281661464
 20
26122.62138031237
 30
0.0
  0
VERTEX
  5
54C10
330
54C09
100
AcDbEntity
  8
sink_label
  6
DASHED2
 48
5.0
370
     0
100
AcDbVertex
100
AcDb2dVertex
 10
29936.50961757777
 20
26123.93374568755
 30
0.0
  0
VERTEX
  5
54C11
330
54C09
100
AcDbEntity
  8
sink_label
  6
DASHED2
 48
5.0
370
     0
100
AcDbVertex
100
AcDb2dVertex
 10
29937.14639469859
 20
26125.20374717634
 30
0.0
  0
VERTEX
  5
54C12
330
54C09
100
AcDbEntity
  8
sink_label
  6
DASHED2
 48
5.0
370
     0
100
AcDbVertex
100
AcDb2dVertex
 10
29937.87312106232
 20
26126.4243331026
 30
0.0
  0
VERTEX
  5
54C13
330
54C09
100
AcDbEntity
  8
sink_label
  6
DASHED2
 48
5.0
370
     0
100
AcDbVertex
100
AcDb2dVertex
 10
29938.68449445445
 20
26127.59028199622
 30
0.0
  0
VERTEX
  5
54C14
330
54C09
100
AcDbEntity
  8
sink_label
  6
DASHED2
 48
5.0
370
     0
100
AcDbVertex
100
AcDb2dVertex
 10
29939.57701595171
 20
26128.69621089831
 30
0.0
  0
VERTEX
  5
54C15
330
54C09
100
AcDbEntity
  8
sink_label
  6
DASHED2
 48
5.0
370
     0
100
AcDbVertex
100
AcDb2dVertex
 10
29940.5454102544
 20
26129.73689833877
 30
0.0
  0
VERTEX
  5
54C16
330
54C09
100
AcDbEntity
  8
sink_label
  6
DASHED2
 48
5.0
370
     0
100
AcDbVertex
100
AcDb2dVertex
 10
29941.58432131842
 20
26130.70351626503
 30
0.0
  0
VERTEX
  5
54C17
330
54C09
100
AcDbEntity
  8
sink_label
  6
DASHED2
 48
5.0
370
     0
100
AcDbVertex
100
AcDb2dVertex
 10
29942.69027713531
 20
26131.59606467708
 30
0.0
  0
VERTEX
  5
54C18
330
54C09
100
AcDbEntity
  8
sink_label
  6
DASHED2
 48
5.0
370
     0
100
AcDbVertex
100
AcDb2dVertex
 10
29943.85797549057
 20
26132.40743806921
 30
0.0
  0
VERTEX
  5
54C19
330
54C09
100
AcDbEntity
  8
sink_label
  6
DASHED2
 48
5.0
370
     0
100
AcDbVertex
100
AcDb2dVertex
 10
29945.07858833162
 20
26133.13413751814
 30
0.0
  0
VERTEX
  5
54C1A
330
54C09
100
AcDbEntity
  8
sink_label
  6
DASHED2
 48
5.0
370
     0
100
AcDbVertex
100
AcDb2dVertex
 10
29946.34681344398
 20
26133.7726641006
 30
0.0
  0
VERTEX
  5
54C1B
330
54C09
100
AcDbEntity
  8
sink_label
  6
DASHED2
 48
5.0
370
     0
100
AcDbVertex
100
AcDb2dVertex
 10
29947.65915190436
 20
26134.31774251689
 30
0.0
  0
VERTEX
  5
54C1C
330
54C09
100
AcDbEntity
  8
sink_label
  6
DASHED2
 48
5.0
370
     0
100
AcDbVertex
100
AcDb2dVertex
 10
29949.00677566022
 20
26134.76926510783
 30
0.0
  0
VERTEX
  5
54C1D
330
54C09
100
AcDbEntity
  8
sink_label
  6
DASHED2
 48
5.0
370
     0
100
AcDbVertex
100
AcDb2dVertex
 10
29950.38260612061
 20
26135.12561698575
 30
0.0
  0
VERTEX
  5
54C1E
330
54C09
100
AcDbEntity
  8
sink_label
  6
DASHED2
 48
5.0
370
     0
100
AcDbVertex
100
AcDb2dVertex
 10
29951.7795916094
 20
26135.38136136218
 30
0.0
  0
VERTEX
  5
54C1F
330
54C09
100
AcDbEntity
  8
sink_label
  6
DASHED2
 48
5.0
370
     0
100
AcDbVertex
100
AcDb2dVertex
 10
29953.19248374168
 20
26135.53832844315
 30
0.0
  0
VERTEX
  5
54C20
330
54C09
100
AcDbEntity
  8
sink_label
  6
DASHED2
 48
5.0
370
     0
100
AcDbVertex
100
AcDb2dVertex
 10
29954.61065117367
 20
26135.59301930538
 30
0.0
  0
SEQEND
  5
54C21
330
54C09
100
AcDbEntity
  8
sink_label
  6
DASHED2
 48
5.0
370
     0
  0
POLYLINE
  5
54C22
330
52C18
100
AcDbEntity
  8
sink_label
  6
DASHED2
 48
5.0
370
     0
100
AcDb2dPolyline
 66
     1
 10
0.0
 20
0.0
 30
0.0
  0
VERTEX
  5
54C23
330
54C22
100
AcDbEntity
  8
sink_label
  6
DASHED2
 48
5.0
370
     0
100
AcDbVertex
100
AcDb2dVertex
 10
30335.88729743023
 20
26015.31069545087
 30
0.0
  0
VERTEX
  5
54C24
330
54C22
100
AcDbEntity
  8
sink_label
  6
DASHED2
 48
5.0
370
     0
100
AcDbVertex
100
AcDb2dVertex
 10
30335.94021191603
 20
26016.28436505325
 30
0.0
  0
VERTEX
  5
54C25
330
54C22
100
AcDbEntity
  8
sink_label
  6
DASHED2
 48
5.0
370
     0
100
AcDbVertex
100
AcDb2dVertex
 10
30336.08662839759
 20
26017.24920660308
 30
0.0
  0
VERTEX
  5
54C26
330
54C22
100
AcDbEntity
  8
sink_label
  6
DASHED2
 48
5.0
370
     0
100
AcDbVertex
100
AcDb2dVertex
 10
30336.32477049848
 20
26018.19644587737
 30
0.0
  0
VERTEX
  5
54C27
330
54C22
100
AcDbEntity
  8
sink_label
  6
DASHED2
 48
5.0
370
     0
100
AcDbVertex
100
AcDb2dVertex
 10
30336.65458438912
 20
26019.11542461753
 30
0.0
  0
VERTEX
  5
54C28
330
54C22
100
AcDbEntity
  8
sink_label
  6
DASHED2
 48
5.0
370
     0
100
AcDbVertex
100
AcDb2dVertex
 10
30337.07262497582
 20
26019.99914497702
 30
0.0
  0
VERTEX
  5
54C29
330
54C22
100
AcDbEntity
  8
sink_label
  6
DASHED2
 48
5.0
370
     0
100
AcDbVertex
100
AcDb2dVertex
 10
30337.57533950571
 20
26020.83700252684
 30
0.0
  0
VERTEX
  5
54C2A
330
54C22
100
AcDbEntity
  8
sink_label
  6
DASHED2
 48
5.0
370
     0
100
AcDbVertex
100
AcDb2dVertex
 10
30338.15567630267
 20
26021.62189176127
 30
0.0
  0
VERTEX
  5
54C2B
330
54C22
100
AcDbEntity
  8
sink_label
  6
DASHED2
 48
5.0
370
     0
100
AcDbVertex
100
AcDb2dVertex
 10
30338.81008261383
 20
26022.3486450398
 30
0.0
  0
SEQEND
  5
54C2C
330
54C22
100
AcDbEntity
  8
sink_label
  6
DASHED2
 48
5.0
370
     0
  0
POLYLINE
  5
54C2D
330
52C18
100
AcDbEntity
  8
sink_label
  6
DASHED2
 48
5.0
370
     0
100
AcDb2dPolyline
 66
     1
 10
0.0
 20
0.0
 30
0.0
  0
VERTEX
  5
54C2E
330
54C2D
100
AcDbEntity
  8
sink_label
  6
DASHED2
 48
5.0
370
     0
100
AcDbVertex
100
AcDb2dVertex
 10
30286.72774842728
 20
26015.31069545087
 30
0.0
  0
VERTEX
  5
54C2F
330
54C2D
100
AcDbEntity
  8
sink_label
  6
DASHED2
 48
5.0
370
     0
100
AcDbVertex
100
AcDb2dVertex
 10
30286.67661031791
 20
26016.28436505325
 30
0.0
  0
VERTEX
  5
54C30
330
54C2D
100
AcDbEntity
  8
sink_label
  6
DASHED2
 48
5.0
370
     0
100
AcDbVertex
100
AcDb2dVertex
 10
30286.53019383634
 20
26017.24920660308
 30
0.0
  0
VERTEX
  5
54C31
330
54C2D
100
AcDbEntity
  8
sink_label
  6
DASHED2
 48
5.0
370
     0
100
AcDbVertex
100
AcDb2dVertex
 10
30286.2903291886
 20
26018.19644587737
 30
0.0
  0
VERTEX
  5
54C32
330
54C2D
100
AcDbEntity
  8
sink_label
  6
DASHED2
 48
5.0
370
     0
100
AcDbVertex
100
AcDb2dVertex
 10
30285.96046146838
 20
26019.11542461753
 30
0.0
  0
VERTEX
  5
54C33
330
54C2D
100
AcDbEntity
  8
sink_label
  6
DASHED2
 48
5.0
370
     0
100
AcDbVertex
100
AcDb2dVertex
 10
30285.54242088168
 20
26019.99914497702
 30
0.0
  0
VERTEX
  5
54C34
330
54C2D
100
AcDbEntity
  8
sink_label
  6
DASHED2
 48
5.0
370
     0
100
AcDbVertex
100
AcDb2dVertex
 10
30285.04148272822
 20
26020.83700252684
 30
0.0
  0
VERTEX
  5
54C35
330
54C2D
100
AcDbEntity
  8
sink_label
  6
DASHED2
 48
5.0
370
     0
100
AcDbVertex
100
AcDb2dVertex
 10
30284.46114593126
 20
26021.62189176127
 30
0.0
  0
VERTEX
  5
54C36
330
54C2D
100
AcDbEntity
  8
sink_label
  6
DASHED2
 48
5.0
370
     0
100
AcDbVertex
100
AcDb2dVertex
 10
30283.8067396201
 20
26022.3486450398
 30
0.0
  0
SEQEND
  5
54C37
330
54C2D
100
AcDbEntity
  8
sink_label
  6
DASHED2
 48
5.0
370
     0
  0
POLYLINE
  5
54C38
330
52C18
100
AcDbEntity
  8
sink_label
  6
DASHED2
 48
5.0
370
     0
100
AcDb2dPolyline
 66
     1
 10
0.0
 20
0.0
 30
0.0
  0
VERTEX
  5
54C39
330
54C38
100
AcDbEntity
  8
sink_label
  6
DASHED2
 48
5.0
370
     0
100
AcDbVertex
100
AcDb2dVertex
 10
30283.8067396201
 20
26022.3486450398
 30
0.0
  0
VERTEX
  5
54C3A
330
54C38
100
AcDbEntity
  8
sink_label
  6
DASHED2
 48
5.0
370
     0
100
AcDbVertex
100
AcDb2dVertex
 10
30283.81379129624
 20
26022.35569671593
 30
0.0
  0
SEQEND
  5
54C3B
330
54C38
100
AcDbEntity
  8
sink_label
  6
DASHED2
 48
5.0
370
     0
  0
POLYLINE
  5
54C3C
330
52C18
100
AcDbEntity
  8
sink_label
  6
DASHED2
 48
5.0
370
     0
100
AcDb2dPolyline
 66
     1
 10
0.0
 20
0.0
 30
0.0
  0
VERTEX
  5
54C3D
330
54C3C
100
AcDbEntity
  8
sink_label
  6
DASHED2
 48
5.0
370
     0
100
AcDbVertex
100
AcDb2dVertex
 10
30338.80303093769
 20
26022.35569671593
 30
0.0
  0
VERTEX
  5
54C3E
330
54C3C
100
AcDbEntity
  8
sink_label
  6
DASHED2
 48
5.0
370
     0
100
AcDbVertex
100
AcDb2dVertex
 10
30338.81008261383
 20
26022.3486450398
 30
0.0
  0
SEQEND
  5
54C3F
330
54C3C
100
AcDbEntity
  8
sink_label
  6
DASHED2
 48
5.0
370
     0
  0
POLYLINE
  5
54C40
330
52C18
100
AcDbEntity
  8
sink_label
  6
DASHED2
 48
5.0
370
     0
100
AcDb2dPolyline
 66
     1
 10
0.0
 20
0.0
 30
0.0
  0
VERTEX
  5
54C41
330
54C40
100
AcDbEntity
  8
sink_label
  6
DASHED2
 48
5.0
370
     0
100
AcDbVertex
100
AcDb2dVertex
 10
30286.73130118014
 20
26015.3124718273
 30
0.0
  0
VERTEX
  5
54C42
330
54C40
100
AcDbEntity
  8
sink_label
  6
DASHED2
 48
5.0
370
     0
100
AcDbVertex
100
AcDb2dVertex
 10
30286.72774842728
 20
26015.31069545087
 30
0.0
  0
SEQEND
  5
54C43
330
54C40
100
AcDbEntity
  8
sink_label
  6
DASHED2
 48
5.0
370
     0
  0
POLYLINE
  5
54C44
330
52C18
100
AcDbEntity
  8
sink_label
  6
DASHED2
 48
5.0
370
     0
100
AcDb2dPolyline
 66
     1
 10
0.0
 20
0.0
 30
0.0
  0
VERTEX
  5
54C45
330
54C44
100
AcDbEntity
  8
sink_label
  6
DASHED2
 48
5.0
370
     0
100
AcDbVertex
100
AcDb2dVertex
 10
30286.72774842728
 20
26015.31069545087
 30
0.0
  0
VERTEX
  5
54C46
330
54C44
100
AcDbEntity
  8
sink_label
  6
DASHED2
 48
5.0
370
     0
100
AcDbVertex
100
AcDb2dVertex
 10
30286.72597205084
 20
26006.33251216288
 30
0.0
  0
VERTEX
  5
54C47
330
54C44
100
AcDbEntity
  8
sink_label
  6
DASHED2
 48
5.0
370
     0
100
AcDbVertex
100
AcDb2dVertex
 10
30286.74718090884
 20
25970.6561447354
 30
0.0
  0
VERTEX
  5
54C48
330
54C44
100
AcDbEntity
  8
sink_label
  6
DASHED2
 48
5.0
370
     0
100
AcDbVertex
100
AcDb2dVertex
 10
30286.80359431791
 20
25934.9832762312
 30
0.0
  0
VERTEX
  5
54C49
330
54C44
100
AcDbEntity
  8
sink_label
  6
DASHED2
 48
5.0
370
     0
100
AcDbVertex
100
AcDb2dVertex
 10
30286.96938945144
 20
25863.63401338471
 30
0.0
  0
VERTEX
  5
54C4A
330
54C44
100
AcDbEntity
  8
sink_label
  6
DASHED2
 48
5.0
370
     0
100
AcDbVertex
100
AcDb2dVertex
 10
30287.3698277626
 20
25720.93548769175
 30
0.0
  0
SEQEND
  5
54C4B
330
54C44
100
AcDbEntity
  8
sink_label
  6
DASHED2
 48
5.0
370
     0
  0
POLYLINE
  5
54C4C
330
52C18
100
AcDbEntity
  8
sink_label
  6
DASHED2
 48
5.0
370
     0
100
AcDb2dPolyline
 66
     1
 10
0.0
 20
0.0
 30
0.0
  0
VERTEX
  5
54C4D
330
54C4C
100
AcDbEntity
  8
sink_label
  6
DASHED2
 48
5.0
370
     0
100
AcDbVertex
100
AcDb2dVertex
 10
30335.24699447133
 20
25720.93548769175
 30
0.0
  0
VERTEX
  5
54C4E
330
54C4C
100
AcDbEntity
  8
sink_label
  6
DASHED2
 48
5.0
370
     0
100
AcDbVertex
100
AcDb2dVertex
 10
30335.6579833819
 20
25868.08781973324
 30
0.0
  0
VERTEX
  5
54C4F
330
54C4C
100
AcDbEntity
  8
sink_label
  6
DASHED2
 48
5.0
370
     0
100
AcDbVertex
100
AcDb2dVertex
 10
30335.82555489186
 20
25941.6807536709
 30
0.0
  0
VERTEX
  5
54C50
330
54C4C
100
AcDbEntity
  8
sink_label
  6
DASHED2
 48
5.0
370
     0
100
AcDbVertex
100
AcDb2dVertex
 10
30335.87674683082
 20
25978.4913105346
 30
0.0
  0
VERTEX
  5
54C51
330
54C4C
100
AcDbEntity
  8
sink_label
  6
DASHED2
 48
5.0
370
     0
100
AcDbVertex
100
AcDb2dVertex
 10
30335.88729743023
 20
26015.31069545087
 30
0.0
  0
SEQEND
  5
54C52
330
54C4C
100
AcDbEntity
  8
sink_label
  6
DASHED2
 48
5.0
370
     0
  0
POLYLINE
  5
54C53
330
52C18
100
AcDbEntity
  8
sink_label
  6
DASHED2
 48
5.0
370
     0
100
AcDb2dPolyline
 66
     1
 10
0.0
 20
0.0
 30
0.0
  0
VERTEX
  5
54C54
330
54C53
100
AcDbEntity
  8
sink_label
  6
DASHED2
 48
5.0
370
     0
100
AcDbVertex
100
AcDb2dVertex
 10
30335.88729743023
 20
26015.31069545087
 30
0.0
  0
VERTEX
  5
54C55
330
54C53
100
AcDbEntity
  8
sink_label
  6
DASHED2
 48
5.0
370
     0
100
AcDbVertex
100
AcDb2dVertex
 10
30335.88379850695
 20
26015.3124718273
 30
0.0
  0
SEQEND
  5
54C56
330
54C53
100
AcDbEntity
  8
sink_label
  6
DASHED2
 48
5.0
370
     0
  0
POLYLINE
  5
54C57
330
52C18
100
AcDbEntity
  8
sink_label
  6
DASHED2
 48
5.0
370
     0
100
AcDb2dPolyline
 66
     1
 10
0.0
 20
0.0
 30
0.0
  0
VERTEX
  5
54C58
330
54C57
100
AcDbEntity
  8
sink_label
  6
DASHED2
 48
5.0
370
     0
100
AcDbVertex
100
AcDb2dVertex
 10
30324.83123818459
 20
26028.16240212001
 30
0.0
  0
VERTEX
  5
54C59
330
54C57
100
AcDbEntity
  8
sink_label
  6
DASHED2
 48
5.0
370
     0
100
AcDbVertex
100
AcDb2dVertex
 10
30324.81713483233
 20
26028.15007514418
 30
0.0
  0
SEQEND
  5
54C5A
330
54C57
100
AcDbEntity
  8
sink_label
  6
DASHED2
 48
5.0
370
     0
  0
POLYLINE
  5
54C5B
330
52C18
100
AcDbEntity
  8
sink_label
  6
DASHED2
 48
5.0
370
     0
100
AcDb2dPolyline
 66
     1
 10
0.0
 20
0.0
 30
0.0
  0
VERTEX
  5
54C5C
330
54C5B
100
AcDbEntity
  8
sink_label
  6
DASHED2
 48
5.0
370
     0
100
AcDbVertex
100
AcDb2dVertex
 10
30297.7996874016
 20
26028.15007514418
 30
0.0
  0
VERTEX
  5
54C5D
330
54C5B
100
AcDbEntity
  8
sink_label
  6
DASHED2
 48
5.0
370
     0
100
AcDbVertex
100
AcDb2dVertex
 10
30297.7996874016
 20
26028.15007514418
 30
0.0
  0
VERTEX
  5
54C5E
330
54C5B
100
AcDbEntity
  8
sink_label
  6
DASHED2
 48
5.0
370
     0
100
AcDbVertex
100
AcDb2dVertex
 10
30297.78558404934
 20
26028.16240212001
 30
0.0
  0
SEQEND
  5
54C5F
330
54C5B
100
AcDbEntity
  8
sink_label
  6
DASHED2
 48
5.0
370
     0
  0
POLYLINE
  5
54C60
330
52C18
100
AcDbEntity
  8
sink_label
  6
DASHED2
 48
5.0
370
     0
100
AcDb2dPolyline
 66
     1
 10
0.0
 20
0.0
 30
0.0
  0
VERTEX
  5
54C61
330
54C60
100
AcDbEntity
  8
sink_label
  6
DASHED2
 48
5.0
370
     0
100
AcDbVertex
100
AcDb2dVertex
 10
30300.71714345591
 20
26021.10507387911
 30
0.0
  0
VERTEX
  5
54C62
330
54C60
100
AcDbEntity
  8
sink_label
  6
DASHED2
 48
5.0
370
     0
100
AcDbVertex
100
AcDb2dVertex
 10
30286.73130118014
 20
26015.3124718273
 30
0.0
  0
SEQEND
  5
54C63
330
54C60
100
AcDbEntity
  8
sink_label
  6
DASHED2
 48
5.0
370
     0
  0
POLYLINE
  5
54C64
330
52C18
100
AcDbEntity
  8
sink_label
  6
DASHED2
 48
5.0
370
     0
100
AcDb2dPolyline
 66
     1
 10
0.0
 20
0.0
 30
0.0
  0
VERTEX
  5
54C65
330
54C64
100
AcDbEntity
  8
sink_label
  6
DASHED2
 48
5.0
370
     0
100
AcDbVertex
100
AcDb2dVertex
 10
30283.81379129624
 20
26022.35569671593
 30
0.0
  0
VERTEX
  5
54C66
330
54C64
100
AcDbEntity
  8
sink_label
  6
DASHED2
 48
5.0
370
     0
100
AcDbVertex
100
AcDb2dVertex
 10
30284.46819760739
 20
26021.63071981384
 30
0.0
  0
VERTEX
  5
54C67
330
54C64
100
AcDbEntity
  8
sink_label
  6
DASHED2
 48
5.0
370
     0
100
AcDbVertex
100
AcDb2dVertex
 10
30285.04853440435
 20
26020.84405420297
 30
0.0
  0
VERTEX
  5
54C68
330
54C64
100
AcDbEntity
  8
sink_label
  6
DASHED2
 48
5.0
370
     0
100
AcDbVertex
100
AcDb2dVertex
 10
30285.54947255782
 20
26020.00619665315
 30
0.0
  0
VERTEX
  5
54C69
330
54C64
100
AcDbEntity
  8
sink_label
  6
DASHED2
 48
5.0
370
     0
100
AcDbVertex
100
AcDb2dVertex
 10
30285.96751314452
 20
26019.12247629366
 30
0.0
  0
VERTEX
  5
54C6A
330
54C64
100
AcDbEntity
  8
sink_label
  6
DASHED2
 48
5.0
370
     0
100
AcDbVertex
100
AcDb2dVertex
 10
30286.29738086474
 20
26018.20172117707
 30
0.0
  0
VERTEX
  5
54C6B
330
54C64
100
AcDbEntity
  8
sink_label
  6
DASHED2
 48
5.0
370
     0
100
AcDbVertex
100
AcDb2dVertex
 10
30286.53546913604
 20
26017.25453573238
 30
0.0
  0
VERTEX
  5
54C6C
330
54C64
100
AcDbEntity
  8
sink_label
  6
DASHED2
 48
5.0
370
     0
100
AcDbVertex
100
AcDb2dVertex
 10
30286.68010924118
 20
26016.28791780612
 30
0.0
  0
VERTEX
  5
54C6D
330
54C64
100
AcDbEntity
  8
sink_label
  6
DASHED2
 48
5.0
370
     0
100
AcDbVertex
100
AcDb2dVertex
 10
30286.73130118014
 20
26015.3124718273
 30
0.0
  0
SEQEND
  5
54C6E
330
54C64
100
AcDbEntity
  8
sink_label
  6
DASHED2
 48
5.0
370
     0
  0
POLYLINE
  5
54C6F
330
52C18
100
AcDbEntity
  8
sink_label
  6
DASHED2
 48
5.0
370
     0
100
AcDb2dPolyline
 66
     1
 10
0.0
 20
0.0
 30
0.0
  0
VERTEX
  5
54C70
330
54C6F
100
AcDbEntity
  8
sink_label
  6
DASHED2
 48
5.0
370
     0
100
AcDbVertex
100
AcDb2dVertex
 10
30335.88379850695
 20
26015.3124718273
 30
0.0
  0
VERTEX
  5
54C71
330
54C6F
100
AcDbEntity
  8
sink_label
  6
DASHED2
 48
5.0
370
     0
100
AcDbVertex
100
AcDb2dVertex
 10
30321.89967877802
 20
26021.10507387911
 30
0.0
  0
SEQEND
  5
54C72
330
54C6F
100
AcDbEntity
  8
sink_label
  6
DASHED2
 48
5.0
370
     0
  0
POLYLINE
  5
54C73
330
52C18
100
AcDbEntity
  8
sink_label
  6
DASHED2
 48
5.0
370
     0
100
AcDb2dPolyline
 66
     1
 10
0.0
 20
0.0
 30
0.0
  0
VERTEX
  5
54C74
330
54C73
100
AcDbEntity
  8
sink_label
  6
DASHED2
 48
5.0
370
     0
100
AcDbVertex
100
AcDb2dVertex
 10
30335.88379850695
 20
26015.3124718273
 30
0.0
  0
VERTEX
  5
54C75
330
54C73
100
AcDbEntity
  8
sink_label
  6
DASHED2
 48
5.0
370
     0
100
AcDbVertex
100
AcDb2dVertex
 10
30335.93493661632
 20
26016.28791780612
 30
0.0
  0
VERTEX
  5
54C76
330
54C73
100
AcDbEntity
  8
sink_label
  6
DASHED2
 48
5.0
370
     0
100
AcDbVertex
100
AcDb2dVertex
 10
30336.08135309789
 20
26017.25453573238
 30
0.0
  0
VERTEX
  5
54C77
330
54C73
100
AcDbEntity
  8
sink_label
  6
DASHED2
 48
5.0
370
     0
100
AcDbVertex
100
AcDb2dVertex
 10
30336.31944136919
 20
26018.20172117707
 30
0.0
  0
VERTEX
  5
54C78
330
54C73
100
AcDbEntity
  8
sink_label
  6
DASHED2
 48
5.0
370
     0
100
AcDbVertex
100
AcDb2dVertex
 10
30336.64930908941
 20
26019.12247629366
 30
0.0
  0
VERTEX
  5
54C79
330
54C73
100
AcDbEntity
  8
sink_label
  6
DASHED2
 48
5.0
370
     0
100
AcDbVertex
100
AcDb2dVertex
 10
30337.06557329968
 20
26020.00619665315
 30
0.0
  0
VERTEX
  5
54C7A
330
54C73
100
AcDbEntity
  8
sink_label
  6
DASHED2
 48
5.0
370
     0
100
AcDbVertex
100
AcDb2dVertex
 10
30337.56828782958
 20
26020.84405420297
 30
0.0
  0
VERTEX
  5
54C7B
330
54C73
100
AcDbEntity
  8
sink_label
  6
DASHED2
 48
5.0
370
     0
100
AcDbVertex
100
AcDb2dVertex
 10
30338.14862462654
 20
26021.63071981384
 30
0.0
  0
VERTEX
  5
54C7C
330
54C73
100
AcDbEntity
  8
sink_label
  6
DASHED2
 48
5.0
370
     0
100
AcDbVertex
100
AcDb2dVertex
 10
30338.80303093769
 20
26022.35569671593
 30
0.0
  0
SEQEND
  5
54C7D
330
54C73
100
AcDbEntity
  8
sink_label
  6
DASHED2
 48
5.0
370
     0
  0
POLYLINE
  5
54C7E
330
52C18
100
AcDbEntity
  8
sink_label
  6
DASHED2
 48
5.0
370
     0
100
AcDb2dPolyline
 66
     1
 10
0.0
 20
0.0
 30
0.0
  0
VERTEX
  5
54C7F
330
54C7E
100
AcDbEntity
  8
sink_label
  6
DASHED2
 48
5.0
370
     0
100
AcDbVertex
100
AcDb2dVertex
 10
30287.3698277626
 20
25720.93548769175
 30
0.0
  0
VERTEX
  5
54C80
330
54C7E
100
AcDbEntity
  8
sink_label
  6
DASHED2
 48
5.0
370
     0
100
AcDbVertex
100
AcDb2dVertex
 10
30300.71714345591
 20
25707.58814508364
 30
0.0
  0
SEQEND
  5
54C81
330
54C7E
100
AcDbEntity
  8
sink_label
  6
DASHED2
 48
5.0
370
     0
  0
POLYLINE
  5
54C82
330
52C18
100
AcDbEntity
  8
sink_label
  6
DASHED2
 48
5.0
370
     0
100
AcDb2dPolyline
 66
     1
 10
0.0
 20
0.0
 30
0.0
  0
VERTEX
  5
54C83
330
54C82
100
AcDbEntity
  8
sink_label
  6
DASHED2
 48
5.0
370
     0
100
AcDbVertex
100
AcDb2dVertex
 10
30287.3698277626
 20
25720.93548769175
 30
0.0
  0
VERTEX
  5
54C84
330
54C82
100
AcDbEntity
  8
sink_label
  6
DASHED2
 48
5.0
370
     0
100
AcDbVertex
100
AcDb2dVertex
 10
30286.83713015174
 20
25716.44636913296
 30
0.0
  0
VERTEX
  5
54C85
330
54C82
100
AcDbEntity
  8
sink_label
  6
DASHED2
 48
5.0
370
     0
100
AcDbVertex
100
AcDb2dVertex
 10
30285.82642579224
 20
25713.32958211129
 30
0.0
  0
VERTEX
  5
54C86
330
54C82
100
AcDbEntity
  8
sink_label
  6
DASHED2
 48
5.0
370
     0
100
AcDbVertex
100
AcDb2dVertex
 10
30284.2724193929
 20
25710.33802962799
 30
0.0
  0
VERTEX
  5
54C87
330
54C82
100
AcDbEntity
  8
sink_label
  6
DASHED2
 48
5.0
370
     0
100
AcDbVertex
100
AcDb2dVertex
 10
30282.29509710715
 20
25707.71337962201
 30
0.0
  0
VERTEX
  5
54C88
330
54C82
100
AcDbEntity
  8
sink_label
  6
DASHED2
 48
5.0
370
     0
100
AcDbVertex
100
AcDb2dVertex
 10
30279.84332082563
 20
25705.38681096406
 30
0.0
  0
VERTEX
  5
54C89
330
54C82
100
AcDbEntity
  8
sink_label
  6
DASHED2
 48
5.0
370
     0
100
AcDbVertex
100
AcDb2dVertex
 10
30277.10398688069
 20
25703.54355126924
 30
0.0
  0
VERTEX
  5
54C8A
330
54C82
100
AcDbEntity
  8
sink_label
  6
DASHED2
 48
5.0
370
     0
100
AcDbVertex
100
AcDb2dVertex
 10
30274.00835488742
 20
25702.14478940402
 30
0.0
  0
VERTEX
  5
54C8B
330
54C82
100
AcDbEntity
  8
sink_label
  6
DASHED2
 48
5.0
370
     0
100
AcDbVertex
100
AcDb2dVertex
 10
30270.82632640411
 20
25701.3069318542
 30
0.0
  0
VERTEX
  5
54C8C
330
54C82
100
AcDbEntity
  8
sink_label
  6
DASHED2
 48
5.0
370
     0
100
AcDbVertex
100
AcDb2dVertex
 10
30267.45551755285
 20
25701.00177191524
 30
0.0
  0
SEQEND
  5
54C8D
330
54C82
100
AcDbEntity
  8
sink_label
  6
DASHED2
 48
5.0
370
     0
  0
POLYLINE
  5
54C8E
330
52C18
100
AcDbEntity
  8
sink_label
  6
DASHED2
 48
5.0
370
     0
100
AcDb2dPolyline
 66
     1
 10
0.0
 20
0.0
 30
0.0
  0
VERTEX
  5
54C8F
330
54C8E
100
AcDbEntity
  8
sink_label
  6
DASHED2
 48
5.0
370
     0
100
AcDbVertex
100
AcDb2dVertex
 10
30321.89967877802
 20
25707.58814508364
 30
0.0
  0
VERTEX
  5
54C90
330
54C8E
100
AcDbEntity
  8
sink_label
  6
DASHED2
 48
5.0
370
     0
100
AcDbVertex
100
AcDb2dVertex
 10
30335.24699447133
 20
25720.93548769175
 30
0.0
  0
SEQEND
  5
54C91
330
54C8E
100
AcDbEntity
  8
sink_label
  6
DASHED2
 48
5.0
370
     0
  0
POLYLINE
  5
54C92
330
52C18
100
AcDbEntity
  8
sink_label
  6
DASHED2
 48
5.0
370
     0
100
AcDb2dPolyline
 66
     1
 10
0.0
 20
0.0
 30
0.0
  0
VERTEX
  5
54C93
330
54C92
100
AcDbEntity
  8
sink_label
  6
DASHED2
 48
5.0
370
     0
100
AcDbVertex
100
AcDb2dVertex
 10
30355.15952830465
 20
25701.00177191524
 30
0.0
  0
VERTEX
  5
54C94
330
54C92
100
AcDbEntity
  8
sink_label
  6
DASHED2
 48
5.0
370
     0
100
AcDbVertex
100
AcDb2dVertex
 10
30350.76746449449
 20
25701.51506395933
 30
0.0
  0
VERTEX
  5
54C95
330
54C92
100
AcDbEntity
  8
sink_label
  6
DASHED2
 48
5.0
370
     0
100
AcDbVertex
100
AcDb2dVertex
 10
30347.64540217311
 20
25702.51344134299
 30
0.0
  0
VERTEX
  5
54C96
330
54C92
100
AcDbEntity
  8
sink_label
  6
DASHED2
 48
5.0
370
     0
100
AcDbVertex
100
AcDb2dVertex
 10
30344.64677109888
 20
25704.05684331334
 30
0.0
  0
VERTEX
  5
54C97
330
54C92
100
AcDbEntity
  8
sink_label
  6
DASHED2
 48
5.0
370
     0
100
AcDbVertex
100
AcDb2dVertex
 10
30342.00449190256
 20
25706.03413868429
 30
0.0
  0
VERTEX
  5
54C98
330
54C92
100
AcDbEntity
  8
sink_label
  6
DASHED2
 48
5.0
370
     0
100
AcDbVertex
100
AcDb2dVertex
 10
30339.66204351592
 20
25708.4912440951
 30
0.0
  0
VERTEX
  5
54C99
330
54C92
100
AcDbEntity
  8
sink_label
  6
DASHED2
 48
5.0
370
     0
100
AcDbVertex
100
AcDb2dVertex
 10
30337.80465355404
 20
25711.24290501588
 30
0.0
  0
VERTEX
  5
54C9A
330
54C92
100
AcDbEntity
  8
sink_label
  6
DASHED2
 48
5.0
370
     0
100
AcDbVertex
100
AcDb2dVertex
 10
30336.39528725982
 20
25714.35441673785
 30
0.0
  0
VERTEX
  5
54C9B
330
54C92
100
AcDbEntity
  8
sink_label
  6
DASHED2
 48
5.0
370
     0
100
AcDbVertex
100
AcDb2dVertex
 10
30335.5521544103
 20
25717.55057548822
 30
0.0
  0
VERTEX
  5
54C9C
330
54C92
100
AcDbEntity
  8
sink_label
  6
DASHED2
 48
5.0
370
     0
100
AcDbVertex
100
AcDb2dVertex
 10
30335.24699447133
 20
25720.93548769175
 30
0.0
  0
SEQEND
  5
54C9D
330
54C92
100
AcDbEntity
  8
sink_label
  6
DASHED2
 48
5.0
370
     0
  0
POLYLINE
  5
54C9E
330
52C18
100
AcDbEntity
  8
sink_label
  6
DASHED2
 48
5.0
370
     0
100
AcDb2dPolyline
 66
     1
 10
0.0
 20
0.0
 30
0.0
  0
VERTEX
  5
54C9F
330
54C9E
100
AcDbEntity
  8
sink_label
  6
DASHED2
 48
5.0
370
     0
100
AcDbVertex
100
AcDb2dVertex
 10
30324.81713483233
 20
26028.14829876774
 30
0.0
  0
VERTEX
  5
54CA0
330
54C9E
100
AcDbEntity
  8
sink_label
  6
DASHED2
 48
5.0
370
     0
100
AcDbVertex
100
AcDb2dVertex
 10
30324.81713483233
 20
26028.14829876774
 30
0.0
  0
VERTEX
  5
54CA1
330
54C9E
100
AcDbEntity
  8
sink_label
  6
DASHED2
 48
5.0
370
     0
100
AcDbVertex
100
AcDb2dVertex
 10
30324.81713483233
 20
26028.15007514418
 30
0.0
  0
SEQEND
  5
54CA2
330
54C9E
100
AcDbEntity
  8
sink_label
  6
DASHED2
 48
5.0
370
     0
  0
POLYLINE
  5
54CA3
330
52C18
100
AcDbEntity
  8
sink_label
  6
DASHED2
 48
5.0
370
     0
100
AcDb2dPolyline
 66
     1
 10
0.0
 20
0.0
 30
0.0
  0
VERTEX
  5
54CA4
330
54CA3
100
AcDbEntity
  8
sink_label
  6
DASHED2
 48
5.0
370
     0
100
AcDbVertex
100
AcDb2dVertex
 10
30324.81713483233
 20
26028.14829876774
 30
0.0
  0
VERTEX
  5
54CA5
330
54CA3
100
AcDbEntity
  8
sink_label
  6
DASHED2
 48
5.0
370
     0
100
AcDbVertex
100
AcDb2dVertex
 10
30323.57539387766
 20
26026.64015517806
 30
0.0
  0
VERTEX
  5
54CA6
330
54CA3
100
AcDbEntity
  8
sink_label
  6
DASHED2
 48
5.0
370
     0
100
AcDbVertex
100
AcDb2dVertex
 10
30322.65463876107
 20
26024.91863109833
 30
0.0
  0
VERTEX
  5
54CA7
330
54CA3
100
AcDbEntity
  8
sink_label
  6
DASHED2
 48
5.0
370
     0
100
AcDbVertex
100
AcDb2dVertex
 10
30322.08840531638
 20
26023.04891416062
 30
0.0
  0
VERTEX
  5
54CA8
330
54CA3
100
AcDbEntity
  8
sink_label
  6
DASHED2
 48
5.0
370
     0
100
AcDbVertex
100
AcDb2dVertex
 10
30321.89967877802
 20
26021.10507387911
 30
0.0
  0
SEQEND
  5
54CA9
330
54CA3
100
AcDbEntity
  8
sink_label
  6
DASHED2
 48
5.0
370
     0
  0
POLYLINE
  5
54CAA
330
52C18
100
AcDbEntity
  8
sink_label
  6
DASHED2
 48
5.0
370
     0
100
AcDb2dPolyline
 66
     1
 10
0.0
 20
0.0
 30
0.0
  0
VERTEX
  5
54CAB
330
54CAA
100
AcDbEntity
  8
sink_label
  6
DASHED2
 48
5.0
370
     0
100
AcDbVertex
100
AcDb2dVertex
 10
30297.79791102517
 20
26028.14829876774
 30
0.0
  0
VERTEX
  5
54CAC
330
54CAA
100
AcDbEntity
  8
sink_label
  6
DASHED2
 48
5.0
370
     0
100
AcDbVertex
100
AcDb2dVertex
 10
30297.7996874016
 20
26028.14829876774
 30
0.0
  0
VERTEX
  5
54CAD
330
54CAA
100
AcDbEntity
  8
sink_label
  6
DASHED2
 48
5.0
370
     0
100
AcDbVertex
100
AcDb2dVertex
 10
30297.7996874016
 20
26028.15007514418
 30
0.0
  0
SEQEND
  5
54CAE
330
54CAA
100
AcDbEntity
  8
sink_label
  6
DASHED2
 48
5.0
370
     0
  0
POLYLINE
  5
54CAF
330
52C18
100
AcDbEntity
  8
sink_label
  6
DASHED2
 48
5.0
370
     0
100
AcDb2dPolyline
 66
     1
 10
0.0
 20
0.0
 30
0.0
  0
VERTEX
  5
54CB0
330
54CAF
100
AcDbEntity
  8
sink_label
  6
DASHED2
 48
5.0
370
     0
100
AcDbVertex
100
AcDb2dVertex
 10
30300.71714345591
 20
26021.10507387911
 30
0.0
  0
VERTEX
  5
54CB1
330
54CAF
100
AcDbEntity
  8
sink_label
  6
DASHED2
 48
5.0
370
     0
100
AcDbVertex
100
AcDb2dVertex
 10
30300.52841691754
 20
26023.04891416062
 30
0.0
  0
VERTEX
  5
54CB2
330
54CAF
100
AcDbEntity
  8
sink_label
  6
DASHED2
 48
5.0
370
     0
100
AcDbVertex
100
AcDb2dVertex
 10
30299.96218347285
 20
26024.91863109833
 30
0.0
  0
VERTEX
  5
54CB3
330
54CAF
100
AcDbEntity
  8
sink_label
  6
DASHED2
 48
5.0
370
     0
100
AcDbVertex
100
AcDb2dVertex
 10
30299.04142835627
 20
26026.64015517806
 30
0.0
  0
VERTEX
  5
54CB4
330
54CAF
100
AcDbEntity
  8
sink_label
  6
DASHED2
 48
5.0
370
     0
100
AcDbVertex
100
AcDb2dVertex
 10
30297.79791102517
 20
26028.14829876774
 30
0.0
  0
SEQEND
  5
54CB5
330
54CAF
100
AcDbEntity
  8
sink_label
  6
DASHED2
 48
5.0
370
     0
  0
POLYLINE
  5
54CB6
330
52C18
100
AcDbEntity
  8
sink_label
  6
DASHED2
 48
5.0
370
     0
100
AcDb2dPolyline
 66
     1
 10
0.0
 20
0.0
 30
0.0
  0
VERTEX
  5
54CB7
330
54CB6
100
AcDbEntity
  8
sink_label
  6
DASHED2
 48
5.0
370
     0
100
AcDbVertex
100
AcDb2dVertex
 10
30321.89967877802
 20
26021.10507387911
 30
0.0
  0
VERTEX
  5
54CB8
330
54CB6
100
AcDbEntity
  8
sink_label
  6
DASHED2
 48
5.0
370
     0
100
AcDbVertex
100
AcDb2dVertex
 10
30321.89967877802
 20
25707.58814508364
 30
0.0
  0
SEQEND
  5
54CB9
330
54CB6
100
AcDbEntity
  8
sink_label
  6
DASHED2
 48
5.0
370
     0
  0
POLYLINE
  5
54CBA
330
52C18
100
AcDbEntity
  8
sink_label
  6
DASHED2
 48
5.0
370
     0
100
AcDb2dPolyline
 66
     1
 10
0.0
 20
0.0
 30
0.0
  0
VERTEX
  5
54CBB
330
54CBA
100
AcDbEntity
  8
sink_label
  6
DASHED2
 48
5.0
370
     0
100
AcDbVertex
100
AcDb2dVertex
 10
30300.71714345591
 20
25707.58814508364
 30
0.0
  0
VERTEX
  5
54CBC
330
54CBA
100
AcDbEntity
  8
sink_label
  6
DASHED2
 48
5.0
370
     0
100
AcDbVertex
100
AcDb2dVertex
 10
30300.71714345591
 20
26021.10507387911
 30
0.0
  0
SEQEND
  5
54CBD
330
54CBA
100
AcDbEntity
  8
sink_label
  6
DASHED2
 48
5.0
370
     0
  0
POLYLINE
  5
54CBE
330
52C18
100
AcDbEntity
  8
sink_label
  6
DASHED2
 48
5.0
370
     0
100
AcDb2dPolyline
 66
     1
 10
0.0
 20
0.0
 30
0.0
  0
VERTEX
  5
54CBF
330
54CBE
100
AcDbEntity
  8
sink_label
  6
DASHED2
 48
5.0
370
     0
100
AcDbVertex
100
AcDb2dVertex
 10
30321.89967877802
 20
25707.58814508364
 30
0.0
  0
VERTEX
  5
54CC0
330
54CBE
100
AcDbEntity
  8
sink_label
  6
DASHED2
 48
5.0
370
     0
100
AcDbVertex
100
AcDb2dVertex
 10
30322.09545699252
 20
25704.74123270547
 30
0.0
  0
VERTEX
  5
54CC1
330
54CBE
100
AcDbEntity
  8
sink_label
  6
DASHED2
 48
5.0
370
     0
100
AcDbVertex
100
AcDb2dVertex
 10
30322.69344989461
 20
25701.95428648923
 30
0.0
  0
VERTEX
  5
54CC2
330
54CBE
100
AcDbEntity
  8
sink_label
  6
DASHED2
 48
5.0
370
     0
100
AcDbVertex
100
AcDb2dVertex
 10
30323.68122284927
 20
25699.28552313522
 30
0.0
  0
VERTEX
  5
54CC3
330
54CBE
100
AcDbEntity
  8
sink_label
  6
DASHED2
 48
5.0
370
     0
100
AcDbVertex
100
AcDb2dVertex
 10
30325.03939720452
 20
25696.78783021445
 30
0.0
  0
VERTEX
  5
54CC4
330
54CBE
100
AcDbEntity
  8
sink_label
  6
DASHED2
 48
5.0
370
     0
100
AcDbVertex
100
AcDb2dVertex
 10
30326.73976625584
 20
25694.51245349546
 30
0.0
  0
VERTEX
  5
54CC5
330
54CBE
100
AcDbEntity
  8
sink_label
  6
DASHED2
 48
5.0
370
     0
100
AcDbVertex
100
AcDb2dVertex
 10
30328.74707162256
 20
25692.50514812874
 30
0.0
  0
VERTEX
  5
54CC6
330
54CBE
100
AcDbEntity
  8
sink_label
  6
DASHED2
 48
5.0
370
     0
100
AcDbVertex
100
AcDb2dVertex
 10
30331.02250217114
 20
25690.80472524783
 30
0.0
  0
VERTEX
  5
54CC7
330
54CBE
100
AcDbEntity
  8
sink_label
  6
DASHED2
 48
5.0
370
     0
100
AcDbVertex
100
AcDb2dVertex
 10
30333.52019509191
 20
25689.44655089258
 30
0.0
  0
VERTEX
  5
54CC8
330
54CBE
100
AcDbEntity
  8
sink_label
  6
DASHED2
 48
5.0
370
     0
100
AcDbVertex
100
AcDb2dVertex
 10
30336.18895844591
 20
25688.45877793791
 30
0.0
  0
VERTEX
  5
54CC9
330
54CBE
100
AcDbEntity
  8
sink_label
  6
DASHED2
 48
5.0
370
     0
100
AcDbVertex
100
AcDb2dVertex
 10
30338.97587774736
 20
25687.86083886542
 30
0.0
  0
VERTEX
  5
54CCA
330
54CBE
100
AcDbEntity
  8
sink_label
  6
DASHED2
 48
5.0
370
     0
100
AcDbVertex
100
AcDb2dVertex
 10
30341.82281704033
 20
25687.66500682133
 30
0.0
  0
SEQEND
  5
54CCB
330
54CBE
100
AcDbEntity
  8
sink_label
  6
DASHED2
 48
5.0
370
     0
  0
POLYLINE
  5
54CCC
330
52C18
100
AcDbEntity
  8
sink_label
  6
DASHED2
 48
5.0
370
     0
100
AcDb2dPolyline
 66
     1
 10
0.0
 20
0.0
 30
0.0
  0
VERTEX
  5
54CCD
330
54CCC
100
AcDbEntity
  8
sink_label
  6
DASHED2
 48
5.0
370
     0
100
AcDbVertex
100
AcDb2dVertex
 10
30280.79228264676
 20
25687.66500682133
 30
0.0
  0
VERTEX
  5
54CCE
330
54CCC
100
AcDbEntity
  8
sink_label
  6
DASHED2
 48
5.0
370
     0
100
AcDbVertex
100
AcDb2dVertex
 10
30283.64094448657
 20
25687.86083886542
 30
0.0
  0
VERTEX
  5
54CCF
330
54CCC
100
AcDbEntity
  8
sink_label
  6
DASHED2
 48
5.0
370
     0
100
AcDbVertex
100
AcDb2dVertex
 10
30286.42614124117
 20
25688.45877793791
 30
0.0
  0
VERTEX
  5
54CD0
330
54CCC
100
AcDbEntity
  8
sink_label
  6
DASHED2
 48
5.0
370
     0
100
AcDbVertex
100
AcDb2dVertex
 10
30289.09490459518
 20
25689.44655089258
 30
0.0
  0
VERTEX
  5
54CD1
330
54CCC
100
AcDbEntity
  8
sink_label
  6
DASHED2
 48
5.0
370
     0
100
AcDbVertex
100
AcDb2dVertex
 10
30291.59254368636
 20
25690.80472524783
 30
0.0
  0
VERTEX
  5
54CD2
330
54CCC
100
AcDbEntity
  8
sink_label
  6
DASHED2
 48
5.0
370
     0
100
AcDbVertex
100
AcDb2dVertex
 10
30293.86797423494
 20
25692.50514812874
 30
0.0
  0
VERTEX
  5
54CD3
330
54CCC
100
AcDbEntity
  8
sink_label
  6
DASHED2
 48
5.0
370
     0
100
AcDbVertex
100
AcDb2dVertex
 10
30295.87705597809
 20
25694.51245349546
 30
0.0
  0
VERTEX
  5
54CD4
330
54CCC
100
AcDbEntity
  8
sink_label
  6
DASHED2
 48
5.0
370
     0
100
AcDbVertex
100
AcDb2dVertex
 10
30297.5774250294
 20
25696.78783021445
 30
0.0
  0
VERTEX
  5
54CD5
330
54CCC
100
AcDbEntity
  8
sink_label
  6
DASHED2
 48
5.0
370
     0
100
AcDbVertex
100
AcDb2dVertex
 10
30298.93387683782
 20
25699.28552313522
 30
0.0
  0
VERTEX
  5
54CD6
330
54CCC
100
AcDbEntity
  8
sink_label
  6
DASHED2
 48
5.0
370
     0
100
AcDbVertex
100
AcDb2dVertex
 10
30299.92164979248
 20
25701.95428648923
 30
0.0
  0
VERTEX
  5
54CD7
330
54CCC
100
AcDbEntity
  8
sink_label
  6
DASHED2
 48
5.0
370
     0
100
AcDbVertex
100
AcDb2dVertex
 10
30300.51958886498
 20
25704.74123270547
 30
0.0
  0
VERTEX
  5
54CD8
330
54CCC
100
AcDbEntity
  8
sink_label
  6
DASHED2
 48
5.0
370
     0
100
AcDbVertex
100
AcDb2dVertex
 10
30300.71714345591
 20
25707.58814508364
 30
0.0
  0
SEQEND
  5
54CD9
330
54CCC
100
AcDbEntity
  8
sink_label
  6
DASHED2
 48
5.0
370
     0
  0
POLYLINE
  5
54CDA
330
52C18
100
AcDbEntity
  8
sink_label
  6
DASHED2
 48
5.0
370
     0
100
AcDb2dPolyline
 66
     1
 10
0.0
 20
0.0
 30
0.0
  0
VERTEX
  5
54CDB
330
54CDA
100
AcDbEntity
  8
sink_label
  6
DASHED2
 48
5.0
370
     0
100
AcDbVertex
100
AcDb2dVertex
 10
30653.53704673615
 20
25700.82009705301
 30
0.0
  0
VERTEX
  5
54CDC
330
54CDA
100
AcDbEntity
  8
sink_label
  6
DASHED2
 48
5.0
370
     0
100
AcDbVertex
100
AcDb2dVertex
 10
30578.95981185231
 20
25700.94002937687
 30
0.0
  0
VERTEX
  5
54CDD
330
54CDA
100
AcDbEntity
  8
sink_label
  6
DASHED2
 48
5.0
370
     0
100
AcDbVertex
100
AcDb2dVertex
 10
30504.37385657509
 20
25701.0159021823
 30
0.0
  0
VERTEX
  5
54CDE
330
54CDA
100
AcDbEntity
  8
sink_label
  6
DASHED2
 48
5.0
370
     0
100
AcDbVertex
100
AcDb2dVertex
 10
30429.7684688163
 20
25701.0370572107
 30
0.0
  0
VERTEX
  5
54CDF
330
54CDA
100
AcDbEntity
  8
sink_label
  6
DASHED2
 48
5.0
370
     0
100
AcDbVertex
100
AcDb2dVertex
 10
30355.15952830465
 20
25701.00177191524
 30
0.0
  0
SEQEND
  5
54CE0
330
54CDA
100
AcDbEntity
  8
sink_label
  6
DASHED2
 48
5.0
370
     0
  0
POLYLINE
  5
54CE1
330
52C18
100
AcDbEntity
  8
sink_label
  6
DASHED2
 48
5.0
370
     0
100
AcDb2dPolyline
 66
     1
 10
0.0
 20
0.0
 30
0.0
  0
VERTEX
  5
54CE2
330
54CE1
100
AcDbEntity
  8
sink_label
  6
DASHED2
 48
5.0
370
     0
100
AcDbVertex
100
AcDb2dVertex
 10
30355.15952830465
 20
25701.00177191524
 30
0.0
  0
VERTEX
  5
54CE3
330
54CE1
100
AcDbEntity
  8
sink_label
  6
DASHED2
 48
5.0
370
     0
100
AcDbVertex
100
AcDb2dVertex
 10
30341.82281704033
 20
25687.66500682133
 30
0.0
  0
SEQEND
  5
54CE4
330
54CE1
100
AcDbEntity
  8
sink_label
  6
DASHED2
 48
5.0
370
     0
  0
POLYLINE
  5
54CE5
330
52C18
100
AcDbEntity
  8
sink_label
  6
DASHED2
 48
5.0
370
     0
100
AcDb2dPolyline
 66
     1
 10
0.0
 20
0.0
 30
0.0
  0
VERTEX
  5
54CE6
330
54CE5
100
AcDbEntity
  8
sink_label
  6
DASHED2
 48
5.0
370
     0
100
AcDbVertex
100
AcDb2dVertex
 10
30280.79228264676
 20
25687.66500682133
 30
0.0
  0
VERTEX
  5
54CE7
330
54CE5
100
AcDbEntity
  8
sink_label
  6
DASHED2
 48
5.0
370
     0
100
AcDbVertex
100
AcDb2dVertex
 10
30267.45551755285
 20
25701.00177191524
 30
0.0
  0
SEQEND
  5
54CE8
330
54CE5
100
AcDbEntity
  8
sink_label
  6
DASHED2
 48
5.0
370
     0
  0
POLYLINE
  5
54CE9
330
52C18
100
AcDbEntity
  8
sink_label
  6
DASHED2
 48
5.0
370
     0
100
AcDb2dPolyline
 66
     1
 10
0.0
 20
0.0
 30
0.0
  0
VERTEX
  5
54CEA
330
54CE9
100
AcDbEntity
  8
sink_label
  6
DASHED2
 48
5.0
370
     0
100
AcDbVertex
100
AcDb2dVertex
 10
30267.45551755285
 20
25701.00177191524
 30
0.0
  0
VERTEX
  5
54CEB
330
54CE9
100
AcDbEntity
  8
sink_label
  6
DASHED2
 48
5.0
370
     0
100
AcDbVertex
100
AcDb2dVertex
 10
30192.87128482246
 20
25701.0370572107
 30
0.0
  0
VERTEX
  5
54CEC
330
54CE9
100
AcDbEntity
  8
sink_label
  6
DASHED2
 48
5.0
370
     0
100
AcDbVertex
100
AcDb2dVertex
 10
30118.28000041595
 20
25701.0159021823
 30
0.0
  0
VERTEX
  5
54CED
330
54CE9
100
AcDbEntity
  8
sink_label
  6
DASHED2
 48
5.0
370
     0
100
AcDbVertex
100
AcDb2dVertex
 10
30043.67811158043
 20
25700.94002937687
 30
0.0
  0
VERTEX
  5
54CEE
330
54CE9
100
AcDbEntity
  8
sink_label
  6
DASHED2
 48
5.0
370
     0
100
AcDbVertex
100
AcDb2dVertex
 10
29969.07977549778
 20
25700.82009705301
 30
0.0
  0
SEQEND
  5
54CEF
330
54CE9
100
AcDbEntity
  8
sink_label
  6
DASHED2
 48
5.0
370
     0
  0
POLYLINE
  5
54CF0
330
52C18
100
AcDbEntity
  8
sink_label
  6
DASHED2
 48
5.0
370
     0
100
AcDb2dPolyline
 66
     1
 10
0.0
 20
0.0
 30
0.0
  0
VERTEX
  5
54CF1
330
54CF0
100
AcDbEntity
  8
sink_label
  6
DASHED2
 48
5.0
370
     0
100
AcDbVertex
100
AcDb2dVertex
 10
30324.81891120876
 20
26028.15179769101
 30
0.0
  0
VERTEX
  5
54CF2
330
54CF0
100
AcDbEntity
  8
sink_label
  6
DASHED2
 48
5.0
370
     0
100
AcDbVertex
100
AcDb2dVertex
 10
30324.81891120876
 20
26028.15179769101
 30
0.0
  0
VERTEX
  5
54CF3
330
54CF0
100
AcDbEntity
  8
sink_label
  6
DASHED2
 48
5.0
370
     0
100
AcDbVertex
100
AcDb2dVertex
 10
30324.83123818459
 20
26028.16240212001
 30
0.0
  0
SEQEND
  5
54CF4
330
54CF0
100
AcDbEntity
  8
sink_label
  6
DASHED2
 48
5.0
370
     0
  0
POLYLINE
  5
54CF5
330
52C18
100
AcDbEntity
  8
sink_label
  6
DASHED2
 48
5.0
370
     0
100
AcDb2dPolyline
 66
     1
 10
0.0
 20
0.0
 30
0.0
  0
VERTEX
  5
54CF6
330
54CF5
100
AcDbEntity
  8
sink_label
  6
DASHED2
 48
5.0
370
     0
100
AcDbVertex
100
AcDb2dVertex
 10
30297.78558404934
 20
26028.16240212001
 30
0.0
  0
VERTEX
  5
54CF7
330
54CF5
100
AcDbEntity
  8
sink_label
  6
DASHED2
 48
5.0
370
     0
100
AcDbVertex
100
AcDb2dVertex
 10
30297.79791102517
 20
26028.15179769101
 30
0.0
  0
SEQEND
  5
54CF8
330
54CF5
100
AcDbEntity
  8
sink_label
  6
DASHED2
 48
5.0
370
     0
  0
POLYLINE
  5
54CF9
330
52C18
100
AcDbEntity
  8
sink_label
  6
DASHED2
 48
5.0
370
     0
100
AcDb2dPolyline
 66
     1
 10
0.0
 20
0.0
 30
0.0
  0
VERTEX
  5
54CFA
330
54CF9
100
AcDbEntity
  8
sink_label
  6
DASHED2
 48
5.0
370
     0
100
AcDbVertex
100
AcDb2dVertex
 10
29949.15841361189
 20
25720.74673423859
 30
0.0
  0
VERTEX
  5
54CFB
330
54CF9
100
AcDbEntity
  8
sink_label
  6
DASHED2
 48
5.0
370
     0
100
AcDbVertex
100
AcDb2dVertex
 10
29949.32070982216
 20
25791.24581255941
 30
0.0
  0
VERTEX
  5
54CFC
330
54CF9
100
AcDbEntity
  8
sink_label
  6
DASHED2
 48
5.0
370
     0
100
AcDbVertex
100
AcDb2dVertex
 10
29949.45652187472
 20
25861.75194255636
 30
0.0
  0
VERTEX
  5
54CFD
330
54CF9
100
AcDbEntity
  8
sink_label
  6
DASHED2
 48
5.0
370
     0
100
AcDbVertex
100
AcDb2dVertex
 10
29949.54119581792
 20
25921.50892270829
 30
0.0
  0
VERTEX
  5
54CFE
330
54CF9
100
AcDbEntity
  8
sink_label
  6
DASHED2
 48
5.0
370
     0
100
AcDbVertex
100
AcDb2dVertex
 10
29949.58528225116
 20
25981.26945561307
 30
0.0
  0
VERTEX
  5
54CFF
330
54CF9
100
AcDbEntity
  8
sink_label
  6
DASHED2
 48
5.0
370
     0
100
AcDbVertex
100
AcDb2dVertex
 10
29949.58000695145
 20
26041.05114354626
 30
0.0
  0
VERTEX
  5
54D00
330
54CF9
100
AcDbEntity
  8
sink_label
  6
DASHED2
 48
5.0
370
     0
100
AcDbVertex
100
AcDb2dVertex
 10
29949.52881501249
 20
26100.82927872658
 30
0.0
  0
SEQEND
  5
54D01
330
54CF9
100
AcDbEntity
  8
sink_label
  6
DASHED2
 48
5.0
370
     0
  0
POLYLINE
  5
54D02
330
52C18
100
AcDbEntity
  8
sink_label
  6
DASHED2
 48
5.0
370
     0
100
AcDb2dPolyline
 66
     1
 10
0.0
 20
0.0
 30
0.0
  0
VERTEX
  5
54D03
330
54D02
100
AcDbEntity
  8
sink_label
  6
DASHED2
 48
5.0
370
     0
100
AcDbVertex
100
AcDb2dVertex
 10
30673.08795339184
 20
26100.82927872658
 30
0.0
  0
VERTEX
  5
54D04
330
54D02
100
AcDbEntity
  8
sink_label
  6
DASHED2
 48
5.0
370
     0
100
AcDbVertex
100
AcDb2dVertex
 10
30673.0439207882
 20
26053.33134147101
 30
0.0
  0
VERTEX
  5
54D05
330
54D02
100
AcDbEntity
  8
sink_label
  6
DASHED2
 48
5.0
370
     0
100
AcDbVertex
100
AcDb2dVertex
 10
30673.02798722991
 20
26005.83335038585
 30
0.0
  0
VERTEX
  5
54D06
330
54D02
100
AcDbEntity
  8
sink_label
  6
DASHED2
 48
5.0
370
     0
100
AcDbVertex
100
AcDb2dVertex
 10
30673.0439207882
 20
25958.32480870128
 30
0.0
  0
VERTEX
  5
54D07
330
54D02
100
AcDbEntity
  8
sink_label
  6
DASHED2
 48
5.0
370
     0
100
AcDbVertex
100
AcDb2dVertex
 10
30673.08795339184
 20
25910.81798956355
 30
0.0
  0
VERTEX
  5
54D08
330
54D02
100
AcDbEntity
  8
sink_label
  6
DASHED2
 48
5.0
370
     0
100
AcDbVertex
100
AcDb2dVertex
 10
30673.24492047282
 20
25815.77797478959
 30
0.0
  0
VERTEX
  5
54D09
330
54D02
100
AcDbEntity
  8
sink_label
  6
DASHED2
 48
5.0
370
     0
100
AcDbVertex
100
AcDb2dVertex
 10
30673.45657841602
 20
25720.74673423859
 30
0.0
  0
SEQEND
  5
54D0A
330
54D02
100
AcDbEntity
  8
sink_label
  6
DASHED2
 48
5.0
370
     0
  0
POLYLINE
  5
54D0B
330
52C18
100
AcDbEntity
  8
sink_label
  6
DASHED2
 48
5.0
370
     0
100
AcDb2dPolyline
 66
     1
 10
0.0
 20
0.0
 30
0.0
  0
VERTEX
  5
54D0C
330
54D0B
100
AcDbEntity
  8
sink_label
  6
DASHED2
 48
5.0
370
     0
100
AcDbVertex
100
AcDb2dVertex
 10
29969.46078132737
 20
26120.74536531276
 30
0.0
  0
VERTEX
  5
54D0D
330
54D0B
100
AcDbEntity
  8
sink_label
  6
DASHED2
 48
5.0
370
     0
100
AcDbVertex
100
AcDb2dVertex
 10
30078.00335632878
 20
26120.46663570191
 30
0.0
  0
VERTEX
  5
54D0E
330
54D0B
100
AcDbEntity
  8
sink_label
  6
DASHED2
 48
5.0
370
     0
100
AcDbVertex
100
AcDb2dVertex
 10
30127.81025996676
 20
26120.3714111593
 30
0.0
  0
VERTEX
  5
54D0F
330
54D0B
100
AcDbEntity
  8
sink_label
  6
DASHED2
 48
5.0
370
     0
100
AcDbVertex
100
AcDb2dVertex
 10
30177.63304333344
 20
26120.32732472607
 30
0.0
  0
SEQEND
  5
54D10
330
54D0B
100
AcDbEntity
  8
sink_label
  6
DASHED2
 48
5.0
370
     0
  0
POLYLINE
  5
54D11
330
52C18
100
AcDbEntity
  8
sink_label
  6
DASHED2
 48
5.0
370
     0
100
AcDb2dPolyline
 66
     1
 10
0.0
 20
0.0
 30
0.0
  0
VERTEX
  5
54D12
330
54D11
100
AcDbEntity
  8
sink_label
  6
DASHED2
 48
5.0
370
     0
100
AcDbVertex
100
AcDb2dVertex
 10
30444.98377890049
 20
26120.32732472607
 30
0.0
  0
VERTEX
  5
54D13
330
54D11
100
AcDbEntity
  8
sink_label
  6
DASHED2
 48
5.0
370
     0
100
AcDbVertex
100
AcDb2dVertex
 10
30497.02730195351
 20
26120.37491008257
 30
0.0
  0
VERTEX
  5
54D14
330
54D11
100
AcDbEntity
  8
sink_label
  6
DASHED2
 48
5.0
370
     0
100
AcDbVertex
100
AcDb2dVertex
 10
30549.07082500653
 20
26120.4772401309
 30
0.0
  0
VERTEX
  5
54D15
330
54D11
100
AcDbEntity
  8
sink_label
  6
DASHED2
 48
5.0
370
     0
100
AcDbVertex
100
AcDb2dVertex
 10
30653.15604090656
 20
26120.74536531276
 30
0.0
  0
SEQEND
  5
54D16
330
54D11
100
AcDbEntity
  8
sink_label
  6
DASHED2
 48
5.0
370
     0
  0
POLYLINE
  5
54D17
330
52C18
100
AcDbEntity
  8
sink_label
  6
DASHED2
 48
5.0
370
     0
100
AcDb2dPolyline
 66
     1
 10
0.0
 20
0.0
 30
0.0
  0
VERTEX
  5
54D18
330
54D17
100
AcDbEntity
  8
sink_label
  6
DASHED2
 48
5.0
370
     0
100
AcDbVertex
100
AcDb2dVertex
 10
30324.83123818459
 20
26028.16240212001
 30
0.0
  0
VERTEX
  5
54D19
330
54D17
100
AcDbEntity
  8
sink_label
  6
DASHED2
 48
5.0
370
     0
100
AcDbVertex
100
AcDb2dVertex
 10
30324.81713483233
 20
26028.14829876774
 30
0.0
  0
SEQEND
  5
54D1A
330
54D17
100
AcDbEntity
  8
sink_label
  6
DASHED2
 48
5.0
370
     0
  0
POLYLINE
  5
54D1B
330
52C18
100
AcDbEntity
  8
sink_label
  6
DASHED2
 48
5.0
370
     0
100
AcDb2dPolyline
 66
     1
 10
0.0
 20
0.0
 30
0.0
  0
VERTEX
  5
54D1C
330
54D1B
100
AcDbEntity
  8
sink_label
  6
DASHED2
 48
5.0
370
     0
100
AcDbVertex
100
AcDb2dVertex
 10
30324.81713483233
 20
26028.14829876774
 30
0.0
  0
VERTEX
  5
54D1D
330
54D1B
100
AcDbEntity
  8
sink_label
  6
DASHED2
 48
5.0
370
     0
100
AcDbVertex
100
AcDb2dVertex
 10
30338.80303093769
 20
26022.35569671593
 30
0.0
  0
SEQEND
  5
54D1E
330
54D1B
100
AcDbEntity
  8
sink_label
  6
DASHED2
 48
5.0
370
     0
  0
POLYLINE
  5
54D1F
330
52C18
100
AcDbEntity
  8
sink_label
  6
DASHED2
 48
5.0
370
     0
100
AcDb2dPolyline
 66
     1
 10
0.0
 20
0.0
 30
0.0
  0
VERTEX
  5
54D20
330
54D1F
100
AcDbEntity
  8
sink_label
  6
DASHED2
 48
5.0
370
     0
100
AcDbVertex
100
AcDb2dVertex
 10
30338.80303093769
 20
26022.35569671593
 30
0.0
  0
VERTEX
  5
54D21
330
54D1F
100
AcDbEntity
  8
sink_label
  6
DASHED2
 48
5.0
370
     0
100
AcDbVertex
100
AcDb2dVertex
 10
30361.64007250146
 20
26045.11866876549
 30
0.0
  0
VERTEX
  5
54D22
330
54D1F
100
AcDbEntity
  8
sink_label
  6
DASHED2
 48
5.0
370
     0
100
AcDbVertex
100
AcDb2dVertex
 10
30396.29518497003
 20
26079.76672955794
 30
0.0
  0
VERTEX
  5
54D23
330
54D1F
100
AcDbEntity
  8
sink_label
  6
DASHED2
 48
5.0
370
     0
100
AcDbVertex
100
AcDb2dVertex
 10
30430.89738295281
 20
26114.48708348815
 30
0.0
  0
SEQEND
  5
54D24
330
54D1F
100
AcDbEntity
  8
sink_label
  6
DASHED2
 48
5.0
370
     0
  0
POLYLINE
  5
54D25
330
52C18
100
AcDbEntity
  8
sink_label
  6
DASHED2
 48
5.0
370
     0
100
AcDb2dPolyline
 66
     1
 10
0.0
 20
0.0
 30
0.0
  0
VERTEX
  5
54D26
330
54D25
100
AcDbEntity
  8
sink_label
  6
DASHED2
 48
5.0
370
     0
100
AcDbVertex
100
AcDb2dVertex
 10
30191.7194931107
 20
26114.48708348815
 30
0.0
  0
VERTEX
  5
54D27
330
54D25
100
AcDbEntity
  8
sink_label
  6
DASHED2
 48
5.0
370
     0
100
AcDbVertex
100
AcDb2dVertex
 10
30226.30753391163
 20
26079.7808329102
 30
0.0
  0
VERTEX
  5
54D28
330
54D25
100
AcDbEntity
  8
sink_label
  6
DASHED2
 48
5.0
370
     0
100
AcDbVertex
100
AcDb2dVertex
 10
30260.97674973247
 20
26045.11866876549
 30
0.0
  0
VERTEX
  5
54D29
330
54D25
100
AcDbEntity
  8
sink_label
  6
DASHED2
 48
5.0
370
     0
100
AcDbVertex
100
AcDb2dVertex
 10
30283.81379129624
 20
26022.35569671593
 30
0.0
  0
SEQEND
  5
54D2A
330
54D25
100
AcDbEntity
  8
sink_label
  6
DASHED2
 48
5.0
370
     0
  0
POLYLINE
  5
54D2B
330
52C18
100
AcDbEntity
  8
sink_label
  6
DASHED2
 48
5.0
370
     0
100
AcDb2dPolyline
 66
     1
 10
0.0
 20
0.0
 30
0.0
  0
VERTEX
  5
54D2C
330
54D2B
100
AcDbEntity
  8
sink_label
  6
DASHED2
 48
5.0
370
     0
100
AcDbVertex
100
AcDb2dVertex
 10
30283.81379129624
 20
26022.35569671593
 30
0.0
  0
VERTEX
  5
54D2D
330
54D2B
100
AcDbEntity
  8
sink_label
  6
DASHED2
 48
5.0
370
     0
100
AcDbVertex
100
AcDb2dVertex
 10
30297.79791102517
 20
26028.14829876774
 30
0.0
  0
SEQEND
  5
54D2E
330
54D2B
100
AcDbEntity
  8
sink_label
  6
DASHED2
 48
5.0
370
     0
  0
POLYLINE
  5
54D2F
330
52C18
100
AcDbEntity
  8
sink_label
  6
DASHED2
 48
5.0
370
     0
100
AcDb2dPolyline
 66
     1
 10
0.0
 20
0.0
 30
0.0
  0
VERTEX
  5
54D30
330
54D2F
100
AcDbEntity
  8
sink_label
  6
DASHED2
 48
5.0
370
     0
100
AcDbVertex
100
AcDb2dVertex
 10
30297.79791102517
 20
26028.14829876774
 30
0.0
  0
VERTEX
  5
54D31
330
54D2F
100
AcDbEntity
  8
sink_label
  6
DASHED2
 48
5.0
370
     0
100
AcDbVertex
100
AcDb2dVertex
 10
30297.78558404934
 20
26028.16240212001
 30
0.0
  0
SEQEND
  5
54D32
330
54D2F
100
AcDbEntity
  8
sink_label
  6
DASHED2
 48
5.0
370
     0
  0
POLYLINE
  5
54D33
330
52C18
100
AcDbEntity
  8
sink_label
  6
DASHED2
 48
5.0
370
     0
100
AcDb2dPolyline
 66
     1
 10
0.0
 20
0.0
 30
0.0
  0
VERTEX
  5
54D34
330
54D33
100
AcDbEntity
  8
sink_label
  6
DASHED2
 48
5.0
370
     0
100
AcDbVertex
100
AcDb2dVertex
 10
30438.65847923781
 20
26135.59377291962
 30
0.0
  0
VERTEX
  5
54D35
330
54D33
100
AcDbEntity
  8
sink_label
  6
DASHED2
 48
5.0
370
     0
100
AcDbVertex
100
AcDb2dVertex
 10
30444.98377890049
 20
26120.32732472607
 30
0.0
  0
SEQEND
  5
54D36
330
54D33
100
AcDbEntity
  8
sink_label
  6
DASHED2
 48
5.0
370
     0
  0
POLYLINE
  5
54D37
330
52C18
100
AcDbEntity
  8
sink_label
  6
DASHED2
 48
5.0
370
     0
100
AcDb2dPolyline
 66
     1
 10
0.0
 20
0.0
 30
0.0
  0
VERTEX
  5
54D38
330
54D37
100
AcDbEntity
  8
sink_label
  6
DASHED2
 48
5.0
370
     0
100
AcDbVertex
100
AcDb2dVertex
 10
30430.89738295281
 20
26114.48708348815
 30
0.0
  0
VERTEX
  5
54D39
330
54D37
100
AcDbEntity
  8
sink_label
  6
DASHED2
 48
5.0
370
     0
100
AcDbVertex
100
AcDb2dVertex
 10
30424.57030691371
 20
26129.75880698142
 30
0.0
  0
SEQEND
  5
54D3A
330
54D37
100
AcDbEntity
  8
sink_label
  6
DASHED2
 48
5.0
370
     0
  0
POLYLINE
  5
54D3B
330
52C18
100
AcDbEntity
  8
sink_label
  6
DASHED2
 48
5.0
370
     0
100
AcDb2dPolyline
 66
     1
 10
0.0
 20
0.0
 30
0.0
  0
VERTEX
  5
54D3C
330
54D3B
100
AcDbEntity
  8
sink_label
  6
DASHED2
 48
5.0
370
     0
100
AcDbVertex
100
AcDb2dVertex
 10
30430.89738295281
 20
26114.48708348815
 30
0.0
  0
VERTEX
  5
54D3D
330
54D3B
100
AcDbEntity
  8
sink_label
  6
DASHED2
 48
5.0
370
     0
100
AcDbVertex
100
AcDb2dVertex
 10
30432.57837335217
 20
26115.98462264884
 30
0.0
  0
VERTEX
  5
54D3E
330
54D3B
100
AcDbEntity
  8
sink_label
  6
DASHED2
 48
5.0
370
     0
100
AcDbVertex
100
AcDb2dVertex
 10
30435.31942984395
 20
26117.8137520766
 30
0.0
  0
VERTEX
  5
54D3F
330
54D3B
100
AcDbEntity
  8
sink_label
  6
DASHED2
 48
5.0
370
     0
100
AcDbVertex
100
AcDb2dVertex
 10
30438.41328546079
 20
26119.20196334241
 30
0.0
  0
VERTEX
  5
54D40
330
54D3B
100
AcDbEntity
  8
sink_label
  6
DASHED2
 48
5.0
370
     0
100
AcDbVertex
100
AcDb2dVertex
 10
30441.60419582625
 20
26120.03099283967
 30
0.0
  0
VERTEX
  5
54D41
330
54D3B
100
AcDbEntity
  8
sink_label
  6
DASHED2
 48
5.0
370
     0
100
AcDbVertex
100
AcDb2dVertex
 10
30444.98377890049
 20
26120.32732472607
 30
0.0
  0
SEQEND
  5
54D42
330
54D3B
100
AcDbEntity
  8
sink_label
  6
DASHED2
 48
5.0
370
     0
  0
POLYLINE
  5
54D43
330
52C18
100
AcDbEntity
  8
sink_label
  6
DASHED2
 48
5.0
370
     0
100
AcDb2dPolyline
 66
     1
 10
0.0
 20
0.0
 30
0.0
  0
VERTEX
  5
54D44
330
54D43
100
AcDbEntity
  8
sink_label
  6
DASHED2
 48
5.0
370
     0
100
AcDbVertex
100
AcDb2dVertex
 10
30198.04479277338
 20
26129.75880698142
 30
0.0
  0
VERTEX
  5
54D45
330
54D43
100
AcDbEntity
  8
sink_label
  6
DASHED2
 48
5.0
370
     0
100
AcDbVertex
100
AcDb2dVertex
 10
30191.7194931107
 20
26114.48708348815
 30
0.0
  0
SEQEND
  5
54D46
330
54D43
100
AcDbEntity
  8
sink_label
  6
DASHED2
 48
5.0
370
     0
  0
POLYLINE
  5
54D47
330
52C18
100
AcDbEntity
  8
sink_label
  6
DASHED2
 48
5.0
370
     0
100
AcDb2dPolyline
 66
     1
 10
0.0
 20
0.0
 30
0.0
  0
VERTEX
  5
54D48
330
54D47
100
AcDbEntity
  8
sink_label
  6
DASHED2
 48
5.0
370
     0
100
AcDbVertex
100
AcDb2dVertex
 10
30177.63304333344
 20
26120.32732472607
 30
0.0
  0
VERTEX
  5
54D49
330
54D47
100
AcDbEntity
  8
sink_label
  6
DASHED2
 48
5.0
370
     0
100
AcDbVertex
100
AcDb2dVertex
 10
30183.95662044927
 20
26135.59377291962
 30
0.0
  0
SEQEND
  5
54D4A
330
54D47
100
AcDbEntity
  8
sink_label
  6
DASHED2
 48
5.0
370
     0
  0
POLYLINE
  5
54D4B
330
52C18
100
AcDbEntity
  8
sink_label
  6
DASHED2
 48
5.0
370
     0
100
AcDb2dPolyline
 66
     1
 10
0.0
 20
0.0
 30
0.0
  0
VERTEX
  5
54D4C
330
54D4B
100
AcDbEntity
  8
sink_label
  6
DASHED2
 48
5.0
370
     0
100
AcDbVertex
100
AcDb2dVertex
 10
30177.63304333344
 20
26120.32732472607
 30
0.0
  0
VERTEX
  5
54D4D
330
54D4B
100
AcDbEntity
  8
sink_label
  6
DASHED2
 48
5.0
370
     0
100
AcDbVertex
100
AcDb2dVertex
 10
30179.86438744878
 20
26120.1967879732
 30
0.0
  0
VERTEX
  5
54D4E
330
54D4B
100
AcDbEntity
  8
sink_label
  6
DASHED2
 48
5.0
370
     0
100
AcDbVertex
100
AcDb2dVertex
 10
30183.10288317075
 20
26119.55120971461
 30
0.0
  0
VERTEX
  5
54D4F
330
54D4B
100
AcDbEntity
  8
sink_label
  6
DASHED2
 48
5.0
370
     0
100
AcDbVertex
100
AcDb2dVertex
 10
30186.27785997793
 20
26118.34117438775
 30
0.0
  0
VERTEX
  5
54D50
330
54D4B
100
AcDbEntity
  8
sink_label
  6
DASHED2
 48
5.0
370
     0
100
AcDbVertex
100
AcDb2dVertex
 10
30189.12124651803
 20
26116.66901204097
 30
0.0
  0
VERTEX
  5
54D51
330
54D4B
100
AcDbEntity
  8
sink_label
  6
DASHED2
 48
5.0
370
     0
100
AcDbVertex
100
AcDb2dVertex
 10
30191.7194931107
 20
26114.48708348815
 30
0.0
  0
SEQEND
  5
54D52
330
54D4B
100
AcDbEntity
  8
sink_label
  6
DASHED2
 48
5.0
370
     0
  0
POLYLINE
  5
54D53
330
52C18
100
AcDbEntity
  8
sink_label
  6
DASHED2
 48
5.0
370
     0
100
AcDb2dPolyline
 66
     1
 10
0.0
 20
0.0
 30
0.0
  0
VERTEX
  5
54D54
330
54D53
100
AcDbEntity
  8
sink_label
  6
DASHED2
 48
5.0
370
     0
100
AcDbVertex
100
AcDb2dVertex
 10
29934.68745908177
 20
25706.27580662325
 30
0.0
  0
VERTEX
  5
54D55
330
54D53
100
AcDbEntity
  8
sink_label
  6
DASHED2
 48
5.0
370
     0
100
AcDbVertex
100
AcDb2dVertex
 10
29949.15841361189
 20
25720.74673423859
 30
0.0
  0
SEQEND
  5
54D56
330
54D53
100
AcDbEntity
  8
sink_label
  6
DASHED2
 48
5.0
370
     0
  0
POLYLINE
  5
54D57
330
52C18
100
AcDbEntity
  8
sink_label
  6
DASHED2
 48
5.0
370
     0
100
AcDb2dPolyline
 66
     1
 10
0.0
 20
0.0
 30
0.0
  0
VERTEX
  5
54D58
330
54D57
100
AcDbEntity
  8
sink_label
  6
DASHED2
 48
5.0
370
     0
100
AcDbVertex
100
AcDb2dVertex
 10
29969.07977549778
 20
25700.82009705301
 30
0.0
  0
VERTEX
  5
54D59
330
54D57
100
AcDbEntity
  8
sink_label
  6
DASHED2
 48
5.0
370
     0
100
AcDbVertex
100
AcDb2dVertex
 10
29954.61059734408
 20
25686.35269527574
 30
0.0
  0
SEQEND
  5
54D5A
330
54D57
100
AcDbEntity
  8
sink_label
  6
DASHED2
 48
5.0
370
     0
  0
POLYLINE
  5
54D5B
330
52C18
100
AcDbEntity
  8
sink_label
  6
DASHED2
 48
5.0
370
     0
100
AcDb2dPolyline
 66
     1
 10
0.0
 20
0.0
 30
0.0
  0
VERTEX
  5
54D5C
330
54D5B
100
AcDbEntity
  8
sink_label
  6
DASHED2
 48
5.0
370
     0
100
AcDbVertex
100
AcDb2dVertex
 10
29969.07977549778
 20
25700.82009705301
 30
0.0
  0
VERTEX
  5
54D5D
330
54D5B
100
AcDbEntity
  8
sink_label
  6
DASHED2
 48
5.0
370
     0
100
AcDbVertex
100
AcDb2dVertex
 10
29964.64007250152
 20
25701.3439666113
 30
0.0
  0
VERTEX
  5
54D5E
330
54D5B
100
AcDbEntity
  8
sink_label
  6
DASHED2
 48
5.0
370
     0
100
AcDbVertex
100
AcDb2dVertex
 10
29961.52150910342
 20
25702.34761929466
 30
0.0
  0
VERTEX
  5
54D5F
330
54D5B
100
AcDbEntity
  8
sink_label
  6
DASHED2
 48
5.0
370
     0
100
AcDbVertex
100
AcDb2dVertex
 10
29958.52992970531
 20
25703.89454710308
 30
0.0
  0
VERTEX
  5
54D60
330
54D5B
100
AcDbEntity
  8
sink_label
  6
DASHED2
 48
5.0
370
     0
100
AcDbVertex
100
AcDb2dVertex
 10
29955.89470218513
 20
25705.87186938883
 30
0.0
  0
VERTEX
  5
54D61
330
54D5B
100
AcDbEntity
  8
sink_label
  6
DASHED2
 48
5.0
370
     0
100
AcDbVertex
100
AcDb2dVertex
 10
29953.56108185105
 20
25708.3271984232
 30
0.0
  0
VERTEX
  5
54D62
330
54D5B
100
AcDbEntity
  8
sink_label
  6
DASHED2
 48
5.0
370
     0
100
AcDbVertex
100
AcDb2dVertex
 10
29951.70902101846
 20
25711.07358404427
 30
0.0
  0
VERTEX
  5
54D63
330
54D5B
100
AcDbEntity
  8
sink_label
  6
DASHED2
 48
5.0
370
     0
100
AcDbVertex
100
AcDb2dVertex
 10
29950.30315364752
 20
25714.17801717532
 30
0.0
  0
VERTEX
  5
54D64
330
54D5B
100
AcDbEntity
  8
sink_label
  6
DASHED2
 48
5.0
370
     0
100
AcDbVertex
100
AcDb2dVertex
 10
29949.46357355086
 20
25717.36890062599
 30
0.0
  0
VERTEX
  5
54D65
330
54D5B
100
AcDbEntity
  8
sink_label
  6
DASHED2
 48
5.0
370
     0
100
AcDbVertex
100
AcDb2dVertex
 10
29949.15841361189
 20
25720.74673423859
 30
0.0
  0
SEQEND
  5
54D66
330
54D5B
100
AcDbEntity
  8
sink_label
  6
DASHED2
 48
5.0
370
     0
  0
POLYLINE
  5
54D67
330
52C18
100
AcDbEntity
  8
sink_label
  6
DASHED2
 48
5.0
370
     0
100
AcDb2dPolyline
 66
     1
 10
0.0
 20
0.0
 30
0.0
  0
VERTEX
  5
54D68
330
54D67
100
AcDbEntity
  8
sink_label
  6
DASHED2
 48
5.0
370
     0
100
AcDbVertex
100
AcDb2dVertex
 10
30668.00439468384
 20
25686.35269527574
 30
0.0
  0
VERTEX
  5
54D69
330
54D67
100
AcDbEntity
  8
sink_label
  6
DASHED2
 48
5.0
370
     0
100
AcDbVertex
100
AcDb2dVertex
 10
30653.53704673615
 20
25700.82009705301
 30
0.0
  0
SEQEND
  5
54D6A
330
54D67
100
AcDbEntity
  8
sink_label
  6
DASHED2
 48
5.0
370
     0
  0
POLYLINE
  5
54D6B
330
52C18
100
AcDbEntity
  8
sink_label
  6
DASHED2
 48
5.0
370
     0
100
AcDb2dPolyline
 66
     1
 10
0.0
 20
0.0
 30
0.0
  0
VERTEX
  5
54D6C
330
54D6B
100
AcDbEntity
  8
sink_label
  6
DASHED2
 48
5.0
370
     0
100
AcDbVertex
100
AcDb2dVertex
 10
30673.45657841602
 20
25720.74673423859
 30
0.0
  0
VERTEX
  5
54D6D
330
54D6B
100
AcDbEntity
  8
sink_label
  6
DASHED2
 48
5.0
370
     0
100
AcDbVertex
100
AcDb2dVertex
 10
30687.92930932258
 20
25706.27580662325
 30
0.0
  0
SEQEND
  5
54D6E
330
54D6B
100
AcDbEntity
  8
sink_label
  6
DASHED2
 48
5.0
370
     0
  0
POLYLINE
  5
54D6F
330
52C18
100
AcDbEntity
  8
sink_label
  6
DASHED2
 48
5.0
370
     0
100
AcDb2dPolyline
 66
     1
 10
0.0
 20
0.0
 30
0.0
  0
VERTEX
  5
54D70
330
54D6F
100
AcDbEntity
  8
sink_label
  6
DASHED2
 48
5.0
370
     0
100
AcDbVertex
100
AcDb2dVertex
 10
30673.45657841602
 20
25720.74673423859
 30
0.0
  0
VERTEX
  5
54D71
330
54D6F
100
AcDbEntity
  8
sink_label
  6
DASHED2
 48
5.0
370
     0
100
AcDbVertex
100
AcDb2dVertex
 10
30672.92926376404
 20
25716.27882453779
 30
0.0
  0
VERTEX
  5
54D72
330
54D6F
100
AcDbEntity
  8
sink_label
  6
DASHED2
 48
5.0
370
     0
100
AcDbVertex
100
AcDb2dVertex
 10
30671.92200449823
 20
25713.16378697776
 30
0.0
  0
VERTEX
  5
54D73
330
54D6F
100
AcDbEntity
  8
sink_label
  6
DASHED2
 48
5.0
370
     0
100
AcDbVertex
100
AcDb2dVertex
 10
30670.37160468133
 20
25710.17223449445
 30
0.0
  0
VERTEX
  5
54D74
330
54D6F
100
AcDbEntity
  8
sink_label
  6
DASHED2
 48
5.0
370
     0
100
AcDbVertex
100
AcDb2dVertex
 10
30668.39422856599
 20
25707.54403173561
 30
0.0
  0
VERTEX
  5
54D75
330
54D6F
100
AcDbEntity
  8
sink_label
  6
DASHED2
 48
5.0
370
     0
100
AcDbVertex
100
AcDb2dVertex
 10
30665.94067590805
 20
25705.2139372396
 30
0.0
  0
VERTEX
  5
54D76
330
54D6F
100
AcDbEntity
  8
sink_label
  6
DASHED2
 48
5.0
370
     0
100
AcDbVertex
100
AcDb2dVertex
 10
30663.196120493
 20
25703.36715170671
 30
0.0
  0
VERTEX
  5
54D77
330
54D6F
100
AcDbEntity
  8
sink_label
  6
DASHED2
 48
5.0
370
     0
100
AcDbVertex
100
AcDb2dVertex
 10
30660.09693574686
 20
25701.96486400343
 30
0.0
  0
VERTEX
  5
54D78
330
54D6F
100
AcDbEntity
  8
sink_label
  6
DASHED2
 48
5.0
370
     0
100
AcDbVertex
100
AcDb2dVertex
 10
30656.9113006811
 20
25701.12525699197
 30
0.0
  0
VERTEX
  5
54D79
330
54D6F
100
AcDbEntity
  8
sink_label
  6
DASHED2
 48
5.0
370
     0
100
AcDbVertex
100
AcDb2dVertex
 10
30653.53704673615
 20
25700.82009705301
 30
0.0
  0
SEQEND
  5
54D7A
330
54D6F
100
AcDbEntity
  8
sink_label
  6
DASHED2
 48
5.0
370
     0
  0
POLYLINE
  5
54D7B
330
52C18
100
AcDbEntity
  8
sink_label
  6
DASHED2
 48
5.0
370
     0
100
AcDb2dPolyline
 66
     1
 10
0.0
 20
0.0
 30
0.0
  0
VERTEX
  5
54D7C
330
54D7B
100
AcDbEntity
  8
sink_label
  6
DASHED2
 48
5.0
370
     0
100
AcDbVertex
100
AcDb2dVertex
 10
29954.61059734408
 20
26135.59377291962
 30
0.0
  0
VERTEX
  5
54D7D
330
54D7B
100
AcDbEntity
  8
sink_label
  6
DASHED2
 48
5.0
370
     0
100
AcDbVertex
100
AcDb2dVertex
 10
29969.46078132737
 20
26120.74536531276
 30
0.0
  0
SEQEND
  5
54D7E
330
54D7B
100
AcDbEntity
  8
sink_label
  6
DASHED2
 48
5.0
370
     0
  0
POLYLINE
  5
54D7F
330
52C18
100
AcDbEntity
  8
sink_label
  6
DASHED2
 48
5.0
370
     0
100
AcDb2dPolyline
 66
     1
 10
0.0
 20
0.0
 30
0.0
  0
VERTEX
  5
54D80
330
54D7F
100
AcDbEntity
  8
sink_label
  6
DASHED2
 48
5.0
370
     0
100
AcDbVertex
100
AcDb2dVertex
 10
29949.52881501249
 20
26100.82927872658
 30
0.0
  0
VERTEX
  5
54D81
330
54D7F
100
AcDbEntity
  8
sink_label
  6
DASHED2
 48
5.0
370
     0
100
AcDbVertex
100
AcDb2dVertex
 10
29934.68745908177
 20
26115.67063465731
 30
0.0
  0
SEQEND
  5
54D82
330
54D7F
100
AcDbEntity
  8
sink_label
  6
DASHED2
 48
5.0
370
     0
  0
POLYLINE
  5
54D83
330
52C18
100
AcDbEntity
  8
sink_label
  6
DASHED2
 48
5.0
370
     0
100
AcDb2dPolyline
 66
     1
 10
0.0
 20
0.0
 30
0.0
  0
VERTEX
  5
54D84
330
54D83
100
AcDbEntity
  8
sink_label
  6
DASHED2
 48
5.0
370
     0
100
AcDbVertex
100
AcDb2dVertex
 10
29949.52881501249
 20
26100.82927872658
 30
0.0
  0
VERTEX
  5
54D85
330
54D83
100
AcDbEntity
  8
sink_label
  6
DASHED2
 48
5.0
370
     0
100
AcDbVertex
100
AcDb2dVertex
 10
29950.04563289466
 20
26105.23899864188
 30
0.0
  0
VERTEX
  5
54D86
330
54D83
100
AcDbEntity
  8
sink_label
  6
DASHED2
 48
5.0
370
     0
100
AcDbVertex
100
AcDb2dVertex
 10
29951.04578665474
 20
26108.35933841641
 30
0.0
  0
VERTEX
  5
54D87
330
54D83
100
AcDbEntity
  8
sink_label
  6
DASHED2
 48
5.0
370
     0
100
AcDbVertex
100
AcDb2dVertex
 10
29952.59096500153
 20
26111.35619311422
 30
0.0
  0
VERTEX
  5
54D88
330
54D83
100
AcDbEntity
  8
sink_label
  6
DASHED2
 48
5.0
370
     0
100
AcDbVertex
100
AcDb2dVertex
 10
29954.56823345769
 20
26113.99497338726
 30
0.0
  0
VERTEX
  5
54D89
330
54D83
100
AcDbEntity
  8
sink_label
  6
DASHED2
 48
5.0
370
     0
100
AcDbVertex
100
AcDb2dVertex
 10
29957.02533886849
 20
26116.33386902104
 30
0.0
  0
VERTEX
  5
54D8A
330
54D83
100
AcDbEntity
  8
sink_label
  6
DASHED2
 48
5.0
370
     0
100
AcDbVertex
100
AcDb2dVertex
 10
29959.77527724242
 20
26118.18948260649
 30
0.0
  0
VERTEX
  5
54D8B
330
54D83
100
AcDbEntity
  8
sink_label
  6
DASHED2
 48
5.0
370
     0
100
AcDbVertex
100
AcDb2dVertex
 10
29962.88323621153
 20
26119.5988489007
 30
0.0
  0
VERTEX
  5
54D8C
330
54D83
100
AcDbEntity
  8
sink_label
  6
DASHED2
 48
5.0
370
     0
100
AcDbVertex
100
AcDb2dVertex
 10
29966.07764550027
 20
26120.4402053738
 30
0.0
  0
VERTEX
  5
54D8D
330
54D83
100
AcDbEntity
  8
sink_label
  6
DASHED2
 48
5.0
370
     0
100
AcDbVertex
100
AcDb2dVertex
 10
29969.46078132737
 20
26120.74536531276
 30
0.0
  0
SEQEND
  5
54D8E
330
54D83
100
AcDbEntity
  8
sink_label
  6
DASHED2
 48
5.0
370
     0
  0
POLYLINE
  5
54D8F
330
52C18
100
AcDbEntity
  8
sink_label
  6
DASHED2
 48
5.0
370
     0
100
AcDb2dPolyline
 66
     1
 10
0.0
 20
0.0
 30
0.0
  0
VERTEX
  5
54D90
330
54D8F
100
AcDbEntity
  8
sink_label
  6
DASHED2
 48
5.0
370
     0
100
AcDbVertex
100
AcDb2dVertex
 10
30687.92930932258
 20
26115.67063465731
 30
0.0
  0
VERTEX
  5
54D91
330
54D8F
100
AcDbEntity
  8
sink_label
  6
DASHED2
 48
5.0
370
     0
100
AcDbVertex
100
AcDb2dVertex
 10
30673.08795339184
 20
26100.82927872658
 30
0.0
  0
SEQEND
  5
54D92
330
54D8F
100
AcDbEntity
  8
sink_label
  6
DASHED2
 48
5.0
370
     0
  0
POLYLINE
  5
54D93
330
52C18
100
AcDbEntity
  8
sink_label
  6
DASHED2
 48
5.0
370
     0
100
AcDb2dPolyline
 66
     1
 10
0.0
 20
0.0
 30
0.0
  0
VERTEX
  5
54D94
330
54D93
100
AcDbEntity
  8
sink_label
  6
DASHED2
 48
5.0
370
     0
100
AcDbVertex
100
AcDb2dVertex
 10
30653.15604090656
 20
26120.74536531276
 30
0.0
  0
VERTEX
  5
54D95
330
54D93
100
AcDbEntity
  8
sink_label
  6
DASHED2
 48
5.0
370
     0
100
AcDbVertex
100
AcDb2dVertex
 10
30668.00439468384
 20
26135.59377291962
 30
0.0
  0
SEQEND
  5
54D96
330
54D93
100
AcDbEntity
  8
sink_label
  6
DASHED2
 48
5.0
370
     0
  0
POLYLINE
  5
54D97
330
52C18
100
AcDbEntity
  8
sink_label
  6
DASHED2
 48
5.0
370
     0
100
AcDb2dPolyline
 66
     1
 10
0.0
 20
0.0
 30
0.0
  0
VERTEX
  5
54D98
330
54D97
100
AcDbEntity
  8
sink_label
  6
DASHED2
 48
5.0
370
     0
100
AcDbVertex
100
AcDb2dVertex
 10
30653.15604090656
 20
26120.74536531276
 30
0.0
  0
VERTEX
  5
54D99
330
54D97
100
AcDbEntity
  8
sink_label
  6
DASHED2
 48
5.0
370
     0
100
AcDbVertex
100
AcDb2dVertex
 10
30657.63983033605
 20
26120.2126677019
 30
0.0
  0
VERTEX
  5
54D9A
330
54D97
100
AcDbEntity
  8
sink_label
  6
DASHED2
 48
5.0
370
     0
100
AcDbVertex
100
AcDb2dVertex
 10
30660.7971510381
 20
26119.18430723728
 30
0.0
  0
VERTEX
  5
54D9B
330
54D97
100
AcDbEntity
  8
sink_label
  6
DASHED2
 48
5.0
370
     0
100
AcDbVertex
100
AcDb2dVertex
 10
30663.74636654981
 20
26117.65150969592
 30
0.0
  0
VERTEX
  5
54D9C
330
54D97
100
AcDbEntity
  8
sink_label
  6
DASHED2
 48
5.0
370
     0
100
AcDbVertex
100
AcDb2dVertex
 10
30666.40640951043
 20
26115.64242795278
 30
0.0
  0
VERTEX
  5
54D9D
330
54D97
100
AcDbEntity
  8
sink_label
  6
DASHED2
 48
5.0
370
     0
100
AcDbVertex
100
AcDb2dVertex
 10
30668.69944233455
 20
26113.22235729907
 30
0.0
  0
VERTEX
  5
54D9E
330
54D97
100
AcDbEntity
  8
sink_label
  6
DASHED2
 48
5.0
370
     0
100
AcDbVertex
100
AcDb2dVertex
 10
30670.5656065194
 20
26110.43721437406
 30
0.0
  0
VERTEX
  5
54D9F
330
54D97
100
AcDbEntity
  8
sink_label
  6
DASHED2
 48
5.0
370
     0
100
AcDbVertex
100
AcDb2dVertex
 10
30671.94493590306
 20
26107.38389243759
 30
0.0
  0
VERTEX
  5
54DA0
330
54D97
100
AcDbEntity
  8
sink_label
  6
DASHED2
 48
5.0
370
     0
100
AcDbVertex
100
AcDb2dVertex
 10
30672.78812258218
 20
26104.15244839175
 30
0.0
  0
VERTEX
  5
54DA1
330
54D97
100
AcDbEntity
  8
sink_label
  6
DASHED2
 48
5.0
370
     0
100
AcDbVertex
100
AcDb2dVertex
 10
30673.08795339184
 20
26100.82927872658
 30
0.0
  0
SEQEND
  5
54DA2
330
54D97
100
AcDbEntity
  8
sink_label
  6
DASHED2
 48
5.0
370
     0
  0
POLYLINE
  5
54DA3
330
52C18
100
AcDbEntity
  8
sink_label
  6
DASHED2
 48
5.0
370
     0
100
AcDb2dPolyline
 66
     1
 10
0.0
 20
0.0
 30
0.0
  0
VERTEX
  5
54DA4
330
54DA3
100
AcDbEntity
  8
sink_label
  6
DASHED2
 48
5.0
370
     0
100
AcDbVertex
100
AcDb2dVertex
 10
29954.61059734408
 20
25686.35269527574
 30
0.0
  0
VERTEX
  5
54DA5
330
54DA3
100
AcDbEntity
  8
sink_label
  6
DASHED2
 48
5.0
370
     0
100
AcDbVertex
100
AcDb2dVertex
 10
30668.00439468384
 20
25686.35269527574
 30
0.0
  0
SEQEND
  5
54DA6
330
54DA3
100
AcDbEntity
  8
sink_label
  6
DASHED2
 48
5.0
370
     0
  0
POLYLINE
  5
54DA7
330
52C18
100
AcDbEntity
  8
sink_label
  6
DASHED2
 48
5.0
370
     0
100
AcDb2dPolyline
 66
     1
 10
0.0
 20
0.0
 30
0.0
  0
VERTEX
  5
54DA8
330
54DA7
100
AcDbEntity
  8
sink_label
  6
DASHED2
 48
5.0
370
     0
100
AcDbVertex
100
AcDb2dVertex
 10
30668.00439468384
 20
25686.35269527574
 30
0.0
  0
VERTEX
  5
54DA9
330
54DA7
100
AcDbEntity
  8
sink_label
  6
DASHED2
 48
5.0
370
     0
100
AcDbVertex
100
AcDb2dVertex
 10
30670.85316418282
 20
25686.54847349023
 30
0.0
  0
VERTEX
  5
54DAA
330
54DA7
100
AcDbEntity
  8
sink_label
  6
DASHED2
 48
5.0
370
     0
100
AcDbVertex
100
AcDb2dVertex
 10
30673.63830710784
 20
25687.14641256274
 30
0.0
  0
VERTEX
  5
54DAB
330
54DA7
100
AcDbEntity
  8
sink_label
  6
DASHED2
 48
5.0
370
     0
100
AcDbVertex
100
AcDb2dVertex
 10
30676.30707046185
 20
25688.13423934698
 30
0.0
  0
VERTEX
  5
54DAC
330
54DA7
100
AcDbEntity
  8
sink_label
  6
DASHED2
 48
5.0
370
     0
100
AcDbVertex
100
AcDb2dVertex
 10
30678.80476338262
 20
25689.49241370224
 30
0.0
  0
VERTEX
  5
54DAD
330
54DA7
100
AcDbEntity
  8
sink_label
  6
DASHED2
 48
5.0
370
     0
100
AcDbVertex
100
AcDb2dVertex
 10
30681.08014010161
 20
25691.19278275356
 30
0.0
  0
VERTEX
  5
54DAE
330
54DA7
100
AcDbEntity
  8
sink_label
  6
DASHED2
 48
5.0
370
     0
100
AcDbVertex
100
AcDb2dVertex
 10
30683.08916801516
 20
25693.20008812028
 30
0.0
  0
VERTEX
  5
54DAF
330
54DA7
100
AcDbEntity
  8
sink_label
  6
DASHED2
 48
5.0
370
     0
100
AcDbVertex
100
AcDb2dVertex
 10
30684.78964472566
 20
25695.47551866885
 30
0.0
  0
VERTEX
  5
54DB0
330
54DA7
100
AcDbEntity
  8
sink_label
  6
DASHED2
 48
5.0
370
     0
100
AcDbVertex
100
AcDb2dVertex
 10
30686.14604270449
 20
25697.97315776004
 30
0.0
  0
VERTEX
  5
54DB1
330
54DA7
100
AcDbEntity
  8
sink_label
  6
DASHED2
 48
5.0
370
     0
100
AcDbVertex
100
AcDb2dVertex
 10
30687.13381565915
 20
25700.64194802884
 30
0.0
  0
VERTEX
  5
54DB2
330
54DA7
100
AcDbEntity
  8
sink_label
  6
DASHED2
 48
5.0
370
     0
100
AcDbVertex
100
AcDb2dVertex
 10
30687.73175473165
 20
25703.42889424508
 30
0.0
  0
VERTEX
  5
54DB3
330
54DA7
100
AcDbEntity
  8
sink_label
  6
DASHED2
 48
5.0
370
     0
100
AcDbVertex
100
AcDb2dVertex
 10
30687.92930932258
 20
25706.27580662325
 30
0.0
  0
SEQEND
  5
54DB4
330
54DA7
100
AcDbEntity
  8
sink_label
  6
DASHED2
 48
5.0
370
     0
  0
POLYLINE
  5
54DB5
330
52C18
100
AcDbEntity
  8
sink_label
  6
DASHED2
 48
5.0
370
     0
100
AcDb2dPolyline
 66
     1
 10
0.0
 20
0.0
 30
0.0
  0
VERTEX
  5
54DB6
330
54DB5
100
AcDbEntity
  8
sink_label
  6
DASHED2
 48
5.0
370
     0
100
AcDbVertex
100
AcDb2dVertex
 10
29934.68745908177
 20
25706.27580662325
 30
0.0
  0
VERTEX
  5
54DB7
330
54DB5
100
AcDbEntity
  8
sink_label
  6
DASHED2
 48
5.0
370
     0
100
AcDbVertex
100
AcDb2dVertex
 10
29934.88329112586
 20
25703.42889424508
 30
0.0
  0
VERTEX
  5
54DB8
330
54DB5
100
AcDbEntity
  8
sink_label
  6
DASHED2
 48
5.0
370
     0
100
AcDbVertex
100
AcDb2dVertex
 10
29935.48123019835
 20
25700.64194802884
 30
0.0
  0
VERTEX
  5
54DB9
330
54DB5
100
AcDbEntity
  8
sink_label
  6
DASHED2
 48
5.0
370
     0
100
AcDbVertex
100
AcDb2dVertex
 10
29936.46900315301
 20
25697.97315776004
 30
0.0
  0
VERTEX
  5
54DBA
330
54DB5
100
AcDbEntity
  8
sink_label
  6
DASHED2
 48
5.0
370
     0
100
AcDbVertex
100
AcDb2dVertex
 10
29937.82717750827
 20
25695.47551866885
 30
0.0
  0
VERTEX
  5
54DBB
330
54DB5
100
AcDbEntity
  8
sink_label
  6
DASHED2
 48
5.0
370
     0
100
AcDbVertex
100
AcDb2dVertex
 10
29939.52760038918
 20
25693.20008812028
 30
0.0
  0
VERTEX
  5
54DBC
330
54DB5
100
AcDbEntity
  8
sink_label
  6
DASHED2
 48
5.0
370
     0
100
AcDbVertex
100
AcDb2dVertex
 10
29941.53490575589
 20
25691.19278275356
 30
0.0
  0
VERTEX
  5
54DBD
330
54DB5
100
AcDbEntity
  8
sink_label
  6
DASHED2
 48
5.0
370
     0
100
AcDbVertex
100
AcDb2dVertex
 10
29943.81028247488
 20
25689.49241370224
 30
0.0
  0
VERTEX
  5
54DBE
330
54DB5
100
AcDbEntity
  8
sink_label
  6
DASHED2
 48
5.0
370
     0
100
AcDbVertex
100
AcDb2dVertex
 10
29946.30797539565
 20
25688.13423934698
 30
0.0
  0
VERTEX
  5
54DBF
330
54DB5
100
AcDbEntity
  8
sink_label
  6
DASHED2
 48
5.0
370
     0
100
AcDbVertex
100
AcDb2dVertex
 10
29948.97673874966
 20
25687.14641256274
 30
0.0
  0
VERTEX
  5
54DC0
330
54DB5
100
AcDbEntity
  8
sink_label
  6
DASHED2
 48
5.0
370
     0
100
AcDbVertex
100
AcDb2dVertex
 10
29951.76365805111
 20
25686.54847349023
 30
0.0
  0
VERTEX
  5
54DC1
330
54DB5
100
AcDbEntity
  8
sink_label
  6
DASHED2
 48
5.0
370
     0
100
AcDbVertex
100
AcDb2dVertex
 10
29954.61059734408
 20
25686.35269527574
 30
0.0
  0
SEQEND
  5
54DC2
330
54DB5
100
AcDbEntity
  8
sink_label
  6
DASHED2
 48
5.0
370
     0
  0
POLYLINE
  5
54DC3
330
52C18
100
AcDbEntity
  8
sink_label
  6
DASHED2
 48
5.0
370
     0
100
AcDb2dPolyline
 66
     1
 10
0.0
 20
0.0
 30
0.0
  0
VERTEX
  5
54DC4
330
54DC3
100
AcDbEntity
  8
sink_label
  6
DASHED2
 48
5.0
370
     0
100
AcDbVertex
100
AcDb2dVertex
 10
30323.518926639
 20
26028.70570415987
 30
0.0
  0
VERTEX
  5
54DC5
330
54DC3
100
AcDbEntity
  8
sink_label
  6
DASHED2
 48
5.0
370
     0
100
AcDbVertex
100
AcDb2dVertex
 10
30322.00550774962
 20
26027.45863407591
 30
0.0
  0
VERTEX
  5
54DC6
330
54DC3
100
AcDbEntity
  8
sink_label
  6
DASHED2
 48
5.0
370
     0
100
AcDbVertex
100
AcDb2dVertex
 10
30320.2786545406
 20
26026.53254983003
 30
0.0
  0
VERTEX
  5
54DC7
330
54DC3
100
AcDbEntity
  8
sink_label
  6
DASHED2
 48
5.0
370
     0
100
AcDbVertex
100
AcDb2dVertex
 10
30318.40543867961
 20
26025.95931853879
 30
0.0
  0
VERTEX
  5
54DC8
330
54DC3
100
AcDbEntity
  8
sink_label
  6
DASHED2
 48
5.0
370
     0
100
AcDbVertex
100
AcDb2dVertex
 10
30316.4563230984
 20
26025.7635403243
 30
0.0
  0
SEQEND
  5
54DC9
330
54DC3
100
AcDbEntity
  8
sink_label
  6
DASHED2
 48
5.0
370
     0
  0
POLYLINE
  5
54DCA
330
52C18
100
AcDbEntity
  8
sink_label
  6
DASHED2
 48
5.0
370
     0
100
AcDb2dPolyline
 66
     1
 10
0.0
 20
0.0
 30
0.0
  0
VERTEX
  5
54DCB
330
54DCA
100
AcDbEntity
  8
sink_label
  6
DASHED2
 48
5.0
370
     0
100
AcDbVertex
100
AcDb2dVertex
 10
30316.4563230984
 20
26025.7635403243
 30
0.0
  0
VERTEX
  5
54DCC
330
54DCA
100
AcDbEntity
  8
sink_label
  6
DASHED2
 48
5.0
370
     0
100
AcDbVertex
100
AcDb2dVertex
 10
30306.16049913553
 20
26025.7635403243
 30
0.0
  0
SEQEND
  5
54DCD
330
54DCA
100
AcDbEntity
  8
sink_label
  6
DASHED2
 48
5.0
370
     0
  0
POLYLINE
  5
54DCE
330
52C18
100
AcDbEntity
  8
sink_label
  6
DASHED2
 48
5.0
370
     0
100
AcDb2dPolyline
 66
     1
 10
0.0
 20
0.0
 30
0.0
  0
VERTEX
  5
54DCF
330
54DCE
100
AcDbEntity
  8
sink_label
  6
DASHED2
 48
5.0
370
     0
100
AcDbVertex
100
AcDb2dVertex
 10
30306.16049913553
 20
26025.7635403243
 30
0.0
  0
VERTEX
  5
54DD0
330
54DCE
100
AcDbEntity
  8
sink_label
  6
DASHED2
 48
5.0
370
     0
100
AcDbVertex
100
AcDb2dVertex
 10
30304.21138355432
 20
26025.95931853879
 30
0.0
  0
VERTEX
  5
54DD1
330
54DCE
100
AcDbEntity
  8
sink_label
  6
DASHED2
 48
5.0
370
     0
100
AcDbVertex
100
AcDb2dVertex
 10
30302.3363913169
 20
26026.53254983003
 30
0.0
  0
VERTEX
  5
54DD2
330
54DCE
100
AcDbEntity
  8
sink_label
  6
DASHED2
 48
5.0
370
     0
100
AcDbVertex
100
AcDb2dVertex
 10
30300.61131448431
 20
26027.45863407591
 30
0.0
  0
VERTEX
  5
54DD3
330
54DCE
100
AcDbEntity
  8
sink_label
  6
DASHED2
 48
5.0
370
     0
100
AcDbVertex
100
AcDb2dVertex
 10
30299.09789559492
 20
26028.70570415987
 30
0.0
  0
SEQEND
  5
54DD4
330
54DCE
100
AcDbEntity
  8
sink_label
  6
DASHED2
 48
5.0
370
     0
  0
POLYLINE
  5
54DD5
330
52C18
100
AcDbEntity
  8
sink_label
  6
DASHED2
 48
5.0
370
     0
100
AcDb2dPolyline
 66
     1
 10
0.0
 20
0.0
 30
0.0
  0
VERTEX
  5
54DD6
330
54DD5
100
AcDbEntity
  8
sink_label
  6
DASHED2
 48
5.0
370
     0
100
AcDbVertex
100
AcDb2dVertex
 10
29934.68745908177
 20
26115.67063465731
 30
0.0
  0
VERTEX
  5
54DD7
330
54DD5
100
AcDbEntity
  8
sink_label
  6
DASHED2
 48
5.0
370
     0
100
AcDbVertex
100
AcDb2dVertex
 10
29934.68745908177
 20
25706.27580662325
 30
0.0
  0
SEQEND
  5
54DD8
330
54DD5
100
AcDbEntity
  8
sink_label
  6
DASHED2
 48
5.0
370
     0
  0
POLYLINE
  5
54DD9
330
52C18
100
AcDbEntity
  8
sink_label
  6
DASHED2
 48
5.0
370
     0
100
AcDb2dPolyline
 66
     1
 10
0.0
 20
0.0
 30
0.0
  0
VERTEX
  5
54DDA
330
54DD9
100
AcDbEntity
  8
sink_label
  6
DASHED2
 48
5.0
370
     0
100
AcDbVertex
100
AcDb2dVertex
 10
30687.92930932258
 20
25706.27580662325
 30
0.0
  0
VERTEX
  5
54DDB
330
54DD9
100
AcDbEntity
  8
sink_label
  6
DASHED2
 48
5.0
370
     0
100
AcDbVertex
100
AcDb2dVertex
 10
30687.92930932258
 20
26115.67063465731
 30
0.0
  0
SEQEND
  5
54DDC
330
54DD9
100
AcDbEntity
  8
sink_label
  6
DASHED2
 48
5.0
370
     0
  0
POLYLINE
  5
54DDD
330
52C18
100
AcDbEntity
  8
sink_label
  6
DASHED2
 48
5.0
370
     0
100
AcDb2dPolyline
 66
     1
 10
0.0
 20
0.0
 30
0.0
  0
VERTEX
  5
54DDE
330
54DDD
100
AcDbEntity
  8
sink_label
  6
DASHED2
 48
5.0
370
     0
100
AcDbVertex
100
AcDb2dVertex
 10
30299.09789559492
 20
26028.70570415987
 30
0.0
  0
VERTEX
  5
54DDF
330
54DDD
100
AcDbEntity
  8
sink_label
  6
DASHED2
 48
5.0
370
     0
100
AcDbVertex
100
AcDb2dVertex
 10
30198.04479277338
 20
26129.75880698142
 30
0.0
  0
SEQEND
  5
54DE0
330
54DDD
100
AcDbEntity
  8
sink_label
  6
DASHED2
 48
5.0
370
     0
  0
POLYLINE
  5
54DE1
330
52C18
100
AcDbEntity
  8
sink_label
  6
DASHED2
 48
5.0
370
     0
100
AcDb2dPolyline
 66
     1
 10
0.0
 20
0.0
 30
0.0
  0
VERTEX
  5
54DE2
330
54DE1
100
AcDbEntity
  8
sink_label
  6
DASHED2
 48
5.0
370
     0
100
AcDbVertex
100
AcDb2dVertex
 10
30424.57030691371
 20
26129.75880698142
 30
0.0
  0
VERTEX
  5
54DE3
330
54DE1
100
AcDbEntity
  8
sink_label
  6
DASHED2
 48
5.0
370
     0
100
AcDbVertex
100
AcDb2dVertex
 10
30323.518926639
 20
26028.70570415987
 30
0.0
  0
SEQEND
  5
54DE4
330
54DE1
100
AcDbEntity
  8
sink_label
  6
DASHED2
 48
5.0
370
     0
  0
LINE
  5
54DE5
330
52C18
100
AcDbEntity
  8
CUTOUT
100
AcDbLine
 10
30693.80772478971
 20
25699.47664521544
 30
0.0
 11
30693.80772478971
 21
26115.59377291963
 31
0.0
  0
ARC
  5
54DE6
330
52C18
100
AcDbEntity
  8
CUTOUT
100
AcDbCircle
 10
30667.80772478971
 20
26115.59377291963
 30
0.0
 40
26.0
100
AcDbArc
 50
0.0
 51
90.0
  0
LINE
  5
54DE7
330
52C18
100
AcDbEntity
  8
CUTOUT
100
AcDbLine
 10
30667.80772478971
 20
26141.59377291963
 30
0.0
 11
30438.65699102499
 21
26141.59377291962
 31
0.0
  0
ARC
  5
54DE8
330
52C18
100
AcDbEntity
  8
CUTOUT
100
AcDbCircle
 10
30438.67326775775
 20
26115.63306795549
 30
0.0
 40
25.9607100666894
100
AcDbArc
 50
89.96407693933099
 51
134.9645652741522
  0
LINE
  5
54DE9
102
{ACAD_REACTORS
330
550FA
102
}
330
52C18
100
AcDbEntity
  8
CUTOUT
100
AcDbLine
 10
30420.32763006667
 20
26134.0014115083
 30
0.0
 11
30321.02044415298
 21
26034.69253277976
 31
0.0
  0
ARC
  5
54DEA
330
52C18
100
AcDbEntity
  8
CUTOUT
100
AcDbCircle
 10
30313.9493160743
 20
26041.76354032429
 30
0.0
 40
9.999999999999936
100
AcDbArc
 50
270.0
 51
315.0004883348068
  0
LINE
  5
54DEB
102
{ACAD_REACTORS
330
550F7
102
}
330
52C18
100
AcDbEntity
  8
CUTOUT
100
AcDbLine
 10
30313.9493160743
 20
26031.76354032429
 30
0.0
 11
30308.66747642847
 21
26031.76354032429
 31
0.0
  0
ARC
  5
54DEC
330
52C18
100
AcDbEntity
  8
CUTOUT
100
AcDbCircle
 10
30308.66747642847
 20
26041.76354032429
 30
0.0
 40
10.0
100
AcDbArc
 50
225.0
 51
270.0
  0
LINE
  5
54DED
102
{ACAD_REACTORS
330
550FA
102
}
330
52C18
100
AcDbEntity
  8
CUTOUT
100
AcDbLine
 10
30301.5964086166
 20
26034.69247251243
 30
0.0
 11
30202.2874334605
 21
26134.00144766854
 31
0.0
  0
ARC
  5
54DEE
330
52C18
100
AcDbEntity
  8
CUTOUT
100
AcDbCircle
 10
30183.94174722854
 20
26115.63286299852
 30
0.0
 40
25.96091497041501
100
AcDbArc
 50
45.03573497878678
 51
90.03573497863358
  0
LINE
  5
54DEF
102
{ACAD_REACTORS
330
550F4
330
550F7
102
}
330
52C18
100
AcDbEntity
  8
CUTOUT
100
AcDbLine
 10
30183.92555558771
 20
26141.59377291962
 30
0.0
 11
29954.80772478971
 21
26141.59377291962
 31
0.0
  0
ARC
  5
54DF0
102
{ACAD_REACTORS
330
550E9
102
}
330
52C18
100
AcDbEntity
  8
CUTOUT
100
AcDbCircle
 10
29954.80772478971
 20
26115.59377291962
 30
0.0
 40
26.0
100
AcDbArc
 50
90.0
 51
180.0
  0
POLYLINE
  5
54DF1
330
52C18
100
AcDbEntity
  8
sink_label
  6
DASHED2
 48
5.0
370
     0
100
AcDb2dPolyline
 66
     1
 10
0.0
 20
0.0
 30
0.0
  0
VERTEX
  5
54DF2
330
54DF1
100
AcDbEntity
  8
sink_label
  6
DASHED2
 48
5.0
370
     0
100
AcDbVertex
100
AcDb2dVertex
 10
30438.65847923781
 20
26135.59377291962
 30
0.0
  0
VERTEX
  5
54DF3
330
54DF1
100
AcDbEntity
  8
sink_label
  6
DASHED2
 48
5.0
370
     0
100
AcDbVertex
100
AcDb2dVertex
 10
30435.54169221614
 20
26135.35035551902
 30
0.0
  0
VERTEX
  5
54DF4
330
54DF1
100
AcDbEntity
  8
sink_label
  6
DASHED2
 48
5.0
370
     0
100
AcDbVertex
100
AcDb2dVertex
 10
30432.5007510851
 20
26134.62187969367
 30
0.0
  0
VERTEX
  5
54DF5
330
54DF1
100
AcDbEntity
  8
sink_label
  6
DASHED2
 48
5.0
370
     0
100
AcDbVertex
100
AcDb2dVertex
 10
30429.61327811176
 20
26133.42594771908
 30
0.0
  0
VERTEX
  5
54DF6
330
54DF1
100
AcDbEntity
  8
sink_label
  6
DASHED2
 48
5.0
370
     0
100
AcDbVertex
100
AcDb2dVertex
 10
30426.94801368102
 20
26131.7908201294
 30
0.0
  0
VERTEX
  5
54DF7
330
54DF1
100
AcDbEntity
  8
sink_label
  6
DASHED2
 48
5.0
370
     0
100
AcDbVertex
100
AcDb2dVertex
 10
30424.57030691371
 20
26129.75880698142
 30
0.0
  0
SEQEND
  5
54DF8
330
54DF1
100
AcDbEntity
  8
sink_label
  6
DASHED2
 48
5.0
370
     0
  0
POLYLINE
  5
54DF9
330
52C18
100
AcDbEntity
  8
sink_label
  6
DASHED2
 48
5.0
370
     0
100
AcDb2dPolyline
 66
     1
 10
0.0
 20
0.0
 30
0.0
  0
VERTEX
  5
54DFA
330
54DF9
100
AcDbEntity
  8
sink_label
  6
DASHED2
 48
5.0
370
     0
100
AcDbVertex
100
AcDb2dVertex
 10
30183.95662044927
 20
26135.59377291962
 30
0.0
  0
VERTEX
  5
54DFB
330
54DF9
100
AcDbEntity
  8
sink_label
  6
DASHED2
 48
5.0
370
     0
100
AcDbVertex
100
AcDb2dVertex
 10
29954.61059734408
 20
26135.59377291962
 30
0.0
  0
SEQEND
  5
54DFC
330
54DF9
100
AcDbEntity
  8
sink_label
  6
DASHED2
 48
5.0
370
     0
  0
LINE
  5
54DFD
330
52C18
100
AcDbEntity
  8
CUTOUT
100
AcDbLine
 10
31018.25661557722
 20
25689.47664521544
 30
0.0
 11
30703.80772478971
 21
25689.47664521544
 31
0.0
  0
ARC
  5
54DFE
330
52C18
100
AcDbEntity
  8
CUTOUT
100
AcDbCircle
 10
30703.80772478971
 20
25699.47664521544
 30
0.0
 40
10.0
100
AcDbArc
 50
180.0
 51
270.0
  0
LINE
  5
54DFF
330
52C18
100
AcDbEntity
  8
CUTOUT
100
AcDbLine
 10
29928.80772478971
 20
26115.59377291962
 30
0.0
 11
29928.8077247897
 21
25699.47664521544
 31
0.0
  0
ARC
  5
54E00
102
{ACAD_REACTORS
330
550E5
102
}
330
52C18
100
AcDbEntity
  8
CUTOUT
100
AcDbCircle
 10
29918.80772478971
 20
25699.47664521544
 30
0.0
 40
10.0
100
AcDbArc
 50
270.0
 51
0.0
  0
LINE
  5
54E01
102
{ACAD_REACTORS
330
550F4
102
}
330
52C18
100
AcDbEntity
  8
CUTOUT
100
AcDbLine
 10
29918.80772478971
 20
25689.47664521544
 30
0.0
 11
29815.55720784808
 21
25689.47664521544
 31
0.0
  0
POLYLINE
  5
54E02
330
52C18
100
AcDbEntity
  8
sink_label
  6
DASHED2
 48
5.0
370
     0
100
AcDb2dPolyline
 66
     1
 10
0.0
 20
0.0
 30
0.0
  0
VERTEX
  5
54E03
330
54E02
100
AcDbEntity
  8
sink_label
  6
DASHED2
 48
5.0
370
     0
100
AcDbVertex
100
AcDb2dVertex
 10
30668.00439468384
 20
26135.59377291962
 30
0.0
  0
VERTEX
  5
54E04
330
54E02
100
AcDbEntity
  8
sink_label
  6
DASHED2
 48
5.0
370
     0
100
AcDbVertex
100
AcDb2dVertex
 10
30438.65847923781
 20
26135.59377291962
 30
0.0
  0
SEQEND
  5
54E05
330
54E02
100
AcDbEntity
  8
sink_label
  6
DASHED2
 48
5.0
370
     0
  0
POLYLINE
  5
54E06
330
52C18
100
AcDbEntity
  8
sink_label
  6
DASHED2
 48
5.0
370
     0
100
AcDb2dPolyline
 66
     1
 10
0.0
 20
0.0
 30
0.0
  0
VERTEX
  5
54E07
330
54E06
100
AcDbEntity
  8
sink_label
  6
DASHED2
 48
5.0
370
     0
100
AcDbVertex
100
AcDb2dVertex
 10
30198.04479277338
 20
26129.75880698142
 30
0.0
  0
VERTEX
  5
54E08
330
54E06
100
AcDbEntity
  8
sink_label
  6
DASHED2
 48
5.0
370
     0
100
AcDbVertex
100
AcDb2dVertex
 10
30195.66880855291
 20
26131.7908201294
 30
0.0
  0
VERTEX
  5
54E09
330
54E06
100
AcDbEntity
  8
sink_label
  6
DASHED2
 48
5.0
370
     0
100
AcDbVertex
100
AcDb2dVertex
 10
30193.00359795176
 20
26133.42594771908
 30
0.0
  0
VERTEX
  5
54E0A
330
54E06
100
AcDbEntity
  8
sink_label
  6
DASHED2
 48
5.0
370
     0
100
AcDbVertex
100
AcDb2dVertex
 10
30190.11607114883
 20
26134.62187969367
 30
0.0
  0
VERTEX
  5
54E0B
330
54E06
100
AcDbEntity
  8
sink_label
  6
DASHED2
 48
5.0
370
     0
100
AcDbVertex
100
AcDb2dVertex
 10
30187.07513001779
 20
26135.35035551902
 30
0.0
  0
VERTEX
  5
54E0C
330
54E06
100
AcDbEntity
  8
sink_label
  6
DASHED2
 48
5.0
370
     0
100
AcDbVertex
100
AcDb2dVertex
 10
30183.95662044927
 20
26135.59377291962
 30
0.0
  0
SEQEND
  5
54E0D
330
54E06
100
AcDbEntity
  8
sink_label
  6
DASHED2
 48
5.0
370
     0
  0
POLYLINE
  5
54E0E
330
52C18
100
AcDbEntity
  8
sink_label
  6
DASHED2
 48
5.0
370
     0
100
AcDb2dPolyline
 66
     1
 10
0.0
 20
0.0
 30
0.0
  0
VERTEX
  5
54E0F
330
54E0E
100
AcDbEntity
  8
sink_label
  6
DASHED2
 48
5.0
370
     0
100
AcDbVertex
100
AcDb2dVertex
 10
30687.92930932258
 20
26115.67063465731
 30
0.0
  0
VERTEX
  5
54E10
330
54E0E
100
AcDbEntity
  8
sink_label
  6
DASHED2
 48
5.0
370
     0
100
AcDbVertex
100
AcDb2dVertex
 10
30687.73175473165
 20
26118.51757395028
 30
0.0
  0
VERTEX
  5
54E11
330
54E0E
100
AcDbEntity
  8
sink_label
  6
DASHED2
 48
5.0
370
     0
100
AcDbVertex
100
AcDb2dVertex
 10
30687.13381565915
 20
26121.30449325173
 30
0.0
  0
VERTEX
  5
54E12
330
54E0E
100
AcDbEntity
  8
sink_label
  6
DASHED2
 48
5.0
370
     0
100
AcDbVertex
100
AcDb2dVertex
 10
30686.14604270449
 20
26123.97325660574
 30
0.0
  0
VERTEX
  5
54E13
330
54E0E
100
AcDbEntity
  8
sink_label
  6
DASHED2
 48
5.0
370
     0
100
AcDbVertex
100
AcDb2dVertex
 10
30684.78964472566
 20
26126.47094952651
 30
0.0
  0
VERTEX
  5
54E14
330
54E0E
100
AcDbEntity
  8
sink_label
  6
DASHED2
 48
5.0
370
     0
100
AcDbVertex
100
AcDb2dVertex
 10
30683.08916801516
 20
26128.7463262455
 30
0.0
  0
VERTEX
  5
54E15
330
54E0E
100
AcDbEntity
  8
sink_label
  6
DASHED2
 48
5.0
370
     0
100
AcDbVertex
100
AcDb2dVertex
 10
30681.08014010161
 20
26130.75363161221
 30
0.0
  0
VERTEX
  5
54E16
330
54E0E
100
AcDbEntity
  8
sink_label
  6
DASHED2
 48
5.0
370
     0
100
AcDbVertex
100
AcDb2dVertex
 10
30678.80476338262
 20
26132.45405449312
 30
0.0
  0
VERTEX
  5
54E17
330
54E0E
100
AcDbEntity
  8
sink_label
  6
DASHED2
 48
5.0
370
     0
100
AcDbVertex
100
AcDb2dVertex
 10
30676.30707046185
 20
26133.81222884838
 30
0.0
  0
VERTEX
  5
54E18
330
54E0E
100
AcDbEntity
  8
sink_label
  6
DASHED2
 48
5.0
370
     0
100
AcDbVertex
100
AcDb2dVertex
 10
30673.63830710784
 20
26134.80000180304
 30
0.0
  0
VERTEX
  5
54E19
330
54E0E
100
AcDbEntity
  8
sink_label
  6
DASHED2
 48
5.0
370
     0
100
AcDbVertex
100
AcDb2dVertex
 10
30670.85316418282
 20
26135.39799470512
 30
0.0
  0
VERTEX
  5
54E1A
330
54E0E
100
AcDbEntity
  8
sink_label
  6
DASHED2
 48
5.0
370
     0
100
AcDbVertex
100
AcDb2dVertex
 10
30668.00439468384
 20
26135.59377291962
 30
0.0
  0
SEQEND
  5
54E1B
330
54E0E
100
AcDbEntity
  8
sink_label
  6
DASHED2
 48
5.0
370
     0
  0
POLYLINE
  5
54E1C
330
52C18
100
AcDbEntity
  8
sink_label
  6
DASHED2
 48
5.0
370
     0
100
AcDb2dPolyline
 66
     1
 10
0.0
 20
0.0
 30
0.0
  0
VERTEX
  5
54E1D
330
54E1C
100
AcDbEntity
  8
sink_label
  6
DASHED2
 48
5.0
370
     0
100
AcDbVertex
100
AcDb2dVertex
 10
29954.61059734408
 20
26135.59377291962
 30
0.0
  0
VERTEX
  5
54E1E
330
54E1C
100
AcDbEntity
  8
sink_label
  6
DASHED2
 48
5.0
370
     0
100
AcDbVertex
100
AcDb2dVertex
 10
29951.76365805111
 20
26135.39799470512
 30
0.0
  0
VERTEX
  5
54E1F
330
54E1C
100
AcDbEntity
  8
sink_label
  6
DASHED2
 48
5.0
370
     0
100
AcDbVertex
100
AcDb2dVertex
 10
29948.97673874966
 20
26134.80000180304
 30
0.0
  0
VERTEX
  5
54E20
330
54E1C
100
AcDbEntity
  8
sink_label
  6
DASHED2
 48
5.0
370
     0
100
AcDbVertex
100
AcDb2dVertex
 10
29946.30797539565
 20
26133.81222884838
 30
0.0
  0
VERTEX
  5
54E21
330
54E1C
100
AcDbEntity
  8
sink_label
  6
DASHED2
 48
5.0
370
     0
100
AcDbVertex
100
AcDb2dVertex
 10
29943.81028247488
 20
26132.45405449312
 30
0.0
  0
VERTEX
  5
54E22
330
54E1C
100
AcDbEntity
  8
sink_label
  6
DASHED2
 48
5.0
370
     0
100
AcDbVertex
100
AcDb2dVertex
 10
29941.53490575589
 20
26130.75363161221
 30
0.0
  0
VERTEX
  5
54E23
330
54E1C
100
AcDbEntity
  8
sink_label
  6
DASHED2
 48
5.0
370
     0
100
AcDbVertex
100
AcDb2dVertex
 10
29939.52760038918
 20
26128.7463262455
 30
0.0
  0
VERTEX
  5
54E24
330
54E1C
100
AcDbEntity
  8
sink_label
  6
DASHED2
 48
5.0
370
     0
100
AcDbVertex
100
AcDb2dVertex
 10
29937.82717750827
 20
26126.47094952651
 30
0.0
  0
VERTEX
  5
54E25
330
54E1C
100
AcDbEntity
  8
sink_label
  6
DASHED2
 48
5.0
370
     0
100
AcDbVertex
100
AcDb2dVertex
 10
29936.46900315301
 20
26123.97325660574
 30
0.0
  0
VERTEX
  5
54E26
330
54E1C
100
AcDbEntity
  8
sink_label
  6
DASHED2
 48
5.0
370
     0
100
AcDbVertex
100
AcDb2dVertex
 10
29935.48123019835
 20
26121.30449325173
 30
0.0
  0
VERTEX
  5
54E27
330
54E1C
100
AcDbEntity
  8
sink_label
  6
DASHED2
 48
5.0
370
     0
100
AcDbVertex
100
AcDb2dVertex
 10
29934.88329112586
 20
26118.51757395028
 30
0.0
  0
VERTEX
  5
54E28
330
54E1C
100
AcDbEntity
  8
sink_label
  6
DASHED2
 48
5.0
370
     0
100
AcDbVertex
100
AcDb2dVertex
 10
29934.68745908177
 20
26115.67063465731
 30
0.0
  0
SEQEND
  5
54E29
330
54E1C
100
AcDbEntity
  8
sink_label
  6
DASHED2
 48
5.0
370
     0
  0
POLYLINE
  5
54E2A
330
52C18
100
AcDbEntity
  8
sink_label
  6
DASHED2
 48
5.0
370
     0
100
AcDb2dPolyline
 66
     1
 10
0.0
 20
0.0
 30
0.0
  0
VERTEX
  5
54E2B
330
54E2A
100
AcDbEntity
  8
sink_label
  6
DASHED2
 48
5.0
370
     0
100
AcDbVertex
100
AcDb2dVertex
 10
29920.30828400055
 20
26115.972295673
 30
0.0
  0
VERTEX
  5
54E2C
330
54E2A
100
AcDbEntity
  8
sink_label
  6
DASHED2
 48
5.0
370
     0
100
AcDbVertex
100
AcDb2dVertex
 10
29920.30828400055
 20
25705.97242306072
 30
0.0
  0
SEQEND
  5
54E2D
330
54E2A
100
AcDbEntity
  8
sink_label
  6
DASHED2
 48
5.0
370
     0
  0
POLYLINE
  5
54E2E
330
52C18
100
AcDbEntity
  8
sink_label
  6
DASHED2
 48
5.0
370
     0
100
AcDb2dPolyline
 66
     1
 10
0.0
 20
0.0
 30
0.0
  0
VERTEX
  5
54E2F
330
54E2E
100
AcDbEntity
  8
sink_label
  6
DASHED2
 48
5.0
370
     0
100
AcDbVertex
100
AcDb2dVertex
 10
29920.30828400055
 20
25705.97242306072
 30
0.0
  0
VERTEX
  5
54E30
330
54E2E
100
AcDbEntity
  8
sink_label
  6
DASHED2
 48
5.0
370
     0
100
AcDbVertex
100
AcDb2dVertex
 10
29920.49523416249
 20
25702.41993934722
 30
0.0
  0
VERTEX
  5
54E31
330
54E2E
100
AcDbEntity
  8
sink_label
  6
DASHED2
 48
5.0
370
     0
100
AcDbVertex
100
AcDb2dVertex
 10
29921.05086317819
 20
25698.90451730562
 30
0.0
  0
VERTEX
  5
54E32
330
54E2E
100
AcDbEntity
  8
sink_label
  6
DASHED2
 48
5.0
370
     0
100
AcDbVertex
100
AcDb2dVertex
 10
29921.97161829477
 20
25695.46669061629
 30
0.0
  0
VERTEX
  5
54E33
330
54E2E
100
AcDbEntity
  8
sink_label
  6
DASHED2
 48
5.0
370
     0
100
AcDbVertex
100
AcDb2dVertex
 10
29923.24689508327
 20
25692.14352095112
 30
0.0
  0
VERTEX
  5
54E34
330
54E2E
100
AcDbEntity
  8
sink_label
  6
DASHED2
 48
5.0
370
     0
100
AcDbVertex
100
AcDb2dVertex
 10
29924.86264402098
 20
25688.97381944365
 30
0.0
  0
VERTEX
  5
54E35
330
54E2E
100
AcDbEntity
  8
sink_label
  6
DASHED2
 48
5.0
370
     0
100
AcDbVertex
100
AcDb2dVertex
 10
29926.8011551732
 20
25685.98934555127
 30
0.0
  0
VERTEX
  5
54E36
330
54E2E
100
AcDbEntity
  8
sink_label
  6
DASHED2
 48
5.0
370
     0
100
AcDbVertex
100
AcDb2dVertex
 10
29929.04127351151
 20
25683.22352744864
 30
0.0
  0
VERTEX
  5
54E37
330
54E2E
100
AcDbEntity
  8
sink_label
  6
DASHED2
 48
5.0
370
     0
100
AcDbVertex
100
AcDb2dVertex
 10
29931.55834508425
 20
25680.70650970549
 30
0.0
  0
VERTEX
  5
54E38
330
54E2E
100
AcDbEntity
  8
sink_label
  6
DASHED2
 48
5.0
370
     0
100
AcDbVertex
100
AcDb2dVertex
 10
29934.3241093573
 20
25678.46633753758
 30
0.0
  0
VERTEX
  5
54E39
330
54E2E
100
AcDbEntity
  8
sink_label
  6
DASHED2
 48
5.0
370
     0
100
AcDbVertex
100
AcDb2dVertex
 10
29937.30863707927
 20
25676.52782638536
 30
0.0
  0
VERTEX
  5
54E3A
330
54E2E
100
AcDbEntity
  8
sink_label
  6
DASHED2
 48
5.0
370
     0
100
AcDbVertex
100
AcDb2dVertex
 10
29940.48006113358
 20
25674.91213127724
 30
0.0
  0
VERTEX
  5
54E3B
330
54E2E
100
AcDbEntity
  8
sink_label
  6
DASHED2
 48
5.0
370
     0
100
AcDbVertex
100
AcDb2dVertex
 10
29943.80150825191
 20
25673.63680065916
 30
0.0
  0
VERTEX
  5
54E3C
330
54E2E
100
AcDbEntity
  8
sink_label
  6
DASHED2
 48
5.0
370
     0
100
AcDbVertex
100
AcDb2dVertex
 10
29947.23928111165
 20
25672.71604554257
 30
0.0
  0
VERTEX
  5
54E3D
330
54E2E
100
AcDbEntity
  8
sink_label
  6
DASHED2
 48
5.0
370
     0
100
AcDbVertex
100
AcDb2dVertex
 10
29950.75473006805
 20
25672.15869398003
 30
0.0
  0
VERTEX
  5
54E3E
330
54E2E
100
AcDbEntity
  8
sink_label
  6
DASHED2
 48
5.0
370
     0
100
AcDbVertex
100
AcDb2dVertex
 10
29954.30899015797
 20
25671.97346636494
 30
0.0
  0
SEQEND
  5
54E3F
330
54E2E
100
AcDbEntity
  8
sink_label
  6
DASHED2
 48
5.0
370
     0
  0
POLYLINE
  5
54E40
330
52C18
100
AcDbEntity
  8
sink_label
  6
DASHED2
 48
5.0
370
     0
100
AcDb2dPolyline
 66
     1
 10
0.0
 20
0.0
 30
0.0
  0
VERTEX
  5
54E41
330
54E40
100
AcDbEntity
  8
sink_label
  6
DASHED2
 48
5.0
370
     0
100
AcDbVertex
100
AcDb2dVertex
 10
29954.30899015797
 20
25671.97346636494
 30
0.0
  0
VERTEX
  5
54E42
330
54E40
100
AcDbEntity
  8
sink_label
  6
DASHED2
 48
5.0
370
     0
100
AcDbVertex
100
AcDb2dVertex
 10
30668.30788590555
 20
25671.97346636494
 30
0.0
  0
SEQEND
  5
54E43
330
54E40
100
AcDbEntity
  8
sink_label
  6
DASHED2
 48
5.0
370
     0
  0
POLYLINE
  5
54E44
330
52C18
100
AcDbEntity
  8
sink_label
  6
DASHED2
 48
5.0
370
     0
100
AcDb2dPolyline
 66
     1
 10
0.0
 20
0.0
 30
0.0
  0
VERTEX
  5
54E45
330
54E44
100
AcDbEntity
  8
sink_label
  6
DASHED2
 48
5.0
370
     0
100
AcDbVertex
100
AcDb2dVertex
 10
30668.30788590555
 20
25671.97346636494
 30
0.0
  0
VERTEX
  5
54E46
330
54E44
100
AcDbEntity
  8
sink_label
  6
DASHED2
 48
5.0
370
     0
100
AcDbVertex
100
AcDb2dVertex
 10
30671.86203833629
 20
25672.15869398003
 30
0.0
  0
VERTEX
  5
54E47
330
54E44
100
AcDbEntity
  8
sink_label
  6
DASHED2
 48
5.0
370
     0
100
AcDbVertex
100
AcDb2dVertex
 10
30675.37754112228
 20
25672.71604554257
 30
0.0
  0
VERTEX
  5
54E48
330
54E44
100
AcDbEntity
  8
sink_label
  6
DASHED2
 48
5.0
370
     0
100
AcDbVertex
100
AcDb2dVertex
 10
30678.81359143518
 20
25673.63680065916
 30
0.0
  0
VERTEX
  5
54E49
330
54E44
100
AcDbEntity
  8
sink_label
  6
DASHED2
 48
5.0
370
     0
100
AcDbVertex
100
AcDb2dVertex
 10
30682.13670727076
 20
25674.91213127724
 30
0.0
  0
VERTEX
  5
54E4A
330
54E44
100
AcDbEntity
  8
sink_label
  6
DASHED2
 48
5.0
370
     0
100
AcDbVertex
100
AcDb2dVertex
 10
30685.30813132507
 20
25676.52782638536
 30
0.0
  0
VERTEX
  5
54E4B
330
54E44
100
AcDbEntity
  8
sink_label
  6
DASHED2
 48
5.0
370
     0
100
AcDbVertex
100
AcDb2dVertex
 10
30688.29265904704
 20
25678.46633753758
 30
0.0
  0
VERTEX
  5
54E4C
330
54E44
100
AcDbEntity
  8
sink_label
  6
DASHED2
 48
5.0
370
     0
100
AcDbVertex
100
AcDb2dVertex
 10
30691.05842332009
 20
25680.70650970549
 30
0.0
  0
VERTEX
  5
54E4D
330
54E44
100
AcDbEntity
  8
sink_label
  6
DASHED2
 48
5.0
370
     0
100
AcDbVertex
100
AcDb2dVertex
 10
30693.57549489283
 20
25683.22352744864
 30
0.0
  0
VERTEX
  5
54E4E
330
54E44
100
AcDbEntity
  8
sink_label
  6
DASHED2
 48
5.0
370
     0
100
AcDbVertex
100
AcDb2dVertex
 10
30695.81394451389
 20
25685.98934555127
 30
0.0
  0
VERTEX
  5
54E4F
330
54E44
100
AcDbEntity
  8
sink_label
  6
DASHED2
 48
5.0
370
     0
100
AcDbVertex
100
AcDb2dVertex
 10
30697.75245566611
 20
25688.97381944365
 30
0.0
  0
VERTEX
  5
54E50
330
54E44
100
AcDbEntity
  8
sink_label
  6
DASHED2
 48
5.0
370
     0
100
AcDbVertex
100
AcDb2dVertex
 10
30699.36809694465
 20
25692.14352095112
 30
0.0
  0
VERTEX
  5
54E51
330
54E44
100
AcDbEntity
  8
sink_label
  6
DASHED2
 48
5.0
370
     0
100
AcDbVertex
100
AcDb2dVertex
 10
30700.64342756273
 20
25695.46669061629
 30
0.0
  0
VERTEX
  5
54E52
330
54E44
100
AcDbEntity
  8
sink_label
  6
DASHED2
 48
5.0
370
     0
100
AcDbVertex
100
AcDb2dVertex
 10
30701.56412884973
 20
25698.90451730562
 30
0.0
  0
VERTEX
  5
54E53
330
54E44
100
AcDbEntity
  8
sink_label
  6
DASHED2
 48
5.0
370
     0
100
AcDbVertex
100
AcDb2dVertex
 10
30702.12158807144
 20
25702.41993934722
 30
0.0
  0
VERTEX
  5
54E54
330
54E44
100
AcDbEntity
  8
sink_label
  6
DASHED2
 48
5.0
370
     0
100
AcDbVertex
100
AcDb2dVertex
 10
30702.30848440379
 20
25705.97242306072
 30
0.0
  0
SEQEND
  5
54E55
330
54E44
100
AcDbEntity
  8
sink_label
  6
DASHED2
 48
5.0
370
     0
  0
POLYLINE
  5
54E56
330
52C18
100
AcDbEntity
  8
sink_label
  6
DASHED2
 48
5.0
370
     0
100
AcDb2dPolyline
 66
     1
 10
0.0
 20
0.0
 30
0.0
  0
VERTEX
  5
54E57
330
54E56
100
AcDbEntity
  8
sink_label
  6
DASHED2
 48
5.0
370
     0
100
AcDbVertex
100
AcDb2dVertex
 10
30702.30848440379
 20
25705.97242306072
 30
0.0
  0
VERTEX
  5
54E58
330
54E56
100
AcDbEntity
  8
sink_label
  6
DASHED2
 48
5.0
370
     0
100
AcDbVertex
100
AcDb2dVertex
 10
30702.30848440379
 20
26115.972295673
 30
0.0
  0
SEQEND
  5
54E59
330
54E56
100
AcDbEntity
  8
sink_label
  6
DASHED2
 48
5.0
370
     0
  0
POLYLINE
  5
54E5A
330
52C18
100
AcDbEntity
  8
sink_label
  6
DASHED2
 48
5.0
370
     0
100
AcDb2dPolyline
 66
     1
 10
0.0
 20
0.0
 30
0.0
  0
VERTEX
  5
54E5B
330
54E5A
100
AcDbEntity
  8
sink_label
  6
DASHED2
 48
5.0
370
     0
100
AcDbVertex
100
AcDb2dVertex
 10
30702.30848440379
 20
26115.972295673
 30
0.0
  0
VERTEX
  5
54E5C
330
54E5A
100
AcDbEntity
  8
sink_label
  6
DASHED2
 48
5.0
370
     0
100
AcDbVertex
100
AcDb2dVertex
 10
30702.12158807144
 20
26119.52650193334
 30
0.0
  0
VERTEX
  5
54E5D
330
54E5A
100
AcDbEntity
  8
sink_label
  6
DASHED2
 48
5.0
370
     0
100
AcDbVertex
100
AcDb2dVertex
 10
30701.56412884973
 20
26123.04195088974
 30
0.0
  0
VERTEX
  5
54E5E
330
54E5A
100
AcDbEntity
  8
sink_label
  6
DASHED2
 48
5.0
370
     0
100
AcDbVertex
100
AcDb2dVertex
 10
30700.64342756273
 20
26126.47977757907
 30
0.0
  0
VERTEX
  5
54E5F
330
54E5A
100
AcDbEntity
  8
sink_label
  6
DASHED2
 48
5.0
370
     0
100
AcDbVertex
100
AcDb2dVertex
 10
30699.36809694465
 20
26129.80289341465
 30
0.0
  0
VERTEX
  5
54E60
330
54E5A
100
AcDbEntity
  8
sink_label
  6
DASHED2
 48
5.0
370
     0
100
AcDbVertex
100
AcDb2dVertex
 10
30697.75245566611
 20
26132.97264875171
 30
0.0
  0
VERTEX
  5
54E61
330
54E5A
100
AcDbEntity
  8
sink_label
  6
DASHED2
 48
5.0
370
     0
100
AcDbVertex
100
AcDb2dVertex
 10
30695.81394451389
 20
26135.95712264409
 30
0.0
  0
VERTEX
  5
54E62
330
54E5A
100
AcDbEntity
  8
sink_label
  6
DASHED2
 48
5.0
370
     0
100
AcDbVertex
100
AcDb2dVertex
 10
30693.57549489283
 20
26138.72288691713
 30
0.0
  0
VERTEX
  5
54E63
330
54E5A
100
AcDbEntity
  8
sink_label
  6
DASHED2
 48
5.0
370
     0
100
AcDbVertex
100
AcDb2dVertex
 10
30691.05842332009
 20
26141.23995848988
 30
0.0
  0
VERTEX
  5
54E64
330
54E5A
100
AcDbEntity
  8
sink_label
  6
DASHED2
 48
5.0
370
     0
100
AcDbVertex
100
AcDb2dVertex
 10
30688.29265904704
 20
26143.48007682819
 30
0.0
  0
VERTEX
  5
54E65
330
54E5A
100
AcDbEntity
  8
sink_label
  6
DASHED2
 48
5.0
370
     0
100
AcDbVertex
100
AcDb2dVertex
 10
30685.30813132507
 20
26145.41864181
 30
0.0
  0
VERTEX
  5
54E66
330
54E5A
100
AcDbEntity
  8
sink_label
  6
DASHED2
 48
5.0
370
     0
100
AcDbVertex
100
AcDb2dVertex
 10
30682.13670727076
 20
26147.03433691812
 30
0.0
  0
VERTEX
  5
54E67
330
54E5A
100
AcDbEntity
  8
sink_label
  6
DASHED2
 48
5.0
370
     0
100
AcDbVertex
100
AcDb2dVertex
 10
30678.81359143518
 20
26148.30961370661
 30
0.0
  0
VERTEX
  5
54E68
330
54E5A
100
AcDbEntity
  8
sink_label
  6
DASHED2
 48
5.0
370
     0
100
AcDbVertex
100
AcDb2dVertex
 10
30675.37754112228
 20
26149.23036882321
 30
0.0
  0
VERTEX
  5
54E69
330
54E5A
100
AcDbEntity
  8
sink_label
  6
DASHED2
 48
5.0
370
     0
100
AcDbVertex
100
AcDb2dVertex
 10
30671.86203833629
 20
26149.7859978389
 30
0.0
  0
VERTEX
  5
54E6A
330
54E5A
100
AcDbEntity
  8
sink_label
  6
DASHED2
 48
5.0
370
     0
100
AcDbVertex
100
AcDb2dVertex
 10
30668.30788590555
 20
26149.97300183043
 30
0.0
  0
SEQEND
  5
54E6B
330
54E5A
100
AcDbEntity
  8
sink_label
  6
DASHED2
 48
5.0
370
     0
  0
POLYLINE
  5
54E6C
330
52C18
100
AcDbEntity
  8
sink_label
  6
DASHED2
 48
5.0
370
     0
100
AcDb2dPolyline
 66
     1
 10
0.0
 20
0.0
 30
0.0
  0
VERTEX
  5
54E6D
330
54E6C
100
AcDbEntity
  8
sink_label
  6
DASHED2
 48
5.0
370
     0
100
AcDbVertex
100
AcDb2dVertex
 10
29954.30899015797
 20
26149.97300183043
 30
0.0
  0
VERTEX
  5
54E6E
330
54E6C
100
AcDbEntity
  8
sink_label
  6
DASHED2
 48
5.0
370
     0
100
AcDbVertex
100
AcDb2dVertex
 10
29950.75473006805
 20
26149.7859978389
 30
0.0
  0
VERTEX
  5
54E6F
330
54E6C
100
AcDbEntity
  8
sink_label
  6
DASHED2
 48
5.0
370
     0
100
AcDbVertex
100
AcDb2dVertex
 10
29947.23928111165
 20
26149.23036882321
 30
0.0
  0
VERTEX
  5
54E70
330
54E6C
100
AcDbEntity
  8
sink_label
  6
DASHED2
 48
5.0
370
     0
100
AcDbVertex
100
AcDb2dVertex
 10
29943.80150825191
 20
26148.30961370661
 30
0.0
  0
VERTEX
  5
54E71
330
54E6C
100
AcDbEntity
  8
sink_label
  6
DASHED2
 48
5.0
370
     0
100
AcDbVertex
100
AcDb2dVertex
 10
29940.48006113358
 20
26147.03433691812
 30
0.0
  0
VERTEX
  5
54E72
330
54E6C
100
AcDbEntity
  8
sink_label
  6
DASHED2
 48
5.0
370
     0
100
AcDbVertex
100
AcDb2dVertex
 10
29937.30863707927
 20
26145.41864181
 30
0.0
  0
VERTEX
  5
54E73
330
54E6C
100
AcDbEntity
  8
sink_label
  6
DASHED2
 48
5.0
370
     0
100
AcDbVertex
100
AcDb2dVertex
 10
29934.3241093573
 20
26143.48007682819
 30
0.0
  0
VERTEX
  5
54E74
330
54E6C
100
AcDbEntity
  8
sink_label
  6
DASHED2
 48
5.0
370
     0
100
AcDbVertex
100
AcDb2dVertex
 10
29931.55834508425
 20
26141.23995848988
 30
0.0
  0
VERTEX
  5
54E75
330
54E6C
100
AcDbEntity
  8
sink_label
  6
DASHED2
 48
5.0
370
     0
100
AcDbVertex
100
AcDb2dVertex
 10
29929.04127351151
 20
26138.72288691713
 30
0.0
  0
VERTEX
  5
54E76
330
54E6C
100
AcDbEntity
  8
sink_label
  6
DASHED2
 48
5.0
370
     0
100
AcDbVertex
100
AcDb2dVertex
 10
29926.8011551732
 20
26135.95712264409
 30
0.0
  0
VERTEX
  5
54E77
330
54E6C
100
AcDbEntity
  8
sink_label
  6
DASHED2
 48
5.0
370
     0
100
AcDbVertex
100
AcDb2dVertex
 10
29924.86264402098
 20
26132.97264875171
 30
0.0
  0
VERTEX
  5
54E78
330
54E6C
100
AcDbEntity
  8
sink_label
  6
DASHED2
 48
5.0
370
     0
100
AcDbVertex
100
AcDb2dVertex
 10
29923.24689508327
 20
26129.80289341465
 30
0.0
  0
VERTEX
  5
54E79
330
54E6C
100
AcDbEntity
  8
sink_label
  6
DASHED2
 48
5.0
370
     0
100
AcDbVertex
100
AcDb2dVertex
 10
29921.97161829477
 20
26126.47977757907
 30
0.0
  0
VERTEX
  5
54E7A
330
54E6C
100
AcDbEntity
  8
sink_label
  6
DASHED2
 48
5.0
370
     0
100
AcDbVertex
100
AcDb2dVertex
 10
29921.05086317819
 20
26123.04195088974
 30
0.0
  0
VERTEX
  5
54E7B
330
54E6C
100
AcDbEntity
  8
sink_label
  6
DASHED2
 48
5.0
370
     0
100
AcDbVertex
100
AcDb2dVertex
 10
29920.49523416249
 20
26119.52650193334
 30
0.0
  0
VERTEX
  5
54E7C
330
54E6C
100
AcDbEntity
  8
sink_label
  6
DASHED2
 48
5.0
370
     0
100
AcDbVertex
100
AcDb2dVertex
 10
29920.30828400055
 20
26115.972295673
 30
0.0
  0
SEQEND
  5
54E7D
330
54E6C
100
AcDbEntity
  8
sink_label
  6
DASHED2
 48
5.0
370
     0
  0
POLYLINE
  5
54E7E
330
52C18
100
AcDbEntity
  8
sink_label
  6
DASHED2
 48
5.0
370
     0
100
AcDb2dPolyline
 66
     1
 10
0.0
 20
0.0
 30
0.0
  0
VERTEX
  5
54E7F
330
54E7E
100
AcDbEntity
  8
sink_label
  6
DASHED2
 48
5.0
370
     0
100
AcDbVertex
100
AcDb2dVertex
 10
30668.30788590555
 20
26149.97300183043
 30
0.0
  0
VERTEX
  5
54E80
330
54E7E
100
AcDbEntity
  8
sink_label
  6
DASHED2
 48
5.0
370
     0
100
AcDbVertex
100
AcDb2dVertex
 10
29954.30899015797
 20
26149.97300183043
 30
0.0
  0
SEQEND
  5
54E81
330
54E7E
100
AcDbEntity
  8
sink_label
  6
DASHED2
 48
5.0
370
     0
  0
POLYLINE
  5
54E82
330
52C18
100
AcDbEntity
  8
sink_label
  6
DASHED2
 48
5.0
370
     0
100
AcDb2dPolyline
 66
     1
 10
0.0
 20
0.0
 30
0.0
  0
VERTEX
  5
54E83
330
54E82
100
AcDbEntity
  8
sink_label
  6
DASHED2
 48
5.0
370
     0
100
AcDbVertex
100
AcDb2dVertex
 10
30268.40910871861
 20
26054.58470961686
 30
0.0
  0
VERTEX
  5
54E84
330
54E82
100
AcDbEntity
  8
sink_label
  6
DASHED2
 48
5.0
370
     0
100
AcDbVertex
100
AcDb2dVertex
 10
30268.4303175766
 20
26054.85811009842
 30
0.0
  0
VERTEX
  5
54E85
330
54E82
100
AcDbEntity
  8
sink_label
  6
DASHED2
 48
5.0
370
     0
100
AcDbVertex
100
AcDb2dVertex
 10
30268.19745077542
 20
26055.37848073344
 30
0.0
  0
VERTEX
  5
54E86
330
54E82
100
AcDbEntity
  8
sink_label
  6
DASHED2
 48
5.0
370
     0
100
AcDbVertex
100
AcDb2dVertex
 10
30267.71589127392
 20
26056.13338688691
 30
0.0
  0
VERTEX
  5
54E87
330
54E82
100
AcDbEntity
  8
sink_label
  6
DASHED2
 48
5.0
370
     0
100
AcDbVertex
100
AcDb2dVertex
 10
30266.99801987755
 20
26057.10528011287
 30
0.0
  0
VERTEX
  5
54E88
330
54E82
100
AcDbEntity
  8
sink_label
  6
DASHED2
 48
5.0
370
     0
100
AcDbVertex
100
AcDb2dVertex
 10
30266.05960865583
 20
26058.27478175935
 30
0.0
  0
VERTEX
  5
54E89
330
54E82
100
AcDbEntity
  8
sink_label
  6
DASHED2
 48
5.0
370
     0
100
AcDbVertex
100
AcDb2dVertex
 10
30264.92014391991
 20
26059.61530000948
 30
0.0
  0
VERTEX
  5
54E8A
330
54E82
100
AcDbEntity
  8
sink_label
  6
DASHED2
 48
5.0
370
     0
100
AcDbVertex
100
AcDb2dVertex
 10
30263.60605599789
 20
26061.09523689462
 30
0.0
  0
VERTEX
  5
54E8B
330
54E82
100
AcDbEntity
  8
sink_label
  6
DASHED2
 48
5.0
370
     0
100
AcDbVertex
100
AcDb2dVertex
 10
30262.14732797073
 20
26062.68272529821
 30
0.0
  0
VERTEX
  5
54E8C
330
54E82
100
AcDbEntity
  8
sink_label
  6
DASHED2
 48
5.0
370
     0
100
AcDbVertex
100
AcDb2dVertex
 10
30260.57394291941
 20
26064.34250683957
 30
0.0
  0
VERTEX
  5
54E8D
330
54E82
100
AcDbEntity
  8
sink_label
  6
DASHED2
 48
5.0
370
     0
100
AcDbVertex
100
AcDb2dVertex
 10
30258.92471197746
 20
26066.03587804435
 30
0.0
  0
VERTEX
  5
54E8E
330
54E82
100
AcDbEntity
  8
sink_label
  6
DASHED2
 48
5.0
370
     0
100
AcDbVertex
100
AcDb2dVertex
 10
30257.23311714911
 20
26067.72741904311
 30
0.0
  0
VERTEX
  5
54E8F
330
54E82
100
AcDbEntity
  8
sink_label
  6
DASHED2
 48
5.0
370
     0
100
AcDbVertex
100
AcDb2dVertex
 10
30255.53979977393
 20
26069.37664998506
 30
0.0
  0
VERTEX
  5
54E90
330
54E82
100
AcDbEntity
  8
sink_label
  6
DASHED2
 48
5.0
370
     0
100
AcDbVertex
100
AcDb2dVertex
 10
30253.87996440298
 20
26070.95003503638
 30
0.0
  0
VERTEX
  5
54E91
330
54E82
100
AcDbEntity
  8
sink_label
  6
DASHED2
 48
5.0
370
     0
100
AcDbVertex
100
AcDb2dVertex
 10
30252.29247599939
 20
26072.40881689312
 30
0.0
  0
VERTEX
  5
54E92
330
54E82
100
AcDbEntity
  8
sink_label
  6
DASHED2
 48
5.0
370
     0
100
AcDbVertex
100
AcDb2dVertex
 10
30250.81259294383
 20
26073.72290481514
 30
0.0
  0
VERTEX
  5
54E93
330
54E82
100
AcDbEntity
  8
sink_label
  6
DASHED2
 48
5.0
370
     0
100
AcDbVertex
100
AcDb2dVertex
 10
30249.47202086412
 20
26074.86236955107
 30
0.0
  0
VERTEX
  5
54E94
330
54E82
100
AcDbEntity
  8
sink_label
  6
DASHED2
 48
5.0
370
     0
100
AcDbVertex
100
AcDb2dVertex
 10
30248.30257304722
 20
26075.8007269432
 30
0.0
  0
VERTEX
  5
54E95
330
54E82
100
AcDbEntity
  8
sink_label
  6
DASHED2
 48
5.0
370
     0
100
AcDbVertex
100
AcDb2dVertex
 10
30247.32890344484
 20
26076.51865216916
 30
0.0
  0
VERTEX
  5
54E96
330
54E82
100
AcDbEntity
  8
sink_label
  6
DASHED2
 48
5.0
370
     0
100
AcDbVertex
100
AcDb2dVertex
 10
30246.57394346178
 20
26077.00021167065
 30
0.0
  0
VERTEX
  5
54E97
330
54E82
100
AcDbEntity
  8
sink_label
  6
DASHED2
 48
5.0
370
     0
100
AcDbVertex
100
AcDb2dVertex
 10
30246.05534920318
 20
26077.23302464225
 30
0.0
  0
VERTEX
  5
54E98
330
54E82
100
AcDbEntity
  8
sink_label
  6
DASHED2
 48
5.0
370
     0
100
AcDbVertex
100
AcDb2dVertex
 10
30245.78194872162
 20
26077.21186961385
 30
0.0
  0
VERTEX
  5
54E99
330
54E82
100
AcDbEntity
  8
sink_label
  6
DASHED2
 48
5.0
370
     0
100
AcDbVertex
100
AcDb2dVertex
 10
30245.76079369322
 20
26076.93846913228
 30
0.0
  0
VERTEX
  5
54E9A
330
54E82
100
AcDbEntity
  8
sink_label
  6
DASHED2
 48
5.0
370
     0
100
AcDbVertex
100
AcDb2dVertex
 10
30245.99366049441
 20
26076.41809849726
 30
0.0
  0
VERTEX
  5
54E9B
330
54E82
100
AcDbEntity
  8
sink_label
  6
DASHED2
 48
5.0
370
     0
100
AcDbVertex
100
AcDb2dVertex
 10
30246.47338978988
 20
26075.66319234379
 30
0.0
  0
VERTEX
  5
54E9C
330
54E82
100
AcDbEntity
  8
sink_label
  6
DASHED2
 48
5.0
370
     0
100
AcDbVertex
100
AcDb2dVertex
 10
30247.19131501584
 20
26074.69124528824
 30
0.0
  0
VERTEX
  5
54E9D
330
54E82
100
AcDbEntity
  8
sink_label
  6
DASHED2
 48
5.0
370
     0
100
AcDbVertex
100
AcDb2dVertex
 10
30248.1314487844
 20
26073.52179747135
 30
0.0
  0
VERTEX
  5
54E9E
330
54E82
100
AcDbEntity
  8
sink_label
  6
DASHED2
 48
5.0
370
     0
100
AcDbVertex
100
AcDb2dVertex
 10
30249.27096734991
 20
26072.18122539163
 30
0.0
  0
VERTEX
  5
54E9F
330
54E82
100
AcDbEntity
  8
sink_label
  6
DASHED2
 48
5.0
370
     0
100
AcDbVertex
100
AcDb2dVertex
 10
30250.58505527193
 20
26070.70134233608
 30
0.0
  0
VERTEX
  5
54EA0
330
54E82
100
AcDbEntity
  8
sink_label
  6
DASHED2
 48
5.0
370
     0
100
AcDbVertex
100
AcDb2dVertex
 10
30252.04378329909
 20
26069.11385393249
 30
0.0
  0
VERTEX
  5
54EA1
330
54E82
100
AcDbEntity
  8
sink_label
  6
DASHED2
 48
5.0
370
     0
100
AcDbVertex
100
AcDb2dVertex
 10
30253.61716835041
 20
26067.45401856154
 30
0.0
  0
VERTEX
  5
54EA2
330
54E82
100
AcDbEntity
  8
sink_label
  6
DASHED2
 48
5.0
370
     0
100
AcDbVertex
100
AcDb2dVertex
 10
30255.26639929236
 20
26065.76070118635
 30
0.0
  0
VERTEX
  5
54EA3
330
54E82
100
AcDbEntity
  8
sink_label
  6
DASHED2
 48
5.0
370
     0
100
AcDbVertex
100
AcDb2dVertex
 10
30256.95794029112
 20
26064.06910635801
 30
0.0
  0
VERTEX
  5
54EA4
330
54E82
100
AcDbEntity
  8
sink_label
  6
DASHED2
 48
5.0
370
     0
100
AcDbVertex
100
AcDb2dVertex
 10
30258.65131149589
 20
26062.41987541606
 30
0.0
  0
VERTEX
  5
54EA5
330
54E82
100
AcDbEntity
  8
sink_label
  6
DASHED2
 48
5.0
370
     0
100
AcDbVertex
100
AcDb2dVertex
 10
30260.31109303725
 20
26060.84649036474
 30
0.0
  0
VERTEX
  5
54EA6
330
54E82
100
AcDbEntity
  8
sink_label
  6
DASHED2
 48
5.0
370
     0
100
AcDbVertex
100
AcDb2dVertex
 10
30261.89863527043
 20
26059.38776233758
 30
0.0
  0
VERTEX
  5
54EA7
330
54E82
100
AcDbEntity
  8
sink_label
  6
DASHED2
 48
5.0
370
     0
100
AcDbVertex
100
AcDb2dVertex
 10
30263.37851832599
 20
26058.07367441556
 30
0.0
  0
VERTEX
  5
54EA8
330
54E82
100
AcDbEntity
  8
sink_label
  6
DASHED2
 48
5.0
370
     0
100
AcDbVertex
100
AcDb2dVertex
 10
30264.71731402927
 20
26056.93420967963
 30
0.0
  0
VERTEX
  5
54EA9
330
54E82
100
AcDbEntity
  8
sink_label
  6
DASHED2
 48
5.0
370
     0
100
AcDbVertex
100
AcDb2dVertex
 10
30265.88676184617
 20
26055.99579845791
 30
0.0
  0
VERTEX
  5
54EAA
330
54E82
100
AcDbEntity
  8
sink_label
  6
DASHED2
 48
5.0
370
     0
100
AcDbVertex
100
AcDb2dVertex
 10
30266.86043144856
 20
26055.27792706155
 30
0.0
  0
VERTEX
  5
54EAB
330
54E82
100
AcDbEntity
  8
sink_label
  6
DASHED2
 48
5.0
370
     0
100
AcDbVertex
100
AcDb2dVertex
 10
30267.61539143161
 20
26054.79636756006
 30
0.0
  0
VERTEX
  5
54EAC
330
54E82
100
AcDbEntity
  8
sink_label
  6
DASHED2
 48
5.0
370
     0
100
AcDbVertex
100
AcDb2dVertex
 10
30268.13570823705
 20
26054.56355458845
 30
0.0
  0
VERTEX
  5
54EAD
330
54E82
100
AcDbEntity
  8
sink_label
  6
DASHED2
 48
5.0
370
     0
100
AcDbVertex
100
AcDb2dVertex
 10
30268.40910871861
 20
26054.58470961686
 30
0.0
  0
SEQEND
  5
54EAE
330
54E82
100
AcDbEntity
  8
sink_label
  6
DASHED2
 48
5.0
370
     0
  0
POLYLINE
  5
54EAF
330
52C18
100
AcDbEntity
  8
sink_label
  6
DASHED2
 48
5.0
370
     0
100
AcDb2dPolyline
 66
     1
 10
0.0
 20
0.0
 30
0.0
  0
VERTEX
  5
54EB0
330
54EAF
100
AcDbEntity
  8
sink_label
  6
DASHED2
 48
5.0
370
     0
100
AcDbVertex
100
AcDb2dVertex
 10
30668.3071322913
 20
25665.97372805538
 30
0.0
  0
VERTEX
  5
54EB1
330
54EAF
100
AcDbEntity
  8
sink_label
  6
DASHED2
 48
5.0
370
     0
100
AcDbVertex
100
AcDb2dVertex
 10
29954.30831728812
 20
25665.97372805538
 30
0.0
  0
SEQEND
  5
54EB2
330
54EAF
100
AcDbEntity
  8
sink_label
  6
DASHED2
 48
5.0
370
     0
  0
POLYLINE
  5
54EB3
330
52C18
100
AcDbEntity
  8
sink_label
  6
DASHED2
 48
5.0
370
     0
100
AcDb2dPolyline
 66
     1
 10
0.0
 20
0.0
 30
0.0
  0
VERTEX
  5
54EB4
330
54EB3
100
AcDbEntity
  8
sink_label
  6
DASHED2
 48
5.0
370
     0
100
AcDbVertex
100
AcDb2dVertex
 10
30708.30865335005
 20
25705.97344582291
 30
0.0
  0
VERTEX
  5
54EB5
330
54EB3
100
AcDbEntity
  8
sink_label
  6
DASHED2
 48
5.0
370
     0
100
AcDbVertex
100
AcDb2dVertex
 10
30708.11465151198
 20
25702.05231017045
 30
0.0
  0
VERTEX
  5
54EB6
330
54EB3
100
AcDbEntity
  8
sink_label
  6
DASHED2
 48
5.0
370
     0
100
AcDbVertex
100
AcDb2dVertex
 10
30707.53953618514
 20
25698.17001256631
 30
0.0
  0
VERTEX
  5
54EB7
330
54EB3
100
AcDbEntity
  8
sink_label
  6
DASHED2
 48
5.0
370
     0
100
AcDbVertex
100
AcDb2dVertex
 10
30706.5853528939
 20
25694.36178447638
 30
0.0
  0
VERTEX
  5
54EB8
330
54EB3
100
AcDbEntity
  8
sink_label
  6
DASHED2
 48
5.0
370
     0
100
AcDbVertex
100
AcDb2dVertex
 10
30705.26243691931
 20
25690.66643703418
 30
0.0
  0
VERTEX
  5
54EB9
330
54EB3
100
AcDbEntity
  8
sink_label
  6
DASHED2
 48
5.0
370
     0
100
AcDbVertex
100
AcDb2dVertex
 10
30703.58489161364
 20
25687.11745224395
 30
0.0
  0
VERTEX
  5
54EBA
330
54EB3
100
AcDbEntity
  8
sink_label
  6
DASHED2
 48
5.0
370
     0
100
AcDbVertex
100
AcDb2dVertex
 10
30701.56703564752
 20
25683.75019614555
 30
0.0
  0
VERTEX
  5
54EBB
330
54EB3
100
AcDbEntity
  8
sink_label
  6
DASHED2
 48
5.0
370
     0
100
AcDbVertex
100
AcDb2dVertex
 10
30699.22814001374
 20
25680.59815074321
 30
0.0
  0
VERTEX
  5
54EBC
330
54EB3
100
AcDbEntity
  8
sink_label
  6
DASHED2
 48
5.0
370
     0
100
AcDbVertex
100
AcDb2dVertex
 10
30696.59285866397
 20
25677.68946891188
 30
0.0
  0
VERTEX
  5
54EBD
330
54EB3
100
AcDbEntity
  8
sink_label
  6
DASHED2
 48
5.0
370
     0
100
AcDbVertex
100
AcDb2dVertex
 10
30693.68423066222
 20
25675.05246501527
 30
0.0
  0
VERTEX
  5
54EBE
330
54EB3
100
AcDbEntity
  8
sink_label
  6
DASHED2
 48
5.0
370
     0
100
AcDbVertex
100
AcDb2dVertex
 10
30690.53035505386
 20
25672.71356938148
 30
0.0
  0
VERTEX
  5
54EBF
330
54EB3
100
AcDbEntity
  8
sink_label
  6
DASHED2
 48
5.0
370
     0
100
AcDbVertex
100
AcDb2dVertex
 10
30687.16309895546
 20
25670.69565958577
 30
0.0
  0
VERTEX
  5
54EC0
330
54EB3
100
AcDbEntity
  8
sink_label
  6
DASHED2
 48
5.0
370
     0
100
AcDbVertex
100
AcDb2dVertex
 10
30683.61594437126
 20
25669.01822193928
 30
0.0
  0
VERTEX
  5
54EC1
330
54EB3
100
AcDbEntity
  8
sink_label
  6
DASHED2
 48
5.0
370
     0
100
AcDbVertex
100
AcDb2dVertex
 10
30679.91882055262
 20
25667.6953059647
 30
0.0
  0
VERTEX
  5
54EC2
330
54EB3
100
AcDbEntity
  8
sink_label
  6
DASHED2
 48
5.0
370
     0
100
AcDbVertex
100
AcDb2dVertex
 10
30676.11242266871
 20
25666.74106884387
 30
0.0
  0
VERTEX
  5
54EC3
330
54EB3
100
AcDbEntity
  8
sink_label
  6
DASHED2
 48
5.0
370
     0
100
AcDbVertex
100
AcDb2dVertex
 10
30672.22829485856
 20
25666.16600734661
 30
0.0
  0
VERTEX
  5
54EC4
330
54EB3
100
AcDbEntity
  8
sink_label
  6
DASHED2
 48
5.0
370
     0
100
AcDbVertex
100
AcDb2dVertex
 10
30668.3071322913
 20
25665.97372805538
 30
0.0
  0
SEQEND
  5
54EC5
330
54EB3
100
AcDbEntity
  8
sink_label
  6
DASHED2
 48
5.0
370
     0
  0
POLYLINE
  5
54EC6
330
52C18
100
AcDbEntity
  8
sink_label
  6
DASHED2
 48
5.0
370
     0
100
AcDb2dPolyline
 66
     1
 10
0.0
 20
0.0
 30
0.0
  0
VERTEX
  5
54EC7
330
54EC6
100
AcDbEntity
  8
sink_label
  6
DASHED2
 48
5.0
370
     0
100
AcDbVertex
100
AcDb2dVertex
 10
29954.30831728812
 20
25665.97372805538
 30
0.0
  0
VERTEX
  5
54EC8
330
54EC6
100
AcDbEntity
  8
sink_label
  6
DASHED2
 48
5.0
370
     0
100
AcDbVertex
100
AcDb2dVertex
 10
29950.38718163566
 20
25666.16600734661
 30
0.0
  0
VERTEX
  5
54EC9
330
54EC6
100
AcDbEntity
  8
sink_label
  6
DASHED2
 48
5.0
370
     0
100
AcDbVertex
100
AcDb2dVertex
 10
29946.50485711673
 20
25666.74106884387
 30
0.0
  0
VERTEX
  5
54ECA
330
54EC6
100
AcDbEntity
  8
sink_label
  6
DASHED2
 48
5.0
370
     0
100
AcDbVertex
100
AcDb2dVertex
 10
29942.69662902679
 20
25667.6953059647
 30
0.0
  0
VERTEX
  5
54ECB
330
54EC6
100
AcDbEntity
  8
sink_label
  6
DASHED2
 48
5.0
370
     0
100
AcDbVertex
100
AcDb2dVertex
 10
29939.00128158459
 20
25669.01822193928
 30
0.0
  0
VERTEX
  5
54ECC
330
54EC6
100
AcDbEntity
  8
sink_label
  6
DASHED2
 48
5.0
370
     0
100
AcDbVertex
100
AcDb2dVertex
 10
29935.45235062396
 20
25670.69565958577
 30
0.0
  0
VERTEX
  5
54ECD
330
54EC6
100
AcDbEntity
  8
sink_label
  6
DASHED2
 48
5.0
370
     0
100
AcDbVertex
100
AcDb2dVertex
 10
29932.08506761076
 20
25672.71356938148
 30
0.0
  0
VERTEX
  5
54ECE
330
54EC6
100
AcDbEntity
  8
sink_label
  6
DASHED2
 48
5.0
370
     0
100
AcDbVertex
100
AcDb2dVertex
 10
29928.93302220842
 20
25675.05246501527
 30
0.0
  0
VERTEX
  5
54ECF
330
54EC6
100
AcDbEntity
  8
sink_label
  6
DASHED2
 48
5.0
370
     0
100
AcDbVertex
100
AcDb2dVertex
 10
29926.02436729188
 20
25677.68946891188
 30
0.0
  0
VERTEX
  5
54ED0
330
54EC6
100
AcDbEntity
  8
sink_label
  6
DASHED2
 48
5.0
370
     0
100
AcDbVertex
100
AcDb2dVertex
 10
29923.38733648047
 20
25680.59815074321
 30
0.0
  0
VERTEX
  5
54ED1
330
54EC6
100
AcDbEntity
  8
sink_label
  6
DASHED2
 48
5.0
370
     0
100
AcDbVertex
100
AcDb2dVertex
 10
29921.05019030832
 20
25683.75019614555
 30
0.0
  0
VERTEX
  5
54ED2
330
54EC6
100
AcDbEntity
  8
sink_label
  6
DASHED2
 48
5.0
370
     0
100
AcDbVertex
100
AcDb2dVertex
 10
29919.03230742741
 20
25687.11745224395
 30
0.0
  0
VERTEX
  5
54ED3
330
54EC6
100
AcDbEntity
  8
sink_label
  6
DASHED2
 48
5.0
370
     0
100
AcDbVertex
100
AcDb2dVertex
 10
29917.35309340449
 20
25690.66643703418
 30
0.0
  0
VERTEX
  5
54ED4
330
54EC6
100
AcDbEntity
  8
sink_label
  6
DASHED2
 48
5.0
370
     0
100
AcDbVertex
100
AcDb2dVertex
 10
29916.0301774299
 20
25694.36178447638
 30
0.0
  0
VERTEX
  5
54ED5
330
54EC6
100
AcDbEntity
  8
sink_label
  6
DASHED2
 48
5.0
370
     0
100
AcDbVertex
100
AcDb2dVertex
 10
29915.07766285591
 20
25698.17001256631
 30
0.0
  0
VERTEX
  5
54ED6
330
54EC6
100
AcDbEntity
  8
sink_label
  6
DASHED2
 48
5.0
370
     0
100
AcDbVertex
100
AcDb2dVertex
 10
29914.50087881182
 20
25702.05231017045
 30
0.0
  0
VERTEX
  5
54ED7
330
54EC6
100
AcDbEntity
  8
sink_label
  6
DASHED2
 48
5.0
370
     0
100
AcDbVertex
100
AcDb2dVertex
 10
29914.30862643539
 20
25705.97344582291
 30
0.0
  0
SEQEND
  5
54ED8
330
54EC6
100
AcDbEntity
  8
sink_label
  6
DASHED2
 48
5.0
370
     0
  0
POLYLINE
  5
54ED9
330
52C18
100
AcDbEntity
  8
sink_label
  6
DASHED2
 48
5.0
370
     0
100
AcDb2dPolyline
 66
     1
 10
0.0
 20
0.0
 30
0.0
  0
VERTEX
  5
54EDA
330
54ED9
100
AcDbEntity
  8
sink_label
  6
DASHED2
 48
5.0
370
     0
100
AcDbVertex
100
AcDb2dVertex
 10
30708.30865335005
 20
26115.97331843519
 30
0.0
  0
VERTEX
  5
54EDB
330
54ED9
100
AcDbEntity
  8
sink_label
  6
DASHED2
 48
5.0
370
     0
100
AcDbVertex
100
AcDb2dVertex
 10
30708.30865335005
 20
25705.97344582291
 30
0.0
  0
SEQEND
  5
54EDC
330
54ED9
100
AcDbEntity
  8
sink_label
  6
DASHED2
 48
5.0
370
     0
  0
POLYLINE
  5
54EDD
330
52C18
100
AcDbEntity
  8
sink_label
  6
DASHED2
 48
5.0
370
     0
100
AcDb2dPolyline
 66
     1
 10
0.0
 20
0.0
 30
0.0
  0
VERTEX
  5
54EDE
330
54EDD
100
AcDbEntity
  8
sink_label
  6
DASHED2
 48
5.0
370
     0
100
AcDbVertex
100
AcDb2dVertex
 10
29914.30862643539
 20
25705.97344582291
 30
0.0
  0
VERTEX
  5
54EDF
330
54EDD
100
AcDbEntity
  8
sink_label
  6
DASHED2
 48
5.0
370
     0
100
AcDbVertex
100
AcDb2dVertex
 10
29914.30862643539
 20
26115.97331843519
 30
0.0
  0
SEQEND
  5
54EE0
330
54EDD
100
AcDbEntity
  8
sink_label
  6
DASHED2
 48
5.0
370
     0
  0
POLYLINE
  5
54EE1
330
52C18
100
AcDbEntity
  8
sink_label
  6
DASHED2
 48
5.0
370
     0
100
AcDb2dPolyline
 66
     1
 10
0.0
 20
0.0
 30
0.0
  0
VERTEX
  5
54EE2
330
54EE1
100
AcDbEntity
  8
sink_label
  6
DASHED2
 48
5.0
370
     0
100
AcDbVertex
100
AcDb2dVertex
 10
30668.3071322913
 20
26155.97300928792
 30
0.0
  0
VERTEX
  5
54EE3
330
54EE1
100
AcDbEntity
  8
sink_label
  6
DASHED2
 48
5.0
370
     0
100
AcDbVertex
100
AcDb2dVertex
 10
30672.22829485856
 20
26155.7807299967
 30
0.0
  0
VERTEX
  5
54EE4
330
54EE1
100
AcDbEntity
  8
sink_label
  6
DASHED2
 48
5.0
370
     0
100
AcDbVertex
100
AcDb2dVertex
 10
30676.11242266871
 20
26155.2039459526
 30
0.0
  0
VERTEX
  5
54EE5
330
54EE1
100
AcDbEntity
  8
sink_label
  6
DASHED2
 48
5.0
370
     0
100
AcDbVertex
100
AcDb2dVertex
 10
30679.91882055262
 20
26154.24965500218
 30
0.0
  0
VERTEX
  5
54EE6
330
54EE1
100
AcDbEntity
  8
sink_label
  6
DASHED2
 48
5.0
370
     0
100
AcDbVertex
100
AcDb2dVertex
 10
30683.61594437126
 20
26152.92851540402
 30
0.0
  0
VERTEX
  5
54EE7
330
54EE1
100
AcDbEntity
  8
sink_label
  6
DASHED2
 48
5.0
370
     0
100
AcDbVertex
100
AcDb2dVertex
 10
30687.16309895546
 20
26151.2493013811
 30
0.0
  0
VERTEX
  5
54EE8
330
54EE1
100
AcDbEntity
  8
sink_label
  6
DASHED2
 48
5.0
370
     0
100
AcDbVertex
100
AcDb2dVertex
 10
30690.53035505386
 20
26149.23139158539
 30
0.0
  0
VERTEX
  5
54EE9
330
54EE1
100
AcDbEntity
  8
sink_label
  6
DASHED2
 48
5.0
370
     0
100
AcDbVertex
100
AcDb2dVertex
 10
30693.68423066222
 20
26146.89249595161
 30
0.0
  0
VERTEX
  5
54EEA
330
54EE1
100
AcDbEntity
  8
sink_label
  6
DASHED2
 48
5.0
370
     0
100
AcDbVertex
100
AcDb2dVertex
 10
30696.59285866397
 20
26144.25721460184
 30
0.0
  0
VERTEX
  5
54EEB
330
54EE1
100
AcDbEntity
  8
sink_label
  6
DASHED2
 48
5.0
370
     0
100
AcDbVertex
100
AcDb2dVertex
 10
30699.22814001374
 20
26141.3485866001
 30
0.0
  0
VERTEX
  5
54EEC
330
54EE1
100
AcDbEntity
  8
sink_label
  6
DASHED2
 48
5.0
370
     0
100
AcDbVertex
100
AcDb2dVertex
 10
30701.56703564752
 20
26138.19654119776
 30
0.0
  0
VERTEX
  5
54EED
330
54EE1
100
AcDbEntity
  8
sink_label
  6
DASHED2
 48
5.0
370
     0
100
AcDbVertex
100
AcDb2dVertex
 10
30703.58489161364
 20
26134.82923126976
 30
0.0
  0
VERTEX
  5
54EEE
330
54EE1
100
AcDbEntity
  8
sink_label
  6
DASHED2
 48
5.0
370
     0
100
AcDbVertex
100
AcDb2dVertex
 10
30705.26243691931
 20
26131.28030030912
 30
0.0
  0
VERTEX
  5
54EEF
330
54EE1
100
AcDbEntity
  8
sink_label
  6
DASHED2
 48
5.0
370
     0
100
AcDbVertex
100
AcDb2dVertex
 10
30706.5853528939
 20
26127.58495286692
 30
0.0
  0
VERTEX
  5
54EF0
330
54EE1
100
AcDbEntity
  8
sink_label
  6
DASHED2
 48
5.0
370
     0
100
AcDbVertex
100
AcDb2dVertex
 10
30707.53953618514
 20
26123.77672477699
 30
0.0
  0
VERTEX
  5
54EF1
330
54EE1
100
AcDbEntity
  8
sink_label
  6
DASHED2
 48
5.0
370
     0
100
AcDbVertex
100
AcDb2dVertex
 10
30708.11465151198
 20
26119.89442717286
 30
0.0
  0
VERTEX
  5
54EF2
330
54EE1
100
AcDbEntity
  8
sink_label
  6
DASHED2
 48
5.0
370
     0
100
AcDbVertex
100
AcDb2dVertex
 10
30708.30865335005
 20
26115.97331843519
 30
0.0
  0
SEQEND
  5
54EF3
330
54EE1
100
AcDbEntity
  8
sink_label
  6
DASHED2
 48
5.0
370
     0
  0
POLYLINE
  5
54EF4
330
52C18
100
AcDbEntity
  8
sink_label
  6
DASHED2
 48
5.0
370
     0
100
AcDb2dPolyline
 66
     1
 10
0.0
 20
0.0
 30
0.0
  0
VERTEX
  5
54EF5
330
54EF4
100
AcDbEntity
  8
sink_label
  6
DASHED2
 48
5.0
370
     0
100
AcDbVertex
100
AcDb2dVertex
 10
29914.30862643539
 20
26115.97331843519
 30
0.0
  0
VERTEX
  5
54EF6
330
54EF4
100
AcDbEntity
  8
sink_label
  6
DASHED2
 48
5.0
370
     0
100
AcDbVertex
100
AcDb2dVertex
 10
29914.50087881182
 20
26119.89442717286
 30
0.0
  0
VERTEX
  5
54EF7
330
54EF4
100
AcDbEntity
  8
sink_label
  6
DASHED2
 48
5.0
370
     0
100
AcDbVertex
100
AcDb2dVertex
 10
29915.07766285591
 20
26123.77672477699
 30
0.0
  0
VERTEX
  5
54EF8
330
54EF4
100
AcDbEntity
  8
sink_label
  6
DASHED2
 48
5.0
370
     0
100
AcDbVertex
100
AcDb2dVertex
 10
29916.0301774299
 20
26127.58495286692
 30
0.0
  0
VERTEX
  5
54EF9
330
54EF4
100
AcDbEntity
  8
sink_label
  6
DASHED2
 48
5.0
370
     0
100
AcDbVertex
100
AcDb2dVertex
 10
29917.35309340449
 20
26131.28030030912
 30
0.0
  0
VERTEX
  5
54EFA
330
54EF4
100
AcDbEntity
  8
sink_label
  6
DASHED2
 48
5.0
370
     0
100
AcDbVertex
100
AcDb2dVertex
 10
29919.03230742741
 20
26134.82923126976
 30
0.0
  0
VERTEX
  5
54EFB
330
54EF4
100
AcDbEntity
  8
sink_label
  6
DASHED2
 48
5.0
370
     0
100
AcDbVertex
100
AcDb2dVertex
 10
29921.05019030832
 20
26138.19654119776
 30
0.0
  0
VERTEX
  5
54EFC
330
54EF4
100
AcDbEntity
  8
sink_label
  6
DASHED2
 48
5.0
370
     0
100
AcDbVertex
100
AcDb2dVertex
 10
29923.38733648047
 20
26141.3485866001
 30
0.0
  0
VERTEX
  5
54EFD
330
54EF4
100
AcDbEntity
  8
sink_label
  6
DASHED2
 48
5.0
370
     0
100
AcDbVertex
100
AcDb2dVertex
 10
29926.02436729188
 20
26144.25721460184
 30
0.0
  0
VERTEX
  5
54EFE
330
54EF4
100
AcDbEntity
  8
sink_label
  6
DASHED2
 48
5.0
370
     0
100
AcDbVertex
100
AcDb2dVertex
 10
29928.93302220842
 20
26146.89249595161
 30
0.0
  0
VERTEX
  5
54EFF
330
54EF4
100
AcDbEntity
  8
sink_label
  6
DASHED2
 48
5.0
370
     0
100
AcDbVertex
100
AcDb2dVertex
 10
29932.08506761076
 20
26149.23139158539
 30
0.0
  0
VERTEX
  5
54F00
330
54EF4
100
AcDbEntity
  8
sink_label
  6
DASHED2
 48
5.0
370
     0
100
AcDbVertex
100
AcDb2dVertex
 10
29935.45235062396
 20
26151.2493013811
 30
0.0
  0
VERTEX
  5
54F01
330
54EF4
100
AcDbEntity
  8
sink_label
  6
DASHED2
 48
5.0
370
     0
100
AcDbVertex
100
AcDb2dVertex
 10
29939.00128158459
 20
26152.92851540402
 30
0.0
  0
VERTEX
  5
54F02
330
54EF4
100
AcDbEntity
  8
sink_label
  6
DASHED2
 48
5.0
370
     0
100
AcDbVertex
100
AcDb2dVertex
 10
29942.69662902679
 20
26154.24965500218
 30
0.0
  0
VERTEX
  5
54F03
330
54EF4
100
AcDbEntity
  8
sink_label
  6
DASHED2
 48
5.0
370
     0
100
AcDbVertex
100
AcDb2dVertex
 10
29946.50485711673
 20
26155.2039459526
 30
0.0
  0
VERTEX
  5
54F04
330
54EF4
100
AcDbEntity
  8
sink_label
  6
DASHED2
 48
5.0
370
     0
100
AcDbVertex
100
AcDb2dVertex
 10
29950.38718163566
 20
26155.7807299967
 30
0.0
  0
VERTEX
  5
54F05
330
54EF4
100
AcDbEntity
  8
sink_label
  6
DASHED2
 48
5.0
370
     0
100
AcDbVertex
100
AcDb2dVertex
 10
29954.30831728812
 20
26155.97300928792
 30
0.0
  0
SEQEND
  5
54F06
330
54EF4
100
AcDbEntity
  8
sink_label
  6
DASHED2
 48
5.0
370
     0
  0
POLYLINE
  5
54F07
330
52C18
100
AcDbEntity
  8
sink_label
  6
DASHED2
 48
5.0
370
     0
100
AcDb2dPolyline
 66
     1
 10
0.0
 20
0.0
 30
0.0
  0
VERTEX
  5
54F08
330
54F07
100
AcDbEntity
  8
sink_label
  6
DASHED2
 48
5.0
370
     0
100
AcDbVertex
100
AcDb2dVertex
 10
29954.30831728812
 20
26155.97300928792
 30
0.0
  0
VERTEX
  5
54F09
330
54F07
100
AcDbEntity
  8
sink_label
  6
DASHED2
 48
5.0
370
     0
100
AcDbVertex
100
AcDb2dVertex
 10
30668.3071322913
 20
26155.97300928792
 30
0.0
  0
SEQEND
  5
54F0A
330
54F07
100
AcDbEntity
  8
sink_label
  6
DASHED2
 48
5.0
370
     0
  0
CIRCLE
  5
54F0B
330
52C18
100
AcDbEntity
  8
sink_label
  6
DASHED2
 48
5.0
370
     0
100
AcDbCircle
 10
30311.30811505423
 20
26084.90955464322
 30
0.0
 40
17.50000000000002
  0
POLYLINE
  5
54F0C
330
52C18
100
AcDbEntity
  8
sink_label
  6
DASHED2
 48
5.0
370
     0
100
AcDb2dPolyline
 66
     1
 10
0.0
 20
0.0
 30
0.0
 70
     1
  0
VERTEX
  5
54F0D
330
54F0C
100
AcDbEntity
  8
sink_label
  6
DASHED2
 48
5.0
370
     0
100
AcDbVertex
100
AcDb2dVertex
 10
30137.8160939276
 20
26005.92106700077
 30
0.0
  0
VERTEX
  5
54F0E
330
54F0C
100
AcDbEntity
  8
sink_label
  6
DASHED2
 48
5.0
370
     0
100
AcDbVertex
100
AcDb2dVertex
 10
30137.99382023996
 20
26001.94352275279
 30
0.0
  0
VERTEX
  5
54F0F
330
54F0C
100
AcDbEntity
  8
sink_label
  6
DASHED2
 48
5.0
370
     0
100
AcDbVertex
100
AcDb2dVertex
 10
30138.51818630222
 20
25997.9953547548
 30
0.0
  0
VERTEX
  5
54F10
330
54F0C
100
AcDbEntity
  8
sink_label
  6
DASHED2
 48
5.0
370
     0
100
AcDbVertex
100
AcDb2dVertex
 10
30139.39212973934
 20
25994.11181450678
 30
0.0
  0
VERTEX
  5
54F11
330
54F0C
100
AcDbEntity
  8
sink_label
  6
DASHED2
 48
5.0
370
     0
100
AcDbVertex
100
AcDb2dVertex
 10
30140.6068376762
 20
25990.3222782587
 30
0.0
  0
VERTEX
  5
54F12
330
54F0C
100
AcDbEntity
  8
sink_label
  6
DASHED2
 48
5.0
370
     0
100
AcDbVertex
100
AcDb2dVertex
 10
30142.1505596129
 20
25986.65318463557
 30
0.0
  0
VERTEX
  5
54F13
330
54F0C
100
AcDbEntity
  8
sink_label
  6
DASHED2
 48
5.0
370
     0
100
AcDbVertex
100
AcDb2dVertex
 10
30144.01301386196
 20
25983.13390988736
 30
0.0
  0
VERTEX
  5
54F14
330
54F0C
100
AcDbEntity
  8
sink_label
  6
DASHED2
 48
5.0
370
     0
100
AcDbVertex
100
AcDb2dVertex
 10
30146.17657467333
 20
25979.79383026406
 30
0.0
  0
VERTEX
  5
54F15
330
54F0C
100
AcDbEntity
  8
sink_label
  6
DASHED2
 48
5.0
370
     0
100
AcDbVertex
100
AcDb2dVertex
 10
30148.62949154707
 20
25976.65644676566
 30
0.0
  0
VERTEX
  5
54F16
330
54F0C
100
AcDbEntity
  8
sink_label
  6
DASHED2
 48
5.0
370
     0
100
AcDbVertex
100
AcDb2dVertex
 10
30151.35120110819
 20
25973.75113564214
 30
0.0
  0
VERTEX
  5
54F17
330
54F0C
100
AcDbEntity
  8
sink_label
  6
DASHED2
 48
5.0
370
     0
100
AcDbVertex
100
AcDb2dVertex
 10
30154.31526473165
 20
25971.09552264349
 30
0.0
  0
VERTEX
  5
54F18
330
54F0C
100
AcDbEntity
  8
sink_label
  6
DASHED2
 48
5.0
370
     0
100
AcDbVertex
100
AcDb2dVertex
 10
30157.50405666756
 20
25968.7131087697
 30
0.0
  0
VERTEX
  5
54F19
330
54F0C
100
AcDbEntity
  8
sink_label
  6
DASHED2
 48
5.0
370
     0
100
AcDbVertex
100
AcDb2dVertex
 10
30160.89260710334
 20
25966.62151977076
 30
0.0
  0
VERTEX
  5
54F1A
330
54F0C
100
AcDbEntity
  8
sink_label
  6
DASHED2
 48
5.0
370
     0
100
AcDbVertex
100
AcDb2dVertex
 10
30164.45007097651
 20
25964.83838139667
 30
0.0
  0
VERTEX
  5
54F1B
330
54F0C
100
AcDbEntity
  8
sink_label
  6
DASHED2
 48
5.0
370
     0
100
AcDbVertex
100
AcDb2dVertex
 10
30168.15441609966
 20
25963.37544414741
 30
0.0
  0
VERTEX
  5
54F1C
330
54F0C
100
AcDbEntity
  8
sink_label
  6
DASHED2
 48
5.0
370
     0
100
AcDbVertex
100
AcDb2dVertex
 10
30171.97039097274
 20
25962.24739614799
 30
0.0
  0
VERTEX
  5
54F1D
330
54F0C
100
AcDbEntity
  8
sink_label
  6
DASHED2
 48
5.0
370
     0
100
AcDbVertex
100
AcDb2dVertex
 10
30175.87155697076
 20
25961.46011264839
 30
0.0
  0
VERTEX
  5
54F1E
330
54F0C
100
AcDbEntity
  8
sink_label
  6
DASHED2
 48
5.0
370
     0
100
AcDbVertex
100
AcDb2dVertex
 10
30179.8314754687
 20
25961.01946889862
 30
0.0
  0
VERTEX
  5
54F1F
330
54F0C
100
AcDbEntity
  8
sink_label
  6
DASHED2
 48
5.0
370
     0
100
AcDbVertex
100
AcDb2dVertex
 10
30183.80901971675
 20
25960.93134014866
 30
0.0
  0
VERTEX
  5
54F20
330
54F0C
100
AcDbEntity
  8
sink_label
  6
DASHED2
 48
5.0
370
     0
100
AcDbVertex
100
AcDb2dVertex
 10
30187.78362633969
 20
25961.19278877352
 30
0.0
  0
VERTEX
  5
54F21
330
54F0C
100
AcDbEntity
  8
sink_label
  6
DASHED2
 48
5.0
370
     0
100
AcDbVertex
100
AcDb2dVertex
 10
30191.71563740016
 20
25961.80675239822
 30
0.0
  0
VERTEX
  5
54F22
330
54F0C
100
AcDbEntity
  8
sink_label
  6
DASHED2
 48
5.0
370
     0
100
AcDbVertex
100
AcDb2dVertex
 10
30195.57861427317
 20
25962.76735577272
 30
0.0
  0
VERTEX
  5
54F23
330
54F0C
100
AcDbEntity
  8
sink_label
  6
DASHED2
 48
5.0
370
     0
100
AcDbVertex
100
AcDb2dVertex
 10
30199.3417118963
 20
25964.06872364706
 30
0.0
  0
VERTEX
  5
54F24
330
54F0C
100
AcDbEntity
  8
sink_label
  6
DASHED2
 48
5.0
370
     0
100
AcDbVertex
100
AcDb2dVertex
 10
30202.97702283197
 20
25965.69029264624
 30
0.0
  0
VERTEX
  5
54F25
330
54F0C
100
AcDbEntity
  8
sink_label
  6
DASHED2
 48
5.0
370
     0
100
AcDbVertex
100
AcDb2dVertex
 10
30206.45370201767
 20
25967.62912514525
 30
0.0
  0
VERTEX
  5
54F26
330
54F0C
100
AcDbEntity
  8
sink_label
  6
DASHED2
 48
5.0
370
     0
100
AcDbVertex
100
AcDb2dVertex
 10
30209.7453108285
 20
25969.87053301912
 30
0.0
  0
VERTEX
  5
54F27
330
54F0C
100
AcDbEntity
  8
sink_label
  6
DASHED2
 48
5.0
370
     0
100
AcDbVertex
100
AcDb2dVertex
 10
30212.82394182694
 20
25972.39101526782
 30
0.0
  0
VERTEX
  5
54F28
330
54F0C
100
AcDbEntity
  8
sink_label
  6
DASHED2
 48
5.0
370
     0
100
AcDbVertex
100
AcDb2dVertex
 10
30215.67196926294
 20
25975.17588376641
 30
0.0
  0
VERTEX
  5
54F29
330
54F0C
100
AcDbEntity
  8
sink_label
  6
DASHED2
 48
5.0
370
     0
100
AcDbVertex
100
AcDb2dVertex
 10
30218.26001688669
 20
25978.19869988987
 30
0.0
  0
VERTEX
  5
54F2A
330
54F0C
100
AcDbEntity
  8
sink_label
  6
DASHED2
 48
5.0
370
     0
100
AcDbVertex
100
AcDb2dVertex
 10
30220.5719277605
 20
25981.43890026322
 30
0.0
  0
VERTEX
  5
54F2B
330
54F0C
100
AcDbEntity
  8
sink_label
  6
DASHED2
 48
5.0
370
     0
100
AcDbVertex
100
AcDb2dVertex
 10
30222.58713850949
 20
25984.87298388648
 30
0.0
  0
VERTEX
  5
54F2C
330
54F0C
100
AcDbEntity
  8
sink_label
  6
DASHED2
 48
5.0
370
     0
100
AcDbVertex
100
AcDb2dVertex
 10
30224.29096100863
 20
25988.46863688465
 30
0.0
  0
VERTEX
  5
54F2D
330
54F0C
100
AcDbEntity
  8
sink_label
  6
DASHED2
 48
5.0
370
     0
100
AcDbVertex
100
AcDb2dVertex
 10
30225.67164475791
 20
25992.20529588275
 30
0.0
  0
VERTEX
  5
54F2E
330
54F0C
100
AcDbEntity
  8
sink_label
  6
DASHED2
 48
5.0
370
     0
100
AcDbVertex
100
AcDb2dVertex
 10
30226.71597044484
 20
25996.0447717558
 30
0.0
  0
VERTEX
  5
54F2F
330
54F0C
100
AcDbEntity
  8
sink_label
  6
DASHED2
 48
5.0
370
     0
100
AcDbVertex
100
AcDb2dVertex
 10
30227.416594007
 20
25999.9665011288
 30
0.0
  0
VERTEX
  5
54F30
330
54F0C
100
AcDbEntity
  8
sink_label
  6
DASHED2
 48
5.0
370
     0
100
AcDbVertex
100
AcDb2dVertex
 10
30227.7691090068
 20
26003.92935725178
 30
0.0
  0
VERTEX
  5
54F31
330
54F0C
100
AcDbEntity
  8
sink_label
  6
DASHED2
 48
5.0
370
     0
100
AcDbVertex
100
AcDb2dVertex
 10
30227.7691090068
 20
26007.90983912475
 30
0.0
  0
VERTEX
  5
54F32
330
54F0C
100
AcDbEntity
  8
sink_label
  6
DASHED2
 48
5.0
370
     0
100
AcDbVertex
100
AcDb2dVertex
 10
30227.416594007
 20
26011.87563287274
 30
0.0
  0
VERTEX
  5
54F33
330
54F0C
100
AcDbEntity
  8
sink_label
  6
DASHED2
 48
5.0
370
     0
100
AcDbVertex
100
AcDb2dVertex
 10
30226.71597044484
 20
26015.79442462075
 30
0.0
  0
VERTEX
  5
54F34
330
54F0C
100
AcDbEntity
  8
sink_label
  6
DASHED2
 48
5.0
370
     0
100
AcDbVertex
100
AcDb2dVertex
 10
30225.67164475791
 20
26019.6368381188
 30
0.0
  0
VERTEX
  5
54F35
330
54F0C
100
AcDbEntity
  8
sink_label
  6
DASHED2
 48
5.0
370
     0
100
AcDbVertex
100
AcDb2dVertex
 10
30224.29096100863
 20
26023.3705594919
 30
0.0
  0
VERTEX
  5
54F36
330
54F0C
100
AcDbEntity
  8
sink_label
  6
DASHED2
 48
5.0
370
     0
100
AcDbVertex
100
AcDb2dVertex
 10
30222.58713850949
 20
26026.96915011506
 30
0.0
  0
VERTEX
  5
54F37
330
54F0C
100
AcDbEntity
  8
sink_label
  6
DASHED2
 48
5.0
370
     0
100
AcDbVertex
100
AcDb2dVertex
 10
30220.5719277605
 20
26030.40029611332
 30
0.0
  0
VERTEX
  5
54F38
330
54F0C
100
AcDbEntity
  8
sink_label
  6
DASHED2
 48
5.0
370
     0
100
AcDbVertex
100
AcDb2dVertex
 10
30218.26001688669
 20
26033.64343411167
 30
0.0
  0
VERTEX
  5
54F39
330
54F0C
100
AcDbEntity
  8
sink_label
  6
DASHED2
 48
5.0
370
     0
100
AcDbVertex
100
AcDb2dVertex
 10
30215.67196926294
 20
26036.66625023512
 30
0.0
  0
VERTEX
  5
54F3A
330
54F0C
100
AcDbEntity
  8
sink_label
  6
DASHED2
 48
5.0
370
     0
100
AcDbVertex
100
AcDb2dVertex
 10
30212.82394182694
 20
26039.45111873371
 30
0.0
  0
VERTEX
  5
54F3B
330
54F0C
100
AcDbEntity
  8
sink_label
  6
DASHED2
 48
5.0
370
     0
100
AcDbVertex
100
AcDb2dVertex
 10
30209.7453108285
 20
26041.97453860743
 30
0.0
  0
VERTEX
  5
54F3C
330
54F0C
100
AcDbEntity
  8
sink_label
  6
DASHED2
 48
5.0
370
     0
100
AcDbVertex
100
AcDb2dVertex
 10
30206.45370201767
 20
26044.21007123129
 30
0.0
  0
VERTEX
  5
54F3D
330
54F0C
100
AcDbEntity
  8
sink_label
  6
DASHED2
 48
5.0
370
     0
100
AcDbVertex
100
AcDb2dVertex
 10
30202.97702283197
 20
26046.15184135531
 30
0.0
  0
VERTEX
  5
54F3E
330
54F0C
100
AcDbEntity
  8
sink_label
  6
DASHED2
 48
5.0
370
     0
100
AcDbVertex
100
AcDb2dVertex
 10
30199.3417118963
 20
26047.77341035448
 30
0.0
  0
VERTEX
  5
54F3F
330
54F0C
100
AcDbEntity
  8
sink_label
  6
DASHED2
 48
5.0
370
     0
100
AcDbVertex
100
AcDb2dVertex
 10
30195.57861427317
 20
26049.07184060381
 30
0.0
  0
VERTEX
  5
54F40
330
54F0C
100
AcDbEntity
  8
sink_label
  6
DASHED2
 48
5.0
370
     0
100
AcDbVertex
100
AcDb2dVertex
 10
30191.71563740016
 20
26050.02950635333
 30
0.0
  0
VERTEX
  5
54F41
330
54F0C
100
AcDbEntity
  8
sink_label
  6
DASHED2
 48
5.0
370
     0
100
AcDbVertex
100
AcDb2dVertex
 10
30187.78362633969
 20
26050.64640760302
 30
0.0
  0
VERTEX
  5
54F42
330
54F0C
100
AcDbEntity
  8
sink_label
  6
DASHED2
 48
5.0
370
     0
100
AcDbVertex
100
AcDb2dVertex
 10
30183.80901971675
 20
26050.90785622788
 30
0.0
  0
VERTEX
  5
54F43
330
54F0C
100
AcDbEntity
  8
sink_label
  6
DASHED2
 48
5.0
370
     0
100
AcDbVertex
100
AcDb2dVertex
 10
30179.8314754687
 20
26050.81972747793
 30
0.0
  0
VERTEX
  5
54F44
330
54F0C
100
AcDbEntity
  8
sink_label
  6
DASHED2
 48
5.0
370
     0
100
AcDbVertex
100
AcDb2dVertex
 10
30175.87155697076
 20
26050.38202135315
 30
0.0
  0
VERTEX
  5
54F45
330
54F0C
100
AcDbEntity
  8
sink_label
  6
DASHED2
 48
5.0
370
     0
100
AcDbVertex
100
AcDb2dVertex
 10
30171.97039097274
 20
26049.59473785355
 30
0.0
  0
VERTEX
  5
54F46
330
54F0C
100
AcDbEntity
  8
sink_label
  6
DASHED2
 48
5.0
370
     0
100
AcDbVertex
100
AcDb2dVertex
 10
30168.15441609966
 20
26048.46375222913
 30
0.0
  0
VERTEX
  5
54F47
330
54F0C
100
AcDbEntity
  8
sink_label
  6
DASHED2
 48
5.0
370
     0
100
AcDbVertex
100
AcDb2dVertex
 10
30164.45007097651
 20
26047.00375260487
 30
0.0
  0
VERTEX
  5
54F48
330
54F0C
100
AcDbEntity
  8
sink_label
  6
DASHED2
 48
5.0
370
     0
100
AcDbVertex
100
AcDb2dVertex
 10
30160.89260710334
 20
26045.21767660577
 30
0.0
  0
VERTEX
  5
54F49
330
54F0C
100
AcDbEntity
  8
sink_label
  6
DASHED2
 48
5.0
370
     0
100
AcDbVertex
100
AcDb2dVertex
 10
30157.50405666756
 20
26043.12902523184
 30
0.0
  0
VERTEX
  5
54F4A
330
54F0C
100
AcDbEntity
  8
sink_label
  6
DASHED2
 48
5.0
370
     0
100
AcDbVertex
100
AcDb2dVertex
 10
30154.31526473165
 20
26040.74367373305
 30
0.0
  0
VERTEX
  5
54F4B
330
54F0C
100
AcDbEntity
  8
sink_label
  6
DASHED2
 48
5.0
370
     0
100
AcDbVertex
100
AcDb2dVertex
 10
30151.35120110819
 20
26038.0909983594
 30
0.0
  0
VERTEX
  5
54F4C
330
54F0C
100
AcDbEntity
  8
sink_label
  6
DASHED2
 48
5.0
370
     0
100
AcDbVertex
100
AcDb2dVertex
 10
30148.62949154707
 20
26035.18274961088
 30
0.0
  0
VERTEX
  5
54F4D
330
54F0C
100
AcDbEntity
  8
sink_label
  6
DASHED2
 48
5.0
370
     0
100
AcDbVertex
100
AcDb2dVertex
 10
30146.17657467333
 20
26032.04536611248
 30
0.0
  0
VERTEX
  5
54F4E
330
54F0C
100
AcDbEntity
  8
sink_label
  6
DASHED2
 48
5.0
370
     0
100
AcDbVertex
100
AcDb2dVertex
 10
30144.01301386196
 20
26028.70822411418
 30
0.0
  0
VERTEX
  5
54F4F
330
54F0C
100
AcDbEntity
  8
sink_label
  6
DASHED2
 48
5.0
370
     0
100
AcDbVertex
100
AcDb2dVertex
 10
30142.1505596129
 20
26025.18894936597
 30
0.0
  0
VERTEX
  5
54F50
330
54F0C
100
AcDbEntity
  8
sink_label
  6
DASHED2
 48
5.0
370
     0
100
AcDbVertex
100
AcDb2dVertex
 10
30140.6068376762
 20
26021.51985574283
 30
0.0
  0
VERTEX
  5
54F51
330
54F0C
100
AcDbEntity
  8
sink_label
  6
DASHED2
 48
5.0
370
     0
100
AcDbVertex
100
AcDb2dVertex
 10
30139.39212973934
 20
26017.72738186976
 30
0.0
  0
VERTEX
  5
54F52
330
54F0C
100
AcDbEntity
  8
sink_label
  6
DASHED2
 48
5.0
370
     0
100
AcDbVertex
100
AcDb2dVertex
 10
30138.51818630222
 20
26013.84384162175
 30
0.0
  0
VERTEX
  5
54F53
330
54F0C
100
AcDbEntity
  8
sink_label
  6
DASHED2
 48
5.0
370
     0
100
AcDbVertex
100
AcDb2dVertex
 10
30137.99382023996
 20
26009.89861124875
 30
0.0
  0
SEQEND
  5
54F54
330
54F0C
100
AcDbEntity
  8
sink_label
  6
DASHED2
 48
5.0
370
     0
  0
POLYLINE
  5
54F55
330
52C18
100
AcDbEntity
  8
sink_label
  6
DASHED2
 48
5.0
370
     0
100
AcDb2dPolyline
 66
     1
 10
0.0
 20
0.0
 30
0.0
 70
     1
  0
VERTEX
  5
54F56
330
54F55
100
AcDbEntity
  8
sink_label
  6
DASHED2
 48
5.0
370
     0
100
AcDbVertex
100
AcDb2dVertex
 10
30236.4233522524
 20
26005.92106700077
 30
0.0
  0
VERTEX
  5
54F57
330
54F55
100
AcDbEntity
  8
sink_label
  6
DASHED2
 48
5.0
370
     0
100
AcDbVertex
100
AcDb2dVertex
 10
30236.24415712751
 20
26010.28344012355
 30
0.0
  0
VERTEX
  5
54F58
330
54F55
100
AcDbEntity
  8
sink_label
  6
DASHED2
 48
5.0
370
     0
100
AcDbVertex
100
AcDb2dVertex
 10
30235.7109781903
 20
26014.61643699634
 30
0.0
  0
VERTEX
  5
54F59
330
54F55
100
AcDbEntity
  8
sink_label
  6
DASHED2
 48
5.0
370
     0
100
AcDbVertex
100
AcDb2dVertex
 10
30234.82675306575
 20
26018.89361899417
 30
0.0
  0
VERTEX
  5
54F5A
330
54F55
100
AcDbEntity
  8
sink_label
  6
DASHED2
 48
5.0
370
     0
100
AcDbVertex
100
AcDb2dVertex
 10
30233.59735700383
 20
26023.08560986704
 30
0.0
  0
VERTEX
  5
54F5B
330
54F55
100
AcDbEntity
  8
sink_label
  6
DASHED2
 48
5.0
370
     0
100
AcDbVertex
100
AcDb2dVertex
 10
30232.02719644213
 20
26027.16303336496
 30
0.0
  0
VERTEX
  5
54F5C
330
54F55
100
AcDbEntity
  8
sink_label
  6
DASHED2
 48
5.0
370
     0
100
AcDbVertex
100
AcDb2dVertex
 10
30230.13242831815
 20
26031.09651323797
 30
0.0
  0
VERTEX
  5
54F5D
330
54F55
100
AcDbEntity
  8
sink_label
  6
DASHED2
 48
5.0
370
     0
100
AcDbVertex
100
AcDb2dVertex
 10
30227.92480313178
 20
26034.86548611105
 30
0.0
  0
VERTEX
  5
54F5E
330
54F55
100
AcDbEntity
  8
sink_label
  6
DASHED2
 48
5.0
370
     0
100
AcDbVertex
100
AcDb2dVertex
 10
30225.41460257053
 20
26038.44057573422
 30
0.0
  0
VERTEX
  5
54F5F
330
54F55
100
AcDbEntity
  8
sink_label
  6
DASHED2
 48
5.0
370
     0
100
AcDbVertex
100
AcDb2dVertex
 10
30222.62239000947
 20
26041.79828110752
 30
0.0
  0
VERTEX
  5
54F60
330
54F55
100
AcDbEntity
  8
sink_label
  6
DASHED2
 48
5.0
370
     0
100
AcDbVertex
100
AcDb2dVertex
 10
30219.56726001104
 20
26044.91803885593
 30
0.0
  0
VERTEX
  5
54F61
330
54F55
100
AcDbEntity
  8
sink_label
  6
DASHED2
 48
5.0
370
     0
100
AcDbVertex
100
AcDb2dVertex
 10
30216.26536951266
 20
26047.77634797947
 30
0.0
  0
VERTEX
  5
54F62
330
54F55
100
AcDbEntity
  8
sink_label
  6
DASHED2
 48
5.0
370
     0
100
AcDbVertex
100
AcDb2dVertex
 10
30212.74462595192
 20
26050.35852035316
 30
0.0
  0
VERTEX
  5
54F63
330
54F55
100
AcDbEntity
  8
sink_label
  6
DASHED2
 48
5.0
370
     0
100
AcDbVertex
100
AcDb2dVertex
 10
30209.02265507891
 20
26052.641054977
 30
0.0
  0
VERTEX
  5
54F64
330
54F55
100
AcDbEntity
  8
sink_label
  6
DASHED2
 48
5.0
370
     0
100
AcDbVertex
100
AcDb2dVertex
 10
30205.12589551834
 20
26054.61807660099
 30
0.0
  0
VERTEX
  5
54F65
330
54F55
100
AcDbEntity
  8
sink_label
  6
DASHED2
 48
5.0
370
     0
100
AcDbVertex
100
AcDb2dVertex
 10
30201.08372352039
 20
26056.26902185016
 30
0.0
  0
VERTEX
  5
54F66
330
54F55
100
AcDbEntity
  8
sink_label
  6
DASHED2
 48
5.0
370
     0
100
AcDbVertex
100
AcDb2dVertex
 10
30196.91964008502
 20
26057.58507784949
 30
0.0
  0
VERTEX
  5
54F67
330
54F55
100
AcDbEntity
  8
sink_label
  6
DASHED2
 48
5.0
370
     0
100
AcDbVertex
100
AcDb2dVertex
 10
30192.66155264969
 20
26058.557431724
 30
0.0
  0
VERTEX
  5
54F68
330
54F55
100
AcDbEntity
  8
sink_label
  6
DASHED2
 48
5.0
370
     0
100
AcDbVertex
100
AcDb2dVertex
 10
30188.34030627687
 20
26059.18020822368
 30
0.0
  0
VERTEX
  5
54F69
330
54F55
100
AcDbEntity
  8
sink_label
  6
DASHED2
 48
5.0
370
     0
100
AcDbVertex
100
AcDb2dVertex
 10
30183.97940196662
 20
26059.44459447354
 30
0.0
  0
VERTEX
  5
54F6A
330
54F55
100
AcDbEntity
  8
sink_label
  6
DASHED2
 48
5.0
370
     0
100
AcDbVertex
100
AcDb2dVertex
 10
30179.61556003132
 20
26059.35646572358
 30
0.0
  0
VERTEX
  5
54F6B
330
54F55
100
AcDbEntity
  8
sink_label
  6
DASHED2
 48
5.0
370
     0
100
AcDbVertex
100
AcDb2dVertex
 10
30175.26934384601
 20
26058.90994672381
 30
0.0
  0
VERTEX
  5
54F6C
330
54F55
100
AcDbEntity
  8
sink_label
  6
DASHED2
 48
5.0
370
     0
100
AcDbVertex
100
AcDb2dVertex
 10
30170.97600491072
 20
26058.11385034922
 30
0.0
  0
VERTEX
  5
54F6D
330
54F55
100
AcDbEntity
  8
sink_label
  6
DASHED2
 48
5.0
370
     0
100
AcDbVertex
100
AcDb2dVertex
 10
30166.76198185038
 20
26056.9681765998
 30
0.0
  0
VERTEX
  5
54F6E
330
54F55
100
AcDbEntity
  8
sink_label
  6
DASHED2
 48
5.0
370
     0
100
AcDbVertex
100
AcDb2dVertex
 10
30162.65371328994
 20
26055.48467597556
 30
0.0
  0
VERTEX
  5
54F6F
330
54F55
100
AcDbEntity
  8
sink_label
  6
DASHED2
 48
5.0
370
     0
100
AcDbVertex
100
AcDb2dVertex
 10
30158.68351310445
 20
26053.66922372647
 30
0.0
  0
VERTEX
  5
54F70
330
54F55
100
AcDbEntity
  8
sink_label
  6
DASHED2
 48
5.0
370
     0
100
AcDbVertex
100
AcDb2dVertex
 10
30154.86900704395
 20
26051.53944560257
 30
0.0
  0
VERTEX
  5
54F71
330
54F55
100
AcDbEntity
  8
sink_label
  6
DASHED2
 48
5.0
370
     0
100
AcDbVertex
100
AcDb2dVertex
 10
30151.24544660823
 20
26049.1012168538
 30
0.0
  0
VERTEX
  5
54F72
330
54F55
100
AcDbEntity
  8
sink_label
  6
DASHED2
 48
5.0
370
     0
100
AcDbVertex
100
AcDb2dVertex
 10
30147.83192636003
 20
26046.38097610519
 30
0.0
  0
VERTEX
  5
54F73
330
54F55
100
AcDbEntity
  8
sink_label
  6
DASHED2
 48
5.0
370
     0
100
AcDbVertex
100
AcDb2dVertex
 10
30144.65047848661
 20
26043.38753623171
 30
0.0
  0
VERTEX
  5
54F74
330
54F55
100
AcDbEntity
  8
sink_label
  6
DASHED2
 48
5.0
370
     0
100
AcDbVertex
100
AcDb2dVertex
 10
30141.72607280058
 20
26040.14733585836
 30
0.0
  0
VERTEX
  5
54F75
330
54F55
100
AcDbEntity
  8
sink_label
  6
DASHED2
 48
5.0
370
     0
100
AcDbVertex
100
AcDb2dVertex
 10
30139.07339742698
 20
26036.67506311012
 30
0.0
  0
VERTEX
  5
54F76
330
54F55
100
AcDbEntity
  8
sink_label
  6
DASHED2
 48
5.0
370
     0
100
AcDbVertex
100
AcDb2dVertex
 10
30136.71154692816
 20
26033.003031862
 30
0.0
  0
VERTEX
  5
54F77
330
54F55
100
AcDbEntity
  8
sink_label
  6
DASHED2
 48
5.0
370
     0
100
AcDbVertex
100
AcDb2dVertex
 10
30134.65667824168
 20
26029.14886786396
 30
0.0
  0
VERTEX
  5
54F78
330
54F55
100
AcDbEntity
  8
sink_label
  6
DASHED2
 48
5.0
370
     0
100
AcDbVertex
100
AcDb2dVertex
 10
30132.92494830507
 20
26025.14194736599
 30
0.0
  0
VERTEX
  5
54F79
330
54F55
100
AcDbEntity
  8
sink_label
  6
DASHED2
 48
5.0
370
     0
100
AcDbVertex
100
AcDb2dVertex
 10
30131.52516999328
 20
26021.0028337431
 30
0.0
  0
VERTEX
  5
54F7A
330
54F55
100
AcDbEntity
  8
sink_label
  6
DASHED2
 48
5.0
370
     0
100
AcDbVertex
100
AcDb2dVertex
 10
30130.46468736883
 20
26016.76677849525
 30
0.0
  0
VERTEX
  5
54F7B
330
54F55
100
AcDbEntity
  8
sink_label
  6
DASHED2
 48
5.0
370
     0
100
AcDbVertex
100
AcDb2dVertex
 10
30129.75671974424
 20
26012.45728262245
 30
0.0
  0
VERTEX
  5
54F7C
330
54F55
100
AcDbEntity
  8
sink_label
  6
DASHED2
 48
5.0
370
     0
100
AcDbVertex
100
AcDb2dVertex
 10
30129.39979830687
 20
26008.10372237466
 30
0.0
  0
VERTEX
  5
54F7D
330
54F55
100
AcDbEntity
  8
sink_label
  6
DASHED2
 48
5.0
370
     0
100
AcDbVertex
100
AcDb2dVertex
 10
30129.39979830687
 20
26003.73547400188
 30
0.0
  0
VERTEX
  5
54F7E
330
54F55
100
AcDbEntity
  8
sink_label
  6
DASHED2
 48
5.0
370
     0
100
AcDbVertex
100
AcDb2dVertex
 10
30129.75671974424
 20
25999.3848513791
 30
0.0
  0
VERTEX
  5
54F7F
330
54F55
100
AcDbEntity
  8
sink_label
  6
DASHED2
 48
5.0
370
     0
100
AcDbVertex
100
AcDb2dVertex
 10
30130.46468736883
 20
25995.07535550628
 30
0.0
  0
VERTEX
  5
54F80
330
54F55
100
AcDbEntity
  8
sink_label
  6
DASHED2
 48
5.0
370
     0
100
AcDbVertex
100
AcDb2dVertex
 10
30131.52516999328
 20
25990.83930025844
 30
0.0
  0
VERTEX
  5
54F81
330
54F55
100
AcDbEntity
  8
sink_label
  6
DASHED2
 48
5.0
370
     0
100
AcDbVertex
100
AcDb2dVertex
 10
30132.92494830507
 20
25986.70018663555
 30
0.0
  0
VERTEX
  5
54F82
330
54F55
100
AcDbEntity
  8
sink_label
  6
DASHED2
 48
5.0
370
     0
100
AcDbVertex
100
AcDb2dVertex
 10
30134.65667824168
 20
25982.69326613759
 30
0.0
  0
VERTEX
  5
54F83
330
54F55
100
AcDbEntity
  8
sink_label
  6
DASHED2
 48
5.0
370
     0
100
AcDbVertex
100
AcDb2dVertex
 10
30136.71154692816
 20
25978.83910213955
 30
0.0
  0
VERTEX
  5
54F84
330
54F55
100
AcDbEntity
  8
sink_label
  6
DASHED2
 48
5.0
370
     0
100
AcDbVertex
100
AcDb2dVertex
 10
30139.07339742698
 20
25975.16413326641
 30
0.0
  0
VERTEX
  5
54F85
330
54F55
100
AcDbEntity
  8
sink_label
  6
DASHED2
 48
5.0
370
     0
100
AcDbVertex
100
AcDb2dVertex
 10
30141.72607280058
 20
25971.69479814319
 30
0.0
  0
VERTEX
  5
54F86
330
54F55
100
AcDbEntity
  8
sink_label
  6
DASHED2
 48
5.0
370
     0
100
AcDbVertex
100
AcDb2dVertex
 10
30144.65047848661
 20
25968.45166014484
 30
0.0
  0
VERTEX
  5
54F87
330
54F55
100
AcDbEntity
  8
sink_label
  6
DASHED2
 48
5.0
370
     0
100
AcDbVertex
100
AcDb2dVertex
 10
30147.83192636003
 20
25965.46115789636
 30
0.0
  0
VERTEX
  5
54F88
330
54F55
100
AcDbEntity
  8
sink_label
  6
DASHED2
 48
5.0
370
     0
100
AcDbVertex
100
AcDb2dVertex
 10
30151.24544660823
 20
25962.73797952274
 30
0.0
  0
VERTEX
  5
54F89
330
54F55
100
AcDbEntity
  8
sink_label
  6
DASHED2
 48
5.0
370
     0
100
AcDbVertex
100
AcDb2dVertex
 10
30154.86900704395
 20
25960.30268839898
 30
0.0
  0
VERTEX
  5
54F8A
330
54F55
100
AcDbEntity
  8
sink_label
  6
DASHED2
 48
5.0
370
     0
100
AcDbVertex
100
AcDb2dVertex
 10
30158.68351310445
 20
25958.16997265006
 30
0.0
  0
VERTEX
  5
54F8B
330
54F55
100
AcDbEntity
  8
sink_label
  6
DASHED2
 48
5.0
370
     0
100
AcDbVertex
100
AcDb2dVertex
 10
30162.65371328994
 20
25956.35745802598
 30
0.0
  0
VERTEX
  5
54F8C
330
54F55
100
AcDbEntity
  8
sink_label
  6
DASHED2
 48
5.0
370
     0
100
AcDbVertex
100
AcDb2dVertex
 10
30166.76198185038
 20
25954.87395740174
 30
0.0
  0
VERTEX
  5
54F8D
330
54F55
100
AcDbEntity
  8
sink_label
  6
DASHED2
 48
5.0
370
     0
100
AcDbVertex
100
AcDb2dVertex
 10
30170.97600491072
 20
25953.72534602732
 30
0.0
  0
VERTEX
  5
54F8E
330
54F55
100
AcDbEntity
  8
sink_label
  6
DASHED2
 48
5.0
370
     0
100
AcDbVertex
100
AcDb2dVertex
 10
30175.26934384601
 20
25952.92924965273
 30
0.0
  0
VERTEX
  5
54F8F
330
54F55
100
AcDbEntity
  8
sink_label
  6
DASHED2
 48
5.0
370
     0
100
AcDbVertex
100
AcDb2dVertex
 10
30179.61556003132
 20
25952.48566827795
 30
0.0
  0
VERTEX
  5
54F90
330
54F55
100
AcDbEntity
  8
sink_label
  6
DASHED2
 48
5.0
370
     0
100
AcDbVertex
100
AcDb2dVertex
 10
30183.97940196662
 20
25952.397539528
 30
0.0
  0
VERTEX
  5
54F91
330
54F55
100
AcDbEntity
  8
sink_label
  6
DASHED2
 48
5.0
370
     0
100
AcDbVertex
100
AcDb2dVertex
 10
30188.34030627687
 20
25952.66192577787
 30
0.0
  0
VERTEX
  5
54F92
330
54F55
100
AcDbEntity
  8
sink_label
  6
DASHED2
 48
5.0
370
     0
100
AcDbVertex
100
AcDb2dVertex
 10
30192.66155264969
 20
25953.28470227755
 30
0.0
  0
VERTEX
  5
54F93
330
54F55
100
AcDbEntity
  8
sink_label
  6
DASHED2
 48
5.0
370
     0
100
AcDbVertex
100
AcDb2dVertex
 10
30196.91964008502
 20
25954.25705615205
 30
0.0
  0
VERTEX
  5
54F94
330
54F55
100
AcDbEntity
  8
sink_label
  6
DASHED2
 48
5.0
370
     0
100
AcDbVertex
100
AcDb2dVertex
 10
30201.08372352039
 20
25955.57311215139
 30
0.0
  0
VERTEX
  5
54F95
330
54F55
100
AcDbEntity
  8
sink_label
  6
DASHED2
 48
5.0
370
     0
100
AcDbVertex
100
AcDb2dVertex
 10
30205.12589551834
 20
25957.22111977555
 30
0.0
  0
VERTEX
  5
54F96
330
54F55
100
AcDbEntity
  8
sink_label
  6
DASHED2
 48
5.0
370
     0
100
AcDbVertex
100
AcDb2dVertex
 10
30209.02265507891
 20
25959.19520377454
 30
0.0
  0
VERTEX
  5
54F97
330
54F55
100
AcDbEntity
  8
sink_label
  6
DASHED2
 48
5.0
370
     0
100
AcDbVertex
100
AcDb2dVertex
 10
30212.74462595192
 20
25961.48067602339
 30
0.0
  0
VERTEX
  5
54F98
330
54F55
100
AcDbEntity
  8
sink_label
  6
DASHED2
 48
5.0
370
     0
100
AcDbVertex
100
AcDb2dVertex
 10
30216.26536951266
 20
25964.06284839706
 30
0.0
  0
VERTEX
  5
54F99
330
54F55
100
AcDbEntity
  8
sink_label
  6
DASHED2
 48
5.0
370
     0
100
AcDbVertex
100
AcDb2dVertex
 10
30219.56726001104
 20
25966.92409514561
 30
0.0
  0
VERTEX
  5
54F9A
330
54F55
100
AcDbEntity
  8
sink_label
  6
DASHED2
 48
5.0
370
     0
100
AcDbVertex
100
AcDb2dVertex
 10
30222.62239000947
 20
25970.04385289402
 30
0.0
  0
VERTEX
  5
54F9B
330
54F55
100
AcDbEntity
  8
sink_label
  6
DASHED2
 48
5.0
370
     0
100
AcDbVertex
100
AcDb2dVertex
 10
30225.41460257053
 20
25973.40155826731
 30
0.0
  0
VERTEX
  5
54F9C
330
54F55
100
AcDbEntity
  8
sink_label
  6
DASHED2
 48
5.0
370
     0
100
AcDbVertex
100
AcDb2dVertex
 10
30227.92480313178
 20
25976.97664789049
 30
0.0
  0
VERTEX
  5
54F9D
330
54F55
100
AcDbEntity
  8
sink_label
  6
DASHED2
 48
5.0
370
     0
100
AcDbVertex
100
AcDb2dVertex
 10
30230.13242831815
 20
25980.74562076358
 30
0.0
  0
VERTEX
  5
54F9E
330
54F55
100
AcDbEntity
  8
sink_label
  6
DASHED2
 48
5.0
370
     0
100
AcDbVertex
100
AcDb2dVertex
 10
30232.02719644213
 20
25984.67910063658
 30
0.0
  0
VERTEX
  5
54F9F
330
54F55
100
AcDbEntity
  8
sink_label
  6
DASHED2
 48
5.0
370
     0
100
AcDbVertex
100
AcDb2dVertex
 10
30233.59735700383
 20
25988.75358650951
 30
0.0
  0
VERTEX
  5
54FA0
330
54F55
100
AcDbEntity
  8
sink_label
  6
DASHED2
 48
5.0
370
     0
100
AcDbVertex
100
AcDb2dVertex
 10
30234.82675306575
 20
25992.94557738237
 30
0.0
  0
VERTEX
  5
54FA1
330
54F55
100
AcDbEntity
  8
sink_label
  6
DASHED2
 48
5.0
370
     0
100
AcDbVertex
100
AcDb2dVertex
 10
30235.7109781903
 20
25997.22275938019
 30
0.0
  0
VERTEX
  5
54FA2
330
54F55
100
AcDbEntity
  8
sink_label
  6
DASHED2
 48
5.0
370
     0
100
AcDbVertex
100
AcDb2dVertex
 10
30236.24415712751
 20
26001.55575625299
 30
0.0
  0
SEQEND
  5
54FA3
330
54F55
100
AcDbEntity
  8
sink_label
  6
DASHED2
 48
5.0
370
     0
  0
POLYLINE
  5
54FA4
330
52C18
100
AcDbEntity
  8
sink_label
  6
DASHED2
 48
5.0
370
     0
100
AcDb2dPolyline
 66
     1
 10
0.0
 20
0.0
 30
0.0
 70
     1
  0
VERTEX
  5
54FA5
330
54FA4
100
AcDbEntity
  8
sink_label
  6
DASHED2
 48
5.0
370
     0
100
AcDbVertex
100
AcDb2dVertex
 10
30239.97053443815
 20
26005.92106700077
 30
0.0
  0
VERTEX
  5
54FA6
330
54FA4
100
AcDbEntity
  8
sink_label
  6
DASHED2
 48
5.0
370
     0
100
AcDbVertex
100
AcDb2dVertex
 10
30239.79427693819
 20
26001.44118887805
 30
0.0
  0
VERTEX
  5
54FA7
330
54FA4
100
AcDbEntity
  8
sink_label
  6
DASHED2
 48
5.0
370
     0
100
AcDbVertex
100
AcDb2dVertex
 10
30239.26844206348
 20
25996.99362463031
 30
0.0
  0
VERTEX
  5
54FA8
330
54FA4
100
AcDbEntity
  8
sink_label
  6
DASHED2
 48
5.0
370
     0
100
AcDbVertex
100
AcDb2dVertex
 10
30238.39449862641
 20
25992.59600000754
 30
0.0
  0
VERTEX
  5
54FA9
330
54FA4
100
AcDbEntity
  8
sink_label
  6
DASHED2
 48
5.0
370
     0
100
AcDbVertex
100
AcDb2dVertex
 10
30237.17685306456
 20
25988.28356650974
 30
0.0
  0
VERTEX
  5
54FAA
330
54FA4
100
AcDbEntity
  8
sink_label
  6
DASHED2
 48
5.0
370
     0
100
AcDbVertex
100
AcDb2dVertex
 10
30235.62725587783
 20
25984.07982513688
 30
0.0
  0
VERTEX
  5
54FAB
330
54FA4
100
AcDbEntity
  8
sink_label
  6
DASHED2
 48
5.0
370
     0
100
AcDbVertex
100
AcDb2dVertex
 10
30233.75011350378
 20
25980.01121451395
 30
0.0
  0
VERTEX
  5
54FAC
330
54FA4
100
AcDbEntity
  8
sink_label
  6
DASHED2
 48
5.0
370
     0
100
AcDbVertex
100
AcDb2dVertex
 10
30231.5601140674
 20
25976.10123564094
 30
0.0
  0
VERTEX
  5
54FAD
330
54FA4
100
AcDbEntity
  8
sink_label
  6
DASHED2
 48
5.0
370
     0
100
AcDbVertex
100
AcDb2dVertex
 10
30229.07194569364
 20
25972.37338951784
 30
0.0
  0
VERTEX
  5
54FAE
330
54FA4
100
AcDbEntity
  8
sink_label
  6
DASHED2
 48
5.0
370
     0
100
AcDbVertex
100
AcDb2dVertex
 10
30226.29735888255
 20
25968.85705239463
 30
0.0
  0
VERTEX
  5
54FAF
330
54FA4
100
AcDbEntity
  8
sink_label
  6
DASHED2
 48
5.0
370
     0
100
AcDbVertex
100
AcDb2dVertex
 10
30223.25544819661
 20
25965.5639747713
 30
0.0
  0
VERTEX
  5
54FB0
330
54FA4
100
AcDbEntity
  8
sink_label
  6
DASHED2
 48
5.0
370
     0
100
AcDbVertex
100
AcDb2dVertex
 10
30219.96383938583
 20
25962.52353289785
 30
0.0
  0
VERTEX
  5
54FB1
330
54FA4
100
AcDbEntity
  8
sink_label
  6
DASHED2
 48
5.0
370
     0
100
AcDbVertex
100
AcDb2dVertex
 10
30216.44603345008
 20
25959.74747727427
 30
0.0
  0
VERTEX
  5
54FB2
330
54FA4
100
AcDbEntity
  8
sink_label
  6
DASHED2
 48
5.0
370
     0
100
AcDbVertex
100
AcDb2dVertex
 10
30212.72112495202
 20
25957.25930890052
 30
0.0
  0
VERTEX
  5
54FB3
330
54FA4
100
AcDbEntity
  8
sink_label
  6
DASHED2
 48
5.0
370
     0
100
AcDbVertex
100
AcDb2dVertex
 10
30208.80967726652
 20
25955.07077827664
 30
0.0
  0
VERTEX
  5
54FB4
330
54FA4
100
AcDbEntity
  8
sink_label
  6
DASHED2
 48
5.0
370
     0
100
AcDbVertex
100
AcDb2dVertex
 10
30204.74106664356
 20
25953.19069827759
 30
0.0
  0
VERTEX
  5
54FB5
330
54FA4
100
AcDbEntity
  8
sink_label
  6
DASHED2
 48
5.0
370
     0
100
AcDbVertex
100
AcDb2dVertex
 10
30200.53585645818
 20
25951.64256990339
 30
0.0
  0
VERTEX
  5
54FB6
330
54FA4
100
AcDbEntity
  8
sink_label
  6
DASHED2
 48
5.0
370
     0
100
AcDbVertex
100
AcDb2dVertex
 10
30196.22342296038
 20
25950.426393154
 30
0.0
  0
VERTEX
  5
54FB7
330
54FA4
100
AcDbEntity
  8
sink_label
  6
DASHED2
 48
5.0
370
     0
100
AcDbVertex
100
AcDb2dVertex
 10
30191.82726715011
 20
25949.55391852945
 30
0.0
  0
VERTEX
  5
54FB8
330
54FA4
100
AcDbEntity
  8
sink_label
  6
DASHED2
 48
5.0
370
     0
100
AcDbVertex
100
AcDb2dVertex
 10
30187.37823408994
 20
25949.02514602972
 30
0.0
  0
VERTEX
  5
54FB9
330
54FA4
100
AcDbEntity
  8
sink_label
  6
DASHED2
 48
5.0
370
     0
100
AcDbVertex
100
AcDb2dVertex
 10
30182.90276240465
 20
25948.8488885298
 30
0.0
  0
VERTEX
  5
54FBA
330
54FA4
100
AcDbEntity
  8
sink_label
  6
DASHED2
 48
5.0
370
     0
100
AcDbVertex
100
AcDb2dVertex
 10
30178.42435309442
 20
25949.02514602972
 30
0.0
  0
VERTEX
  5
54FBB
330
54FA4
100
AcDbEntity
  8
sink_label
  6
DASHED2
 48
5.0
370
     0
100
AcDbVertex
100
AcDb2dVertex
 10
30173.97385122173
 20
25949.55391852945
 30
0.0
  0
VERTEX
  5
54FBC
330
54FA4
100
AcDbEntity
  8
sink_label
  6
DASHED2
 48
5.0
370
     0
100
AcDbVertex
100
AcDb2dVertex
 10
30169.57769541146
 20
25950.426393154
 30
0.0
  0
VERTEX
  5
54FBD
330
54FA4
100
AcDbEntity
  8
sink_label
  6
DASHED2
 48
5.0
370
     0
100
AcDbVertex
100
AcDb2dVertex
 10
30165.26526191365
 20
25951.64256990339
 30
0.0
  0
VERTEX
  5
54FBE
330
54FA4
100
AcDbEntity
  8
sink_label
  6
DASHED2
 48
5.0
370
     0
100
AcDbVertex
100
AcDb2dVertex
 10
30161.06152054074
 20
25953.19069827759
 30
0.0
  0
VERTEX
  5
54FBF
330
54FA4
100
AcDbEntity
  8
sink_label
  6
DASHED2
 48
5.0
370
     0
100
AcDbVertex
100
AcDb2dVertex
 10
30156.99290991778
 20
25955.07077827664
 30
0.0
  0
VERTEX
  5
54FC0
330
54FA4
100
AcDbEntity
  8
sink_label
  6
DASHED2
 48
5.0
370
     0
100
AcDbVertex
100
AcDb2dVertex
 10
30153.08146223234
 20
25957.25930890052
 30
0.0
  0
VERTEX
  5
54FC1
330
54FA4
100
AcDbEntity
  8
sink_label
  6
DASHED2
 48
5.0
370
     0
100
AcDbVertex
100
AcDb2dVertex
 10
30149.35655373416
 20
25959.74747727427
 30
0.0
  0
VERTEX
  5
54FC2
330
54FA4
100
AcDbEntity
  8
sink_label
  6
DASHED2
 48
5.0
370
     0
100
AcDbVertex
100
AcDb2dVertex
 10
30145.83874779847
 20
25962.52353289785
 30
0.0
  0
VERTEX
  5
54FC3
330
54FA4
100
AcDbEntity
  8
sink_label
  6
DASHED2
 48
5.0
370
     0
100
AcDbVertex
100
AcDb2dVertex
 10
30142.54860780016
 20
25965.5639747713
 30
0.0
  0
VERTEX
  5
54FC4
330
54FA4
100
AcDbEntity
  8
sink_label
  6
DASHED2
 48
5.0
370
     0
100
AcDbVertex
100
AcDb2dVertex
 10
30139.50669711427
 20
25968.85705239463
 30
0.0
  0
VERTEX
  5
54FC5
330
54FA4
100
AcDbEntity
  8
sink_label
  6
DASHED2
 48
5.0
370
     0
100
AcDbVertex
100
AcDb2dVertex
 10
30136.73211030313
 20
25972.37338951784
 30
0.0
  0
VERTEX
  5
54FC6
330
54FA4
100
AcDbEntity
  8
sink_label
  6
DASHED2
 48
5.0
370
     0
100
AcDbVertex
100
AcDb2dVertex
 10
30134.2424731169
 20
25976.10123564094
 30
0.0
  0
VERTEX
  5
54FC7
330
54FA4
100
AcDbEntity
  8
sink_label
  6
DASHED2
 48
5.0
370
     0
100
AcDbVertex
100
AcDb2dVertex
 10
30132.05247368052
 20
25980.01121451395
 30
0.0
  0
VERTEX
  5
54FC8
330
54FA4
100
AcDbEntity
  8
sink_label
  6
DASHED2
 48
5.0
370
     0
100
AcDbVertex
100
AcDb2dVertex
 10
30130.17680011893
 20
25984.07982513688
 30
0.0
  0
VERTEX
  5
54FC9
330
54FA4
100
AcDbEntity
  8
sink_label
  6
DASHED2
 48
5.0
370
     0
100
AcDbVertex
100
AcDb2dVertex
 10
30128.62573411974
 20
25988.28356650974
 30
0.0
  0
VERTEX
  5
54FCA
330
54FA4
100
AcDbEntity
  8
sink_label
  6
DASHED2
 48
5.0
370
     0
100
AcDbVertex
100
AcDb2dVertex
 10
30127.40808855789
 20
25992.59600000754
 30
0.0
  0
VERTEX
  5
54FCB
330
54FA4
100
AcDbEntity
  8
sink_label
  6
DASHED2
 48
5.0
370
     0
100
AcDbVertex
100
AcDb2dVertex
 10
30126.53561393335
 20
25996.99362463031
 30
0.0
  0
VERTEX
  5
54FCC
330
54FA4
100
AcDbEntity
  8
sink_label
  6
DASHED2
 48
5.0
370
     0
100
AcDbVertex
100
AcDb2dVertex
 10
30126.00684143364
 20
26001.44118887805
 30
0.0
  0
VERTEX
  5
54FCD
330
54FA4
100
AcDbEntity
  8
sink_label
  6
DASHED2
 48
5.0
370
     0
100
AcDbVertex
100
AcDb2dVertex
 10
30125.83352155867
 20
26005.92106700077
 30
0.0
  0
VERTEX
  5
54FCE
330
54FA4
100
AcDbEntity
  8
sink_label
  6
DASHED2
 48
5.0
370
     0
100
AcDbVertex
100
AcDb2dVertex
 10
30126.00684143364
 20
26010.3980074985
 30
0.0
  0
VERTEX
  5
54FCF
330
54FA4
100
AcDbEntity
  8
sink_label
  6
DASHED2
 48
5.0
370
     0
100
AcDbVertex
100
AcDb2dVertex
 10
30126.53561393335
 20
26014.84850937123
 30
0.0
  0
VERTEX
  5
54FD0
330
54FA4
100
AcDbEntity
  8
sink_label
  6
DASHED2
 48
5.0
370
     0
100
AcDbVertex
100
AcDb2dVertex
 10
30127.40808855789
 20
26019.24319636899
 30
0.0
  0
VERTEX
  5
54FD1
330
54FA4
100
AcDbEntity
  8
sink_label
  6
DASHED2
 48
5.0
370
     0
100
AcDbVertex
100
AcDb2dVertex
 10
30128.62573411974
 20
26023.5556298668
 30
0.0
  0
VERTEX
  5
54FD2
330
54FA4
100
AcDbEntity
  8
sink_label
  6
DASHED2
 48
5.0
370
     0
100
AcDbVertex
100
AcDb2dVertex
 10
30130.17680011893
 20
26027.75937123966
 30
0.0
  0
VERTEX
  5
54FD3
330
54FA4
100
AcDbEntity
  8
sink_label
  6
DASHED2
 48
5.0
370
     0
100
AcDbVertex
100
AcDb2dVertex
 10
30132.05247368052
 20
26031.83091948758
 30
0.0
  0
VERTEX
  5
54FD4
330
54FA4
100
AcDbEntity
  8
sink_label
  6
DASHED2
 48
5.0
370
     0
100
AcDbVertex
100
AcDb2dVertex
 10
30134.2424731169
 20
26035.7408983606
 30
0.0
  0
VERTEX
  5
54FD5
330
54FA4
100
AcDbEntity
  8
sink_label
  6
DASHED2
 48
5.0
370
     0
100
AcDbVertex
100
AcDb2dVertex
 10
30136.73211030313
 20
26039.46580685871
 30
0.0
  0
VERTEX
  5
54FD6
330
54FA4
100
AcDbEntity
  8
sink_label
  6
DASHED2
 48
5.0
370
     0
100
AcDbVertex
100
AcDb2dVertex
 10
30139.50669711427
 20
26042.98508160692
 30
0.0
  0
VERTEX
  5
54FD7
330
54FA4
100
AcDbEntity
  8
sink_label
  6
DASHED2
 48
5.0
370
     0
100
AcDbVertex
100
AcDb2dVertex
 10
30142.54860780016
 20
26046.27815923024
 30
0.0
  0
VERTEX
  5
54FD8
330
54FA4
100
AcDbEntity
  8
sink_label
  6
DASHED2
 48
5.0
370
     0
100
AcDbVertex
100
AcDb2dVertex
 10
30145.83874779847
 20
26049.3186011037
 30
0.0
  0
VERTEX
  5
54FD9
330
54FA4
100
AcDbEntity
  8
sink_label
  6
DASHED2
 48
5.0
370
     0
100
AcDbVertex
100
AcDb2dVertex
 10
30149.35655373416
 20
26052.09171910228
 30
0.0
  0
VERTEX
  5
54FDA
330
54FA4
100
AcDbEntity
  8
sink_label
  6
DASHED2
 48
5.0
370
     0
100
AcDbVertex
100
AcDb2dVertex
 10
30153.08146223234
 20
26054.58282510102
 30
0.0
  0
VERTEX
  5
54FDB
330
54FA4
100
AcDbEntity
  8
sink_label
  6
DASHED2
 48
5.0
370
     0
100
AcDbVertex
100
AcDb2dVertex
 10
30156.99290991778
 20
26056.7713557249
 30
0.0
  0
VERTEX
  5
54FDC
330
54FA4
100
AcDbEntity
  8
sink_label
  6
DASHED2
 48
5.0
370
     0
100
AcDbVertex
100
AcDb2dVertex
 10
30161.06152054074
 20
26058.64556047395
 30
0.0
  0
VERTEX
  5
54FDD
330
54FA4
100
AcDbEntity
  8
sink_label
  6
DASHED2
 48
5.0
370
     0
100
AcDbVertex
100
AcDb2dVertex
 10
30165.26526191365
 20
26060.19956409816
 30
0.0
  0
VERTEX
  5
54FDE
330
54FA4
100
AcDbEntity
  8
sink_label
  6
DASHED2
 48
5.0
370
     0
100
AcDbVertex
100
AcDb2dVertex
 10
30169.57769541146
 20
26061.41574084754
 30
0.0
  0
VERTEX
  5
54FDF
330
54FA4
100
AcDbEntity
  8
sink_label
  6
DASHED2
 48
5.0
370
     0
100
AcDbVertex
100
AcDb2dVertex
 10
30173.97385122173
 20
26062.2882154721
 30
0.0
  0
VERTEX
  5
54FE0
330
54FA4
100
AcDbEntity
  8
sink_label
  6
DASHED2
 48
5.0
370
     0
100
AcDbVertex
100
AcDb2dVertex
 10
30178.42435309442
 20
26062.81405034682
 30
0.0
  0
VERTEX
  5
54FE1
330
54FA4
100
AcDbEntity
  8
sink_label
  6
DASHED2
 48
5.0
370
     0
100
AcDbVertex
100
AcDb2dVertex
 10
30182.90276240465
 20
26062.99030784674
 30
0.0
  0
VERTEX
  5
54FE2
330
54FA4
100
AcDbEntity
  8
sink_label
  6
DASHED2
 48
5.0
370
     0
100
AcDbVertex
100
AcDb2dVertex
 10
30187.37823408994
 20
26062.81405034682
 30
0.0
  0
VERTEX
  5
54FE3
330
54FA4
100
AcDbEntity
  8
sink_label
  6
DASHED2
 48
5.0
370
     0
100
AcDbVertex
100
AcDb2dVertex
 10
30191.82726715011
 20
26062.2882154721
 30
0.0
  0
VERTEX
  5
54FE4
330
54FA4
100
AcDbEntity
  8
sink_label
  6
DASHED2
 48
5.0
370
     0
100
AcDbVertex
100
AcDb2dVertex
 10
30196.22342296038
 20
26061.41574084754
 30
0.0
  0
VERTEX
  5
54FE5
330
54FA4
100
AcDbEntity
  8
sink_label
  6
DASHED2
 48
5.0
370
     0
100
AcDbVertex
100
AcDb2dVertex
 10
30200.53585645818
 20
26060.19956409816
 30
0.0
  0
VERTEX
  5
54FE6
330
54FA4
100
AcDbEntity
  8
sink_label
  6
DASHED2
 48
5.0
370
     0
100
AcDbVertex
100
AcDb2dVertex
 10
30200.53585645818
 20
26060.19956409816
 30
0.0
  0
VERTEX
  5
54FE7
330
54FA4
100
AcDbEntity
  8
sink_label
  6
DASHED2
 48
5.0
370
     0
100
AcDbVertex
100
AcDb2dVertex
 10
30208.80967726652
 20
26056.7713557249
 30
0.0
  0
VERTEX
  5
54FE8
330
54FA4
100
AcDbEntity
  8
sink_label
  6
DASHED2
 48
5.0
370
     0
100
AcDbVertex
100
AcDb2dVertex
 10
30212.72112495202
 20
26054.58282510102
 30
0.0
  0
VERTEX
  5
54FE9
330
54FA4
100
AcDbEntity
  8
sink_label
  6
DASHED2
 48
5.0
370
     0
100
AcDbVertex
100
AcDb2dVertex
 10
30216.44603345008
 20
26052.09171910228
 30
0.0
  0
VERTEX
  5
54FEA
330
54FA4
100
AcDbEntity
  8
sink_label
  6
DASHED2
 48
5.0
370
     0
100
AcDbVertex
100
AcDb2dVertex
 10
30219.96383938583
 20
26049.3186011037
 30
0.0
  0
VERTEX
  5
54FEB
330
54FA4
100
AcDbEntity
  8
sink_label
  6
DASHED2
 48
5.0
370
     0
100
AcDbVertex
100
AcDb2dVertex
 10
30223.25544819661
 20
26046.27815923024
 30
0.0
  0
VERTEX
  5
54FEC
330
54FA4
100
AcDbEntity
  8
sink_label
  6
DASHED2
 48
5.0
370
     0
100
AcDbVertex
100
AcDb2dVertex
 10
30226.29735888255
 20
26042.98508160692
 30
0.0
  0
VERTEX
  5
54FED
330
54FA4
100
AcDbEntity
  8
sink_label
  6
DASHED2
 48
5.0
370
     0
100
AcDbVertex
100
AcDb2dVertex
 10
30229.07194569364
 20
26039.46580685871
 30
0.0
  0
VERTEX
  5
54FEE
330
54FA4
100
AcDbEntity
  8
sink_label
  6
DASHED2
 48
5.0
370
     0
100
AcDbVertex
100
AcDb2dVertex
 10
30231.5601140674
 20
26035.7408983606
 30
0.0
  0
VERTEX
  5
54FEF
330
54FA4
100
AcDbEntity
  8
sink_label
  6
DASHED2
 48
5.0
370
     0
100
AcDbVertex
100
AcDb2dVertex
 10
30233.75011350378
 20
26031.83091948758
 30
0.0
  0
VERTEX
  5
54FF0
330
54FA4
100
AcDbEntity
  8
sink_label
  6
DASHED2
 48
5.0
370
     0
100
AcDbVertex
100
AcDb2dVertex
 10
30235.62725587783
 20
26027.75937123966
 30
0.0
  0
VERTEX
  5
54FF1
330
54FA4
100
AcDbEntity
  8
sink_label
  6
DASHED2
 48
5.0
370
     0
100
AcDbVertex
100
AcDb2dVertex
 10
30237.17685306456
 20
26023.5556298668
 30
0.0
  0
VERTEX
  5
54FF2
330
54FA4
100
AcDbEntity
  8
sink_label
  6
DASHED2
 48
5.0
370
     0
100
AcDbVertex
100
AcDb2dVertex
 10
30238.39449862641
 20
26019.24319636899
 30
0.0
  0
VERTEX
  5
54FF3
330
54FA4
100
AcDbEntity
  8
sink_label
  6
DASHED2
 48
5.0
370
     0
100
AcDbVertex
100
AcDb2dVertex
 10
30239.26844206348
 20
26014.84850937123
 30
0.0
  0
VERTEX
  5
54FF4
330
54FA4
100
AcDbEntity
  8
sink_label
  6
DASHED2
 48
5.0
370
     0
100
AcDbVertex
100
AcDb2dVertex
 10
30239.79427693819
 20
26010.3980074985
 30
0.0
  0
SEQEND
  5
54FF5
330
54FA4
100
AcDbEntity
  8
sink_label
  6
DASHED2
 48
5.0
370
     0
  0
POLYLINE
  5
54FF6
330
52C18
100
AcDbEntity
  8
sink_label
  6
DASHED2
 48
5.0
370
     0
100
AcDb2dPolyline
 66
     1
 10
0.0
 20
0.0
 30
0.0
 70
     1
  0
VERTEX
  5
54FF7
330
54FF6
100
AcDbEntity
  8
sink_label
  6
DASHED2
 48
5.0
370
     0
100
AcDbVertex
100
AcDb2dVertex
 10
30392.81428460254
 20
26005.92106700077
 30
0.0
  0
VERTEX
  5
54FF8
330
54FF6
100
AcDbEntity
  8
sink_label
  6
DASHED2
 48
5.0
370
     0
100
AcDbVertex
100
AcDb2dVertex
 10
30392.99201091491
 20
26001.94352275279
 30
0.0
  0
VERTEX
  5
54FF9
330
54FF6
100
AcDbEntity
  8
sink_label
  6
DASHED2
 48
5.0
370
     0
100
AcDbVertex
100
AcDb2dVertex
 10
30393.51637697716
 20
25997.9953547548
 30
0.0
  0
VERTEX
  5
54FFA
330
54FF6
100
AcDbEntity
  8
sink_label
  6
DASHED2
 48
5.0
370
     0
100
AcDbVertex
100
AcDb2dVertex
 10
30394.39032041428
 20
25994.11181450678
 30
0.0
  0
VERTEX
  5
54FFB
330
54FF6
100
AcDbEntity
  8
sink_label
  6
DASHED2
 48
5.0
370
     0
100
AcDbVertex
100
AcDb2dVertex
 10
30395.60502835114
 20
25990.3222782587
 30
0.0
  0
VERTEX
  5
54FFC
330
54FF6
100
AcDbEntity
  8
sink_label
  6
DASHED2
 48
5.0
370
     0
100
AcDbVertex
100
AcDb2dVertex
 10
30397.14875028784
 20
25986.65318463557
 30
0.0
  0
VERTEX
  5
54FFD
330
54FF6
100
AcDbEntity
  8
sink_label
  6
DASHED2
 48
5.0
370
     0
100
AcDbVertex
100
AcDb2dVertex
 10
30399.0112045369
 20
25983.13390988736
 30
0.0
  0
VERTEX
  5
54FFE
330
54FF6
100
AcDbEntity
  8
sink_label
  6
DASHED2
 48
5.0
370
     0
100
AcDbVertex
100
AcDb2dVertex
 10
30401.17476534827
 20
25979.79383026406
 30
0.0
  0
VERTEX
  5
54FFF
330
54FF6
100
AcDbEntity
  8
sink_label
  6
DASHED2
 48
5.0
370
     0
100
AcDbVertex
100
AcDb2dVertex
 10
30403.62768222201
 20
25976.65644676566
 30
0.0
  0
VERTEX
  5
55000
330
54FF6
100
AcDbEntity
  8
sink_label
  6
DASHED2
 48
5.0
370
     0
100
AcDbVertex
100
AcDb2dVertex
 10
30406.34939178314
 20
25973.75113564214
 30
0.0
  0
VERTEX
  5
55001
330
54FF6
100
AcDbEntity
  8
sink_label
  6
DASHED2
 48
5.0
370
     0
100
AcDbVertex
100
AcDb2dVertex
 10
30409.31345540659
 20
25971.09552264349
 30
0.0
  0
VERTEX
  5
55002
330
54FF6
100
AcDbEntity
  8
sink_label
  6
DASHED2
 48
5.0
370
     0
100
AcDbVertex
100
AcDb2dVertex
 10
30412.5022473425
 20
25968.7131087697
 30
0.0
  0
VERTEX
  5
55003
330
54FF6
100
AcDbEntity
  8
sink_label
  6
DASHED2
 48
5.0
370
     0
100
AcDbVertex
100
AcDb2dVertex
 10
30415.89079777828
 20
25966.62151977076
 30
0.0
  0
VERTEX
  5
55004
330
54FF6
100
AcDbEntity
  8
sink_label
  6
DASHED2
 48
5.0
370
     0
100
AcDbVertex
100
AcDb2dVertex
 10
30419.44826165146
 20
25964.83838139667
 30
0.0
  0
VERTEX
  5
55005
330
54FF6
100
AcDbEntity
  8
sink_label
  6
DASHED2
 48
5.0
370
     0
100
AcDbVertex
100
AcDb2dVertex
 10
30423.1526067746
 20
25963.37544414741
 30
0.0
  0
VERTEX
  5
55006
330
54FF6
100
AcDbEntity
  8
sink_label
  6
DASHED2
 48
5.0
370
     0
100
AcDbVertex
100
AcDb2dVertex
 10
30426.96858164768
 20
25962.24739614799
 30
0.0
  0
VERTEX
  5
55007
330
54FF6
100
AcDbEntity
  8
sink_label
  6
DASHED2
 48
5.0
370
     0
100
AcDbVertex
100
AcDb2dVertex
 10
30430.8697476457
 20
25961.46011264839
 30
0.0
  0
VERTEX
  5
55008
330
54FF6
100
AcDbEntity
  8
sink_label
  6
DASHED2
 48
5.0
370
     0
100
AcDbVertex
100
AcDb2dVertex
 10
30434.82966614365
 20
25961.01946889862
 30
0.0
  0
VERTEX
  5
55009
330
54FF6
100
AcDbEntity
  8
sink_label
  6
DASHED2
 48
5.0
370
     0
100
AcDbVertex
100
AcDb2dVertex
 10
30438.80721039169
 20
25960.93134014866
 30
0.0
  0
VERTEX
  5
5500A
330
54FF6
100
AcDbEntity
  8
sink_label
  6
DASHED2
 48
5.0
370
     0
100
AcDbVertex
100
AcDb2dVertex
 10
30442.78181701463
 20
25961.19278877352
 30
0.0
  0
VERTEX
  5
5500B
330
54FF6
100
AcDbEntity
  8
sink_label
  6
DASHED2
 48
5.0
370
     0
100
AcDbVertex
100
AcDb2dVertex
 10
30446.71382807511
 20
25961.80675239822
 30
0.0
  0
VERTEX
  5
5500C
330
54FF6
100
AcDbEntity
  8
sink_label
  6
DASHED2
 48
5.0
370
     0
100
AcDbVertex
100
AcDb2dVertex
 10
30450.57680494811
 20
25962.76735577272
 30
0.0
  0
VERTEX
  5
5500D
330
54FF6
100
AcDbEntity
  8
sink_label
  6
DASHED2
 48
5.0
370
     0
100
AcDbVertex
100
AcDb2dVertex
 10
30454.33990257124
 20
25964.06872364706
 30
0.0
  0
VERTEX
  5
5500E
330
54FF6
100
AcDbEntity
  8
sink_label
  6
DASHED2
 48
5.0
370
     0
100
AcDbVertex
100
AcDb2dVertex
 10
30457.97521350691
 20
25965.69029264624
 30
0.0
  0
VERTEX
  5
5500F
330
54FF6
100
AcDbEntity
  8
sink_label
  6
DASHED2
 48
5.0
370
     0
100
AcDbVertex
100
AcDb2dVertex
 10
30461.45189269261
 20
25967.62912514525
 30
0.0
  0
VERTEX
  5
55010
330
54FF6
100
AcDbEntity
  8
sink_label
  6
DASHED2
 48
5.0
370
     0
100
AcDbVertex
100
AcDb2dVertex
 10
30464.74350150344
 20
25969.87053301912
 30
0.0
  0
VERTEX
  5
55011
330
54FF6
100
AcDbEntity
  8
sink_label
  6
DASHED2
 48
5.0
370
     0
100
AcDbVertex
100
AcDb2dVertex
 10
30467.82213250188
 20
25972.39101526782
 30
0.0
  0
VERTEX
  5
55012
330
54FF6
100
AcDbEntity
  8
sink_label
  6
DASHED2
 48
5.0
370
     0
100
AcDbVertex
100
AcDb2dVertex
 10
30470.67015993788
 20
25975.17588376641
 30
0.0
  0
VERTEX
  5
55013
330
54FF6
100
AcDbEntity
  8
sink_label
  6
DASHED2
 48
5.0
370
     0
100
AcDbVertex
100
AcDb2dVertex
 10
30473.25820756163
 20
25978.19869988987
 30
0.0
  0
VERTEX
  5
55014
330
54FF6
100
AcDbEntity
  8
sink_label
  6
DASHED2
 48
5.0
370
     0
100
AcDbVertex
100
AcDb2dVertex
 10
30475.57011843544
 20
25981.43890026322
 30
0.0
  0
VERTEX
  5
55015
330
54FF6
100
AcDbEntity
  8
sink_label
  6
DASHED2
 48
5.0
370
     0
100
AcDbVertex
100
AcDb2dVertex
 10
30477.58532918444
 20
25984.87298388648
 30
0.0
  0
VERTEX
  5
55016
330
54FF6
100
AcDbEntity
  8
sink_label
  6
DASHED2
 48
5.0
370
     0
100
AcDbVertex
100
AcDb2dVertex
 10
30479.28915168358
 20
25988.46863688465
 30
0.0
  0
VERTEX
  5
55017
330
54FF6
100
AcDbEntity
  8
sink_label
  6
DASHED2
 48
5.0
370
     0
100
AcDbVertex
100
AcDb2dVertex
 10
30480.66983543285
 20
25992.20529588275
 30
0.0
  0
VERTEX
  5
55018
330
54FF6
100
AcDbEntity
  8
sink_label
  6
DASHED2
 48
5.0
370
     0
100
AcDbVertex
100
AcDb2dVertex
 10
30481.71416111979
 20
25996.0447717558
 30
0.0
  0
VERTEX
  5
55019
330
54FF6
100
AcDbEntity
  8
sink_label
  6
DASHED2
 48
5.0
370
     0
100
AcDbVertex
100
AcDb2dVertex
 10
30482.41478468194
 20
25999.9665011288
 30
0.0
  0
VERTEX
  5
5501A
330
54FF6
100
AcDbEntity
  8
sink_label
  6
DASHED2
 48
5.0
370
     0
100
AcDbVertex
100
AcDb2dVertex
 10
30482.76729968174
 20
26003.92935725178
 30
0.0
  0
VERTEX
  5
5501B
330
54FF6
100
AcDbEntity
  8
sink_label
  6
DASHED2
 48
5.0
370
     0
100
AcDbVertex
100
AcDb2dVertex
 10
30482.76729968174
 20
26007.90983912475
 30
0.0
  0
VERTEX
  5
5501C
330
54FF6
100
AcDbEntity
  8
sink_label
  6
DASHED2
 48
5.0
370
     0
100
AcDbVertex
100
AcDb2dVertex
 10
30482.41478468194
 20
26011.87563287274
 30
0.0
  0
VERTEX
  5
5501D
330
54FF6
100
AcDbEntity
  8
sink_label
  6
DASHED2
 48
5.0
370
     0
100
AcDbVertex
100
AcDb2dVertex
 10
30481.71416111979
 20
26015.79442462075
 30
0.0
  0
VERTEX
  5
5501E
330
54FF6
100
AcDbEntity
  8
sink_label
  6
DASHED2
 48
5.0
370
     0
100
AcDbVertex
100
AcDb2dVertex
 10
30480.66983543285
 20
26019.6368381188
 30
0.0
  0
VERTEX
  5
5501F
330
54FF6
100
AcDbEntity
  8
sink_label
  6
DASHED2
 48
5.0
370
     0
100
AcDbVertex
100
AcDb2dVertex
 10
30479.28915168358
 20
26023.3705594919
 30
0.0
  0
VERTEX
  5
55020
330
54FF6
100
AcDbEntity
  8
sink_label
  6
DASHED2
 48
5.0
370
     0
100
AcDbVertex
100
AcDb2dVertex
 10
30477.58532918444
 20
26026.96915011506
 30
0.0
  0
VERTEX
  5
55021
330
54FF6
100
AcDbEntity
  8
sink_label
  6
DASHED2
 48
5.0
370
     0
100
AcDbVertex
100
AcDb2dVertex
 10
30475.57011843544
 20
26030.40029611332
 30
0.0
  0
VERTEX
  5
55022
330
54FF6
100
AcDbEntity
  8
sink_label
  6
DASHED2
 48
5.0
370
     0
100
AcDbVertex
100
AcDb2dVertex
 10
30473.25820756163
 20
26033.64343411167
 30
0.0
  0
VERTEX
  5
55023
330
54FF6
100
AcDbEntity
  8
sink_label
  6
DASHED2
 48
5.0
370
     0
100
AcDbVertex
100
AcDb2dVertex
 10
30470.67015993788
 20
26036.66625023512
 30
0.0
  0
VERTEX
  5
55024
330
54FF6
100
AcDbEntity
  8
sink_label
  6
DASHED2
 48
5.0
370
     0
100
AcDbVertex
100
AcDb2dVertex
 10
30467.82213250188
 20
26039.45111873371
 30
0.0
  0
VERTEX
  5
55025
330
54FF6
100
AcDbEntity
  8
sink_label
  6
DASHED2
 48
5.0
370
     0
100
AcDbVertex
100
AcDb2dVertex
 10
30464.74350150344
 20
26041.97453860743
 30
0.0
  0
VERTEX
  5
55026
330
54FF6
100
AcDbEntity
  8
sink_label
  6
DASHED2
 48
5.0
370
     0
100
AcDbVertex
100
AcDb2dVertex
 10
30461.45189269261
 20
26044.21007123129
 30
0.0
  0
VERTEX
  5
55027
330
54FF6
100
AcDbEntity
  8
sink_label
  6
DASHED2
 48
5.0
370
     0
100
AcDbVertex
100
AcDb2dVertex
 10
30457.97521350691
 20
26046.15184135531
 30
0.0
  0
VERTEX
  5
55028
330
54FF6
100
AcDbEntity
  8
sink_label
  6
DASHED2
 48
5.0
370
     0
100
AcDbVertex
100
AcDb2dVertex
 10
30454.33990257124
 20
26047.77341035448
 30
0.0
  0
VERTEX
  5
55029
330
54FF6
100
AcDbEntity
  8
sink_label
  6
DASHED2
 48
5.0
370
     0
100
AcDbVertex
100
AcDb2dVertex
 10
30450.57680494811
 20
26049.07184060381
 30
0.0
  0
VERTEX
  5
5502A
330
54FF6
100
AcDbEntity
  8
sink_label
  6
DASHED2
 48
5.0
370
     0
100
AcDbVertex
100
AcDb2dVertex
 10
30446.71382807511
 20
26050.02950635333
 30
0.0
  0
VERTEX
  5
5502B
330
54FF6
100
AcDbEntity
  8
sink_label
  6
DASHED2
 48
5.0
370
     0
100
AcDbVertex
100
AcDb2dVertex
 10
30442.78181701463
 20
26050.64640760302
 30
0.0
  0
VERTEX
  5
5502C
330
54FF6
100
AcDbEntity
  8
sink_label
  6
DASHED2
 48
5.0
370
     0
100
AcDbVertex
100
AcDb2dVertex
 10
30438.80721039169
 20
26050.90785622788
 30
0.0
  0
VERTEX
  5
5502D
330
54FF6
100
AcDbEntity
  8
sink_label
  6
DASHED2
 48
5.0
370
     0
100
AcDbVertex
100
AcDb2dVertex
 10
30434.82966614365
 20
26050.81972747793
 30
0.0
  0
VERTEX
  5
5502E
330
54FF6
100
AcDbEntity
  8
sink_label
  6
DASHED2
 48
5.0
370
     0
100
AcDbVertex
100
AcDb2dVertex
 10
30430.8697476457
 20
26050.38202135315
 30
0.0
  0
VERTEX
  5
5502F
330
54FF6
100
AcDbEntity
  8
sink_label
  6
DASHED2
 48
5.0
370
     0
100
AcDbVertex
100
AcDb2dVertex
 10
30426.96858164768
 20
26049.59473785355
 30
0.0
  0
VERTEX
  5
55030
330
54FF6
100
AcDbEntity
  8
sink_label
  6
DASHED2
 48
5.0
370
     0
100
AcDbVertex
100
AcDb2dVertex
 10
30423.1526067746
 20
26048.46375222913
 30
0.0
  0
VERTEX
  5
55031
330
54FF6
100
AcDbEntity
  8
sink_label
  6
DASHED2
 48
5.0
370
     0
100
AcDbVertex
100
AcDb2dVertex
 10
30419.44826165146
 20
26047.00375260487
 30
0.0
  0
VERTEX
  5
55032
330
54FF6
100
AcDbEntity
  8
sink_label
  6
DASHED2
 48
5.0
370
     0
100
AcDbVertex
100
AcDb2dVertex
 10
30415.89079777828
 20
26045.21767660577
 30
0.0
  0
VERTEX
  5
55033
330
54FF6
100
AcDbEntity
  8
sink_label
  6
DASHED2
 48
5.0
370
     0
100
AcDbVertex
100
AcDb2dVertex
 10
30412.5022473425
 20
26043.12902523184
 30
0.0
  0
VERTEX
  5
55034
330
54FF6
100
AcDbEntity
  8
sink_label
  6
DASHED2
 48
5.0
370
     0
100
AcDbVertex
100
AcDb2dVertex
 10
30409.31345540659
 20
26040.74367373305
 30
0.0
  0
VERTEX
  5
55035
330
54FF6
100
AcDbEntity
  8
sink_label
  6
DASHED2
 48
5.0
370
     0
100
AcDbVertex
100
AcDb2dVertex
 10
30406.34939178314
 20
26038.0909983594
 30
0.0
  0
VERTEX
  5
55036
330
54FF6
100
AcDbEntity
  8
sink_label
  6
DASHED2
 48
5.0
370
     0
100
AcDbVertex
100
AcDb2dVertex
 10
30403.62768222201
 20
26035.18274961088
 30
0.0
  0
VERTEX
  5
55037
330
54FF6
100
AcDbEntity
  8
sink_label
  6
DASHED2
 48
5.0
370
     0
100
AcDbVertex
100
AcDb2dVertex
 10
30401.17476534827
 20
26032.04536611248
 30
0.0
  0
VERTEX
  5
55038
330
54FF6
100
AcDbEntity
  8
sink_label
  6
DASHED2
 48
5.0
370
     0
100
AcDbVertex
100
AcDb2dVertex
 10
30399.0112045369
 20
26028.70822411418
 30
0.0
  0
VERTEX
  5
55039
330
54FF6
100
AcDbEntity
  8
sink_label
  6
DASHED2
 48
5.0
370
     0
100
AcDbVertex
100
AcDb2dVertex
 10
30397.14875028784
 20
26025.18894936597
 30
0.0
  0
VERTEX
  5
5503A
330
54FF6
100
AcDbEntity
  8
sink_label
  6
DASHED2
 48
5.0
370
     0
100
AcDbVertex
100
AcDb2dVertex
 10
30395.60502835114
 20
26021.51985574283
 30
0.0
  0
VERTEX
  5
5503B
330
54FF6
100
AcDbEntity
  8
sink_label
  6
DASHED2
 48
5.0
370
     0
100
AcDbVertex
100
AcDb2dVertex
 10
30394.39032041428
 20
26017.72738186976
 30
0.0
  0
VERTEX
  5
5503C
330
54FF6
100
AcDbEntity
  8
sink_label
  6
DASHED2
 48
5.0
370
     0
100
AcDbVertex
100
AcDb2dVertex
 10
30393.51637697716
 20
26013.84384162175
 30
0.0
  0
VERTEX
  5
5503D
330
54FF6
100
AcDbEntity
  8
sink_label
  6
DASHED2
 48
5.0
370
     0
100
AcDbVertex
100
AcDb2dVertex
 10
30392.99201091491
 20
26009.89861124875
 30
0.0
  0
SEQEND
  5
5503E
330
54FF6
100
AcDbEntity
  8
sink_label
  6
DASHED2
 48
5.0
370
     0
  0
POLYLINE
  5
5503F
330
52C18
100
AcDbEntity
  8
sink_label
  6
DASHED2
 48
5.0
370
     0
100
AcDb2dPolyline
 66
     1
 10
0.0
 20
0.0
 30
0.0
 70
     1
  0
VERTEX
  5
55040
330
5503F
100
AcDbEntity
  8
sink_label
  6
DASHED2
 48
5.0
370
     0
100
AcDbVertex
100
AcDb2dVertex
 10
30491.42154292734
 20
26005.92106700077
 30
0.0
  0
VERTEX
  5
55041
330
5503F
100
AcDbEntity
  8
sink_label
  6
DASHED2
 48
5.0
370
     0
100
AcDbVertex
100
AcDb2dVertex
 10
30491.24234780245
 20
26010.28344012355
 30
0.0
  0
VERTEX
  5
55042
330
5503F
100
AcDbEntity
  8
sink_label
  6
DASHED2
 48
5.0
370
     0
100
AcDbVertex
100
AcDb2dVertex
 10
30490.70916886524
 20
26014.61643699634
 30
0.0
  0
VERTEX
  5
55043
330
5503F
100
AcDbEntity
  8
sink_label
  6
DASHED2
 48
5.0
370
     0
100
AcDbVertex
100
AcDb2dVertex
 10
30489.82494374069
 20
26018.89361899417
 30
0.0
  0
VERTEX
  5
55044
330
5503F
100
AcDbEntity
  8
sink_label
  6
DASHED2
 48
5.0
370
     0
100
AcDbVertex
100
AcDb2dVertex
 10
30488.59554767878
 20
26023.08560986704
 30
0.0
  0
VERTEX
  5
55045
330
5503F
100
AcDbEntity
  8
sink_label
  6
DASHED2
 48
5.0
370
     0
100
AcDbVertex
100
AcDb2dVertex
 10
30487.02538711707
 20
26027.16303336496
 30
0.0
  0
VERTEX
  5
55046
330
5503F
100
AcDbEntity
  8
sink_label
  6
DASHED2
 48
5.0
370
     0
100
AcDbVertex
100
AcDb2dVertex
 10
30485.13061899309
 20
26031.09651323797
 30
0.0
  0
VERTEX
  5
55047
330
5503F
100
AcDbEntity
  8
sink_label
  6
DASHED2
 48
5.0
370
     0
100
AcDbVertex
100
AcDb2dVertex
 10
30482.92299380673
 20
26034.86548611105
 30
0.0
  0
VERTEX
  5
55048
330
5503F
100
AcDbEntity
  8
sink_label
  6
DASHED2
 48
5.0
370
     0
100
AcDbVertex
100
AcDb2dVertex
 10
30480.41279324547
 20
26038.44057573422
 30
0.0
  0
VERTEX
  5
55049
330
5503F
100
AcDbEntity
  8
sink_label
  6
DASHED2
 48
5.0
370
     0
100
AcDbVertex
100
AcDb2dVertex
 10
30477.62058068441
 20
26041.79828110752
 30
0.0
  0
VERTEX
  5
5504A
330
5503F
100
AcDbEntity
  8
sink_label
  6
DASHED2
 48
5.0
370
     0
100
AcDbVertex
100
AcDb2dVertex
 10
30474.56545068599
 20
26044.91803885593
 30
0.0
  0
VERTEX
  5
5504B
330
5503F
100
AcDbEntity
  8
sink_label
  6
DASHED2
 48
5.0
370
     0
100
AcDbVertex
100
AcDb2dVertex
 10
30471.26356018761
 20
26047.77634797947
 30
0.0
  0
VERTEX
  5
5504C
330
5503F
100
AcDbEntity
  8
sink_label
  6
DASHED2
 48
5.0
370
     0
100
AcDbVertex
100
AcDb2dVertex
 10
30467.74281662686
 20
26050.35852035316
 30
0.0
  0
VERTEX
  5
5504D
330
5503F
100
AcDbEntity
  8
sink_label
  6
DASHED2
 48
5.0
370
     0
100
AcDbVertex
100
AcDb2dVertex
 10
30464.02084575385
 20
26052.641054977
 30
0.0
  0
VERTEX
  5
5504E
330
5503F
100
AcDbEntity
  8
sink_label
  6
DASHED2
 48
5.0
370
     0
100
AcDbVertex
100
AcDb2dVertex
 10
30460.12408619329
 20
26054.61807660099
 30
0.0
  0
VERTEX
  5
5504F
330
5503F
100
AcDbEntity
  8
sink_label
  6
DASHED2
 48
5.0
370
     0
100
AcDbVertex
100
AcDb2dVertex
 10
30456.08191419534
 20
26056.26902185016
 30
0.0
  0
VERTEX
  5
55050
330
5503F
100
AcDbEntity
  8
sink_label
  6
DASHED2
 48
5.0
370
     0
100
AcDbVertex
100
AcDb2dVertex
 10
30451.91783075996
 20
26057.58507784949
 30
0.0
  0
VERTEX
  5
55051
330
5503F
100
AcDbEntity
  8
sink_label
  6
DASHED2
 48
5.0
370
     0
100
AcDbVertex
100
AcDb2dVertex
 10
30447.65974332463
 20
26058.557431724
 30
0.0
  0
VERTEX
  5
55052
330
5503F
100
AcDbEntity
  8
sink_label
  6
DASHED2
 48
5.0
370
     0
100
AcDbVertex
100
AcDb2dVertex
 10
30443.3384969518
 20
26059.18020822368
 30
0.0
  0
VERTEX
  5
55053
330
5503F
100
AcDbEntity
  8
sink_label
  6
DASHED2
 48
5.0
370
     0
100
AcDbVertex
100
AcDb2dVertex
 10
30438.97759264156
 20
26059.44459447354
 30
0.0
  0
VERTEX
  5
55054
330
5503F
100
AcDbEntity
  8
sink_label
  6
DASHED2
 48
5.0
370
     0
100
AcDbVertex
100
AcDb2dVertex
 10
30434.61375070626
 20
26059.35646572358
 30
0.0
  0
VERTEX
  5
55055
330
5503F
100
AcDbEntity
  8
sink_label
  6
DASHED2
 48
5.0
370
     0
100
AcDbVertex
100
AcDb2dVertex
 10
30430.26753452096
 20
26058.90994672381
 30
0.0
  0
VERTEX
  5
55056
330
5503F
100
AcDbEntity
  8
sink_label
  6
DASHED2
 48
5.0
370
     0
100
AcDbVertex
100
AcDb2dVertex
 10
30425.97419558566
 20
26058.11385034922
 30
0.0
  0
VERTEX
  5
55057
330
5503F
100
AcDbEntity
  8
sink_label
  6
DASHED2
 48
5.0
370
     0
100
AcDbVertex
100
AcDb2dVertex
 10
30421.76017252532
 20
26056.9681765998
 30
0.0
  0
VERTEX
  5
55058
330
5503F
100
AcDbEntity
  8
sink_label
  6
DASHED2
 48
5.0
370
     0
100
AcDbVertex
100
AcDb2dVertex
 10
30417.65190396488
 20
26055.48467597556
 30
0.0
  0
VERTEX
  5
55059
330
5503F
100
AcDbEntity
  8
sink_label
  6
DASHED2
 48
5.0
370
     0
100
AcDbVertex
100
AcDb2dVertex
 10
30413.68170377939
 20
26053.66922372647
 30
0.0
  0
VERTEX
  5
5505A
330
5503F
100
AcDbEntity
  8
sink_label
  6
DASHED2
 48
5.0
370
     0
100
AcDbVertex
100
AcDb2dVertex
 10
30409.86719771889
 20
26051.53944560257
 30
0.0
  0
VERTEX
  5
5505B
330
5503F
100
AcDbEntity
  8
sink_label
  6
DASHED2
 48
5.0
370
     0
100
AcDbVertex
100
AcDb2dVertex
 10
30406.24363728317
 20
26049.1012168538
 30
0.0
  0
VERTEX
  5
5505C
330
5503F
100
AcDbEntity
  8
sink_label
  6
DASHED2
 48
5.0
370
     0
100
AcDbVertex
100
AcDb2dVertex
 10
30402.83011703497
 20
26046.38097610519
 30
0.0
  0
VERTEX
  5
5505D
330
5503F
100
AcDbEntity
  8
sink_label
  6
DASHED2
 48
5.0
370
     0
100
AcDbVertex
100
AcDb2dVertex
 10
30399.64866916156
 20
26043.38753623171
 30
0.0
  0
VERTEX
  5
5505E
330
5503F
100
AcDbEntity
  8
sink_label
  6
DASHED2
 48
5.0
370
     0
100
AcDbVertex
100
AcDb2dVertex
 10
30396.72426347552
 20
26040.14733585836
 30
0.0
  0
VERTEX
  5
5505F
330
5503F
100
AcDbEntity
  8
sink_label
  6
DASHED2
 48
5.0
370
     0
100
AcDbVertex
100
AcDb2dVertex
 10
30394.07158810193
 20
26036.67506311012
 30
0.0
  0
VERTEX
  5
55060
330
5503F
100
AcDbEntity
  8
sink_label
  6
DASHED2
 48
5.0
370
     0
100
AcDbVertex
100
AcDb2dVertex
 10
30391.7097376031
 20
26033.003031862
 30
0.0
  0
VERTEX
  5
55061
330
5503F
100
AcDbEntity
  8
sink_label
  6
DASHED2
 48
5.0
370
     0
100
AcDbVertex
100
AcDb2dVertex
 10
30389.65486891662
 20
26029.14886786396
 30
0.0
  0
VERTEX
  5
55062
330
5503F
100
AcDbEntity
  8
sink_label
  6
DASHED2
 48
5.0
370
     0
100
AcDbVertex
100
AcDb2dVertex
 10
30387.92313898001
 20
26025.14194736599
 30
0.0
  0
VERTEX
  5
55063
330
5503F
100
AcDbEntity
  8
sink_label
  6
DASHED2
 48
5.0
370
     0
100
AcDbVertex
100
AcDb2dVertex
 10
30386.52336066823
 20
26021.0028337431
 30
0.0
  0
VERTEX
  5
55064
330
5503F
100
AcDbEntity
  8
sink_label
  6
DASHED2
 48
5.0
370
     0
100
AcDbVertex
100
AcDb2dVertex
 10
30385.46287804377
 20
26016.76677849525
 30
0.0
  0
VERTEX
  5
55065
330
5503F
100
AcDbEntity
  8
sink_label
  6
DASHED2
 48
5.0
370
     0
100
AcDbVertex
100
AcDb2dVertex
 10
30384.75491041918
 20
26012.45728262245
 30
0.0
  0
VERTEX
  5
55066
330
5503F
100
AcDbEntity
  8
sink_label
  6
DASHED2
 48
5.0
370
     0
100
AcDbVertex
100
AcDb2dVertex
 10
30384.39798898181
 20
26008.10372237466
 30
0.0
  0
VERTEX
  5
55067
330
5503F
100
AcDbEntity
  8
sink_label
  6
DASHED2
 48
5.0
370
     0
100
AcDbVertex
100
AcDb2dVertex
 10
30384.39798898181
 20
26003.73547400188
 30
0.0
  0
VERTEX
  5
55068
330
5503F
100
AcDbEntity
  8
sink_label
  6
DASHED2
 48
5.0
370
     0
100
AcDbVertex
100
AcDb2dVertex
 10
30384.75491041918
 20
25999.3848513791
 30
0.0
  0
VERTEX
  5
55069
330
5503F
100
AcDbEntity
  8
sink_label
  6
DASHED2
 48
5.0
370
     0
100
AcDbVertex
100
AcDb2dVertex
 10
30385.46287804377
 20
25995.07535550628
 30
0.0
  0
VERTEX
  5
5506A
330
5503F
100
AcDbEntity
  8
sink_label
  6
DASHED2
 48
5.0
370
     0
100
AcDbVertex
100
AcDb2dVertex
 10
30386.52336066823
 20
25990.83930025844
 30
0.0
  0
VERTEX
  5
5506B
330
5503F
100
AcDbEntity
  8
sink_label
  6
DASHED2
 48
5.0
370
     0
100
AcDbVertex
100
AcDb2dVertex
 10
30387.92313898001
 20
25986.70018663555
 30
0.0
  0
VERTEX
  5
5506C
330
5503F
100
AcDbEntity
  8
sink_label
  6
DASHED2
 48
5.0
370
     0
100
AcDbVertex
100
AcDb2dVertex
 10
30389.65486891662
 20
25982.69326613759
 30
0.0
  0
VERTEX
  5
5506D
330
5503F
100
AcDbEntity
  8
sink_label
  6
DASHED2
 48
5.0
370
     0
100
AcDbVertex
100
AcDb2dVertex
 10
30391.7097376031
 20
25978.83910213955
 30
0.0
  0
VERTEX
  5
5506E
330
5503F
100
AcDbEntity
  8
sink_label
  6
DASHED2
 48
5.0
370
     0
100
AcDbVertex
100
AcDb2dVertex
 10
30394.07158810193
 20
25975.16413326641
 30
0.0
  0
VERTEX
  5
5506F
330
5503F
100
AcDbEntity
  8
sink_label
  6
DASHED2
 48
5.0
370
     0
100
AcDbVertex
100
AcDb2dVertex
 10
30396.72426347552
 20
25971.69479814319
 30
0.0
  0
VERTEX
  5
55070
330
5503F
100
AcDbEntity
  8
sink_label
  6
DASHED2
 48
5.0
370
     0
100
AcDbVertex
100
AcDb2dVertex
 10
30399.64866916156
 20
25968.45166014484
 30
0.0
  0
VERTEX
  5
55071
330
5503F
100
AcDbEntity
  8
sink_label
  6
DASHED2
 48
5.0
370
     0
100
AcDbVertex
100
AcDb2dVertex
 10
30402.83011703497
 20
25965.46115789636
 30
0.0
  0
VERTEX
  5
55072
330
5503F
100
AcDbEntity
  8
sink_label
  6
DASHED2
 48
5.0
370
     0
100
AcDbVertex
100
AcDb2dVertex
 10
30406.24363728317
 20
25962.73797952274
 30
0.0
  0
VERTEX
  5
55073
330
5503F
100
AcDbEntity
  8
sink_label
  6
DASHED2
 48
5.0
370
     0
100
AcDbVertex
100
AcDb2dVertex
 10
30409.86719771889
 20
25960.30268839898
 30
0.0
  0
VERTEX
  5
55074
330
5503F
100
AcDbEntity
  8
sink_label
  6
DASHED2
 48
5.0
370
     0
100
AcDbVertex
100
AcDb2dVertex
 10
30413.68170377939
 20
25958.16997265006
 30
0.0
  0
VERTEX
  5
55075
330
5503F
100
AcDbEntity
  8
sink_label
  6
DASHED2
 48
5.0
370
     0
100
AcDbVertex
100
AcDb2dVertex
 10
30417.65190396488
 20
25956.35745802598
 30
0.0
  0
VERTEX
  5
55076
330
5503F
100
AcDbEntity
  8
sink_label
  6
DASHED2
 48
5.0
370
     0
100
AcDbVertex
100
AcDb2dVertex
 10
30421.76017252532
 20
25954.87395740174
 30
0.0
  0
VERTEX
  5
55077
330
5503F
100
AcDbEntity
  8
sink_label
  6
DASHED2
 48
5.0
370
     0
100
AcDbVertex
100
AcDb2dVertex
 10
30425.97419558566
 20
25953.72534602732
 30
0.0
  0
VERTEX
  5
55078
330
5503F
100
AcDbEntity
  8
sink_label
  6
DASHED2
 48
5.0
370
     0
100
AcDbVertex
100
AcDb2dVertex
 10
30430.26753452096
 20
25952.92924965273
 30
0.0
  0
VERTEX
  5
55079
330
5503F
100
AcDbEntity
  8
sink_label
  6
DASHED2
 48
5.0
370
     0
100
AcDbVertex
100
AcDb2dVertex
 10
30434.61375070626
 20
25952.48566827795
 30
0.0
  0
VERTEX
  5
5507A
330
5503F
100
AcDbEntity
  8
sink_label
  6
DASHED2
 48
5.0
370
     0
100
AcDbVertex
100
AcDb2dVertex
 10
30438.97759264156
 20
25952.397539528
 30
0.0
  0
VERTEX
  5
5507B
330
5503F
100
AcDbEntity
  8
sink_label
  6
DASHED2
 48
5.0
370
     0
100
AcDbVertex
100
AcDb2dVertex
 10
30443.3384969518
 20
25952.66192577787
 30
0.0
  0
VERTEX
  5
5507C
330
5503F
100
AcDbEntity
  8
sink_label
  6
DASHED2
 48
5.0
370
     0
100
AcDbVertex
100
AcDb2dVertex
 10
30447.65974332463
 20
25953.28470227755
 30
0.0
  0
VERTEX
  5
5507D
330
5503F
100
AcDbEntity
  8
sink_label
  6
DASHED2
 48
5.0
370
     0
100
AcDbVertex
100
AcDb2dVertex
 10
30451.91783075996
 20
25954.25705615205
 30
0.0
  0
VERTEX
  5
5507E
330
5503F
100
AcDbEntity
  8
sink_label
  6
DASHED2
 48
5.0
370
     0
100
AcDbVertex
100
AcDb2dVertex
 10
30456.08191419534
 20
25955.57311215139
 30
0.0
  0
VERTEX
  5
5507F
330
5503F
100
AcDbEntity
  8
sink_label
  6
DASHED2
 48
5.0
370
     0
100
AcDbVertex
100
AcDb2dVertex
 10
30460.12408619329
 20
25957.22111977555
 30
0.0
  0
VERTEX
  5
55080
330
5503F
100
AcDbEntity
  8
sink_label
  6
DASHED2
 48
5.0
370
     0
100
AcDbVertex
100
AcDb2dVertex
 10
30464.02084575385
 20
25959.19520377454
 30
0.0
  0
VERTEX
  5
55081
330
5503F
100
AcDbEntity
  8
sink_label
  6
DASHED2
 48
5.0
370
     0
100
AcDbVertex
100
AcDb2dVertex
 10
30467.74281662686
 20
25961.48067602339
 30
0.0
  0
VERTEX
  5
55082
330
5503F
100
AcDbEntity
  8
sink_label
  6
DASHED2
 48
5.0
370
     0
100
AcDbVertex
100
AcDb2dVertex
 10
30471.26356018761
 20
25964.06284839706
 30
0.0
  0
VERTEX
  5
55083
330
5503F
100
AcDbEntity
  8
sink_label
  6
DASHED2
 48
5.0
370
     0
100
AcDbVertex
100
AcDb2dVertex
 10
30474.56545068599
 20
25966.92409514561
 30
0.0
  0
VERTEX
  5
55084
330
5503F
100
AcDbEntity
  8
sink_label
  6
DASHED2
 48
5.0
370
     0
100
AcDbVertex
100
AcDb2dVertex
 10
30477.62058068441
 20
25970.04385289402
 30
0.0
  0
VERTEX
  5
55085
330
5503F
100
AcDbEntity
  8
sink_label
  6
DASHED2
 48
5.0
370
     0
100
AcDbVertex
100
AcDb2dVertex
 10
30480.41279324547
 20
25973.40155826731
 30
0.0
  0
VERTEX
  5
55086
330
5503F
100
AcDbEntity
  8
sink_label
  6
DASHED2
 48
5.0
370
     0
100
AcDbVertex
100
AcDb2dVertex
 10
30482.92299380673
 20
25976.97664789049
 30
0.0
  0
VERTEX
  5
55087
330
5503F
100
AcDbEntity
  8
sink_label
  6
DASHED2
 48
5.0
370
     0
100
AcDbVertex
100
AcDb2dVertex
 10
30485.13061899309
 20
25980.74562076358
 30
0.0
  0
VERTEX
  5
55088
330
5503F
100
AcDbEntity
  8
sink_label
  6
DASHED2
 48
5.0
370
     0
100
AcDbVertex
100
AcDb2dVertex
 10
30487.02538711707
 20
25984.67910063658
 30
0.0
  0
VERTEX
  5
55089
330
5503F
100
AcDbEntity
  8
sink_label
  6
DASHED2
 48
5.0
370
     0
100
AcDbVertex
100
AcDb2dVertex
 10
30488.59554767878
 20
25988.75358650951
 30
0.0
  0
VERTEX
  5
5508A
330
5503F
100
AcDbEntity
  8
sink_label
  6
DASHED2
 48
5.0
370
     0
100
AcDbVertex
100
AcDb2dVertex
 10
30489.82494374069
 20
25992.94557738237
 30
0.0
  0
VERTEX
  5
5508B
330
5503F
100
AcDbEntity
  8
sink_label
  6
DASHED2
 48
5.0
370
     0
100
AcDbVertex
100
AcDb2dVertex
 10
30490.70916886524
 20
25997.22275938019
 30
0.0
  0
VERTEX
  5
5508C
330
5503F
100
AcDbEntity
  8
sink_label
  6
DASHED2
 48
5.0
370
     0
100
AcDbVertex
100
AcDb2dVertex
 10
30491.24234780245
 20
26001.55575625299
 30
0.0
  0
SEQEND
  5
5508D
330
5503F
100
AcDbEntity
  8
sink_label
  6
DASHED2
 48
5.0
370
     0
  0
POLYLINE
  5
5508E
330
52C18
100
AcDbEntity
  8
sink_label
  6
DASHED2
 48
5.0
370
     0
100
AcDb2dPolyline
 66
     1
 10
0.0
 20
0.0
 30
0.0
 70
     1
  0
VERTEX
  5
5508F
330
5508E
100
AcDbEntity
  8
sink_label
  6
DASHED2
 48
5.0
370
     0
100
AcDbVertex
100
AcDb2dVertex
 10
30494.96872511309
 20
26005.92106700077
 30
0.0
  0
VERTEX
  5
55090
330
5508E
100
AcDbEntity
  8
sink_label
  6
DASHED2
 48
5.0
370
     0
100
AcDbVertex
100
AcDb2dVertex
 10
30494.79246761313
 20
26001.44118887805
 30
0.0
  0
VERTEX
  5
55091
330
5508E
100
AcDbEntity
  8
sink_label
  6
DASHED2
 48
5.0
370
     0
100
AcDbVertex
100
AcDb2dVertex
 10
30494.26663273842
 20
25996.99362463031
 30
0.0
  0
VERTEX
  5
55092
330
5508E
100
AcDbEntity
  8
sink_label
  6
DASHED2
 48
5.0
370
     0
100
AcDbVertex
100
AcDb2dVertex
 10
30493.39268930135
 20
25992.59600000754
 30
0.0
  0
VERTEX
  5
55093
330
5508E
100
AcDbEntity
  8
sink_label
  6
DASHED2
 48
5.0
370
     0
100
AcDbVertex
100
AcDb2dVertex
 10
30492.17504373951
 20
25988.28356650974
 30
0.0
  0
VERTEX
  5
55094
330
5508E
100
AcDbEntity
  8
sink_label
  6
DASHED2
 48
5.0
370
     0
100
AcDbVertex
100
AcDb2dVertex
 10
30490.62544655277
 20
25984.07982513688
 30
0.0
  0
VERTEX
  5
55095
330
5508E
100
AcDbEntity
  8
sink_label
  6
DASHED2
 48
5.0
370
     0
100
AcDbVertex
100
AcDb2dVertex
 10
30488.74830417872
 20
25980.01121451395
 30
0.0
  0
VERTEX
  5
55096
330
5508E
100
AcDbEntity
  8
sink_label
  6
DASHED2
 48
5.0
370
     0
100
AcDbVertex
100
AcDb2dVertex
 10
30486.55830474234
 20
25976.10123564094
 30
0.0
  0
VERTEX
  5
55097
330
5508E
100
AcDbEntity
  8
sink_label
  6
DASHED2
 48
5.0
370
     0
100
AcDbVertex
100
AcDb2dVertex
 10
30484.07013636858
 20
25972.37338951784
 30
0.0
  0
VERTEX
  5
55098
330
5508E
100
AcDbEntity
  8
sink_label
  6
DASHED2
 48
5.0
370
     0
100
AcDbVertex
100
AcDb2dVertex
 10
30481.2955495575
 20
25968.85705239463
 30
0.0
  0
VERTEX
  5
55099
330
5508E
100
AcDbEntity
  8
sink_label
  6
DASHED2
 48
5.0
370
     0
100
AcDbVertex
100
AcDb2dVertex
 10
30478.25363887155
 20
25965.5639747713
 30
0.0
  0
VERTEX
  5
5509A
330
5508E
100
AcDbEntity
  8
sink_label
  6
DASHED2
 48
5.0
370
     0
100
AcDbVertex
100
AcDb2dVertex
 10
30474.96203006077
 20
25962.52353289785
 30
0.0
  0
VERTEX
  5
5509B
330
5508E
100
AcDbEntity
  8
sink_label
  6
DASHED2
 48
5.0
370
     0
100
AcDbVertex
100
AcDb2dVertex
 10
30471.44422412502
 20
25959.74747727427
 30
0.0
  0
VERTEX
  5
5509C
330
5508E
100
AcDbEntity
  8
sink_label
  6
DASHED2
 48
5.0
370
     0
100
AcDbVertex
100
AcDb2dVertex
 10
30467.71931562696
 20
25957.25930890052
 30
0.0
  0
VERTEX
  5
5509D
330
5508E
100
AcDbEntity
  8
sink_label
  6
DASHED2
 48
5.0
370
     0
100
AcDbVertex
100
AcDb2dVertex
 10
30463.80786794146
 20
25955.07077827664
 30
0.0
  0
VERTEX
  5
5509E
330
5508E
100
AcDbEntity
  8
sink_label
  6
DASHED2
 48
5.0
370
     0
100
AcDbVertex
100
AcDb2dVertex
 10
30459.7392573185
 20
25953.19069827759
 30
0.0
  0
VERTEX
  5
5509F
330
5508E
100
AcDbEntity
  8
sink_label
  6
DASHED2
 48
5.0
370
     0
100
AcDbVertex
100
AcDb2dVertex
 10
30455.53404713313
 20
25951.64256990339
 30
0.0
  0
VERTEX
  5
550A0
330
5508E
100
AcDbEntity
  8
sink_label
  6
DASHED2
 48
5.0
370
     0
100
AcDbVertex
100
AcDb2dVertex
 10
30451.22161363532
 20
25950.426393154
 30
0.0
  0
VERTEX
  5
550A1
330
5508E
100
AcDbEntity
  8
sink_label
  6
DASHED2
 48
5.0
370
     0
100
AcDbVertex
100
AcDb2dVertex
 10
30446.82545782505
 20
25949.55391852945
 30
0.0
  0
VERTEX
  5
550A2
330
5508E
100
AcDbEntity
  8
sink_label
  6
DASHED2
 48
5.0
370
     0
100
AcDbVertex
100
AcDb2dVertex
 10
30442.37642476488
 20
25949.02514602972
 30
0.0
  0
VERTEX
  5
550A3
330
5508E
100
AcDbEntity
  8
sink_label
  6
DASHED2
 48
5.0
370
     0
100
AcDbVertex
100
AcDb2dVertex
 10
30437.90095307958
 20
25948.8488885298
 30
0.0
  0
VERTEX
  5
550A4
330
5508E
100
AcDbEntity
  8
sink_label
  6
DASHED2
 48
5.0
370
     0
100
AcDbVertex
100
AcDb2dVertex
 10
30433.42254376936
 20
25949.02514602972
 30
0.0
  0
VERTEX
  5
550A5
330
5508E
100
AcDbEntity
  8
sink_label
  6
DASHED2
 48
5.0
370
     0
100
AcDbVertex
100
AcDb2dVertex
 10
30428.97204189667
 20
25949.55391852945
 30
0.0
  0
VERTEX
  5
550A6
330
5508E
100
AcDbEntity
  8
sink_label
  6
DASHED2
 48
5.0
370
     0
100
AcDbVertex
100
AcDb2dVertex
 10
30424.5758860864
 20
25950.426393154
 30
0.0
  0
VERTEX
  5
550A7
330
5508E
100
AcDbEntity
  8
sink_label
  6
DASHED2
 48
5.0
370
     0
100
AcDbVertex
100
AcDb2dVertex
 10
30420.26345258859
 20
25951.64256990339
 30
0.0
  0
VERTEX
  5
550A8
330
5508E
100
AcDbEntity
  8
sink_label
  6
DASHED2
 48
5.0
370
     0
100
AcDbVertex
100
AcDb2dVertex
 10
30416.05971121568
 20
25953.19069827759
 30
0.0
  0
VERTEX
  5
550A9
330
5508E
100
AcDbEntity
  8
sink_label
  6
DASHED2
 48
5.0
370
     0
100
AcDbVertex
100
AcDb2dVertex
 10
30411.99110059273
 20
25955.07077827664
 30
0.0
  0
VERTEX
  5
550AA
330
5508E
100
AcDbEntity
  8
sink_label
  6
DASHED2
 48
5.0
370
     0
100
AcDbVertex
100
AcDb2dVertex
 10
30408.07965290728
 20
25957.25930890052
 30
0.0
  0
VERTEX
  5
550AB
330
5508E
100
AcDbEntity
  8
sink_label
  6
DASHED2
 48
5.0
370
     0
100
AcDbVertex
100
AcDb2dVertex
 10
30404.35474440911
 20
25959.74747727427
 30
0.0
  0
VERTEX
  5
550AC
330
5508E
100
AcDbEntity
  8
sink_label
  6
DASHED2
 48
5.0
370
     0
100
AcDbVertex
100
AcDb2dVertex
 10
30400.83693847341
 20
25962.52353289785
 30
0.0
  0
VERTEX
  5
550AD
330
5508E
100
AcDbEntity
  8
sink_label
  6
DASHED2
 48
5.0
370
     0
100
AcDbVertex
100
AcDb2dVertex
 10
30397.5467984751
 20
25965.5639747713
 30
0.0
  0
VERTEX
  5
550AE
330
5508E
100
AcDbEntity
  8
sink_label
  6
DASHED2
 48
5.0
370
     0
100
AcDbVertex
100
AcDb2dVertex
 10
30394.50488778921
 20
25968.85705239463
 30
0.0
  0
VERTEX
  5
550AF
330
5508E
100
AcDbEntity
  8
sink_label
  6
DASHED2
 48
5.0
370
     0
100
AcDbVertex
100
AcDb2dVertex
 10
30391.73030097807
 20
25972.37338951784
 30
0.0
  0
VERTEX
  5
550B0
330
5508E
100
AcDbEntity
  8
sink_label
  6
DASHED2
 48
5.0
370
     0
100
AcDbVertex
100
AcDb2dVertex
 10
30389.24066379184
 20
25976.10123564094
 30
0.0
  0
VERTEX
  5
550B1
330
5508E
100
AcDbEntity
  8
sink_label
  6
DASHED2
 48
5.0
370
     0
100
AcDbVertex
100
AcDb2dVertex
 10
30387.05066435547
 20
25980.01121451395
 30
0.0
  0
VERTEX
  5
550B2
330
5508E
100
AcDbEntity
  8
sink_label
  6
DASHED2
 48
5.0
370
     0
100
AcDbVertex
100
AcDb2dVertex
 10
30385.17499079388
 20
25984.07982513688
 30
0.0
  0
VERTEX
  5
550B3
330
5508E
100
AcDbEntity
  8
sink_label
  6
DASHED2
 48
5.0
370
     0
100
AcDbVertex
100
AcDb2dVertex
 10
30383.62392479468
 20
25988.28356650974
 30
0.0
  0
VERTEX
  5
550B4
330
5508E
100
AcDbEntity
  8
sink_label
  6
DASHED2
 48
5.0
370
     0
100
AcDbVertex
100
AcDb2dVertex
 10
30382.40627923283
 20
25992.59600000754
 30
0.0
  0
VERTEX
  5
550B5
330
5508E
100
AcDbEntity
  8
sink_label
  6
DASHED2
 48
5.0
370
     0
100
AcDbVertex
100
AcDb2dVertex
 10
30381.53380460829
 20
25996.99362463031
 30
0.0
  0
VERTEX
  5
550B6
330
5508E
100
AcDbEntity
  8
sink_label
  6
DASHED2
 48
5.0
370
     0
100
AcDbVertex
100
AcDb2dVertex
 10
30381.00503210858
 20
26001.44118887805
 30
0.0
  0
VERTEX
  5
550B7
330
5508E
100
AcDbEntity
  8
sink_label
  6
DASHED2
 48
5.0
370
     0
100
AcDbVertex
100
AcDb2dVertex
 10
30380.83171223361
 20
26005.92106700077
 30
0.0
  0
VERTEX
  5
550B8
330
5508E
100
AcDbEntity
  8
sink_label
  6
DASHED2
 48
5.0
370
     0
100
AcDbVertex
100
AcDb2dVertex
 10
30381.00503210858
 20
26010.3980074985
 30
0.0
  0
VERTEX
  5
550B9
330
5508E
100
AcDbEntity
  8
sink_label
  6
DASHED2
 48
5.0
370
     0
100
AcDbVertex
100
AcDb2dVertex
 10
30381.53380460829
 20
26014.84850937123
 30
0.0
  0
VERTEX
  5
550BA
330
5508E
100
AcDbEntity
  8
sink_label
  6
DASHED2
 48
5.0
370
     0
100
AcDbVertex
100
AcDb2dVertex
 10
30382.40627923283
 20
26019.24319636899
 30
0.0
  0
VERTEX
  5
550BB
330
5508E
100
AcDbEntity
  8
sink_label
  6
DASHED2
 48
5.0
370
     0
100
AcDbVertex
100
AcDb2dVertex
 10
30383.62392479468
 20
26023.5556298668
 30
0.0
  0
VERTEX
  5
550BC
330
5508E
100
AcDbEntity
  8
sink_label
  6
DASHED2
 48
5.0
370
     0
100
AcDbVertex
100
AcDb2dVertex
 10
30385.17499079388
 20
26027.75937123966
 30
0.0
  0
VERTEX
  5
550BD
330
5508E
100
AcDbEntity
  8
sink_label
  6
DASHED2
 48
5.0
370
     0
100
AcDbVertex
100
AcDb2dVertex
 10
30387.05066435547
 20
26031.83091948758
 30
0.0
  0
VERTEX
  5
550BE
330
5508E
100
AcDbEntity
  8
sink_label
  6
DASHED2
 48
5.0
370
     0
100
AcDbVertex
100
AcDb2dVertex
 10
30389.24066379184
 20
26035.7408983606
 30
0.0
  0
VERTEX
  5
550BF
330
5508E
100
AcDbEntity
  8
sink_label
  6
DASHED2
 48
5.0
370
     0
100
AcDbVertex
100
AcDb2dVertex
 10
30391.73030097807
 20
26039.46580685871
 30
0.0
  0
VERTEX
  5
550C0
330
5508E
100
AcDbEntity
  8
sink_label
  6
DASHED2
 48
5.0
370
     0
100
AcDbVertex
100
AcDb2dVertex
 10
30394.50488778921
 20
26042.98508160692
 30
0.0
  0
VERTEX
  5
550C1
330
5508E
100
AcDbEntity
  8
sink_label
  6
DASHED2
 48
5.0
370
     0
100
AcDbVertex
100
AcDb2dVertex
 10
30397.5467984751
 20
26046.27815923024
 30
0.0
  0
VERTEX
  5
550C2
330
5508E
100
AcDbEntity
  8
sink_label
  6
DASHED2
 48
5.0
370
     0
100
AcDbVertex
100
AcDb2dVertex
 10
30400.83693847341
 20
26049.3186011037
 30
0.0
  0
VERTEX
  5
550C3
330
5508E
100
AcDbEntity
  8
sink_label
  6
DASHED2
 48
5.0
370
     0
100
AcDbVertex
100
AcDb2dVertex
 10
30404.35474440911
 20
26052.09171910228
 30
0.0
  0
VERTEX
  5
550C4
330
5508E
100
AcDbEntity
  8
sink_label
  6
DASHED2
 48
5.0
370
     0
100
AcDbVertex
100
AcDb2dVertex
 10
30408.07965290728
 20
26054.58282510102
 30
0.0
  0
VERTEX
  5
550C5
330
5508E
100
AcDbEntity
  8
sink_label
  6
DASHED2
 48
5.0
370
     0
100
AcDbVertex
100
AcDb2dVertex
 10
30411.99110059273
 20
26056.7713557249
 30
0.0
  0
VERTEX
  5
550C6
330
5508E
100
AcDbEntity
  8
sink_label
  6
DASHED2
 48
5.0
370
     0
100
AcDbVertex
100
AcDb2dVertex
 10
30416.05971121568
 20
26058.64556047395
 30
0.0
  0
VERTEX
  5
550C7
330
5508E
100
AcDbEntity
  8
sink_label
  6
DASHED2
 48
5.0
370
     0
100
AcDbVertex
100
AcDb2dVertex
 10
30420.26345258859
 20
26060.19956409816
 30
0.0
  0
VERTEX
  5
550C8
330
5508E
100
AcDbEntity
  8
sink_label
  6
DASHED2
 48
5.0
370
     0
100
AcDbVertex
100
AcDb2dVertex
 10
30424.5758860864
 20
26061.41574084754
 30
0.0
  0
VERTEX
  5
550C9
330
5508E
100
AcDbEntity
  8
sink_label
  6
DASHED2
 48
5.0
370
     0
100
AcDbVertex
100
AcDb2dVertex
 10
30428.97204189667
 20
26062.2882154721
 30
0.0
  0
VERTEX
  5
550CA
330
5508E
100
AcDbEntity
  8
sink_label
  6
DASHED2
 48
5.0
370
     0
100
AcDbVertex
100
AcDb2dVertex
 10
30433.42254376936
 20
26062.81405034682
 30
0.0
  0
VERTEX
  5
550CB
330
5508E
100
AcDbEntity
  8
sink_label
  6
DASHED2
 48
5.0
370
     0
100
AcDbVertex
100
AcDb2dVertex
 10
30437.90095307958
 20
26062.99030784674
 30
0.0
  0
VERTEX
  5
550CC
330
5508E
100
AcDbEntity
  8
sink_label
  6
DASHED2
 48
5.0
370
     0
100
AcDbVertex
100
AcDb2dVertex
 10
30442.37642476488
 20
26062.81405034682
 30
0.0
  0
VERTEX
  5
550CD
330
5508E
100
AcDbEntity
  8
sink_label
  6
DASHED2
 48
5.0
370
     0
100
AcDbVertex
100
AcDb2dVertex
 10
30446.82545782505
 20
26062.2882154721
 30
0.0
  0
VERTEX
  5
550CE
330
5508E
100
AcDbEntity
  8
sink_label
  6
DASHED2
 48
5.0
370
     0
100
AcDbVertex
100
AcDb2dVertex
 10
30451.22161363532
 20
26061.41574084754
 30
0.0
  0
VERTEX
  5
550CF
330
5508E
100
AcDbEntity
  8
sink_label
  6
DASHED2
 48
5.0
370
     0
100
AcDbVertex
100
AcDb2dVertex
 10
30455.53404713313
 20
26060.19956409816
 30
0.0
  0
VERTEX
  5
550D0
330
5508E
100
AcDbEntity
  8
sink_label
  6
DASHED2
 48
5.0
370
     0
100
AcDbVertex
100
AcDb2dVertex
 10
30455.53404713313
 20
26060.19956409816
 30
0.0
  0
VERTEX
  5
550D1
330
5508E
100
AcDbEntity
  8
sink_label
  6
DASHED2
 48
5.0
370
     0
100
AcDbVertex
100
AcDb2dVertex
 10
30463.80786794146
 20
26056.7713557249
 30
0.0
  0
VERTEX
  5
550D2
330
5508E
100
AcDbEntity
  8
sink_label
  6
DASHED2
 48
5.0
370
     0
100
AcDbVertex
100
AcDb2dVertex
 10
30467.71931562696
 20
26054.58282510102
 30
0.0
  0
VERTEX
  5
550D3
330
5508E
100
AcDbEntity
  8
sink_label
  6
DASHED2
 48
5.0
370
     0
100
AcDbVertex
100
AcDb2dVertex
 10
30471.44422412502
 20
26052.09171910228
 30
0.0
  0
VERTEX
  5
550D4
330
5508E
100
AcDbEntity
  8
sink_label
  6
DASHED2
 48
5.0
370
     0
100
AcDbVertex
100
AcDb2dVertex
 10
30474.96203006077
 20
26049.3186011037
 30
0.0
  0
VERTEX
  5
550D5
330
5508E
100
AcDbEntity
  8
sink_label
  6
DASHED2
 48
5.0
370
     0
100
AcDbVertex
100
AcDb2dVertex
 10
30478.25363887155
 20
26046.27815923024
 30
0.0
  0
VERTEX
  5
550D6
330
5508E
100
AcDbEntity
  8
sink_label
  6
DASHED2
 48
5.0
370
     0
100
AcDbVertex
100
AcDb2dVertex
 10
30481.2955495575
 20
26042.98508160692
 30
0.0
  0
VERTEX
  5
550D7
330
5508E
100
AcDbEntity
  8
sink_label
  6
DASHED2
 48
5.0
370
     0
100
AcDbVertex
100
AcDb2dVertex
 10
30484.07013636858
 20
26039.46580685871
 30
0.0
  0
VERTEX
  5
550D8
330
5508E
100
AcDbEntity
  8
sink_label
  6
DASHED2
 48
5.0
370
     0
100
AcDbVertex
100
AcDb2dVertex
 10
30486.55830474234
 20
26035.7408983606
 30
0.0
  0
VERTEX
  5
550D9
330
5508E
100
AcDbEntity
  8
sink_label
  6
DASHED2
 48
5.0
370
     0
100
AcDbVertex
100
AcDb2dVertex
 10
30488.74830417872
 20
26031.83091948758
 30
0.0
  0
VERTEX
  5
550DA
330
5508E
100
AcDbEntity
  8
sink_label
  6
DASHED2
 48
5.0
370
     0
100
AcDbVertex
100
AcDb2dVertex
 10
30490.62544655277
 20
26027.75937123966
 30
0.0
  0
VERTEX
  5
550DB
330
5508E
100
AcDbEntity
  8
sink_label
  6
DASHED2
 48
5.0
370
     0
100
AcDbVertex
100
AcDb2dVertex
 10
30492.17504373951
 20
26023.5556298668
 30
0.0
  0
VERTEX
  5
550DC
330
5508E
100
AcDbEntity
  8
sink_label
  6
DASHED2
 48
5.0
370
     0
100
AcDbVertex
100
AcDb2dVertex
 10
30493.39268930135
 20
26019.24319636899
 30
0.0
  0
VERTEX
  5
550DD
330
5508E
100
AcDbEntity
  8
sink_label
  6
DASHED2
 48
5.0
370
     0
100
AcDbVertex
100
AcDb2dVertex
 10
30494.26663273842
 20
26014.84850937123
 30
0.0
  0
VERTEX
  5
550DE
330
5508E
100
AcDbEntity
  8
sink_label
  6
DASHED2
 48
5.0
370
     0
100
AcDbVertex
100
AcDb2dVertex
 10
30494.79246761313
 20
26010.3980074985
 30
0.0
  0
SEQEND
  5
550DF
330
5508E
100
AcDbEntity
  8
sink_label
  6
DASHED2
 48
5.0
370
     0
  0
DIMENSION
  5
550E0
330
52C18
100
AcDbEntity
  8
DIMS SPECS
100
AcDbDimension
  2
*D21
 10
30693.80772478971
 20
25616.4938068413
 30
0.0
 11
30312.43689704224
 21
25616.4938068413
 31
0.0
 70
   160
 71
     5
 42
765.0000000000036
 73
     0
 74
     0
 75
     0
  3
abode-iso$0
100
AcDbAlignedDimension
 13
29928.8077247897
 23
25699.47664521544
 33
0.0
 14
30693.80772478971
 24
25699.47664521544
 34
0.0
100
AcDbRotatedDimension
1001
ACAD_DSTYLE_DIMINSPECT
1070
   396
1000
100%
1070
   395
1000

1070
   394
1070
    33
1070
   393
1070
     0
1001
ACAD
1000
DSTYLE
1002
{
1070
   340
1005
53181
1070
   371
1070
    -1
1070
   372
1070
    -1
1002
}
  0
MTEXT
  5
550E1
102
{ACAD_XDICTIONARY
360
551B7
102
}
330
52C18
100
AcDbEntity
  8
CUTOUT
100
AcDbMText
 10
30056.04087482985
 20
26354.71760033034
 30
0.0
 40
40.0
 41
559.4757407245924
 46
0.0
 71
     1
 72
     5
  1
\pi7.7379;APRON FRONT CUT OUT
 73
     1
 44
1.0
  0
MTEXT
  5
550E2
330
52C18
100
AcDbEntity
  8
sink_specs
100
AcDbMText
 10
30742.17671134266
 20
25952.39443094507
 30
0.0
 40
8.0
 41
257.8883999281679
 46
293.428518032586
 71
     1
 72
     5
  3
{\LImportant, to the fabricator / installer:\P}The cut out size indicated is flush with the bowl edge with a minimum radius where appropriate.\PYou should confirm with your client if the worksurface cutout is to be cut flush, inside or outside this s
  3
uggested perimeter size. \PIf you create the cutout smaller or larger than the indicated size then some accessories may not fit correctly.\PAll details are provided in good faith and within the tolerances of the manufacturing process.\PWe recommend t
  3
hat a test cutout is made in scrap timber and checked against the actual sink supplied before committing to cutting the worksurface.\PAbode can not accept liability for problems or costs incurred by failure to follow this advise.\PAW1021 v1 (c) abode
  1
 2018
  7
ACISOTS
 73
     1
 44
1.0
  0
DIMENSION
  5
550E3
102
{ACAD_XDICTIONARY
360
550E4
102
}
102
{ACAD_REACTORS
330
550E5
102
}
330
52C18
100
AcDbEntity
  8
DIMS SPECS
100
AcDbDimension
  2
*D22
 10
29918.80772478971
 20
25699.47664521544
 30
0.0
 11
29866.87927126863
 21
25717.31778238428
 31
0.0
 70
   164
 71
     5
 42
10.00000000000182
 73
     0
 74
     0
 75
     0
  3
abode-iso$4
100
AcDbRadialDimension
 15
29927.20490151835
 25
25694.04641290107
 35
0.0
 40
0.0
1001
ACAD_DSTYLE_DIMINSPECT
1070
   396
1000
100%
1070
   395
1000

1070
   394
1070
    33
1070
   393
1070
     0
1001
ACAD
1000
DSTYLE
1002
{
1070
   340
1005
53181
1070
   371
1070
    -1
1070
   372
1070
    -1
1002
}
1001
ACAD_DSTYLE_DIMRADIAL_EXTENSION
1070
   387
1070
     1
1070
   388
1040
4.712388980384689
1070
   390
1040
0.0
  0
DIMENSION
  5
550E6
330
52C18
100
AcDbEntity
  8
DIMS SPECS
100
AcDbDimension
  2
*D23
 10
30183.94174722854
 20
26115.63286299852
 30
0.0
 11
30229.08478729823
 21
26172.302905203
 31
0.0
 70
   164
 71
     5
 42
25.96091497041198
 73
     0
 74
     0
 75
     0
  3
abode-iso$4
100
AcDbRadialDimension
 15
30193.01795570301
 25
26139.95551798988
 35
0.0
 40
0.0
1001
ACAD_DSTYLE_DIMINSPECT
1070
   396
1000
100%
1070
   395
1000

1070
   394
1070
    33
1070
   393
1070
     0
1001
ACAD_DSTYLE_DIMRADIAL_EXTENSION
1070
   387
1070
     1
1070
   388
1040
0.7860218564336807
1070
   390
1040
1.571420019831126
1001
ACAD
1000
DSTYLE
1002
{
1070
   340
1005
53181
1070
   371
1070
    -1
1070
   372
1070
    -1
1002
}
  0
DIMENSION
  5
550E7
102
{ACAD_XDICTIONARY
360
550E8
102
}
102
{ACAD_REACTORS
330
550E9
102
}
330
52C18
100
AcDbEntity
  8
DIMS SPECS
100
AcDbDimension
  2
*D24
 10
29954.80772478971
 20
26115.59377291962
 30
0.0
 11
29896.21383779649
 21
26166.7260923514
 31
0.0
 70
   164
 71
     5
 42
26.00000000000364
 73
     0
 74
     0
 75
     0
  3
abode-iso$4
100
AcDbRadialDimension
 15
29940.23729721091
 25
26137.12752875021
 35
0.0
 40
0.0
1001
ACAD_DSTYLE_DIMINSPECT
1070
   396
1000
100%
1070
   395
1000

1070
   394
1070
    33
1070
   393
1070
     0
1001
ACAD
1000
DSTYLE
1002
{
1070
   340
1005
53181
1070
   371
1070
    -1
1070
   372
1070
    -1
1002
}
1001
ACAD_DSTYLE_DIMRADIAL_EXTENSION
1070
   387
1070
     1
1070
   388
1040
1.570796326794896
1070
   390
1040
3.141592653589793
  0
DIMENSION
  5
550EA
330
52C18
100
AcDbEntity
  8
DIMS SPECS
100
AcDbDimension
  2
*D25
 10
30308.66747642847
 20
26041.76354032429
 30
0.0
 11
30245.15338701808
 21
25985.4980246651
 31
0.0
 70
   164
 71
     5
 42
9.999999999992724
 73
     0
 74
     0
 75
     0
  3
abode-iso$4
100
AcDbRadialDimension
 15
30302.95353922985
 25
26033.55677959365
 35
0.0
 40
0.0
1001
ACAD_DSTYLE_DIMINSPECT
1070
   396
1000
100%
1070
   395
1000

1070
   394
1070
    33
1070
   393
1070
     0
1001
ACAD
1000
DSTYLE
1002
{
1070
   340
1005
53181
1070
   371
1070
    -1
1070
   372
1070
    -1
1002
}
1001
ACAD_DSTYLE_DIMRADIAL_EXTENSION
1070
   387
1070
     1
1070
   388
1040
3.926990816987257
1070
   390
1040
4.712388980384689
  0
LINE
  5
550EB
330
52C18
100
AcDbEntity
  8
sink_label
  6
DASHED2
 48
5.0
370
     0
100
AcDbLine
 10
30311.30811505423
 20
26084.90955464322
 30
0.0
 11
30311.30811505423
 21
26064.40955464323
 31
0.0
  0
LINE
  5
550EC
330
52C18
100
AcDbEntity
  8
sink_label
  6
DASHED2
 48
5.0
370
     0
100
AcDbLine
 10
30311.30811505423
 20
26084.90955464322
 30
0.0
 11
30331.80811505423
 21
26084.90955464322
 31
0.0
  0
LINE
  5
550ED
330
52C18
100
AcDbEntity
  8
sink_label
  6
DASHED2
 48
5.0
370
     0
100
AcDbLine
 10
30311.30811505423
 20
26084.90955464322
 30
0.0
 11
30290.80811505423
 21
26084.90955464322
 31
0.0
  0
LINE
  5
550EE
102
{ACAD_REACTORS
330
550F1
102
}
330
52C18
100
AcDbEntity
  8
sink_label
  6
DASHED2
 48
5.0
370
     0
100
AcDbLine
 10
30311.30811505423
 20
26084.90955464322
 30
0.0
 11
30311.30811505423
 21
26105.40955464323
 31
0.0
  0
DIMENSION
  5
550EF
102
{ACAD_XDICTIONARY
360
550F0
102
}
102
{ACAD_REACTORS
330
550F1
102
}
330
52C18
100
AcDbEntity
  8
DIMS SPECS
100
AcDbDimension
  2
*D26
 10
30271.53889794952
 20
26155.97300928792
 30
0.0
 11
30288.29586599846
 21
26184.68680942389
 31
0.0
 70
    32
 71
     5
 42
71.06345464469632
 73
     0
 74
     0
 75
     0
  3
abode-iso$0
100
AcDbAlignedDimension
 13
30311.30811505423
 23
26084.90955464322
 33
0.0
 14
30311.30811505423
 24
26155.97300928792
 34
0.0
 50
90.0
100
AcDbRotatedDimension
1001
ACAD_DSTYLE_DIMINSPECT
1070
   396
1000
100%
1070
   395
1000

1070
   394
1070
    33
1070
   393
1070
     0
1001
ACAD
1000
DSTYLE
1002
{
1070
   340
1005
53181
1070
   371
1070
    -1
1070
   372
1070
    -1
1002
}
  0
DIMENSION
  5
550F2
102
{ACAD_XDICTIONARY
360
550F3
102
}
102
{ACAD_REACTORS
330
550F4
102
}
330
52C18
100
AcDbEntity
  8
DIMS SPECS
100
AcDbDimension
  2
*D27
 10
30002.51492650017
 20
25689.47664521544
 30
0.0
 11
30002.51492650016
 21
25915.53520906754
 31
0.0
 70
    32
 71
     5
 42
452.1171277041794
 73
     0
 74
     0
 75
     0
  3
abode-iso$0
100
AcDbAlignedDimension
 13
29954.80772478971
 23
26141.59377291962
 33
0.0
 14
29918.80772478971
 24
25689.47664521544
 34
0.0
 50
90.0
100
AcDbRotatedDimension
1001
ACAD_DSTYLE_DIMINSPECT
1070
   396
1000
100%
1070
   395
1000

1070
   394
1070
    33
1070
   393
1070
     0
1001
ACAD
1000
DSTYLE
1002
{
1070
   340
1005
53181
1070
   371
1070
    -1
1070
   372
1070
    -1
1002
}
  0
DIMENSION
  5
550F5
102
{ACAD_XDICTIONARY
360
550F6
102
}
102
{ACAD_REACTORS
330
550F7
102
}
330
52C18
100
AcDbEntity
  8
DIMS SPECS
100
AcDbDimension
  2
*D28
 10
30136.56880252886
 20
26141.59377291962
 30
0.0
 11
30136.56880252885
 21
26086.67865662197
 31
0.0
 70
    32
 71
     5
 42
109.83023259533
 73
     0
 74
     0
 75
     0
  3
abode-iso$0
100
AcDbAlignedDimension
 13
30308.66747642847
 23
26031.76354032429
 33
0.0
 14
30183.92555558771
 24
26141.59377291962
 34
0.0
 50
90.0
100
AcDbRotatedDimension
1001
ACAD_DSTYLE_DIMINSPECT
1070
   396
1000
100%
1070
   395
1000

1070
   394
1070
    33
1070
   393
1070
     0
1001
ACAD
1000
DSTYLE
1002
{
1070
   340
1005
53181
1070
   371
1070
    -1
1070
   372
1070
    -1
1002
}
  0
DIMENSION
  5
550F8
102
{ACAD_XDICTIONARY
360
550F9
102
}
102
{ACAD_REACTORS
330
550FA
102
}
330
52C18
100
AcDbEntity
  8
DIMS SPECS
100
AcDbDimension
  2
*D29
 10
30321.02044415298
 20
26034.69253277976
 30
0.0
 11
30311.30803780483
 21
26128.51670418814
 31
0.0
 70
    34
 71
     5
 42
1.570787803743846
 73
     0
 74
     0
 75
     0
  3
abode-iso$2
100
AcDb2LineAngularDimension
 13
30301.5964086166
 23
26034.69247251243
 33
0.0
 14
30202.2874334605
 24
26134.00144766854
 34
0.0
 15
30420.32763006667
 25
26134.0014115083
 35
0.0
 16
30338.10507761564
 26
26124.98894250717
 36
0.0
1001
ACAD_DSTYLE_DIMINSPECT
1070
   396
1000
100%
1070
   395
1000

1070
   394
1070
    33
1070
   393
1070
     0
1001
ACAD
1000
DSTYLE
1002
{
1070
   340
1005
53181
1070
   371
1070
    -1
1070
   372
1070
    -1
1002
}
  0
DIMENSION
  5
55101
330
52C18
100
AcDbEntity
  8
DIMS SPECS
100
AcDbDimension
  2
*D32
 10
30438.67326775776
 20
26115.63306795551
 30
0.0
 11
30471.7212979297
 21
26094.42765898696
 31
0.0
 70
   164
 71
     5
 42
25.96071006668535
 73
     0
 74
     0
 75
     0
  3
abode-iso$4
100
AcDbRadialDimension
 15
30428.4812193809
 25
26139.50942900677
 35
0.0
 40
0.0
1001
ACAD_DSTYLE_DIMINSPECT
1070
   396
1000
100%
1070
   395
1000

1070
   394
1070
    33
1070
   393
1070
     0
1001
ACAD_DSTYLE_DIMRADIAL_EXTENSION
1070
   387
1070
     1
1070
   388
1040
1.570169351107254
1070
   390
1040
2.355576037555825
1001
ACAD
1000
DSTYLE
1002
{
1070
   340
1005
53181
1070
   371
1070
    -1
1070
   372
1070
    -1
1002
}
  0
ENDSEC
  0
SECTION
  2
OBJECTS
  0
DICTIONARY
  5
52BB0
330
0
100
AcDbDictionary
281
     1
  3
ACAD_COLOR
350
52C0E
  3
ACAD_GROUP
350
52BB1
  3
ACAD_LAYOUT
350
52C0D
  3
ACAD_MATERIAL
350
52BB4
  3
ACAD_MLEADERSTYLE
350
52C11
  3
ACAD_MLINESTYLE
350
52C0A
  3
ACAD_PLOTSETTINGS
350
52C0C
  3
ACAD_PLOTSTYLENAME
350
52BB2
  3
ACAD_SCALELIST
350
52BDE
  3
ACAD_TABLESTYLE
350
52C0F
  3
ACAD_VISUALSTYLE
350
52BCD
  3
ACDB_RECOMPOSE_DATA
350
52DBE
  3
AcDbVariableDictionary
350
52DB0
  3
AcmDictionary
350
5310E
  3
AMG
350
530B8
  3
AMGSNAPSETTINGS
350
53296
  0
DICTIONARY
  5
52CA6
330
52BA6
100
AcDbDictionary
280
     1
281
     1
  3
ACAD_LAYERSTATES
360
52CA7
  0
DICTIONARY
  5
52DA2
330
52C00
100
AcDbDictionary
280
     1
281
     1
  3
ADSK_XREC_LAYER_RECONCILED
360
52DA3
  0
DICTIONARY
  5
52DA4
330
52C1E
100
AcDbDictionary
280
     1
281
     1
  3
ADSK_XREC_LAYER_RECONCILED
360
52DA5
  0
DICTIONARY
  5
52DA8
330
52C21
100
AcDbDictionary
280
     1
281
     1
  3
ADSK_XREC_LAYER_RECONCILED
360
52DA9
  0
DICTIONARY
  5
52DAC
330
52C9C
100
AcDbDictionary
280
     1
281
     1
  3
ADSK_XREC_LAYER_RECONCILED
360
52DAD
  0
DICTIONARY
  5
551B7
330
550E1
100
AcDbDictionary
280
     1
281
     1
  3
ACAD_MTEXT_2008_RT
360
551B8
  0
DICTIONARY
  5
550E4
330
550E3
100
AcDbDictionary
280
     1
281
     1
  3
ACAD_DIMASSOC
360
550E5
  0
DICTIONARY
  5
550E8
330
550E7
100
AcDbDictionary
280
     1
281
     1
  3
ACAD_DIMASSOC
360
550E9
  0
DICTIONARY
  5
550F0
330
550EF
100
AcDbDictionary
280
     1
281
     1
  3
ACAD_DIMASSOC
360
550F1
  0
DICTIONARY
  5
550F3
330
550F2
100
AcDbDictionary
280
     1
281
     1
  3
ACAD_DIMASSOC
360
550F4
  0
DICTIONARY
  5
550F6
330
550F5
100
AcDbDictionary
280
     1
281
     1
  3
ACAD_DIMASSOC
360
550F7
  0
DICTIONARY
  5
550F9
330
550F8
100
AcDbDictionary
280
     1
281
     1
  3
ACAD_DIMASSOC
360
550FA
  0
DICTIONARY
  5
52C0E
102
{ACAD_REACTORS
330
52BB0
102
}
330
52BB0
100
AcDbDictionary
281
     1
  0
DICTIONARY
  5
52BB1
102
{ACAD_REACTORS
330
52BB0
102
}
330
52BB0
100
AcDbDictionary
281
     1
  0
DICTIONARY
  5
52C0D
102
{ACAD_REACTORS
330
52BB0
102
}
330
52BB0
100
AcDbDictionary
281
     1
  3
Layout1
350
52C17
  3
Model
350
52C1B
  0
DICTIONARY
  5
52BB4
102
{ACAD_REACTORS
330
52BB0
102
}
330
52BB0
100
AcDbDictionary
281
     1
  3
ByBlock
350
52BBD
  3
ByLayer
350
52BB5
  3
Global
350
52BC5
  0
DICTIONARY
  5
52C11
102
{ACAD_REACTORS
330
52BB0
102
}
330
52BB0
100
AcDbDictionary
281
     1
  3
Standard
350
52C12
  0
DICTIONARY
  5
52C0A
102
{ACAD_REACTORS
330
52BB0
102
}
330
52BB0
100
AcDbDictionary
281
     1
  3
Standard
350
52C0B
  0
DICTIONARY
  5
52C0C
102
{ACAD_REACTORS
330
52BB0
102
}
330
52BB0
100
AcDbDictionary
281
     1
  0
ACDBDICTIONARYWDFLT
  5
52BB2
102
{ACAD_REACTORS
330
52BB0
102
}
330
52BB0
100
AcDbDictionary
281
     1
  3
Normal
350
52BB3
100
AcDbDictionaryWithDefault
340
52BB3
  0
DICTIONARY
  5
52BDE
102
{ACAD_REACTORS
330
52BB0
102
}
330
52BB0
100
AcDbDictionary
281
     1
  3
A0
350
52BDF
  3
A1
350
52BE0
  3
A2
350
52BE1
  3
A3
350
52BE2
  3
A4
350
52BE3
  3
A5
350
52BE4
  3
A6
350
52BE5
  3
A7
350
52BE6
  3
A8
350
52BE7
  3
A9
350
52BE8
  3
B0
350
52BE9
  3
B1
350
52BEA
  3
B2
350
52BEB
  3
B3
350
52BEC
  3
B4
350
52BED
  3
B5
350
52BEE
  3
B6
350
52BEF
  3
B7
350
52BF0
  3
B8
350
52BF1
  3
B9
350
52BF2
  3
C0
350
52BF3
  3
C1
350
52BF4
  3
C2
350
52BF5
  3
C3
350
52BF6
  3
C4
350
52BF7
  3
C5
350
52BF8
  3
C6
350
52BF9
  3
C7
350
52BFA
  3
C8
350
52BFB
  3
C9
350
52BFC
  3
D0
350
52BFD
  3
D1
350
52BFE
  3
D2
350
52BFF
  0
DICTIONARY
  5
52C0F
102
{ACAD_REACTORS
330
52BB0
102
}
330
52BB0
100
AcDbDictionary
281
     1
  3
Standard
350
52C10
  0
DICTIONARY
  5
52BCD
102
{ACAD_REACTORS
330
52BB0
102
}
330
52BB0
100
AcDbDictionary
281
     1
  3
2dWireframe
350
52BD3
  3
3D Hidden
350
52BD5
  3
3dWireframe
350
52BD4
  3
Basic
350
52BD2
  3
Brighten
350
52BD9
  3
ColorChange
350
52BDD
  3
Conceptual
350
52BD6
  3
Dim
350
52BD8
  3
Facepattern
350
52BDC
  3
Flat
350
52BCE
  3
FlatWithEdges
350
52BCF
  3
Gouraud
350
52BD0
  3
GouraudWithEdges
350
52BD1
  3
Linepattern
350
52BDB
  3
Realistic
350
52BD7
  3
Thicken
350
52BDA
  0
XRECORD
  5
52DBE
102
{ACAD_REACTORS
330
52BB0
102
}
330
52BB0
100
AcDbXrecord
280
     1
 90
        1
330
52C10
330
550E1
  0
DICTIONARY
  5
52DB0
102
{ACAD_REACTORS
330
52BB0
102
}
330
52BB0
100
AcDbDictionary
281
     1
  3
CANNOSCALE
350
52DB4
  3
CMLEADERSTYLE
350
52DB2
  3
CTABLESTYLE
350
52DB1
  3
LAYEREVAL
350
52DB6
  3
LAYERNOTIFY
350
52DB7
  3
LIGHTINGUNITS
350
52DB5
  3
MSLTSCALE
350
52DB3
  0
DICTIONARY
  5
5310E
102
{ACAD_REACTORS
330
52BB0
102
}
330
52BB0
100
AcDbDictionary
281
     1
  3
AcmStdDictionary
350
53119
  0
DICTIONARY
  5
530B8
102
{ACAD_REACTORS
330
52BB0
102
}
330
52BB0
100
AcDbDictionary
281
     1
  0
DICTIONARY
  5
53296
102
{ACAD_REACTORS
330
52BB0
102
}
330
52BB0
100
AcDbDictionary
281
     1
  0
DICTIONARY
  5
52CA7
102
{ACAD_REACTORS
330
52CA6
102
}
330
52CA6
100
AcDbDictionary
281
     1
  0
XRECORD
  5
52DA3
102
{ACAD_REACTORS
330
52DA2
102
}
330
52DA2
100
AcDbXrecord
280
     1
290
     1
  0
XRECORD
  5
52DA5
102
{ACAD_REACTORS
330
52DA4
102
}
330
52DA4
100
AcDbXrecord
280
     1
290
     1
  0
XRECORD
  5
52DA9
102
{ACAD_REACTORS
330
52DA8
102
}
330
52DA8
100
AcDbXrecord
280
     1
290
     1
  0
XRECORD
  5
52DAD
102
{ACAD_REACTORS
330
52DAC
102
}
330
52DAC
100
AcDbXrecord
280
     1
290
     1
  0
XRECORD
  5
551B8
102
{ACAD_REACTORS
330
551B7
102
}
330
551B7
100
AcDbXrecord
280
     1
 40
30497.0
  1
\pxqc;APRON FRONT CUT OUT
  0
DIMASSOC
  5
550E5
102
{ACAD_REACTORS
330
550E4
102
}
330
550E4
100
AcDbDimAssoc
330
550E3
 90
        2
 70
     0
 71
     0
  1
AcDbOsnapPointRef
 72
     3
331
54E00
 73
     2
 91
        0
 40
0.0
 10
0.0
 20
0.0
 30
0.0
 75
     0
  0
DIMASSOC
  5
550E9
102
{ACAD_REACTORS
330
550E8
102
}
330
550E8
100
AcDbDimAssoc
330
550E7
 90
        2
 70
     0
 71
     0
  1
AcDbOsnapPointRef
 72
     3
331
54DF0
 73
     2
 91
        0
 40
0.0
 10
0.0
 20
0.0
 30
0.0
 75
     0
  0
DIMASSOC
  5
550F1
102
{ACAD_REACTORS
330
550F0
102
}
330
550F0
100
AcDbDimAssoc
330
550EF
 90
        1
 70
     0
 71
     0
  1
AcDbOsnapPointRef
 72
    13
331
550EE
 73
     0
 91
        0
 40
0.0
 10
0.0
 20
0.0
 30
2.000000000000000E+50
 75
     0
  0
DIMASSOC
  5
550F4
102
{ACAD_REACTORS
330
550F3
102
}
330
550F3
100
AcDbDimAssoc
330
550F2
 90
        3
 70
     0
 71
     0
  1
AcDbOsnapPointRef
 72
     1
331
54DEF
 73
     0
 91
        0
 40
0.0
 10
0.0
 20
0.0
 30
2.000000000000000E+50
 75
     0
  1
AcDbOsnapPointRef
 72
    13
331
54E01
 73
     0
 91
        0
 40
0.0
 10
0.0
 20
0.0
 30
2.000000000000000E+50
 75
     0
  0
DIMASSOC
  5
550F7
102
{ACAD_REACTORS
330
550F6
102
}
330
550F6
100
AcDbDimAssoc
330
550F5
 90
        3
 70
     0
 71
     0
  1
AcDbOsnapPointRef
 72
     1
331
54DEB
 73
     0
 91
        0
 40
0.0
 10
0.0
 20
0.0
 30
2.000000000000000E+50
 75
     0
  1
AcDbOsnapPointRef
 72
    13
331
54DEF
 73
     0
 91
        0
 40
0.0
 10
0.0
 20
0.0
 30
2.000000000000000E+50
 75
     0
  0
DIMASSOC
  5
550FA
102
{ACAD_REACTORS
330
550F9
102
}
330
550F9
100
AcDbDimAssoc
330
550F8
 90
       15
 70
     0
 71
     0
  1
AcDbOsnapPointRef
 72
    13
331
54DED
 73
     2
 91
        0
 40
0.0
 10
0.0
 20
0.0
 30
2.000000000000000E+50
 75
     0
  1
AcDbOsnapPointRef
 72
     1
331
54DED
 73
     2
 91
        0
 40
0.0
 10
0.0
 20
0.0
 30
2.000000000000000E+50
 75
     0
  1
AcDbOsnapPointRef
 72
    13
331
54DE9
 73
     2
 91
        0
 40
0.0
 10
0.0
 20
0.0
 30
2.000000000000000E+50
 75
     0
  1
AcDbOsnapPointRef
 72
     1
331
54DE9
 73
     2
 91
        0
 40
0.0
 10
0.0
 20
0.0
 30
2.000000000000000E+50
 75
     0
  0
LAYOUT
  5
52C17
102
{ACAD_REACTORS
330
52C0D
102
}
330
52C0D
100
AcDbPlotSettings
  1

  2
\\ABODESERVER\upstairs
  4

  6

 40
0.0
 41
0.0
 42
0.0
 43
0.0
 44
0.0
 45
0.0
 46
0.0
 47
0.0
 48
0.0
 49
0.0
140
0.0
141
0.0
142
1.0
143
1.0
 70
   688
 72
     0
 73
     0
 74
     5
  7

 75
    16
147
1.0
 76
     0
 77
     2
 78
   300
148
0.0
149
0.0
100
AcDbLayout
  1
Layout1
 70
     1
 71
     1
 10
0.0
 20
0.0
 11
420.0
 21
297.0
 12
0.0
 22
0.0
 32
0.0
 14
1.000000000000000E+20
 24
1.000000000000000E+20
 34
1.000000000000000E+20
 15
-1.000000000000000E+20
 25
-1.000000000000000E+20
 35
-1.000000000000000E+20
146
0.0
 13
0.0
 23
0.0
 33
0.0
 16
1.0
 26
0.0
 36
0.0
 17
0.0
 27
1.0
 37
0.0
 76
     0
330
52C14
  0
LAYOUT
  5
52C1B
102
{ACAD_REACTORS
330
52C0D
102
}
330
52C0D
100
AcDbPlotSettings
  1

  2
\\ABODESERVER\upstairs
  4

  6

 40
0.0
 41
0.0
 42
0.0
 43
0.0
 44
0.0
 45
0.0
 46
0.0
 47
0.0
 48
0.0
 49
0.0
140
0.0
141
0.0
142
1.0
143
1.0
 70
  1712
 72
     0
 73
     0
 74
     0
  7

 75
     0
147
1.0
 76
     0
 77
     2
 78
   300
148
0.0
149
0.0
100
AcDbLayout
  1
Model
 70
     1
 71
     0
 10
0.0
 20
0.0
 11
12.0
 21
9.0
 12
0.0
 22
0.0
 32
0.0
 14
0.0
 24
0.0
 34
0.0
 15
0.0
 25
0.0
 35
0.0
146
0.0
 13
0.0
 23
0.0
 33
0.0
 16
1.0
 26
0.0
 36
0.0
 17
0.0
 27
1.0
 37
0.0
 76
     0
330
52C18
331
52C1C
  0
MATERIAL
  5
52BBD
102
{ACAD_XDICTIONARY
360
52BBE
102
}
102
{ACAD_REACTORS
330
52BB4
102
}
330
52BB4
100
AcDbMaterial
  1
ByBlock
 72
     0
 43
0.0208333333333333
 43
0.0
 43
0.0
 43
0.0
 43
0.0
 43
0.0208333333333333
 43
0.0
 43
0.0
 43
0.0
 43
0.0
 43
1.0
 43
0.0
 43
0.0
 43
0.0
 43
0.0
 43
1.0
 77
     0
 47
0.0208333333333333
 47
0.0
 47
0.0
 47
0.0
 47
0.0
 47
0.0208333333333333
 47
0.0
 47
0.0
 47
0.0
 47
0.0
 47
1.0
 47
0.0
 47
0.0
 47
0.0
 47
0.0
 47
1.0
171
     0
 49
0.0208333333333333
 49
0.0
 49
0.0
 49
0.0
 49
0.0
 49
0.0208333333333333
 49
0.0
 49
0.0
 49
0.0
 49
0.0
 49
1.0
 49
0.0
 49
0.0
 49
0.0
 49
0.0
 49
1.0
175
     0
142
0.0208333333333333
142
0.0
142
0.0
142
0.0
142
0.0
142
0.0208333333333333
142
0.0
142
0.0
142
0.0
142
0.0
142
1.0
142
0.0
142
0.0
142
0.0
142
0.0
142
1.0
179
     0
144
0.0208333333333333
144
0.0
144
0.0
144
0.0
144
0.0
144
0.0208333333333333
144
0.0
144
0.0
144
0.0
144
0.0
144
1.0
144
0.0
144
0.0
144
0.0
144
0.0
144
1.0
147
0.0208333333333333
147
0.0
147
0.0
147
0.0
147
0.0
147
0.0208333333333333
147
0.0
147
0.0
147
0.0
147
0.0
147
1.0
147
0.0
147
0.0
147
0.0
147
0.0
147
1.0
  0
MATERIAL
  5
52BB5
102
{ACAD_XDICTIONARY
360
52BB6
102
}
102
{ACAD_REACTORS
330
52BB4
102
}
330
52BB4
100
AcDbMaterial
  1
ByLayer
 72
     0
 43
0.0208333333333333
 43
0.0
 43
0.0
 43
0.0
 43
0.0
 43
0.0208333333333333
 43
0.0
 43
0.0
 43
0.0
 43
0.0
 43
1.0
 43
0.0
 43
0.0
 43
0.0
 43
0.0
 43
1.0
 77
     0
 47
0.0208333333333333
 47
0.0
 47
0.0
 47
0.0
 47
0.0
 47
0.0208333333333333
 47
0.0
 47
0.0
 47
0.0
 47
0.0
 47
1.0
 47
0.0
 47
0.0
 47
0.0
 47
0.0
 47
1.0
171
     0
 49
0.0208333333333333
 49
0.0
 49
0.0
 49
0.0
 49
0.0
 49
0.0208333333333333
 49
0.0
 49
0.0
 49
0.0
 49
0.0
 49
1.0
 49
0.0
 49
0.0
 49
0.0
 49
0.0
 49
1.0
175
     0
142
0.0208333333333333
142
0.0
142
0.0
142
0.0
142
0.0
142
0.0208333333333333
142
0.0
142
0.0
142
0.0
142
0.0
142
1.0
142
0.0
142
0.0
142
0.0
142
0.0
142
1.0
179
     0
144
0.0208333333333333
144
0.0
144
0.0
144
0.0
144
0.0
144
0.0208333333333333
144
0.0
144
0.0
144
0.0
144
0.0
144
1.0
144
0.0
144
0.0
144
0.0
144
0.0
144
1.0
147
0.0208333333333333
147
0.0
147
0.0
147
0.0
147
0.0
147
0.0208333333333333
147
0.0
147
0.0
147
0.0
147
0.0
147
1.0
147
0.0
147
0.0
147
0.0
147
0.0
147
1.0
  0
MATERIAL
  5
52BC5
102
{ACAD_XDICTIONARY
360
52BC6
102
}
102
{ACAD_REACTORS
330
52BB4
102
}
330
52BB4
100
AcDbMaterial
  1
Global
 72
     0
 43
0.0208333333333333
 43
0.0
 43
0.0
 43
0.0
 43
0.0
 43
0.0208333333333333
 43
0.0
 43
0.0
 43
0.0
 43
0.0
 43
1.0
 43
0.0
 43
0.0
 43
0.0
 43
0.0
 43
1.0
 77
     0
 47
0.0208333333333333
 47
0.0
 47
0.0
 47
0.0
 47
0.0
 47
0.0208333333333333
 47
0.0
 47
0.0
 47
0.0
 47
0.0
 47
1.0
 47
0.0
 47
0.0
 47
0.0
 47
0.0
 47
1.0
171
     0
 49
0.0208333333333333
 49
0.0
 49
0.0
 49
0.0
 49
0.0
 49
0.0208333333333333
 49
0.0
 49
0.0
 49
0.0
 49
0.0
 49
1.0
 49
0.0
 49
0.0
 49
0.0
 49
0.0
 49
1.0
175
     0
142
0.0208333333333333
142
0.0
142
0.0
142
0.0
142
0.0
142
0.0208333333333333
142
0.0
142
0.0
142
0.0
142
0.0
142
1.0
142
0.0
142
0.0
142
0.0
142
0.0
142
1.0
179
     0
144
0.0208333333333333
144
0.0
144
0.0
144
0.0
144
0.0
144
0.0208333333333333
144
0.0
144
0.0
144
0.0
144
0.0
144
1.0
144
0.0
144
0.0
144
0.0
144
0.0
144
1.0
147
0.0208333333333333
147
0.0
147
0.0
147
0.0
147
0.0
147
0.0208333333333333
147
0.0
147
0.0
147
0.0
147
0.0
147
1.0
147
0.0
147
0.0
147
0.0
147
0.0
147
1.0
  0
MLEADERSTYLE
  5
52C12
102
{ACAD_REACTORS
330
52C11
102
}
330
52C11
100
AcDbMLeaderStyle
170
     2
171
     1
172
     0
 90
        2
 40
0.0
 41
0.0
173
     1
 91
-1056964608
340
52C06
 92
       -2
290
     1
 42
0.09
291
     1
 43
0.36
  3
Standard
 44
0.18
300

342
52C01
174
     1
178
     6
175
     1
176
     0
 93
-1056964608
 45
0.18
292
     0
297
     0
 46
0.18
 94
-1056964608
 47
1.0
 49
1.0
140
1.0
293
     1
141
0.0
294
     1
177
     0
142
1.0
295
     0
296
     0
143
0.125
1001
ACAD_MLEADERVER
1070
     2
  0
MLINESTYLE
  5
52C0B
102
{ACAD_REACTORS
330
52C0A
102
}
330
52C0A
100
AcDbMlineStyle
  2
STANDARD
 70
     0
  3

 62
   256
 51
90.0
 52
90.0
 71
     2
 49
0.5
 62
   256
  6
BYLAYER
 49
-0.5
 62
   256
  6
BYLAYER
  0
ACDBPLACEHOLDER
  5
52BB3
102
{ACAD_REACTORS
330
52BB2
102
}
330
52BB2
  0
SCALE
  5
52BDF
102
{ACAD_REACTORS
330
52BDE
102
}
330
52BDE
100
AcDbScale
 70
     0
300
1:1
140
1.0
141
1.0
290
     1
  0
SCALE
  5
52BE0
102
{ACAD_REACTORS
330
52BDE
102
}
330
52BDE
100
AcDbScale
 70
     0
300
1:2
140
1.0
141
2.0
290
     0
  0
SCALE
  5
52BE1
102
{ACAD_REACTORS
330
52BDE
102
}
330
52BDE
100
AcDbScale
 70
     0
300
1:4
140
1.0
141
4.0
290
     0
  0
SCALE
  5
52BE2
102
{ACAD_REACTORS
330
52BDE
102
}
330
52BDE
100
AcDbScale
 70
     0
300
1:5
140
1.0
141
5.0
290
     0
  0
SCALE
  5
52BE3
102
{ACAD_REACTORS
330
52BDE
102
}
330
52BDE
100
AcDbScale
 70
     0
300
1:8
140
1.0
141
8.0
290
     0
  0
SCALE
  5
52BE4
102
{ACAD_REACTORS
330
52BDE
102
}
330
52BDE
100
AcDbScale
 70
     0
300
1:10
140
1.0
141
10.0
290
     0
  0
SCALE
  5
52BE5
102
{ACAD_REACTORS
330
52BDE
102
}
330
52BDE
100
AcDbScale
 70
     0
300
1:16
140
1.0
141
16.0
290
     0
  0
SCALE
  5
52BE6
102
{ACAD_REACTORS
330
52BDE
102
}
330
52BDE
100
AcDbScale
 70
     0
300
1:20
140
1.0
141
20.0
290
     0
  0
SCALE
  5
52BE7
102
{ACAD_REACTORS
330
52BDE
102
}
330
52BDE
100
AcDbScale
 70
     0
300
1:30
140
1.0
141
30.0
290
     0
  0
SCALE
  5
52BE8
102
{ACAD_REACTORS
330
52BDE
102
}
330
52BDE
100
AcDbScale
 70
     0
300
1:40
140
1.0
141
40.0
290
     0
  0
SCALE
  5
52BE9
102
{ACAD_REACTORS
330
52BDE
102
}
330
52BDE
100
AcDbScale
 70
     0
300
1:50
140
1.0
141
50.0
290
     0
  0
SCALE
  5
52BEA
102
{ACAD_REACTORS
330
52BDE
102
}
330
52BDE
100
AcDbScale
 70
     0
300
1:100
140
1.0
141
100.0
290
     0
  0
SCALE
  5
52BEB
102
{ACAD_REACTORS
330
52BDE
102
}
330
52BDE
100
AcDbScale
 70
     0
300
2:1
140
2.0
141
1.0
290
     0
  0
SCALE
  5
52BEC
102
{ACAD_REACTORS
330
52BDE
102
}
330
52BDE
100
AcDbScale
 70
     0
300
4:1
140
4.0
141
1.0
290
     0
  0
SCALE
  5
52BED
102
{ACAD_REACTORS
330
52BDE
102
}
330
52BDE
100
AcDbScale
 70
     0
300
8:1
140
8.0
141
1.0
290
     0
  0
SCALE
  5
52BEE
102
{ACAD_REACTORS
330
52BDE
102
}
330
52BDE
100
AcDbScale
 70
     0
300
10:1
140
10.0
141
1.0
290
     0
  0
SCALE
  5
52BEF
102
{ACAD_REACTORS
330
52BDE
102
}
330
52BDE
100
AcDbScale
 70
     0
300
100:1
140
100.0
141
1.0
290
     0
  0
SCALE
  5
52BF0
102
{ACAD_REACTORS
330
52BDE
102
}
330
52BDE
100
AcDbScale
 70
     0
300
1/128" = 1'-0"
140
0.0078125
141
12.0
290
     0
  0
SCALE
  5
52BF1
102
{ACAD_REACTORS
330
52BDE
102
}
330
52BDE
100
AcDbScale
 70
     0
300
1/64" = 1'-0"
140
0.015625
141
12.0
290
     0
  0
SCALE
  5
52BF2
102
{ACAD_REACTORS
330
52BDE
102
}
330
52BDE
100
AcDbScale
 70
     0
300
1/32" = 1'-0"
140
0.03125
141
12.0
290
     0
  0
SCALE
  5
52BF3
102
{ACAD_REACTORS
330
52BDE
102
}
330
52BDE
100
AcDbScale
 70
     0
300
1/16" = 1'-0"
140
0.0625
141
12.0
290
     0
  0
SCALE
  5
52BF4
102
{ACAD_REACTORS
330
52BDE
102
}
330
52BDE
100
AcDbScale
 70
     0
300
3/32" = 1'-0"
140
0.09375
141
12.0
290
     0
  0
SCALE
  5
52BF5
102
{ACAD_REACTORS
330
52BDE
102
}
330
52BDE
100
AcDbScale
 70
     0
300
1/8" = 1'-0"
140
0.125
141
12.0
290
     0
  0
SCALE
  5
52BF6
102
{ACAD_REACTORS
330
52BDE
102
}
330
52BDE
100
AcDbScale
 70
     0
300
3/16" = 1'-0"
140
0.1875
141
12.0
290
     0
  0
SCALE
  5
52BF7
102
{ACAD_REACTORS
330
52BDE
102
}
330
52BDE
100
AcDbScale
 70
     0
300
1/4" = 1'-0"
140
0.25
141
12.0
290
     0
  0
SCALE
  5
52BF8
102
{ACAD_REACTORS
330
52BDE
102
}
330
52BDE
100
AcDbScale
 70
     0
300
3/8" = 1'-0"
140
0.375
141
12.0
290
     0
  0
SCALE
  5
52BF9
102
{ACAD_REACTORS
330
52BDE
102
}
330
52BDE
100
AcDbScale
 70
     0
300
1/2" = 1'-0"
140
0.5
141
12.0
290
     0
  0
SCALE
  5
52BFA
102
{ACAD_REACTORS
330
52BDE
102
}
330
52BDE
100
AcDbScale
 70
     0
300
3/4" = 1'-0"
140
0.75
141
12.0
290
     0
  0
SCALE
  5
52BFB
102
{ACAD_REACTORS
330
52BDE
102
}
330
52BDE
100
AcDbScale
 70
     0
300
1" = 1'-0"
140
1.0
141
12.0
290
     0
  0
SCALE
  5
52BFC
102
{ACAD_REACTORS
330
52BDE
102
}
330
52BDE
100
AcDbScale
 70
     0
300
1-1/2" = 1'-0"
140
1.5
141
12.0
290
     0
  0
SCALE
  5
52BFD
102
{ACAD_REACTORS
330
52BDE
102
}
330
52BDE
100
AcDbScale
 70
     0
300
3" = 1'-0"
140
3.0
141
12.0
290
     0
  0
SCALE
  5
52BFE
102
{ACAD_REACTORS
330
52BDE
102
}
330
52BDE
100
AcDbScale
 70
     0
300
6" = 1'-0"
140
6.0
141
12.0
290
     0
  0
SCALE
  5
52BFF
102
{ACAD_REACTORS
330
52BDE
102
}
330
52BDE
100
AcDbScale
 70
     0
300
1'-0" = 1'-0"
140
12.0
141
12.0
290
     0
  0
TABLESTYLE
  5
52C10
102
{ACAD_XDICTIONARY
360
52DB8
102
}
102
{ACAD_REACTORS
330
52C0F
102
}
330
52C0F
100
AcDbTableStyle
  3
Standard
 70
     0
 71
     0
 40
0.06
 41
0.06
280
     0
281
     0
  7
STANDARD
140
0.18
170
     2
 62
     0
 63
     7
283
     0
 90
      512
 91
        0
  1

274
    -2
284
     1
 64
     0
275
    -2
285
     1
 65
     0
276
    -2
286
     1
 66
     0
277
    -2
287
     1
 67
     0
278
    -2
288
     1
 68
     0
279
    -2
289
     1
 69
     0
  7
STANDARD
140
0.25
170
     5
 62
     0
 63
     7
283
     0
 90
      512
 91
        0
  1

274
    -2
284
     1
 64
     0
275
    -2
285
     1
 65
     0
276
    -2
286
     1
 66
     0
277
    -2
287
     1
 67
     0
278
    -2
288
     1
 68
     0
279
    -2
289
     1
 69
     0
  7
STANDARD
140
0.18
170
     5
 62
     0
 63
     7
283
     0
 90
      512
 91
        0
  1

274
    -2
284
     1
 64
     0
275
    -2
285
     1
 65
     0
276
    -2
286
     1
 66
     0
277
    -2
287
     1
 67
     0
278
    -2
288
     1
 68
     0
279
    -2
289
     1
 69
     0
  0
VISUALSTYLE
  5
52BD3
102
{ACAD_REACTORS
330
52BCD
102
}
330
52BCD
100
AcDbVisualStyle
  2
2dWireframe
 70
     4
 71
     0
 72
     2
 73
     0
 90
        0
 40
-0.6
 41
-30.0
 62
     5
 63
     7
421
 16777215
 74
     1
 91
        4
 64
     7
 65
   257
 75
     1
175
     1
 42
1.0
 92
        0
 66
   257
 43
1.0
 76
     1
 77
     6
 78
     2
 67
     7
 79
     5
170
     0
171
     0
290
     0
174
     0
 93
        1
 44
0.0
173
     0
291
     0
 45
0.0
  0
VISUALSTYLE
  5
52BD5
102
{ACAD_REACTORS
330
52BCD
102
}
330
52BCD
100
AcDbVisualStyle
  2
3D Hidden
 70
     6
 71
     1
 72
     2
 73
     2
 90
        0
 40
-0.6
 41
-30.0
 62
     5
 63
     7
421
 16777215
 74
     2
 91
        2
 64
     7
 65
   257
 75
     2
175
     1
 42
40.0
 92
        0
 66
   257
 43
1.0
 76
     1
 77
     6
 78
     2
 67
     7
 79
     3
170
     0
171
     0
290
     0
174
     0
 93
        1
 44
0.0
173
     0
291
     0
 45
0.0
  0
VISUALSTYLE
  5
52BD4
102
{ACAD_REACTORS
330
52BCD
102
}
330
52BCD
100
AcDbVisualStyle
  2
3dWireframe
 70
     5
 71
     0
 72
     2
 73
     0
 90
        0
 40
-0.6
 41
-30.0
 62
     5
 63
     7
421
 16777215
 74
     1
 91
        4
 64
     7
 65
   257
 75
     1
175
     1
 42
1.0
 92
        0
 66
   257
 43
1.0
 76
     1
 77
     6
 78
     2
 67
     7
 79
     5
170
     0
171
     0
290
     0
174
     0
 93
        1
 44
0.0
173
     0
291
     0
 45
0.0
  0
VISUALSTYLE
  5
52BD2
102
{ACAD_REACTORS
330
52BCD
102
}
330
52BCD
100
AcDbVisualStyle
  2
Basic
 70
     7
 71
     1
 72
     0
 73
     1
 90
        0
 40
-0.6
 41
-30.0
 62
     5
 63
     7
421
 16777215
 74
     0
 91
        4
 64
     7
 65
   257
 75
     1
175
     1
 42
1.0
 92
        8
 66
     7
 43
1.0
 76
     1
 77
     6
 78
     2
 67
     7
 79
     5
170
     0
171
     0
290
     0
174
     0
 93
        1
 44
0.0
173
     0
291
     1
 45
0.0
  0
VISUALSTYLE
  5
52BD9
102
{ACAD_REACTORS
330
52BCD
102
}
330
52BCD
100
AcDbVisualStyle
  2
Brighten
 70
    12
 71
     2
 72
     2
 73
     0
 90
        0
 40
-0.6
 41
-30.0
 62
     5
 63
     7
421
 16777215
 74
     1
 91
        4
 64
     7
 65
   257
 75
     1
175
     1
 42
1.0
 92
        8
 66
     7
 43
1.0
 76
     1
 77
     6
 78
     2
 67
     7
 79
     5
170
     0
171
     0
290
     0
174
     0
 93
        1
 44
50.0
173
     0
291
     1
 45
0.0
  0
VISUALSTYLE
  5
52BDD
102
{ACAD_REACTORS
330
52BCD
102
}
330
52BCD
100
AcDbVisualStyle
  2
ColorChange
 70
    16
 71
     2
 72
     2
 73
     3
 90
        0
 40
-0.6
 41
-30.0
 62
     5
 63
     8
421
  8421504
 74
     1
 91
        4
 64
     7
 65
   257
 75
     1
175
     1
 42
1.0
 92
        8
 66
     8
424
  8421504
 43
1.0
 76
     1
 77
     6
 78
     2
 67
     7
 79
     5
170
     0
171
     0
290
     0
174
     0
 93
        1
 44
0.0
173
     0
291
     1
 45
0.0
  0
VISUALSTYLE
  5
52BD6
102
{ACAD_REACTORS
330
52BCD
102
}
330
52BCD
100
AcDbVisualStyle
  2
Conceptual
 70
     9
 71
     3
 72
     2
 73
     0
 90
        0
 40
-0.6
 41
-30.0
 62
     5
 63
     7
421
 16777215
 74
     2
 91
        2
 64
     7
 65
   257
 75
     1
175
     1
 42
40.0
 92
        8
 66
     7
 43
1.0
 76
     1
 77
     6
 78
     2
 67
     7
 79
     3
170
     0
171
     0
290
     0
174
     0
 93
        1
 44
0.0
173
     0
291
     0
 45
0.0
  0
VISUALSTYLE
  5
52BD8
102
{ACAD_REACTORS
330
52BCD
102
}
330
52BCD
100
AcDbVisualStyle
  2
Dim
 70
    11
 71
     2
 72
     2
 73
     0
 90
        0
 40
-0.6
 41
-30.0
 62
     5
 63
     7
421
 16777215
 74
     1
 91
        4
 64
     7
 65
   257
 75
     1
175
     1
 42
1.0
 92
        8
 66
     7
 43
1.0
 76
     1
 77
     6
 78
     2
 67
     7
 79
     5
170
     0
171
     0
290
     0
174
     0
 93
        1
 44
-50.0
173
     0
291
     1
 45
0.0
  0
VISUALSTYLE
  5
52BDC
102
{ACAD_REACTORS
330
52BCD
102
}
330
52BCD
100
AcDbVisualStyle
  2
Facepattern
 70
    15
 71
     2
 72
     2
 73
     0
 90
        0
 40
-0.6
 41
-30.0
 62
     5
 63
     7
421
 16777215
 74
     1
 91
        4
 64
     7
 65
   257
 75
     1
175
     1
 42
1.0
 92
        8
 66
     7
 43
1.0
 76
     1
 77
     6
 78
     2
 67
     7
 79
     5
170
     0
171
     0
290
     0
174
     0
 93
        1
 44
0.0
173
     0
291
     1
 45
0.0
  0
VISUALSTYLE
  5
52BCE
102
{ACAD_REACTORS
330
52BCD
102
}
330
52BCD
100
AcDbVisualStyle
  2
Flat
 70
     0
 71
     2
 72
     1
 73
     1
 90
        2
 40
-0.6
 41
30.0
 62
     5
 63
     7
421
 16777215
 74
     0
 91
        4
 64
     7
 65
   257
 75
     1
175
     1
 42
1.0
 92
        8
 66
     7
 43
1.0
 76
     1
 77
     6
 78
     2
 67
     7
 79
     5
170
     0
171
     0
290
     0
174
     0
 93
       13
 44
0.0
173
     0
291
     1
 45
0.0
  0
VISUALSTYLE
  5
52BCF
102
{ACAD_REACTORS
330
52BCD
102
}
330
52BCD
100
AcDbVisualStyle
  2
FlatWithEdges
 70
     1
 71
     2
 72
     1
 73
     1
 90
        2
 40
-0.6
 41
30.0
 62
     5
 63
     7
421
 16777215
 74
     1
 91
        4
 64
     7
 65
   257
 75
     1
175
     1
 42
1.0
 92
        0
 66
   257
 43
1.0
 76
     1
 77
     6
 78
     2
 67
     7
 79
     5
170
     0
171
     0
290
     0
174
     0
 93
       13
 44
0.0
173
     0
291
     1
 45
0.0
  0
VISUALSTYLE
  5
52BD0
102
{ACAD_REACTORS
330
52BCD
102
}
330
52BCD
100
AcDbVisualStyle
  2
Gouraud
 70
     2
 71
     2
 72
     2
 73
     1
 90
        2
 40
-0.6
 41
30.0
 62
     5
 63
     7
421
 16777215
 74
     0
 91
        4
 64
     7
 65
   257
 75
     1
175
     1
 42
1.0
 92
        0
 66
     7
 43
1.0
 76
     1
 77
     6
 78
     2
 67
     7
 79
     5
170
     0
171
     0
290
     0
174
     0
 93
       13
 44
0.0
173
     0
291
     1
 45
0.0
  0
VISUALSTYLE
  5
52BD1
102
{ACAD_REACTORS
330
52BCD
102
}
330
52BCD
100
AcDbVisualStyle
  2
GouraudWithEdges
 70
     3
 71
     2
 72
     2
 73
     1
 90
        2
 40
-0.6
 41
30.0
 62
     5
 63
     7
421
 16777215
 74
     1
 91
        4
 64
     7
 65
   257
 75
     1
175
     1
 42
1.0
 92
        0
 66
   257
 43
1.0
 76
     1
 77
     6
 78
     2
 67
     7
 79
     5
170
     0
171
     0
290
     0
174
     0
 93
       13
 44
0.0
173
     0
291
     1
 45
0.0
  0
VISUALSTYLE
  5
52BDB
102
{ACAD_REACTORS
330
52BCD
102
}
330
52BCD
100
AcDbVisualStyle
  2
Linepattern
 70
    14
 71
     2
 72
     2
 73
     0
 90
        0
 40
-0.6
 41
-30.0
 62
     5
 63
     7
421
 16777215
 74
     1
 91
        4
 64
     7
 65
   257
 75
     7
175
     7
 42
1.0
 92
        8
 66
     7
 43
1.0
 76
     1
 77
     6
 78
     2
 67
     7
 79
     5
170
     0
171
     0
290
     0
174
     0
 93
        1
 44
0.0
173
     0
291
     1
 45
0.0
  0
VISUALSTYLE
  5
52BD7
102
{ACAD_REACTORS
330
52BCD
102
}
330
52BCD
100
AcDbVisualStyle
  2
Realistic
 70
     8
 71
     2
 72
     2
 73
     0
 90
        0
 40
-0.6
 41
-30.0
 62
     5
 63
     7
421
 16777215
 74
     1
 91
        0
 64
     7
 65
   257
 75
     1
175
     1
 42
1.0
 92
        8
 66
     8
424
  7895160
 43
1.0
 76
     1
 77
     6
 78
     2
 67
     7
 79
     5
170
     0
171
     0
290
     0
174
     0
 93
       13
 44
0.0
173
     0
291
     0
 45
0.0
  0
VISUALSTYLE
  5
52BDA
102
{ACAD_REACTORS
330
52BCD
102
}
330
52BCD
100
AcDbVisualStyle
  2
Thicken
 70
    13
 71
     2
 72
     2
 73
     0
 90
        0
 40
-0.6
 41
-30.0
 62
     5
 63
     7
421
 16777215
 74
     1
 91
        4
 64
     7
 65
   257
 75
     1
175
     1
 42
1.0
 92
       12
 66
     7
 43
1.0
 76
     1
 77
     6
 78
     2
 67
     7
 79
     5
170
     0
171
     0
290
     0
174
     0
 93
        1
 44
0.0
173
     0
291
     1
 45
0.0
  0
DICTIONARYVAR
  5
52DB4
102
{ACAD_REACTORS
330
52DB0
102
}
330
52DB0
100
DictionaryVariables
280
     0
  1
1:1
  0
DICTIONARYVAR
  5
52DB2
102
{ACAD_REACTORS
330
52DB0
102
}
330
52DB0
100
DictionaryVariables
280
     0
  1
STANDARD
  0
DICTIONARYVAR
  5
52DB1
102
{ACAD_REACTORS
330
52DB0
102
}
330
52DB0
100
DictionaryVariables
280
     0
  1
STANDARD
  0
DICTIONARYVAR
  5
52DB6
102
{ACAD_REACTORS
330
52DB0
102
}
330
52DB0
100
DictionaryVariables
280
     0
  1
1
  0
DICTIONARYVAR
  5
52DB7
102
{ACAD_REACTORS
330
52DB0
102
}
330
52DB0
100
DictionaryVariables
280
     0
  1
15
  0
DICTIONARYVAR
  5
52DB5
102
{ACAD_REACTORS
330
52DB0
102
}
330
52DB0
100
DictionaryVariables
280
     0
  1
0
  0
DICTIONARYVAR
  5
52DB3
102
{ACAD_REACTORS
330
52DB0
102
}
330
52DB0
100
DictionaryVariables
280
     0
  1
0
  0
DICTIONARY
  5
53119
102
{ACAD_REACTORS
330
5310E
102
}
330
5310E
100
AcDbDictionary
281
     1
  0
DICTIONARY
  5
52BBE
330
52BBD
100
AcDbDictionary
280
     1
281
     1
  3
BUMPTILE
360
52BC0
  3
DIFFUSETILE
360
52BBF
  3
OPACITYTILE
360
52BC3
  3
REFLECTIONTILE
360
52BC2
  3
REFRACTIONTILE
360
52BC4
  3
SPECULARTILE
360
52BC1
  0
DICTIONARY
  5
52BB6
330
52BB5
100
AcDbDictionary
280
     1
281
     1
  3
BUMPTILE
360
52BB8
  3
DIFFUSETILE
360
52BB7
  3
OPACITYTILE
360
52BBB
  3
REFLECTIONTILE
360
52BBA
  3
REFRACTIONTILE
360
52BBC
  3
SPECULARTILE
360
52BB9
  0
DICTIONARY
  5
52BC6
330
52BC5
100
AcDbDictionary
280
     1
281
     1
  3
BUMPTILE
360
52BC8
  3
DIFFUSETILE
360
52BC7
  3
OPACITYTILE
360
52BCB
  3
REFLECTIONTILE
360
52BCA
  3
REFRACTIONTILE
360
52BCC
  3
SPECULARTILE
360
52BC9
  0
DICTIONARY
  5
52DB8
330
52C10
100
AcDbDictionary
280
     1
281
     1
  3
ACAD_ROUNDTRIP_2008_TABLESTYLE_CELLSTYLEMAP
360
551B6
  0
XRECORD
  5
52BC0
102
{ACAD_REACTORS
330
52BBE
102
}
330
52BBE
100
AcDbXrecord
280
     1
270
     1
271
     1
  0
XRECORD
  5
52BBF
102
{ACAD_REACTORS
330
52BBE
102
}
330
52BBE
100
AcDbXrecord
280
     1
270
     1
271
     1
  0
XRECORD
  5
52BC3
102
{ACAD_REACTORS
330
52BBE
102
}
330
52BBE
100
AcDbXrecord
280
     1
270
     1
271
     1
  0
XRECORD
  5
52BC2
102
{ACAD_REACTORS
330
52BBE
102
}
330
52BBE
100
AcDbXrecord
280
     1
270
     1
271
     1
  0
XRECORD
  5
52BC4
102
{ACAD_REACTORS
330
52BBE
102
}
330
52BBE
100
AcDbXrecord
280
     1
270
     1
271
     1
  0
XRECORD
  5
52BC1
102
{ACAD_REACTORS
330
52BBE
102
}
330
52BBE
100
AcDbXrecord
280
     1
270
     1
271
     1
  0
XRECORD
  5
52BB8
102
{ACAD_REACTORS
330
52BB6
102
}
330
52BB6
100
AcDbXrecord
280
     1
270
     1
271
     1
  0
XRECORD
  5
52BB7
102
{ACAD_REACTORS
330
52BB6
102
}
330
52BB6
100
AcDbXrecord
280
     1
270
     1
271
     1
  0
XRECORD
  5
52BBB
102
{ACAD_REACTORS
330
52BB6
102
}
330
52BB6
100
AcDbXrecord
280
     1
270
     1
271
     1
  0
XRECORD
  5
52BBA
102
{ACAD_REACTORS
330
52BB6
102
}
330
52BB6
100
AcDbXrecord
280
     1
270
     1
271
     1
  0
XRECORD
  5
52BBC
102
{ACAD_REACTORS
330
52BB6
102
}
330
52BB6
100
AcDbXrecord
280
     1
270
     1
271
     1
  0
XRECORD
  5
52BB9
102
{ACAD_REACTORS
330
52BB6
102
}
330
52BB6
100
AcDbXrecord
280
     1
270
     1
271
     1
  0
XRECORD
  5
52BC8
102
{ACAD_REACTORS
330
52BC6
102
}
330
52BC6
100
AcDbXrecord
280
     1
270
     1
271
     1
  0
XRECORD
  5
52BC7
102
{ACAD_REACTORS
330
52BC6
102
}
330
52BC6
100
AcDbXrecord
280
     1
270
     1
271
     1
  0
XRECORD
  5
52BCB
102
{ACAD_REACTORS
330
52BC6
102
}
330
52BC6
100
AcDbXrecord
280
     1
270
     1
271
     1
  0
XRECORD
  5
52BCA
102
{ACAD_REACTORS
330
52BC6
102
}
330
52BC6
100
AcDbXrecord
280
     1
270
     1
271
     1
  0
XRECORD
  5
52BCC
102
{ACAD_REACTORS
330
52BC6
102
}
330
52BC6
100
AcDbXrecord
280
     1
270
     1
271
     1
  0
XRECORD
  5
52BC9
102
{ACAD_REACTORS
330
52BC6
102
}
330
52BC6
100
AcDbXrecord
280
     1
270
     1
271
     1
  0
CELLSTYLEMAP
  5
551B6
102
{ACAD_REACTORS
330
52DB8
102
}
330
52DB8
100
AcDbCellStyleMap
 90
        3
300
CELLSTYLE
  1
TABLEFORMAT_BEGIN
 90
        5
170
     1
 91
        0
 92
    32768
 62
   257
 93
        1
300
CONTENTFORMAT
  1
CONTENTFORMAT_BEGIN
 90
        0
 91
        0
 92
      512
 93
        0
300

 40
0.0
140
1.0
 94
        5
 62
     0
340
52C01
144
0.25
309
CONTENTFORMAT_END
171
     1
301
MARGIN
  1
CELLMARGIN_BEGIN
 40
0.06
 40
0.06
 40
0.06
 40
0.06
 40
0.18
 40
0.18
309
CELLMARGIN_END
 94
        6
 95
        1
302
GRIDFORMAT
  1
GRIDFORMAT_BEGIN
 90
        0
 91
        1
 62
     0
 92
       -2
340
0
 93
        0
 40
0.045
309
GRIDFORMAT_END
 95
        2
302
GRIDFORMAT
  1
GRIDFORMAT_BEGIN
 90
        0
 91
        1
 62
     0
 92
       -2
340
0
 93
        0
 40
0.045
309
GRIDFORMAT_END
 95
        4
302
GRIDFORMAT
  1
GRIDFORMAT_BEGIN
 90
        0
 91
        1
 62
     0
 92
       -2
340
0
 93
        0
 40
0.045
309
GRIDFORMAT_END
 95
        8
302
GRIDFORMAT
  1
GRIDFORMAT_BEGIN
 90
        0
 91
        1
 62
     0
 92
       -2
340
0
 93
        0
 40
0.045
309
GRIDFORMAT_END
 95
       16
302
GRIDFORMAT
  1
GRIDFORMAT_BEGIN
 90
        0
 91
        1
 62
     0
 92
       -2
340
0
 93
        0
 40
0.045
309
GRIDFORMAT_END
 95
       32
302
GRIDFORMAT
  1
GRIDFORMAT_BEGIN
 90
        0
 91
        1
 62
     0
 92
       -2
340
0
 93
        0
 40
0.045
309
GRIDFORMAT_END
309
TABLEFORMAT_END
  1
CELLSTYLE_BEGIN
 90
        1
 91
        1
300
_TITLE
309
CELLSTYLE_END
300
CELLSTYLE
  1
TABLEFORMAT_BEGIN
 90
        5
170
     1
 91
        0
 92
        0
 62
   257
 93
        1
300
CONTENTFORMAT
  1
CONTENTFORMAT_BEGIN
 90
        0
 91
        0
 92
      512
 93
        0
300

 40
0.0
140
1.0
 94
        5
 62
     0
340
52C01
144
0.18
309
CONTENTFORMAT_END
171
     1
301
MARGIN
  1
CELLMARGIN_BEGIN
 40
0.06
 40
0.06
 40
0.06
 40
0.06
 40
0.18
 40
0.18
309
CELLMARGIN_END
 94
        6
 95
        1
302
GRIDFORMAT
  1
GRIDFORMAT_BEGIN
 90
        0
 91
        1
 62
     0
 92
       -2
340
0
 93
        0
 40
0.045
309
GRIDFORMAT_END
 95
        2
302
GRIDFORMAT
  1
GRIDFORMAT_BEGIN
 90
        0
 91
        1
 62
     0
 92
       -2
340
0
 93
        0
 40
0.045
309
GRIDFORMAT_END
 95
        4
302
GRIDFORMAT
  1
GRIDFORMAT_BEGIN
 90
        0
 91
        1
 62
     0
 92
       -2
340
0
 93
        0
 40
0.045
309
GRIDFORMAT_END
 95
        8
302
GRIDFORMAT
  1
GRIDFORMAT_BEGIN
 90
        0
 91
        1
 62
     0
 92
       -2
340
0
 93
        0
 40
0.045
309
GRIDFORMAT_END
 95
       16
302
GRIDFORMAT
  1
GRIDFORMAT_BEGIN
 90
        0
 91
        1
 62
     0
 92
       -2
340
0
 93
        0
 40
0.045
309
GRIDFORMAT_END
 95
       32
302
GRIDFORMAT
  1
GRIDFORMAT_BEGIN
 90
        0
 91
        1
 62
     0
 92
       -2
340
0
 93
        0
 40
0.045
309
GRIDFORMAT_END
309
TABLEFORMAT_END
  1
CELLSTYLE_BEGIN
 90
        2
 91
        1
300
_HEADER
309
CELLSTYLE_END
300
CELLSTYLE
  1
TABLEFORMAT_BEGIN
 90
        5
170
     1
 91
        0
 92
        0
 62
   257
 93
        1
300
CONTENTFORMAT
  1
CONTENTFORMAT_BEGIN
 90
        0
 91
        0
 92
      512
 93
        0
300

 40
0.0
140
1.0
 94
        2
 62
     0
340
52C01
144
0.18
309
CONTENTFORMAT_END
171
     1
301
MARGIN
  1
CELLMARGIN_BEGIN
 40
0.06
 40
0.06
 40
0.06
 40
0.06
 40
0.18
 40
0.18
309
CELLMARGIN_END
 94
        6
 95
        1
302
GRIDFORMAT
  1
GRIDFORMAT_BEGIN
 90
        0
 91
        1
 62
     0
 92
       -2
340
0
 93
        0
 40
0.045
309
GRIDFORMAT_END
 95
        2
302
GRIDFORMAT
  1
GRIDFORMAT_BEGIN
 90
        0
 91
        1
 62
     0
 92
       -2
340
0
 93
        0
 40
0.045
309
GRIDFORMAT_END
 95
        4
302
GRIDFORMAT
  1
GRIDFORMAT_BEGIN
 90
        0
 91
        1
 62
     0
 92
       -2
340
0
 93
        0
 40
0.045
309
GRIDFORMAT_END
 95
        8
302
GRIDFORMAT
  1
GRIDFORMAT_BEGIN
 90
        0
 91
        1
 62
     0
 92
       -2
340
0
 93
        0
 40
0.045
309
GRIDFORMAT_END
 95
       16
302
GRIDFORMAT
  1
GRIDFORMAT_BEGIN
 90
        0
 91
        1
 62
     0
 92
       -2
340
0
 93
        0
 40
0.045
309
GRIDFORMAT_END
 95
       32
302
GRIDFORMAT
  1
GRIDFORMAT_BEGIN
 90
        0
 91
        1
 62
     0
 92
       -2
340
0
 93
        0
 40
0.045
309
GRIDFORMAT_END
309
TABLEFORMAT_END
  1
CELLSTYLE_BEGIN
 90
        3
 91
        2
300
_DATA
309
CELLSTYLE_END
  0
ENDSEC
  0
EOF
