  0
SECTION
  2
HEADER
  9
$ACADVER
  1
AC1021
  9
$ACADMAINTVER
 70
    50
  9
$DWGCODEPAGE
  3
ANSI_1252
  9
$LASTSAVEDBY
  1
mstaweczny
  9
$INSBASE
 10
0.0
 20
0.0
 30
0.0
  9
$EXTMIN
 10
29050.77647794923
 20
25526.89191687497
 30
0.0
  9
$EXTMAX
 10
32281.58024135391
 20
26676.40104386973
 30
0.0
  9
$LIMMIN
 10
0.0
 20
0.0
  9
$LIMMAX
 10
420.0
 20
297.0
  9
$ORTHOMODE
 70
     0
  9
$REGENMODE
 70
     1
  9
$FILLMODE
 70
     1
  9
$QTEXTMODE
 70
     0
  9
$MIRRTEXT
 70
     0
  9
$LTSCALE
 40
1.0
  9
$ATTMODE
 70
     1
  9
$TEXTSIZE
 40
2.5
  9
$TRACEWID
 40
1.0
  9
$TEXTSTYLE
  7
STANDARD
  9
$CLAYER
  8
0
  9
$CELTYPE
  6
ByLayer
  9
$CECOLOR
 62
   256
  9
$CELTSCALE
 40
1.0
  9
$DISPSILH
 70
     0
  9
$DIMSCALE
 40
1.0
  9
$DIMASZ
 40
0.12
  9
$DIMEXO
 40
0.05
  9
$DIMDLI
 40
0.5
  9
$DIMRND
 40
0.0
  9
$DIMDLE
 40
0.0
  9
$DIMEXE
 40
0.1
  9
$DIMTP
 40
0.1
  9
$DIMTM
 40
0.1
  9
$DIMTXT
 40
0.12
  9
$DIMCEN
 40
0.0
  9
$DIMTSZ
 40
0.0
  9
$DIMTOL
 70
     0
  9
$DIMLIM
 70
     0
  9
$DIMTIH
 70
     1
  9
$DIMTOH
 70
     1
  9
$DIMSE1
 70
     0
  9
$DIMSE2
 70
     0
  9
$DIMTAD
 70
     0
  9
$DIMZIN
 70
     7
  9
$DIMBLK
  1

  9
$DIMASO
 70
     1
  9
$DIMSHO
 70
     1
  9
$DIMPOST
  1

  9
$DIMAPOST
  1
mm
  9
$DIMALT
 70
     0
  9
$DIMALTD
 70
     2
  9
$DIMALTF
 40
25.4
  9
$DIMLFAC
 40
1.0
  9
$DIMTOFL
 70
     0
  9
$DIMTVP
 40
0.0
  9
$DIMTIX
 70
     0
  9
$DIMSOXD
 70
     0
  9
$DIMSAH
 70
     0
  9
$DIMBLK1
  1

  9
$DIMBLK2
  1

  9
$DIMSTYLE
  2
AM_ANSI
  9
$DIMCLRD
 70
   256
  9
$DIMCLRE
 70
   256
  9
$DIMCLRT
 70
   140
  9
$DIMTFAC
 40
0.71
  9
$DIMGAP
 40
0.06
  9
$DIMJUST
 70
     0
  9
$DIMSD1
 70
     0
  9
$DIMSD2
 70
     0
  9
$DIMTOLJ
 70
     1
  9
$DIMTZIN
 70
     7
  9
$DIMALTZ
 70
     0
  9
$DIMALTTZ
 70
     0
  9
$DIMUPT
 70
     0
  9
$DIMDEC
 70
     4
  9
$DIMTDEC
 70
     4
  9
$DIMALTU
 70
     2
  9
$DIMALTTD
 70
     4
  9
$DIMTXSTY
  7
STANDARD
  9
$DIMAUNIT
 70
     0
  9
$DIMADEC
 70
     0
  9
$DIMALTRND
 40
0.0
  9
$DIMAZIN
 70
     2
  9
$DIMDSEP
 70
    46
  9
$DIMATFIT
 70
     3
  9
$DIMFRAC
 70
     0
  9
$DIMLDRBLK
  1

  9
$DIMLUNIT
 70
     2
  9
$DIMLWD
 70
    -1
  9
$DIMLWE
 70
    -1
  9
$DIMTMOVE
 70
     0
  9
$DIMFXL
 40
1.0
  9
$DIMFXLON
 70
     0
  9
$DIMJOGANG
 40
0.7853981633974483
  9
$DIMTFILL
 70
     0
  9
$DIMTFILLCLR
 70
     0
  9
$DIMARCSYM
 70
     1
  9
$DIMLTYPE
  6
ByBlock
  9
$DIMLTEX1
  6
ByBlock
  9
$DIMLTEX2
  6
ByBlock
  9
$LUNITS
 70
     2
  9
$LUPREC
 70
     2
  9
$SKETCHINC
 40
1.0
  9
$FILLETRAD
 40
2.5
  9
$AUNITS
 70
     0
  9
$AUPREC
 70
     0
  9
$MENU
  1
.
  9
$ELEVATION
 40
0.0
  9
$PELEVATION
 40
0.0
  9
$THICKNESS
 40
0.0
  9
$LIMCHECK
 70
     0
  9
$CHAMFERA
 40
2.5
  9
$CHAMFERB
 40
2.5
  9
$CHAMFERC
 40
0.0
  9
$CHAMFERD
 40
0.0
  9
$SKPOLY
 70
     0
  9
$TDCREATE
 40
2455251.684584873
  9
$TDUCREATE
 40
2455251.642918206
  9
$TDUPDATE
 40
2458305.387686111
  9
$TDUUPDATE
 40
2458305.346019445
  9
$TDINDWG
 40
0.0557883796
  9
$TDUSRTIMER
 40
0.0557876852
  9
$USRTIMER
 70
     1
  9
$ANGBASE
 50
0.0
  9
$ANGDIR
 70
     0
  9
$PDMODE
 70
     0
  9
$PDSIZE
 40
0.0
  9
$PLINEWID
 40
0.0
  9
$SPLFRAME
 70
     0
  9
$SPLINETYPE
 70
     6
  9
$SPLINESEGS
 70
     8
  9
$HANDSEED
  5
53A14
  9
$SURFTAB1
 70
     6
  9
$SURFTAB2
 70
     6
  9
$SURFTYPE
 70
     6
  9
$SURFU
 70
     6
  9
$SURFV
 70
     6
  9
$UCSBASE
  2

  9
$UCSNAME
  2

  9
$UCSORG
 10
0.0
 20
0.0
 30
0.0
  9
$UCSXDIR
 10
1.0
 20
0.0
 30
0.0
  9
$UCSYDIR
 10
0.0
 20
1.0
 30
0.0
  9
$UCSORTHOREF
  2

  9
$UCSORTHOVIEW
 70
     0
  9
$UCSORGTOP
 10
0.0
 20
0.0
 30
0.0
  9
$UCSORGBOTTOM
 10
0.0
 20
0.0
 30
0.0
  9
$UCSORGLEFT
 10
0.0
 20
0.0
 30
0.0
  9
$UCSORGRIGHT
 10
0.0
 20
0.0
 30
0.0
  9
$UCSORGFRONT
 10
0.0
 20
0.0
 30
0.0
  9
$UCSORGBACK
 10
0.0
 20
0.0
 30
0.0
  9
$PUCSBASE
  2

  9
$PUCSNAME
  2

  9
$PUCSORG
 10
0.0
 20
0.0
 30
0.0
  9
$PUCSXDIR
 10
1.0
 20
0.0
 30
0.0
  9
$PUCSYDIR
 10
0.0
 20
1.0
 30
0.0
  9
$PUCSORTHOREF
  2

  9
$PUCSORTHOVIEW
 70
     0
  9
$PUCSORGTOP
 10
0.0
 20
0.0
 30
0.0
  9
$PUCSORGBOTTOM
 10
0.0
 20
0.0
 30
0.0
  9
$PUCSORGLEFT
 10
0.0
 20
0.0
 30
0.0
  9
$PUCSORGRIGHT
 10
0.0
 20
0.0
 30
0.0
  9
$PUCSORGFRONT
 10
0.0
 20
0.0
 30
0.0
  9
$PUCSORGBACK
 10
0.0
 20
0.0
 30
0.0
  9
$USERI1
 70
     0
  9
$USERI2
 70
     0
  9
$USERI3
 70
     0
  9
$USERI4
 70
     0
  9
$USERI5
 70
     0
  9
$USERR1
 40
0.0
  9
$USERR2
 40
0.0
  9
$USERR3
 40
0.0
  9
$USERR4
 40
0.0
  9
$USERR5
 40
0.0
  9
$WORLDVIEW
 70
     1
  9
$SHADEDGE
 70
     3
  9
$SHADEDIF
 70
    70
  9
$TILEMODE
 70
     1
  9
$MAXACTVP
 70
    64
  9
$PINSBASE
 10
0.0
 20
0.0
 30
0.0
  9
$PLIMCHECK
 70
     0
  9
$PEXTMIN
 10
1.000000000000000E+20
 20
1.000000000000000E+20
 30
1.000000000000000E+20
  9
$PEXTMAX
 10
-1.000000000000000E+20
 20
-1.000000000000000E+20
 30
-1.000000000000000E+20
  9
$PLIMMIN
 10
0.0
 20
0.0
  9
$PLIMMAX
 10
420.0
 20
297.0
  9
$UNITMODE
 70
     0
  9
$VISRETAIN
 70
     1
  9
$PLINEGEN
 70
     0
  9
$PSLTSCALE
 70
     1
  9
$TREEDEPTH
 70
  3020
  9
$CMLSTYLE
  2
Standard
  9
$CMLJUST
 70
     0
  9
$CMLSCALE
 40
1.0
  9
$PROXYGRAPHICS
 70
     1
  9
$MEASUREMENT
 70
     0
  9
$CELWEIGHT
370
    -1
  9
$ENDCAPS
280
     0
  9
$JOINSTYLE
280
     0
  9
$LWDISPLAY
290
     0
  9
$INSUNITS
 70
     0
  9
$HYPERLINKBASE
  1

  9
$STYLESHEET
  1

  9
$XEDIT
290
     1
  9
$CEPSNTYPE
380
     0
  9
$PSTYLEMODE
290
     1
  9
$FINGERPRINTGUID
  2
{7CA7D69D-36B4-42EF-92E2-8442B4B9647F}
  9
$VERSIONGUID
  2
{74F14D35-D983-4E18-A933-4784C124B5F9}
  9
$EXTNAMES
290
     1
  9
$PSVPSCALE
 40
0.0
  9
$OLESTARTUP
290
     0
  9
$SORTENTS
280
   127
  9
$INDEXCTL
280
     0
  9
$HIDETEXT
280
     0
  9
$XCLIPFRAME
290
     0
  9
$HALOGAP
280
     0
  9
$OBSCOLOR
 70
   257
  9
$OBSLTYPE
280
     0
  9
$INTERSECTIONDISPLAY
280
     0
  9
$INTERSECTIONCOLOR
 70
   257
  9
$DIMASSOC
280
     1
  9
$PROJECTNAME
  1

  9
$CAMERADISPLAY
290
     0
  9
$LENSLENGTH
 40
50.0
  9
$CAMERAHEIGHT
 40
0.0
  9
$STEPSPERSEC
 40
2.0
  9
$STEPSIZE
 40
6.0
  9
$3DDWFPREC
 40
2.0
  9
$PSOLWIDTH
 40
0.25
  9
$PSOLHEIGHT
 40
4.0
  9
$LOFTANG1
 40
1.570796326794896
  9
$LOFTANG2
 40
1.570796326794896
  9
$LOFTMAG1
 40
0.0
  9
$LOFTMAG2
 40
0.0
  9
$LOFTPARAM
 70
     7
  9
$LOFTNORMALS
280
     1
  9
$LATITUDE
 40
37.795
  9
$LONGITUDE
 40
-122.394
  9
$NORTHDIRECTION
 40
0.0
  9
$TIMEZONE
 70
 -8000
  9
$LIGHTGLYPHDISPLAY
280
     1
  9
$TILEMODELIGHTSYNCH
280
     1
  9
$CMATERIAL
347
52BB5
  9
$SOLIDHIST
280
     1
  9
$SHOWHIST
280
     1
  9
$DWFFRAME
280
     2
  9
$DGNFRAME
280
     0
  9
$REALWORLDSCALE
290
     1
  9
$INTERFERECOLOR
 62
     1
  9
$INTERFEREOBJVS
345
52BD7
  9
$INTERFEREVPVS
346
52BD4
  9
$CSHADOW
280
     0
  9
$SHADOWPLANELOCATION
 40
0.0
  0
ENDSEC
  0
SECTION
  2
CLASSES
  0
CLASS
  1
ACDBDICTIONARYWDFLT
  2
AcDbDictionaryWithDefault
  3
ObjectDBX Classes
 90
        0
 91
        1
280
     0
281
     0
  0
CLASS
  1
MATERIAL
  2
AcDbMaterial
  3
ObjectDBX Classes
 90
     1153
 91
        3
280
     0
281
     0
  0
CLASS
  1
VISUALSTYLE
  2
AcDbVisualStyle
  3
ObjectDBX Classes
 90
     4095
 91
       16
280
     0
281
     0
  0
CLASS
  1
SCALE
  2
AcDbScale
  3
ObjectDBX Classes
 90
     1153
 91
       33
280
     0
281
     0
  0
CLASS
  1
TABLESTYLE
  2
AcDbTableStyle
  3
ObjectDBX Classes
 90
     4095
 91
        1
280
     0
281
     0
  0
CLASS
  1
MLEADERSTYLE
  2
AcDbMLeaderStyle
  3
ACDB_MLEADERSTYLE_CLASS
 90
     4095
 91
        1
280
     0
281
     0
  0
CLASS
  1
EXACXREFPANELOBJECT
  2
ExAcXREFPanelObject
  3
EXAC_ESW
 90
     1025
 91
        1
280
     0
281
     0
  0
CLASS
  1
NPOCOLLECTION
  2
AcDbImpNonPersistentObjectsCollection
  3
ObjectDBX Classes
 90
     1153
 91
        1
280
     0
281
     0
  0
CLASS
  1
DIMASSOC
  2
AcDbDimAssoc
  3
"AcDbDimAssoc|Product Desc:     AcDim ARX App For Dimension|Company:          Autodesk, Inc.|WEB Address:      www.autodesk.com"
 90
        0
 91
        2
280
     0
281
     0
  0
CLASS
  1
SORTENTSTABLE
  2
AcDbSortentsTable
  3
ObjectDBX Classes
 90
        0
 91
        1
280
     0
281
     0
  0
CLASS
  1
DICTIONARYVAR
  2
AcDbDictionaryVar
  3
ObjectDBX Classes
 90
        0
 91
        7
280
     0
281
     0
  0
CLASS
  1
CELLSTYLEMAP
  2
AcDbCellStyleMap
  3
ObjectDBX Classes
 90
     1152
 91
        2
280
     0
281
     0
  0
CLASS
  1
AMGSETTINGSOBJ
  2
AmgSettingsObj
  3
"AcadM|Product Description: AutoCAD Mechanical|Company: Autodesk, Inc."
 90
     1024
 91
        2
280
     0
281
     0
  0
CLASS
  1
ACME_DOCUMENT
  2
AcMeDbDoc
  3
AcMeServices
 90
     1024
 91
        1
280
     0
281
     0
  0
CLASS
  1
ACMESCOPE
  2
AcMeScope
  3
AcMeServices
 90
     1024
 91
        1
280
     0
281
     0
  0
CLASS
  1
ACMECOMMANDHISTORY
  2
AcMeCommandHistory
  3
AcMeServices
 90
     1024
 91
        1
280
     0
281
     0
  0
CLASS
  1
ACIMSYSVARMAN
  2
AcImSysVarManager
  3
AcMeServices
 90
     1024
 91
        5
280
     0
281
     0
  0
CLASS
  1
ACIMINTSYSVAR
  2
AcImIntSysVar
  3
AcMeServices
 90
     1024
 91
       27
280
     0
281
     0
  0
CLASS
  1
ACMEDRAWINGMAN
  2
AcMeDrawingMan
  3
AcMeServices
 90
     1024
 91
        1
280
     0
281
     0
  0
CLASS
  1
ACMEVIEW
  2
AcMeView
  3
AcMeServices
 90
     1024
 91
        1
280
     0
281
     0
  0
CLASS
  1
ACDBENTITYCACHE
  2
AcMeEntityCache
  3
AcMeServices
 90
     1024
 91
        1
280
     0
281
     0
  0
CLASS
  1
GSMANAGER
  2
AcMeGSManager
  3
AcMeServices
 90
     1024
 91
        1
280
     0
281
     0
  0
CLASS
  1
AMDTINTERNALREACTOR
  2
AmdtInternalReactor
  3
AcMeServices
 90
     1024
 91
        2
280
     0
281
     0
  0
CLASS
  1
ACMESTATEMGR
  2
AcMeStateMgr
  3
AcMeServices
 90
     1024
 91
        1
280
     0
281
     0
  0
CLASS
  1
ACGREFMASTER
  2
AcGrefMaster
  3
AcAttribServices
 90
     1024
 91
        1
280
     0
281
     0
  0
CLASS
  1
AM_DRAWING_MGR
  2
AcDmDwgMgr
  3
AcMechDwgViewMgmt
 90
     1024
 91
        1
280
     0
281
     0
  0
CLASS
  1
AM_DWG_DOCUMENT
  2
AcDmDwgDocument
  3
AcMechDwgViewMgmt
 90
     1024
 91
        1
280
     0
281
     0
  0
CLASS
  1
AM_DWG_SHEET
  2
AcDmSheet
  3
AcMechDwgViewMgmt
 90
     1024
 91
        1
280
     0
281
     0
  0
CLASS
  1
AM_VIEWDIMPARMAP
  2
AcDmViewDimParMap
  3
AcMechDwgViewMgmt
 90
     1024
 91
        1
280
     0
281
     0
  0
CLASS
  1
ACIMREALSYSVAR
  2
AcImRealSysVar
  3
AcMeServices
 90
     1024
 91
        1
280
     0
281
     0
  0
CLASS
  1
AM_DWGMGR_NAME
  2
AcDmDwgMgrName
  3
AcMechDwgViewMgmt
 90
     1024
 91
        1
280
     0
281
     0
  0
CLASS
  1
ACME_DATABASE
  2
AcMeDbDatabase
  3
AcMeServices
 90
     1024
 91
        2
280
     0
281
     0
  0
CLASS
  1
ACRFINSADJUSTERMGR
  2
AcRfInsAdjusterMgr
  3
AcMeServices
 90
     1024
 91
        1
280
     0
281
     0
  0
CLASS
  1
ACGREFACADMASTER
  2
AcGrefacadMaster
  3
AcGrefServices
 90
     1024
 91
        1
280
     0
281
     0
  0
CLASS
  1
AMDTMENUSTATEMGR
  2
AmdtMenuStateMgr
  3
McadcomServices
 90
     1024
 91
        1
280
     0
281
     0
  0
CLASS
  1
AMDTMCOMMENUSTATE
  2
AmdtMcomMenuState
  3
McadcomServices
 90
     1024
 91
        1
280
     0
281
     0
  0
CLASS
  1
AMIMASTER
  2
AmiMaster
  3
AmiServices
 90
     1024
 91
        1
280
     0
281
     0
  0
CLASS
  1
MAPIAMMOUDLE
  2
MApiAmModule
  3
MApiAmServices
 90
     1024
 91
        1
280
     0
281
     0
  0
CLASS
  1
ACIMSTRSYSVAR
  2
AcImStrSysVar
  3
AcMeServices
 90
     1024
 91
        5
280
     0
281
     0
  0
CLASS
  1
AMDTADMENUSTATE
  2
AmdtAdMenuState
  3
DesignerServices
 90
     1024
 91
        1
280
     0
281
     0
  0
CLASS
  1
ADAPPL
  2
AcAdAppl
  3
DesignerServices
 90
     1024
 91
        1
280
     0
281
     0
  0
CLASS
  1
DEPMGR
  2
AcAdDepMgr
  3
DesignerServices
 90
     1024
 91
        1
280
     0
281
     0
  0
CLASS
  1
PARAMMGR
  2
AcAdParamMgr
  3
DesignerServices
 90
     1024
 91
        1
280
     0
281
     0
  0
CLASS
  1
PARAMSCOPE
  2
AcAdParamScope
  3
DesignerServices
 90
     1024
 91
        1
280
     0
281
     0
  0
CLASS
  1
NAMEDAPPL
  2
AcAdNamedAppl
  3
DesignerServices
 90
     1024
 91
        1
280
     0
281
     0
  0
CLASS
  1
AMDTDMMENUSTATE
  2
AmdtDmMenuState
  3
AcMechDwgViewMgmt
 90
     1024
 91
        1
280
     0
281
     0
  0
CLASS
  1
AMDTAMMENUSTATE
  2
AmdtAmMenuState
  3
DesignerAssemblies
 90
     1024
 91
        1
280
     0
281
     0
  0
CLASS
  1
ACAMPROJECT
  2
AcAmProject
  3
DesignerAssemblies
 90
     1024
 91
        1
280
     0
281
     0
  0
CLASS
  1
ACAMGRCOMPDEF
  2
AcAmGrCompDef
  3
DesignerAssemblies
 90
     1024
 91
        1
280
     0
281
     0
  0
CLASS
  1
ACCMCONTEXT
  2
AcCmContext
  3
DesignerAssemblies
 90
     1024
 91
        1
280
     0
281
     0
  0
CLASS
  1
ACAMCOMPDEF
  2
AcAmCompDef
  3
DesignerAssemblies
 90
     1024
 91
        1
280
     0
281
     0
  0
CLASS
  1
ACAMCOMPDEFMGR
  2
AcAmCompDefMgr
  3
DesignerAssemblies
 90
     1024
 91
        1
280
     0
281
     0
  0
CLASS
  1
AMCONTEXTMGR
  2
AcAmContextMgr
  3
DesignerAssemblies
 90
     1024
 91
        1
280
     0
281
     0
  0
CLASS
  1
ACAMCONTEXTMODELER
  2
AcAmContextModeler
  3
DesignerAssemblies
 90
     1024
 91
        1
280
     0
281
     0
  0
CLASS
  1
ACMDATADICTIONARY
  2
AcmDataDictionary
  3
"AcmSymBB|Product Description: AutoCAD Mechanical|Company: Autodesk, Inc."
 90
     1024
 91
        1
280
     0
281
     0
  0
CLASS
  1
CATALOGSTATE
  2
AcAmCatalogState
  3
DesignerAssemblies
 90
     1024
 91
        1
280
     0
281
     0
  0
CLASS
  1
ACAMGRCOMPDEFSET
  2
AcAmGrCompDefSet
  3
DesignerAssemblies
 90
     1024
 91
        1
280
     0
281
     0
  0
CLASS
  1
AMDTBROWSERDBTAB
  2
AmdtBrowserDbTab
  3
McadcomServices
 90
     1024
 91
        1
280
     0
281
     0
  0
CLASS
  1
CBROWSERAPPOBJECT
  2
CBrowserAppObject
  3
McadcomServices
 90
     1024
 91
        3
280
     0
281
     0
  0
CLASS
  1
DM_PLACEHOLDER
  2
AcDmSelsetPlaceholder
  3
AcMechDwgViewMgmt
 90
     1024
 91
        1
280
     0
281
     0
  0
CLASS
  1
ACMSTANDARDANSI
  2
AcmStandardANSI
  3
"Amdt_StdImp|Product Description: AutoCAD Mechanical|Company: Autodesk, Inc."
 90
     1024
 91
        1
280
     0
281
     0
  0
CLASS
  1
ACMSURFSTANDARDANSI
  2
AcmSurfTextStdANSI
  3
"Amdt_StdImp|Product Description: AutoCAD Mechanical|Company: Autodesk, Inc."
 90
     1024
 91
        1
280
     0
281
     0
  0
CLASS
  1
ACMFCFSTANDARDANSI
  2
AcmFCFStdANSI
  3
"Amdt_StdImp|Product Description: AutoCAD Mechanical|Company: Autodesk, Inc."
 90
     1024
 91
        1
280
     0
281
     0
  0
CLASS
  1
ACMWELDSTANDARDANSI
  2
AcmWeldingStdANSI
  3
"Amdt_StdImp|Product Description: AutoCAD Mechanical|Company: Autodesk, Inc."
 90
     1024
 91
        1
280
     0
281
     0
  0
CLASS
  1
ACMIDSTANDARDANSI
  2
AcmIdStdANSI
  3
"Amdt_StdImp|Product Description: AutoCAD Mechanical|Company: Autodesk, Inc."
 90
     1024
 91
        1
280
     0
281
     0
  0
CLASS
  1
ACMDATUMSTANDARDANSI
  2
AcmDatumStdANSI
  3
"Amdt_StdImp|Product Description: AutoCAD Mechanical|Company: Autodesk, Inc."
 90
     1024
 91
        1
280
     0
281
     0
  0
CLASS
  1
ACMBOMSTANDARDANSI
  2
AcmBOMStdANSI
  3
"Amdt_StdImp|Product Description: AutoCAD Mechanical|Company: Autodesk, Inc."
 90
     1024
 91
        1
280
     0
281
     0
  0
CLASS
  1
ACMDETAILSTANDARDANSI
  2
AmdtDetailSymStdANSI
  3
"Amdt_StdImp|Product Description: AutoCAD Mechanical|Company: Autodesk, Inc."
 90
     1024
 91
        1
280
     0
281
     0
  0
CLASS
  1
ACMSECTIONSTANDARDANSI
  2
AmdtSectionSymStdANSI
  3
"Amdt_StdImp|Product Description: AutoCAD Mechanical|Company: Autodesk, Inc."
 90
     1024
 91
        1
280
     0
281
     0
  0
CLASS
  1
ACMCENTERLINESTANDARDANSI
  2
AmdtCenterLineStdANSI
  3
"Amdt_StdImp|Product Description: AutoCAD Mechanical|Company: Autodesk, Inc."
 90
     1024
 91
        1
280
     0
281
     0
  0
CLASS
  1
ACMTHREADLINESTANDARDANSI
  2
AmdtThreadLineStdANSI
  3
"Amdt_StdImp|Product Description: AutoCAD Mechanical|Company: Autodesk, Inc."
 90
     1024
 91
        1
280
     0
281
     0
  0
CLASS
  1
ACMNOTESTANDARDANSI
  2
AmdtNoteStdANSI
  3
"Amdt_StdImp|Product Description: AutoCAD Mechanical|Company: Autodesk, Inc."
 90
     1024
 91
        1
280
     0
281
     0
  0
CLASS
  1
ACMTAPERSTANDARDANSI
  2
AcmTaperStdANSI
  3
"Amdt_StdImp|Product Description: AutoCAD Mechanical|Company: Autodesk, Inc."
 90
     1024
 91
        1
280
     0
281
     0
  0
CLASS
  1
ACMANOOTATIONVIEWSTANDARDANSI
  2
AmdtAnViewStdANSI
  3
"Amdt_StdImp|Product Description: AutoCAD Mechanical|Company: Autodesk, Inc."
 90
     1024
 91
        1
280
     0
281
     0
  0
CLASS
  1
ACAMGLAYSTD
  2
AcAmgLayStd
  3
"AmgLay|Product Description: AutoCAD Mechanical|Company: Autodesk, Inc."
 90
     1024
 91
        2
280
     0
281
     0
  0
CLASS
  1
ACAMGDIMSTD
  2
AcAmgDimStd
  3
"AmgDim|Product Description: AutoCAD Mechanical|Company: Autodesk, Inc."
 90
     1024
 91
        2
280
     0
281
     0
  0
CLASS
  1
AMGOBJPROPCFG
  2
AmgObjPropCfg
  3
"AmgLay|Product Description: AutoCAD Mechanical|Company: Autodesk, Inc."
 90
     1025
 91
        1
280
     0
281
     0
  0
CLASS
  1
ACAMGHOLECHARTSTDANSI
  2
AcAmgHoleChartStdANSI
  3
AmgDim|Product Description: AutoCAD Mechanical|Company: Autodesk, Inc.
 90
     1024
 91
        1
280
     0
281
     0
  0
CLASS
  1
ACAMGTITLESTD
  2
AcAmgTitleStd
  3
"AmgTitle|Product Description: AutoCAD Mechanical|Company: Autodesk, Inc."
 90
     4095
 91
        2
280
     0
281
     0
  0
CLASS
  1
AMDTNOTETEMPLATEDB
  2
AmdtNoteTemplateDB
  3
AcmSymBB|Product Description: AutoCAD Mechanical|Company: Autodesk, Inc.
 90
     1024
 91
       12
280
     0
281
     0
  0
CLASS
  1
ACMSTANDARDISO
  2
AcmStandardISO
  3
"Amdt_StdImp|Product Description: AutoCAD Mechanical|Company: Autodesk, Inc."
 90
     1024
 91
        1
280
     0
281
     0
  0
CLASS
  1
ACMSURFSTANDARDISO2002
  2
AcmSurfTextStdISO2002
  3
"Amdt_StdImp|Product Description: AutoCAD Mechanical|Company: Autodesk, Inc."
 90
     1024
 91
        1
280
     0
281
     0
  0
CLASS
  1
ACMFCFSTANDARDISO
  2
AcmFCFStdISO
  3
"Amdt_StdImp|Product Description: AutoCAD Mechanical|Company: Autodesk, Inc."
 90
     1024
 91
        1
280
     0
281
     0
  0
CLASS
  1
ACMWELDSTANDARDISO
  2
AcmWeldingStdISO
  3
"Amdt_StdImp|Product Description: AutoCAD Mechanical|Company: Autodesk, Inc."
 90
     1024
 91
        1
280
     0
281
     0
  0
CLASS
  1
ACMIDSTANDARDISO
  2
AcmIdStdISO
  3
"Amdt_StdImp|Product Description: AutoCAD Mechanical|Company: Autodesk, Inc."
 90
     1024
 91
        1
280
     0
281
     0
  0
CLASS
  1
ACMDATUMSTANDARDISO
  2
AcmDatumStdISO
  3
"Amdt_StdImp|Product Description: AutoCAD Mechanical|Company: Autodesk, Inc."
 90
     1024
 91
        1
280
     0
281
     0
  0
CLASS
  1
ACMBOMSTANDARDISO
  2
AcmBOMStdISO
  3
"Amdt_StdImp|Product Description: AutoCAD Mechanical|Company: Autodesk, Inc."
 90
     1024
 91
        1
280
     0
281
     0
  0
CLASS
  1
ACMDETAILSTANDARDISO
  2
AmdtDetailSymStdISO
  3
"Amdt_StdImp|Product Description: AutoCAD Mechanical|Company: Autodesk, Inc."
 90
     1024
 91
        1
280
     0
281
     0
  0
CLASS
  1
ACMSECTIONSTANDARDISO2001
  2
AmdtSectionSymStdISO2001
  3
"Amdt_StdImp|Product Description: AutoCAD Mechanical|Company: Autodesk, Inc."
 90
     1024
 91
        1
280
     0
281
     0
  0
CLASS
  1
ACMCENTERLINESTANDARDISO
  2
AmdtCenterLineStdISO
  3
"Amdt_StdImp|Product Description: AutoCAD Mechanical|Company: Autodesk, Inc."
 90
     1024
 91
        1
280
     0
281
     0
  0
CLASS
  1
ACMNOTESTANDARDISO
  2
AmdtNoteStdISO
  3
"Amdt_StdImp|Product Description: AutoCAD Mechanical|Company: Autodesk, Inc."
 90
     1024
 91
        1
280
     0
281
     0
  0
CLASS
  1
ACAMGHOLECHARTSTDISO
  2
AcAmgHoleChartStdISO
  3
AmgDim|Product Description: AutoCAD Mechanical|Company: Autodesk, Inc.
 90
     1024
 91
        1
280
     0
281
     0
  0
CLASS
  1
ACMTHREADLINESTANDARDISO
  2
AmdtThreadLineStdISO
  3
"Amdt_StdImp|Product Description: AutoCAD Mechanical|Company: Autodesk, Inc."
 90
     1024
 91
        1
280
     0
281
     0
  0
CLASS
  1
ACMTAPERSTANDARDISO
  2
AcmTaperStdISO
  3
"Amdt_StdImp|Product Description: AutoCAD Mechanical|Company: Autodesk, Inc."
 90
     1024
 91
        1
280
     0
281
     0
  0
CLASS
  1
ACMANOOTATIONVIEWSTANDARDISO
  2
AmdtAnViewStdISO
  3
"Amdt_StdImp|Product Description: AutoCAD Mechanical|Company: Autodesk, Inc."
 90
     1024
 91
        1
280
     0
281
     0
  0
CLASS
  1
AMDTEDGESTANDARDISO13715
  2
AmdtEdgeStdISO13715
  3
"Amdt_StdImp|Product Description: AutoCAD Mechanical|Company: Autodesk, Inc."
 90
     1024
 91
        1
280
     0
281
     0
  0
CLASS
  1
ACMDATAENTRYBLOCK
  2
AcmDataEntryBlock
  3
AcmSymBB|Product Description: AutoCAD Mechanical|Company: Autodesk, Inc.
 90
     1024
 91
        1
280
     0
281
     0
  0
CLASS
  1
ACAMGFILTERDAT
  2
AcAmgFilterDat
  3
"AcadM|Product Description: AutoCAD Mechanical|Company: Autodesk, Inc."
 90
     1024
 91
        0
280
     0
281
     0
  0
ENDSEC
  0
SECTION
  2
TABLES
  0
TABLE
  2
VPORT
  5
52BAC
330
0
100
AcDbSymbolTable
 70
     1
  0
VPORT
  5
52C1C
330
52BAC
100
AcDbSymbolTableRecord
100
AcDbViewportTableRecord
  2
*ACTIVE
 70
     0
 10
0.0
 20
0.0
 11
1.0
 21
1.0
 12
30870.77616983155
 22
25991.70861195972
 13
0.0
 23
0.0
 14
2.5
 24
2.5
 15
10.0
 25
10.0
 16
0.0
 26
0.0
 36
1.0
 17
0.0
 27
0.0
 37
0.0
 40
2623.244741631351
 41
1.929455445544554
 42
50.0
 43
0.0
 44
0.0
 50
0.0
 51
0.0
 71
     0
 72
  1000
 73
     1
 74
     3
 75
     0
 76
     0
 77
     0
 78
     0
281
     0
 65
     0
110
0.0
120
0.0
130
0.0
111
1.0
121
0.0
131
0.0
112
0.0
122
1.0
132
0.0
 79
     0
146
0.0
348
52BD3
 60
     3
 61
     5
292
     1
282
     0
141
0.0
142
0.0
 63
   250
421
  3355443
  0
ENDTAB
  0
TABLE
  2
LTYPE
  5
52BA9
330
0
100
AcDbSymbolTable
 70
    22
  0
LTYPE
  5
52C06
330
52BA9
100
AcDbSymbolTableRecord
100
AcDbLinetypeTableRecord
  2
ByBlock
 70
     0
  3

 72
    65
 73
     0
 40
0.0
  0
LTYPE
  5
52C07
330
52BA9
100
AcDbSymbolTableRecord
100
AcDbLinetypeTableRecord
  2
ByLayer
 70
     0
  3

 72
    65
 73
     0
 40
0.0
  0
LTYPE
  5
52C08
330
52BA9
100
AcDbSymbolTableRecord
100
AcDbLinetypeTableRecord
  2
CONTINUOUS
 70
     0
  3
Solid line
 72
    65
 73
     0
 40
0.0
  0
LTYPE
  5
52C1D
330
52BA9
100
AcDbSymbolTableRecord
100
AcDbLinetypeTableRecord
  2
DASHED2
 70
     0
  3
Dashed (.5x) _ _ _ _ _ _ _ _ _ _ _ _ _ _ _ _ _
 72
    65
 73
     2
 40
9.524999999999996
 49
6.349999999999997
 74
     0
 49
-3.174999999999998
 74
     0
  0
LTYPE
  5
530E8
330
52BA9
100
AcDbSymbolTableRecord
100
AcDbLinetypeTableRecord
  2
HIDDEN
 70
     0
  3
Hidden __ __ __ __ __ __ __ __ __ __ __ __ __ _
 72
    65
 73
     2
 40
0.375
 49
0.25
 74
     0
 49
-0.125
 74
     0
  0
LTYPE
  5
530E9
330
52BA9
100
AcDbSymbolTableRecord
100
AcDbLinetypeTableRecord
  2
PHANTOM2
 70
     0
  3
Phantom (.5x) ___ _ _ ___ _ _ ___ _ _ ___ _ _
 72
    65
 73
     6
 40
1.25
 49
0.625
 74
     0
 49
-0.125
 74
     0
 49
0.125
 74
     0
 49
-0.125
 74
     0
 49
0.125
 74
     0
 49
-0.125
 74
     0
  0
LTYPE
  5
530EA
330
52BA9
100
AcDbSymbolTableRecord
100
AcDbLinetypeTableRecord
  2
CENTER
 70
     0
  3
Center ____ _ ____ _ ____ _ ____ _ ____ _ ____
 72
    65
 73
     4
 40
2.0
 49
1.25
 74
     0
 49
-0.25
 74
     0
 49
0.25
 74
     0
 49
-0.25
 74
     0
  0
LTYPE
  5
5312F
330
52BA9
100
AcDbSymbolTableRecord
100
AcDbLinetypeTableRecord
  2
Amconstr
 70
     0
  3
_______________________
 72
    65
 73
     2
 40
9999.0
 49
9999.0
 74
     0
 49
0.0
 74
     0
  0
LTYPE
  5
53135
330
52BA9
100
AcDbSymbolTableRecord
100
AcDbLinetypeTableRecord
  2
CENTER2
 70
     0
  3
Center (.5x) ___ _ ___ _ ___ _ ___ _ ___ _ ___
 72
    65
 73
     4
 40
1.125
 49
0.75
 74
     0
 49
-0.125
 74
     0
 49
0.125
 74
     0
 49
-0.125
 74
     0
  0
LTYPE
  5
53136
330
52BA9
100
AcDbSymbolTableRecord
100
AcDbLinetypeTableRecord
  2
HIDDEN2
 70
     0
  3
Hidden (.5x) _ _ _ _ _ _ _ _ _ _ _ _ _ _ _ _ _
 72
    65
 73
     2
 40
0.1875
 49
0.125
 74
     0
 49
-0.0625
 74
     0
  0
LTYPE
  5
53137
330
52BA9
100
AcDbSymbolTableRecord
100
AcDbLinetypeTableRecord
  2
Amzigzag2
 70
     0
  3
/\/-/\/-/\/-/\/-/\/-/\/
 72
    65
 73
     2
 40
0.4401
 49
0.0001
 74
     4
 75
   136
340
53133
 46
0.0016
 50
0.0
 44
0.0
 45
0.0
 49
-0.4400000000000002
 74
     0
  0
LTYPE
  5
53145
330
52BA9
100
AcDbSymbolTableRecord
100
AcDbLinetypeTableRecord
  2
ACANSTGB
 70
     0
  3
__ . . __ . .
 72
    65
 73
     6
 40
0.35433070866
 49
0.15748031496
 74
     0
 49
-0.03937007874
 74
     0
 49
0.03937007874
 74
     0
 49
-0.03937007874
 74
     0
 49
0.03937007874
 74
     0
 49
-0.03937007874
 74
     0
  0
LTYPE
  5
53146
330
52BA9
100
AcDbSymbolTableRecord
100
AcDbLinetypeTableRecord
  2
ACANSTGL
 70
     0
  3
_ _ _ _ _
 72
    65
 73
     2
 40
0.11811023622
 49
0.07874015748
 74
     0
 49
-0.03937007874
 74
     0
  0
LTYPE
  5
5317A
330
52BA9
100
AcDbSymbolTableRecord
100
AcDbLinetypeTableRecord
  2
ACISOWELD
 70
     0
  3
_ _ _ _ _
 72
    65
 73
     2
 40
2.0
 49
2.0
 74
     0
 49
-1.0
 74
     0
  0
LTYPE
  5
5317B
330
52BA9
100
AcDbSymbolTableRecord
100
AcDbLinetypeTableRecord
  2
ACISOTGB
 70
     0
  3
__ . . __ . .
 72
    65
 73
     6
 40
9.0
 49
4.0
 74
     0
 49
-1.0
 74
     0
 49
1.0
 74
     0
 49
-1.0
 74
     0
 49
1.0
 74
     0
 49
-1.0
 74
     0
  0
LTYPE
  5
5317C
330
52BA9
100
AcDbSymbolTableRecord
100
AcDbLinetypeTableRecord
  2
ACISOTGL
 70
     0
  3
_ _ _ _ _
 72
    65
 73
     2
 40
3.0
 49
2.0
 74
     0
 49
-1.0
 74
     0
  0
ENDTAB
  0
TABLE
  2
LAYER
  5
52BA6
102
{ACAD_XDICTIONARY
360
52CA6
102
}
330
0
100
AcDbSymbolTable
 70
     8
  0
LAYER
  5
52C00
102
{ACAD_XDICTIONARY
360
52DA2
102
}
330
52BA6
100
AcDbSymbolTableRecord
100
AcDbLayerTableRecord
  2
0
 70
     0
 62
     7
  6
CONTINUOUS
370
    -3
390
52BB3
347
52BC5
  0
LAYER
  5
52C1E
102
{ACAD_XDICTIONARY
360
52DA4
102
}
330
52BA6
100
AcDbSymbolTableRecord
100
AcDbLayerTableRecord
  2
LAYER1
 70
     0
 62
     1
  6
CONTINUOUS
370
    -3
390
52BB3
347
52BC5
  0
LAYER
  5
52C1F
330
52BA6
100
AcDbSymbolTableRecord
100
AcDbLayerTableRecord
  2
DEFPOINTS
 70
     0
 62
     7
  6
CONTINUOUS
290
     0
370
    -3
390
52BB3
347
52BC5
  0
LAYER
  5
52C21
102
{ACAD_XDICTIONARY
360
52DA8
102
}
330
52BA6
100
AcDbSymbolTableRecord
100
AcDbLayerTableRecord
  2
CUTOUT
 70
     0
 62
    60
  6
CONTINUOUS
370
    -3
390
52BB3
347
52BC5
  0
LAYER
  5
52C9C
102
{ACAD_XDICTIONARY
360
52DAC
102
}
330
52BA6
100
AcDbSymbolTableRecord
100
AcDbLayerTableRecord
  2
DIMS SPECS
 70
     0
 62
    41
  6
CONTINUOUS
370
    35
390
52BB3
347
52BC5
  0
LAYER
  5
5317E
330
52BA6
100
AcDbSymbolTableRecord
100
AcDbLayerTableRecord
  2
sink_label
 70
     0
 62
    80
  6
CONTINUOUS
370
    -3
390
52BB3
347
52BC5
1001
ACAECLAYERSTANDARD
1000

1000

  0
LAYER
  5
53490
330
52BA6
100
AcDbSymbolTableRecord
100
AcDbLayerTableRecord
  2
sink_specs
 70
     0
 62
   254
  6
CONTINUOUS
370
    35
390
52BB3
347
52BC5
1001
ACAECLAYERSTANDARD
1000

1000

  0
ENDTAB
  0
TABLE
  2
STYLE
  5
52BA7
330
0
100
AcDbSymbolTable
 70
     8
  0
STYLE
  5
52C01
330
52BA7
100
AcDbSymbolTableRecord
100
AcDbTextStyleTableRecord
  2
STANDARD
 70
     0
 40
0.0
 41
1.0
 50
0.0
 71
     0
 42
2.5
  3
ISOCP.SHX
  4

  0
STYLE
  5
52C23
330
52BA7
100
AcDbSymbolTableRecord
100
AcDbTextStyleTableRecord
  2
ACISOTS
 70
     0
 40
1.0
 41
1.0
 50
0.0
 71
     0
 42
2.5
  3
isocp.shx
  4

  0
STYLE
  5
52C24
330
52BA7
100
AcDbSymbolTableRecord
100
AcDbTextStyleTableRecord
  2
ABODE-ISO
 70
     0
 40
17.0
 41
0.9
 50
0.0
 71
     0
 42
0.2
  3
txt
  4

  0
STYLE
  5
53133
330
52BA7
100
AcDbSymbolTableRecord
100
AcDbTextStyleTableRecord
  2

 70
     1
 40
0.0
 41
1.0
 50
0.0
 71
     0
 42
2.5
  3
genltshp.shx
  4

  0
STYLE
  5
53144
330
52BA7
100
AcDbSymbolTableRecord
100
AcDbTextStyleTableRecord
  2
ACANSGDT
 70
     0
 40
0.0
 41
1.0
 50
0.0
 71
     0
 42
2.5
  3
amgdt.shx
  4

  0
STYLE
  5
53180
330
52BA7
100
AcDbSymbolTableRecord
100
AcDbTextStyleTableRecord
  2
ACISOGDT
 70
     0
 40
0.0
 41
1.0
 50
0.0
 71
     0
 42
2.5
  3
amgdt.shx
  4

  0
STYLE
  5
53181
330
52BA7
100
AcDbSymbolTableRecord
100
AcDbTextStyleTableRecord
  2
Abode ISO Bold
 70
     0
 40
17.0
 41
0.9
 50
0.0
 71
     0
 42
1.0
  3
GOTHICB.TTF
  4

1001
ACAD
1000
Century Gothic
1071
 33554466
  0
ENDTAB
  0
TABLE
  2
VIEW
  5
52BAA
330
0
100
AcDbSymbolTable
 70
     0
  0
ENDTAB
  0
TABLE
  2
UCS
  5
52BAB
330
0
100
AcDbSymbolTable
 70
     0
  0
ENDTAB
  0
TABLE
  2
APPID
  5
52BAD
330
0
100
AcDbSymbolTable
 70
    23
  0
APPID
  5
52C02
330
52BAD
100
AcDbSymbolTableRecord
100
AcDbRegAppTableRecord
  2
ACAD
 70
     0
  0
APPID
  5
52C09
330
52BAD
100
AcDbSymbolTableRecord
100
AcDbRegAppTableRecord
  2
ACADANNOTATIVE
 70
     0
  0
APPID
  5
52C13
330
52BAD
100
AcDbSymbolTableRecord
100
AcDbRegAppTableRecord
  2
ACAD_MLEADERVER
 70
     0
  0
APPID
  5
52C25
330
52BAD
100
AcDbSymbolTableRecord
100
AcDbRegAppTableRecord
  2
MCAD_NO_VIS
 70
     0
  0
APPID
  5
52C26
330
52BAD
100
AcDbSymbolTableRecord
100
AcDbRegAppTableRecord
  2
ACAD_TEMP_GRAPHIC
 70
     0
  0
APPID
  5
52C27
330
52BAD
100
AcDbSymbolTableRecord
100
AcDbRegAppTableRecord
  2
AD_DRAW
 70
     0
  0
APPID
  5
52C28
330
52BAD
100
AcDbSymbolTableRecord
100
AcDbRegAppTableRecord
  2
ACATTRIBSERVICES
 70
     0
  0
APPID
  5
52C29
330
52BAD
100
AcDbSymbolTableRecord
100
AcDbRegAppTableRecord
  2
DESIGNERASSEMBLIES
 70
     0
  0
APPID
  5
52C2A
330
52BAD
100
AcDbSymbolTableRecord
100
AcDbRegAppTableRecord
  2
ACADM_DIM_EDIT
 70
     0
  0
APPID
  5
52C2B
330
52BAD
100
AcDbSymbolTableRecord
100
AcDbRegAppTableRecord
  2
AMDT_DM_ADJ
 70
     0
  0
APPID
  5
52C2C
330
52BAD
100
AcDbSymbolTableRecord
100
AcDbRegAppTableRecord
  2
ACAD_DSTYLE_DIMJOGGED_JOGA
 70
     0
  0
APPID
  5
52C2D
330
52BAD
100
AcDbSymbolTableRecord
100
AcDbRegAppTableRecord
  2
ACAECLAYERSTANDARD
 70
     0
  0
APPID
  5
52C2E
330
52BAD
100
AcDbSymbolTableRecord
100
AcDbRegAppTableRecord
  2
ACAD_PSEXT
 70
     0
  0
APPID
  5
52C2F
330
52BAD
100
AcDbSymbolTableRecord
100
AcDbRegAppTableRecord
  2
ACAD_DSTYLE_DIMJAG
 70
     0
  0
APPID
  5
52C30
330
52BAD
100
AcDbSymbolTableRecord
100
AcDbRegAppTableRecord
  2
ACAD_DSTYLE_DIMTALN
 70
     0
  0
APPID
  5
52C31
330
52BAD
100
AcDbSymbolTableRecord
100
AcDbRegAppTableRecord
  2
GENIUS_GENODEF_13
 70
     0
  0
APPID
  5
52C32
330
52BAD
100
AcDbSymbolTableRecord
100
AcDbRegAppTableRecord
  2
ACAD_DSTYLE_DIMINSPECT
 70
     0
  0
APPID
  5
52C33
330
52BAD
100
AcDbSymbolTableRecord
100
AcDbRegAppTableRecord
  2
GENIUS_GENREC_14
 70
     0
  0
APPID
  5
52C34
330
52BAD
100
AcDbSymbolTableRecord
100
AcDbRegAppTableRecord
  2
GENIUS_GENOBJ-N-REC_13
 70
     0
  0
APPID
  5
52C35
330
52BAD
100
AcDbSymbolTableRecord
100
AcDbRegAppTableRecord
  2
ACAD_DSTYLE_DIMRADIAL_EXTENSION
 70
     0
  0
APPID
  5
52C36
330
52BAD
100
AcDbSymbolTableRecord
100
AcDbRegAppTableRecord
  2
ACAD_DSTYLE_DIMBREAK
 70
     0
  0
APPID
  5
52C5D
330
52BAD
100
AcDbSymbolTableRecord
100
AcDbRegAppTableRecord
  2
ACAD_EXEMPT_FROM_CAD_STANDARDS
 70
     0
  0
APPID
  5
53185
330
52BAD
100
AcDbSymbolTableRecord
100
AcDbRegAppTableRecord
  2
ACAD_DSTYLE_DIMJOGGED_JOGANGLE_SYMBOL
 70
     0
  0
ENDTAB
  0
TABLE
  2
DIMSTYLE
  5
52BAE
330
0
100
AcDbSymbolTable
 70
    15
100
AcDbDimStyleTable
 71
     1
340
5312A
  0
DIMSTYLE
105
52C03
330
52BAE
100
AcDbSymbolTableRecord
100
AcDbDimStyleTableRecord
  2
STANDARD
 70
     0
271
     2
272
     2
279
     2
284
     8
285
     8
286
     8
340
52C01
  0
DIMSTYLE
105
52C37
330
52BAE
100
AcDbSymbolTableRecord
100
AcDbDimStyleTableRecord
  2
AM_ISO
 70
     0
  4
"
 41
3.5
 42
1.0
 43
10.0
 44
1.0
 47
0.1
 48
0.1
 73
     0
 74
     0
 77
     1
 78
     8
140
3.5
141
0.0
143
0.0393701
146
0.71
147
1.5
172
     1
176
   256
177
   256
178
     2
271
     2
272
     2
279
     2
284
     8
285
     8
286
     8
340
52C01
  0
DIMSTYLE
105
52CA0
330
52BAE
100
AcDbSymbolTableRecord
100
AcDbDimStyleTableRecord
  2
abode-iso
 70
     0
 40
10.0
 41
1.25
 42
1.5
 43
6.0
 44
0.0
 45
0.00000001
 46
10.0
 77
     1
 78
    12
 79
     3
140
17.0
143
0.03937
147
0.75
171
     3
172
     1
176
   256
177
   256
178
   256
271
     0
272
     0
274
     3
340
52C24
342
52C3E
371
    25
372
    25
1001
ACAD_DSTYLE_DIMJAG
1070
   388
1040
1.5
1001
ACAD_DSTYLE_DIMTALN
1070
   392
1070
     0
  0
DIMSTYLE
105
52CA1
102
{ACAD_REACTORS
330
539C0
330
539C1
102
}
330
52BAE
100
AcDbSymbolTableRecord
100
AcDbDimStyleTableRecord
  2
abode-iso$4
 70
     0
 40
10.0
 41
1.25
 42
1.5
 43
6.0
 44
0.0
 45
0.00000001
 46
10.0
 77
     1
 78
    12
 79
     3
140
17.0
143
0.03937
147
0.75
171
     3
172
     1
176
   256
177
   256
178
   256
271
     0
272
     0
274
     3
340
52C24
342
52C3E
371
    25
372
    25
1001
ACAD_DSTYLE_DIMBREAK
1070
   391
1040
3.75
1001
ACAD_DSTYLE_DIMJAG
1070
   388
1040
1.5
1001
ACAD_DSTYLE_DIMTALN
1070
   392
1070
     0
  0
DIMSTYLE
105
52CA2
102
{ACAD_REACTORS
330
539C2
330
539C3
102
}
330
52BAE
100
AcDbSymbolTableRecord
100
AcDbDimStyleTableRecord
  2
abode-iso$0
 70
     0
 40
10.0
 41
1.25
 42
1.5
 43
6.0
 44
0.0
 45
0.00000001
 46
10.0
 77
     1
 78
    12
 79
     3
140
17.0
143
0.03937
147
0.75
171
     3
172
     1
176
   256
177
   256
178
   256
271
     0
272
     0
274
     3
340
52C24
342
52C3E
371
    25
372
    25
1001
ACAD_DSTYLE_DIMJAG
1070
   388
1040
1.5
1001
ACAD_DSTYLE_DIMTALN
1070
   392
1070
     0
  0
DIMSTYLE
105
5312A
102
{ACAD_REACTORS
330
53442
102
}
330
52BAE
100
AcDbSymbolTableRecord
100
AcDbDimStyleTableRecord
  2
AM_ANSI
 70
     0
  4
mm
 41
0.12
 42
0.05
 43
0.5
 44
0.1
 47
0.1
 48
0.1
 78
     7
 79
     2
 90
     1
140
0.12
141
0.0
146
0.71
147
0.06
176
   256
177
   256
178
   140
274
     4
284
     7
340
52C01
345
52C06
346
52C06
347
52C06
371
    -1
372
    -1
  0
DIMSTYLE
105
53138
330
52BAE
100
AcDbSymbolTableRecord
100
AcDbDimStyleTableRecord
  2
AM_ANSI$3
 70
     0
  4
mm
 41
0.12
 42
0.05
 43
0.5
 44
0.1
 47
0.1
 48
0.1
 78
     7
 79
     2
 90
     1
140
0.12
141
0.0
146
0.71
147
0.06
176
   256
177
   256
178
   140
274
     4
284
     7
288
     1
289
     0
340
52C01
345
52C06
346
52C06
347
52C06
371
    -1
372
    -1
  0
DIMSTYLE
105
53139
330
52BAE
100
AcDbSymbolTableRecord
100
AcDbDimStyleTableRecord
  2
AM_ANSI$4
 70
     0
  4
mm
 41
0.12
 42
0.05
 43
0.5
 44
0.1
 47
0.1
 48
0.1
 78
     7
 79
     2
 90
     1
140
0.12
141
0.0
146
0.71
147
0.06
176
   256
177
   256
178
   140
274
     4
284
     7
340
52C01
345
52C06
346
52C06
347
52C06
371
    -1
372
    -1
  0
DIMSTYLE
105
5313A
330
52BAE
100
AcDbSymbolTableRecord
100
AcDbDimStyleTableRecord
  2
AM_ANSI$7
 70
     0
  4
mm
 41
0.12
 42
0.05
 43
0.5
 44
0.1
 47
0.1
 48
0.1
 78
     7
 79
     2
 90
     1
140
0.12
141
0.0
146
0.71
147
0.06
176
   256
177
   256
178
   140
274
     4
284
     7
340
52C01
345
52C06
346
52C06
347
52C06
371
    -1
372
    -1
  0
DIMSTYLE
105
5313B
330
52BAE
100
AcDbSymbolTableRecord
100
AcDbDimStyleTableRecord
  2
AM_ANSI$SF
 70
     0
  4
mm
 41
0.12
 42
0.05
 43
0.5
 44
0.1
 47
0.1
 48
0.1
 75
     1
 76
     1
 78
     7
 79
     2
 90
     1
140
0.12
141
0.0
146
0.71
147
0.06
176
   256
177
   256
178
   140
274
     4
284
     7
340
52C01
345
52C06
346
52C06
347
52C06
371
    -1
372
    -1
  0
DIMSTYLE
105
53140
330
52BAE
100
AcDbSymbolTableRecord
100
AcDbDimStyleTableRecord
  2
AM_ANSI$SH
 70
     0
  4
mm
 41
0.12
 42
0.05
 43
0.5
 44
0.1
 47
0.1
 48
0.1
 75
     1
 76
     1
 78
     7
 79
     2
 90
     1
140
0.12
141
0.0
146
0.71
147
0.06
173
     1
176
   256
177
   256
178
   140
274
     4
284
     7
340
52C01
343
5313C
345
52C06
346
52C06
347
52C06
371
    -1
372
    -1
  0
DIMSTYLE
105
53182
330
52BAE
100
AcDbSymbolTableRecord
100
AcDbDimStyleTableRecord
  2
abode-iso$7
 70
     0
 40
10.0
 41
2.5
 42
1.5
 43
6.0
 44
3.174999999999998
 45
0.00000001
 46
10.0
 77
     1
 78
    12
 79
     3
140
2.5
143
0.03937
146
1.399999999999999
147
0.762
171
     3
172
     1
176
     7
177
   256
178
   256
271
     0
272
     0
274
     3
340
52C24
371
    25
372
    25
1001
ACAD_DSTYLE_DIMBREAK
1070
   391
1040
3.75
1001
ACAD_DSTYLE_DIMJAG
1070
   388
1040
1.5
1001
ACAD_DSTYLE_DIMTALN
1070
   392
1070
     0
  0
DIMSTYLE
105
53183
330
52BAE
100
AcDbSymbolTableRecord
100
AcDbDimStyleTableRecord
  2
abode-iso$2
 70
     0
 40
10.0
 41
1.25
 42
1.5
 43
6.0
 44
0.0
 45
0.00000001
 46
10.0
 77
     1
 78
    12
 79
     3
140
17.0
143
0.03937
147
0.75
171
     3
172
     1
176
   256
177
   256
178
   256
271
     0
272
     0
274
     3
340
52C24
342
52C3E
371
    25
372
    25
1001
ACAD_DSTYLE_DIMJAG
1070
   388
1040
1.5
1001
ACAD_DSTYLE_DIMTALN
1070
   392
1070
     0
  0
DIMSTYLE
105
53184
330
52BAE
100
AcDbSymbolTableRecord
100
AcDbDimStyleTableRecord
  2
abode-iso$3
 70
     0
 40
10.0
 41
1.25
 42
1.5
 43
6.0
 44
0.0
 45
0.00000001
 46
10.0
 77
     1
 78
    12
 79
     3
140
17.0
143
0.03937
147
0.75
171
     3
172
     1
176
   256
177
   256
178
   256
271
     0
272
     0
274
     3
340
52C24
342
52C3E
371
    25
372
    25
1001
ACAD_DSTYLE_DIMJAG
1070
   388
1040
1.5
1001
ACAD_DSTYLE_DIMTALN
1070
   392
1070
     0
  0
ENDTAB
  0
TABLE
  2
BLOCK_RECORD
  5
52BA5
330
0
100
AcDbSymbolTable
 70
    17
  0
BLOCK_RECORD
  5
52C18
330
52BA5
100
AcDbSymbolTableRecord
100
AcDbBlockTableRecord
  2
*Model_Space
340
52C1B
 70
     0
280
     1
281
     0
  0
BLOCK_RECORD
  5
52C14
330
52BA5
100
AcDbSymbolTableRecord
100
AcDbBlockTableRecord
  2
*Paper_Space
340
52C17
 70
     0
280
     1
281
     0
  0
BLOCK_RECORD
  5
52C3E
330
52BA5
100
AcDbSymbolTableRecord
100
AcDbBlockTableRecord
  2
FILLED-1
340
0
102
{BLKREFS
331
533BC
331
533BD
331
533C6
331
533C7
331
533CF
331
533D6
331
53469
331
53472
331
5347B
331
5347C
331
53488
331
53489
331
539F4
331
539FA
331
53A00
331
53A01
331
53A0A
331
53A0B
102
}
 70
     0
280
     1
281
     0
  0
BLOCK_RECORD
  5
52C58
330
52BA5
100
AcDbSymbolTableRecord
100
AcDbBlockTableRecord
  2
*U1
340
0
102
{BLKREFS
331
4EFE9
102
}
 70
     0
280
     1
281
     0
  0
BLOCK_RECORD
  5
5313C
330
52BA5
100
AcDbSymbolTableRecord
100
AcDbBlockTableRecord
  2
GENAXEH
340
0
 70
     0
280
     1
281
     0
  0
BLOCK_RECORD
  5
539C4
330
52BA5
100
AcDbSymbolTableRecord
100
AcDbBlockTableRecord
  2
*D13
340
0
 70
     0
280
     1
281
     0
  0
BLOCK_RECORD
  5
539CE
330
52BA5
100
AcDbSymbolTableRecord
100
AcDbBlockTableRecord
  2
*D14
340
0
 70
     0
280
     1
281
     0
  0
BLOCK_RECORD
  5
539D7
330
52BA5
100
AcDbSymbolTableRecord
100
AcDbBlockTableRecord
  2
*D15
340
0
 70
     0
280
     1
281
     0
  0
BLOCK_RECORD
  5
539E3
330
52BA5
100
AcDbSymbolTableRecord
100
AcDbBlockTableRecord
  2
*D16
340
0
 70
     0
280
     1
281
     0
  0
ENDTAB
  0
ENDSEC
  0
SECTION
  2
BLOCKS
  0
BLOCK
  5
52C19
330
52C18
100
AcDbEntity
  8
0
100
AcDbBlockBegin
  2
*Model_Space
 70
     0
 10
0.0
 20
0.0
 30
0.0
  3
*Model_Space
  1

  0
ENDBLK
  5
52C1A
330
52C18
100
AcDbEntity
  8
0
100
AcDbBlockEnd
  0
BLOCK
  5
52C15
330
52C14
100
AcDbEntity
 67
     1
  8
0
100
AcDbBlockBegin
  2
*Paper_Space
 70
     0
 10
0.0
 20
0.0
 30
0.0
  3
*Paper_Space
  1

  0
ENDBLK
  5
52C16
330
52C14
100
AcDbEntity
 67
     1
  8
0
100
AcDbBlockEnd
  0
BLOCK
  5
52C3F
330
52C3E
100
AcDbEntity
  8
0
100
AcDbBlockBegin
  2
FILLED-1
 70
     0
 10
0.0
 20
0.0
 30
0.0
  3
FILLED-1
  1

  0
LINE
  5
13A
330
52C3E
100
AcDbEntity
  8
0
 62
     0
100
AcDbLine
 10
-1.0
 20
0.0
 30
0.0
 11
0.0
 21
0.0
 31
0.0
  0
LWPOLYLINE
  5
13B
330
52C3E
100
AcDbEntity
  8
0
 62
     0
100
AcDbPolyline
 90
        4
 70
   128
 43
0.0
 10
-1.0
 20
-0.3333333333333333
 10
0.0
 20
0.0
 10
-1.0
 20
0.3333333333333333
 10
-1.0
 20
-0.3333333333333333
  0
SOLID
  5
141
330
52C3E
100
AcDbEntity
  8
0
 62
     0
100
AcDbTrace
 10
-1.0
 20
-0.3333333333333333
 30
0.0
 11
0.0
 21
0.0
 31
0.0
 12
-1.0
 22
0.3333333333333333
 32
0.0
 13
-1.0
 23
-0.3333333333333333
 33
0.0
  0
LINE
  5
142
330
52C3E
100
AcDbEntity
  8
0
 62
     0
100
AcDbLine
 10
-1.0
 20
-0.3333333333333333
 30
0.0
 11
0.0
 21
0.0
 31
0.0
  0
LINE
  5
143
330
52C3E
100
AcDbEntity
  8
0
 62
     0
100
AcDbLine
 10
0.0
 20
0.0
 30
0.0
 11
-1.0
 21
0.3333333333333333
 31
0.0
  0
LINE
  5
144
330
52C3E
100
AcDbEntity
  8
0
 62
     0
100
AcDbLine
 10
-1.0
 20
0.3333333333333333
 30
0.0
 11
-1.0
 21
-0.3333333333333333
 31
0.0
  0
ENDBLK
  5
145
330
52C3E
100
AcDbEntity
  8
0
100
AcDbBlockEnd
  0
BLOCK
  5
52C59
330
52C58
100
AcDbEntity
  8
0
100
AcDbBlockBegin
  2
*U1
 70
     1
 10
0.0
 20
0.0
 30
0.0
  3
*U1
  1

  0
TEXT
  5
51B8B
330
52C58
100
AcDbEntity
  8
0
 62
     1
100
AcDbText
 10
29068.05134894387
 20
25957.69496399888
 30
0.0
 40
8.0
  1
All details are provided in good faith and
  7
ACISOTS
100
AcDbText
  0
TEXT
  5
51B8C
330
52C58
100
AcDbEntity
  8
0
 62
     1
100
AcDbText
 10
29049.60334894387
 20
25944.36163066555
 30
0.0
 40
8.0
  1
within
  7
ACISOTS
100
AcDbText
  0
TEXT
  5
51B8D
330
52C58
100
AcDbEntity
  8
0
 62
     1
100
AcDbText
 10
29085.57434894387
 20
25931.02829733222
 30
0.0
 40
8.0
  1
the tolerances of the manufacturing process.
  7
ACISOTS
100
AcDbText
  0
TEXT
  5
51B8E
330
52C58
100
AcDbEntity
  8
0
 62
     1
100
AcDbText
 10
29050.90814894387
 20
25917.69496399888
 30
0.0
 40
8.0
  1
Note: the dimensions on ceramic fireclay
  7
ACISOTS
100
AcDbText
  0
TEXT
  5
51B8F
330
52C58
100
AcDbEntity
  8
0
 62
     1
100
AcDbText
 10
29049.60334894387
 20
25904.36163066556
 30
0.0
 40
8.0
  1
products
  7
ACISOTS
100
AcDbText
  0
TEXT
  5
51B90
330
52C58
100
AcDbEntity
  8
0
 62
     1
100
AcDbText
 10
29052.43194894387
 20
25891.02829733223
 30
0.0
 40
8.0
  1
are subject to wider tolerances due to the
  7
ACISOTS
100
AcDbText
  0
TEXT
  5
51B91
330
52C58
100
AcDbEntity
  8
0
 62
     1
100
AcDbText
 10
29049.60334894387
 20
25877.69496399888
 30
0.0
 40
8.0
  1
nature
  7
ACISOTS
100
AcDbText
  0
TEXT
  5
51B92
330
52C58
100
AcDbEntity
  8
0
 62
     1
100
AcDbText
 10
29074.14634894387
 20
25864.36163066556
 30
0.0
 40
8.0
  1
of this natural material and the firing
  7
ACISOTS
100
AcDbText
  0
TEXT
  5
51B93
330
52C58
100
AcDbEntity
  8
0
 62
     1
100
AcDbText
 10
29049.60334894387
 20
25851.02829733223
 30
0.0
 40
8.0
  1
process.
  7
ACISOTS
100
AcDbText
  0
TEXT
  5
51B94
330
52C58
100
AcDbEntity
  8
0
 62
     1
100
AcDbText
 10
29079.09834894386
 20
25824.36163066557
 30
0.0
 40
8.0
  1
We recommend that a test cutout is made in
  7
ACISOTS
100
AcDbText
  0
TEXT
  5
51B95
330
52C58
100
AcDbEntity
  8
0
 62
     1
100
AcDbText
 10
29054.71764894387
 20
25811.02829733223
 30
0.0
 40
8.0
  1
scrap timber and checked against the actual
  7
ACISOTS
100
AcDbText
  0
TEXT
  5
51B96
330
52C58
100
AcDbEntity
  8
0
 62
     1
100
AcDbText
 10
29049.60334894387
 20
25797.6949639989
 30
0.0
 40
8.0
  1
sink
  7
ACISOTS
100
AcDbText
  0
TEXT
  5
51B97
330
52C58
100
AcDbEntity
  8
0
 62
     1
100
AcDbText
 10
29105.76534894387
 20
25784.36163066557
 30
0.0
 40
8.0
  1
supplied before committing to cutting
  7
ACISOTS
100
AcDbText
  0
TEXT
  5
51B98
330
52C58
100
AcDbEntity
  8
0
 62
     1
100
AcDbText
 10
29049.60334894387
 20
25771.02829733223
 30
0.0
 40
8.0
  1
the
  7
ACISOTS
100
AcDbText
  0
TEXT
  5
51B99
330
52C58
100
AcDbEntity
  8
0
 62
     1
100
AcDbText
 10
29296.24334894387
 20
25757.6949639989
 30
0.0
 40
8.0
  1
worksurface.
  7
ACISOTS
100
AcDbText
  0
TEXT
  5
51B9A
330
52C58
100
AcDbEntity
  8
0
 62
     1
100
AcDbText
 10
29076.43234894387
 20
25731.02829733224
 30
0.0
 40
8.0
  1
Abode can not accept liability for problems
  7
ACISOTS
100
AcDbText
  0
TEXT
  5
51B9B
330
52C58
100
AcDbEntity
  8
0
 62
     1
100
AcDbText
 10
29049.60334894387
 20
25717.69496399891
 30
0.0
 40
8.0
  1
or
  7
ACISOTS
100
AcDbText
  0
TEXT
  5
51B9C
330
52C58
100
AcDbEntity
  8
0
 62
     1
100
AcDbText
 10
29080.62234894387
 20
25704.36163066557
 30
0.0
 40
8.0
  1
costs incurred by failure to follow this advise,
  7
ACISOTS
100
AcDbText
  0
TEXT
  5
51B9D
330
52C58
100
AcDbEntity
  8
0
 62
     1
100
AcDbText
 10
29073.38434894387
 20
25691.02829733224
 30
0.0
 40
8.0
  1
dimensions weights & measures are subject
  7
ACISOTS
100
AcDbText
  0
TEXT
  5
51B9E
330
52C58
100
AcDbEntity
  8
0
 62
     1
100
AcDbText
 10
29049.60334894387
 20
25677.69496399891
 30
0.0
 40
8.0
  1
to
  7
ACISOTS
100
AcDbText
  0
TEXT
  5
51B9F
330
52C58
100
AcDbEntity
  8
0
 62
     1
100
AcDbText
 10
29056.62234894387
 20
25664.36163066557
 30
0.0
 40
8.0
  1
change without prior notice. Errors and omissions
  7
ACISOTS
100
AcDbText
  0
TEXT
  5
51BA0
330
52C58
100
AcDbEntity
  8
0
 62
     1
100
AcDbText
 10
29317.19334894387
 20
25651.02829733225
 30
0.0
 40
8.0
  1
excepted
  7
ACISOTS
100
AcDbText
  0
ENDBLK
  5
51BA2
330
52C58
100
AcDbEntity
  8
0
100
AcDbBlockEnd
  0
BLOCK
  5
5313E
330
5313C
100
AcDbEntity
  8
0
100
AcDbBlockBegin
  2
GENAXEH
 70
     0
 10
0.0
 20
0.0
 30
0.0
  3
GENAXEH
  1

  0
LINE
  5
5313D
330
5313C
100
AcDbEntity
  8
0
100
AcDbLine
 10
-1.0
 20
0.0
 30
0.0
 11
1.0
 21
0.0
 31
0.0
  0
ENDBLK
  5
5313F
330
5313C
100
AcDbEntity
  8
0
100
AcDbBlockEnd
  0
BLOCK
  5
539C5
330
539C4
100
AcDbEntity
  8
0
100
AcDbBlockBegin
  2
*D13
 70
     1
 10
0.0
 20
0.0
 30
0.0
  3
*D13
  1

  0
LINE
  5
539F0
330
539C4
100
AcDbEntity
  8
DIMS SPECS
100
AcDbLine
 10
29638.04157131132
 20
26108.38150703837
 30
0.0
 11
29678.53382148128
 21
26108.38150703837
 31
0.0
  0
LINE
  5
539F1
330
539C4
100
AcDbEntity
  8
DIMS SPECS
100
AcDbLine
 10
29678.53382148128
 20
26108.38150703837
 30
0.0
 11
29706.13255087295
 21
26064.16592077774
 31
0.0
  0
MTEXT
  5
539F2
330
539C4
100
AcDbEntity
  8
DIMS SPECS
100
AcDbMText
 10
29654.5376963963
 20
26124.80910731029
 30
0.0
 40
17.0
 41
0.0
 46
0.0
 71
     5
 72
     1
  1
\A1;R26
  7
Abode ISO Bold
 73
     1
 44
1.0
  0
LINE
  5
539F3
330
539C4
100
AcDbEntity
  8
DIMS SPECS
100
AcDbLine
 10
29726.51837824565
 20
26031.50603648017
 30
0.0
 11
29712.75132599395
 21
26053.56206223957
 31
0.0
  0
INSERT
  5
539F4
330
539C4
100
AcDbEntity
  8
DIMS SPECS
100
AcDbBlockReference
  2
FILLED-1
 10
29712.75132599395
 20
26053.56206223957
 30
0.0
 41
12.5
 42
12.5
 43
12.5
 50
301.971813801596
  0
POINT
  5
539F5
330
539C4
100
AcDbEntity
  8
DEFPOINTS
 62
     0
100
AcDbPoint
 10
29712.75132599395
 20
26053.56206223957
 30
0.0
  0
POINT
  5
539F6
330
539C4
100
AcDbEntity
  8
DEFPOINTS
 62
     0
100
AcDbPoint
 10
29726.51837824565
 20
26031.50603648017
 30
0.0
  0
ENDBLK
  5
539C6
330
539C4
100
AcDbEntity
  8
0
100
AcDbBlockEnd
  0
BLOCK
  5
539CF
330
539CE
100
AcDbEntity
  8
0
100
AcDbBlockBegin
  2
*D14
 70
     1
 10
0.0
 20
0.0
 30
0.0
  3
*D14
  1

  0
LINE
  5
539F7
330
539CE
100
AcDbEntity
  8
DIMS SPECS
100
AcDbLine
 10
29623.6048854091
 20
25688.16354460223
 30
0.0
 11
29664.78360736698
 21
25688.16354460223
 31
0.0
  0
LINE
  5
539F8
330
539CE
100
AcDbEntity
  8
DIMS SPECS
100
AcDbLine
 10
29664.78360736698
 20
25688.16354460223
 30
0.0
 11
29688.98603101704
 21
25656.9645639214
 31
0.0
  0
MTEXT
  5
539F9
330
539CE
100
AcDbEntity
  8
DIMS SPECS
100
AcDbMText
 10
29640.44424638802
 20
25704.59114487416
 30
0.0
 40
17.0
 41
0.0
 46
0.0
 71
     5
 72
     1
  1
\A1;R10
  7
Abode ISO Bold
 73
     1
 44
1.0
  0
INSERT
  5
539FA
330
539CE
100
AcDbEntity
  8
DIMS SPECS
100
AcDbBlockReference
  2
FILLED-1
 10
29696.64776716009
 20
25647.08793497858
 30
0.0
 41
12.5
 42
12.5
 43
12.5
 50
307.8023086603776
  0
POINT
  5
539FB
330
539CE
100
AcDbEntity
  8
DEFPOINTS
 62
     0
100
AcDbPoint
 10
29696.64776716009
 20
25647.08793497858
 30
0.0
  0
POINT
  5
539FC
330
539CE
100
AcDbEntity
  8
DEFPOINTS
 62
     0
100
AcDbPoint
 10
29690.51837824564
 20
25654.98923813284
 30
0.0
  0
ENDBLK
  5
539D0
330
539CE
100
AcDbEntity
  8
0
100
AcDbBlockEnd
  0
BLOCK
  5
539D8
330
539D7
100
AcDbEntity
  8
0
100
AcDbBlockBegin
  2
*D15
 70
     1
 10
0.0
 20
0.0
 30
0.0
  3
*D15
  1

  0
LINE
  5
539FD
330
539D7
100
AcDbEntity
  8
DIMS SPECS
100
AcDbLine
 10
29700.51837824565
 20
25639.98923813284
 30
0.0
 11
29700.51837824565
 21
25564.612473063
 31
0.0
  0
LINE
  5
539FE
330
539D7
100
AcDbEntity
  8
DIMS SPECS
100
AcDbLine
 10
30447.51493335513
 20
25639.98923813284
 30
0.0
 11
30447.51493335513
 21
25564.612473063
 31
0.0
  0
LINE
  5
539FF
330
539D7
100
AcDbEntity
  8
DIMS SPECS
100
AcDbLine
 10
29713.01837824564
 20
25564.612473063
 30
0.0
 11
30435.01493335513
 21
25564.612473063
 31
0.0
  0
INSERT
  5
53A00
330
539D7
100
AcDbEntity
  8
DIMS SPECS
100
AcDbBlockReference
  2
FILLED-1
 10
29700.51837824565
 20
25564.612473063
 30
0.0
 41
12.5
 42
12.5
 43
12.5
 50
180.0
  0
INSERT
  5
53A01
330
539D7
100
AcDbEntity
  8
DIMS SPECS
100
AcDbBlockReference
  2
FILLED-1
 10
30447.51493335513
 20
25564.612473063
 30
0.0
 41
12.5
 42
12.5
 43
12.5
  0
MTEXT
  5
53A02
330
539D7
100
AcDbEntity
  8
DIMS SPECS
100
AcDbMText
 10
30074.01665580038
 20
25581.04007333493
 30
0.0
 40
17.0
 41
0.0
 46
0.0
 71
     5
 72
     1
  1
\A1;747
  7
Abode ISO Bold
 73
     1
 44
1.0
  0
POINT
  5
53A03
330
539D7
100
AcDbEntity
  8
DEFPOINTS
 62
     0
100
AcDbPoint
 10
29700.51837824565
 20
25654.98923813284
 30
0.0
  0
POINT
  5
53A04
330
539D7
100
AcDbEntity
  8
DEFPOINTS
 62
     0
100
AcDbPoint
 10
30447.51493335513
 20
25654.98923813284
 30
0.0
  0
POINT
  5
53A05
330
539D7
100
AcDbEntity
  8
DEFPOINTS
 62
     0
100
AcDbPoint
 10
30447.51493335513
 20
25564.612473063
 30
0.0
  0
ENDBLK
  5
539D9
330
539D7
100
AcDbEntity
  8
0
100
AcDbBlockEnd
  0
BLOCK
  5
539E4
330
539E3
100
AcDbEntity
  8
0
100
AcDbBlockBegin
  2
*D16
 70
     1
 10
0.0
 20
0.0
 30
0.0
  3
*D16
  1

  0
LINE
  5
53A06
330
539E3
100
AcDbEntity
  8
DIMS SPECS
100
AcDbLine
 10
29705.51837824565
 20
25644.98923813284
 30
0.0
 11
29791.89684347677
 21
25644.98923813284
 31
0.0
  0
LINE
  5
53A07
330
539E3
100
AcDbEntity
  8
DIMS SPECS
100
AcDbLine
 10
29741.51837824564
 20
26057.50603648016
 30
0.0
 11
29791.89684347677
 21
26057.50603648016
 31
0.0
  0
LINE
  5
53A08
330
539E3
100
AcDbEntity
  8
DIMS SPECS
100
AcDbLine
 10
29791.89684347677
 20
25657.48923813284
 30
0.0
 11
29791.89684347677
 21
25834.82003703458
 31
0.0
  0
LINE
  5
53A09
330
539E3
100
AcDbEntity
  8
DIMS SPECS
100
AcDbLine
 10
29791.89684347677
 20
26045.00603648017
 30
0.0
 11
29791.89684347677
 21
25867.67523757843
 31
0.0
  0
INSERT
  5
53A0A
330
539E3
100
AcDbEntity
  8
DIMS SPECS
100
AcDbBlockReference
  2
FILLED-1
 10
29791.89684347677
 20
25644.98923813284
 30
0.0
 41
12.5
 42
12.5
 43
12.5
 50
270.0
  0
INSERT
  5
53A0B
330
539E3
100
AcDbEntity
  8
DIMS SPECS
100
AcDbBlockReference
  2
FILLED-1
 10
29791.89684347677
 20
26057.50603648016
 30
0.0
 41
12.5
 42
12.5
 43
12.5
 50
90.0
  0
MTEXT
  5
53A0C
330
539E3
100
AcDbEntity
  8
DIMS SPECS
100
AcDbMText
 10
29791.89684347677
 20
25851.24763730651
 30
0.0
 40
17.0
 41
0.0
 46
0.0
 71
     5
 72
     1
  1
\A1;413
  7
Abode ISO Bold
 73
     1
 44
1.0
  0
POINT
  5
53A0D
330
539E3
100
AcDbEntity
  8
DEFPOINTS
 62
     0
100
AcDbPoint
 10
29690.51837824565
 20
25644.98923813284
 30
0.0
  0
POINT
  5
53A0E
330
539E3
100
AcDbEntity
  8
DEFPOINTS
 62
     0
100
AcDbPoint
 10
29726.51837824565
 20
26057.50603648016
 30
0.0
  0
POINT
  5
53A0F
330
539E3
100
AcDbEntity
  8
DEFPOINTS
 62
     0
100
AcDbPoint
 10
29791.89684347677
 20
26057.50603648016
 30
0.0
  0
ENDBLK
  5
539E5
330
539E3
100
AcDbEntity
  8
0
100
AcDbBlockEnd
  0
ENDSEC
  0
SECTION
  2
ENTITIES
  0
TEXT
  5
4EFD5
330
52C18
100
AcDbEntity
  8
LAYER1
100
AcDbText
 10
29536.60103082985
 20
26533.84198875161
 30
0.0
 40
150.0
  1
AW1020
100
AcDbText
  0
INSERT
  5
4EFE9
330
52C18
100
AcDbEntity
  8
0
100
AcDbBlockReference
  2
*U1
 10
0.0
 20
0.0
 30
0.0
  0
TEXT
  5
4EFEA
330
52C18
100
AcDbEntity
  8
LAYER1
100
AcDbText
 10
29141.6042719676
 20
25696.20060721863
 30
0.0
 40
30.0
  1
file version 1
100
AcDbText
  0
LINE
  5
5373C
330
52C18
100
AcDbEntity
  8
CUTOUT
100
AcDbLine
 10
29641.92225871748
 20
26244.98923813284
 30
0.0
 11
30844.62166644663
 21
26244.98923813284
 31
0.0
  0
MTEXT
  5
5373D
102
{ACAD_XDICTIONARY
360
53A12
102
}
330
52C18
100
AcDbEntity
  8
CUTOUT
100
AcDbMText
 10
29800.19483904389
 20
26310.23019324774
 30
0.0
 40
40.0
 41
559.4757407245924
 46
0.0
 71
     1
 72
     5
  1
\pi7.7379;APRON FRONT CUT OUT
 73
     1
 44
1.0
  0
SPLINE
  5
5373E
330
52C18
100
AcDbEntity
  8
CUTOUT
100
AcDbSpline
210
0.0
220
0.0
230
1.0
 70
     8
 71
     3
 72
    10
 73
     6
 74
     4
 42
0.0000000001
 43
0.0000000001
 44
0.0000000001
 40
0.0
 40
0.0
 40
0.0
 40
0.0
 40
291.7901295660274
 40
468.3400027843151
 40
677.0081312009022
 40
677.0081312009022
 40
677.0081312009022
 40
677.0081312009022
 10
29654.54143505101
 20
26264.48273623565
 30
0.0
 10
29594.5370351485
 20
26171.99471445814
 30
0.0
 10
29498.22650929483
 20
26023.54610023936
 30
0.0
 10
29664.12732345922
 20
25818.83172896133
 30
0.0
 10
29604.52733749827
 20
25692.67781499143
 30
0.0
 10
29572.24271561834
 20
25624.34170139132
 30
0.0
 11
29654.54143505101
 21
26264.48273623565
 31
0.0
 11
29556.46146211785
 21
25989.67043916438
 31
0.0
 11
29623.90961735905
 21
25826.51222120417
 31
0.0
 11
29572.24271561834
 21
25624.34170139132
 31
0.0
  0
SPLINE
  5
5373F
330
52C18
100
AcDbEntity
  8
CUTOUT
100
AcDbSpline
210
0.0
220
0.0
230
1.0
 70
     8
 71
     3
 72
    10
 73
     6
 74
     4
 42
0.0000000001
 43
0.0000000001
 44
0.0000000001
 40
0.0
 40
0.0
 40
0.0
 40
0.0
 40
291.7901295660274
 40
468.3400027843151
 40
677.0081312009022
 40
677.0081312009022
 40
677.0081312009022
 40
677.0081312009022
 10
30857.24084278016
 20
26264.48273623565
 30
0.0
 10
30797.23644287765
 20
26171.99471445814
 30
0.0
 10
30700.92591702398
 20
26023.54610023936
 30
0.0
 10
30866.82673118836
 20
25818.83172896133
 30
0.0
 10
30807.22674522742
 20
25692.67781499143
 30
0.0
 10
30774.94212334749
 20
25624.34170139132
 30
0.0
 11
30857.24084278016
 21
26264.48273623565
 31
0.0
 11
30759.16086984699
 21
25989.67043916438
 31
0.0
 11
30826.6090250882
 21
25826.51222120417
 31
0.0
 11
30774.94212334749
 21
25624.34170139132
 31
0.0
  0
MTEXT
  5
53740
330
52C18
100
AcDbEntity
  8
sink_specs
100
AcDbMText
 10
30508.57210050323
 20
25907.90702386247
 30
0.0
 40
8.0
 41
257.8883999281679
 46
293.428518032586
 71
     1
 72
     5
  3
{\LImportant, to the fabricator / installer:\P}The cut out size indicated is flush with the bowl edge with a minimum radius where appropriate.\PYou should confirm with your client if the worksurface cutout is to be cut flush, inside or outside this s
  3
uggested perimeter size. \PIf you create the cutout smaller or larger than the indicated size then some accessories may not fit correctly.\PAll details are provided in good faith and within the tolerances of the manufacturing process.\PWe recommend t
  3
hat a test cutout is made in scrap timber and checked against the actual sink supplied before committing to cutting the worksurface.\PAbode can not accept liability for problems or costs incurred by failure to follow this advise.\PAW1020 v1 (c) abode
  1
 2018
  7
ACISOTS
 73
     1
 44
1.0
  0
POLYLINE
  5
53741
330
52C18
100
AcDbEntity
  8
sink_label
  6
DASHED2
 48
5.0
370
     0
100
AcDb2dPolyline
 66
     1
 10
0.0
 20
0.0
 30
0.0
  0
VERTEX
  5
53742
330
53741
100
AcDbEntity
  8
sink_label
  6
DASHED2
 48
5.0
370
     0
100
AcDbVertex
100
AcDb2dVertex
 10
30407.1858643178
 20
25665.89195808784
 30
0.0
  0
VERTEX
  5
53743
330
53741
100
AcDbEntity
  8
sink_label
  6
DASHED2
 48
5.0
370
     0
100
AcDbVertex
100
AcDb2dVertex
 10
30261.24358594798
 20
25666.26238635667
 30
0.0
  0
VERTEX
  5
53744
330
53741
100
AcDbEntity
  8
sink_label
  6
DASHED2
 48
5.0
370
     0
100
AcDbVertex
100
AcDb2dVertex
 10
30188.25567884825
 20
25666.41055228125
 30
0.0
  0
VERTEX
  5
53745
330
53741
100
AcDbEntity
  8
sink_label
  6
DASHED2
 48
5.0
370
     0
100
AcDbVertex
100
AcDb2dVertex
 10
30115.25544477425
 20
25666.50050151284
 30
0.0
  0
VERTEX
  5
53746
330
53741
100
AcDbEntity
  8
sink_label
  6
DASHED2
 48
5.0
370
     0
100
AcDbVertex
100
AcDb2dVertex
 10
30052.85613943996
 20
25666.50932956429
 30
0.0
  0
VERTEX
  5
53747
330
53741
100
AcDbEntity
  8
sink_label
  6
DASHED2
 48
5.0
370
     0
100
AcDbVertex
100
AcDb2dVertex
 10
29990.45683410567
 20
25666.45463870894
 30
0.0
  0
VERTEX
  5
53748
330
53741
100
AcDbEntity
  8
sink_label
  6
DASHED2
 48
5.0
370
     0
100
AcDbVertex
100
AcDb2dVertex
 10
29928.06635682284
 20
25666.35055921206
 30
0.0
  0
VERTEX
  5
53749
330
53741
100
AcDbEntity
  8
sink_label
  6
DASHED2
 48
5.0
370
     0
100
AcDbVertex
100
AcDb2dVertex
 10
29834.4515460095
 20
25666.13890129546
 30
0.0
  0
VERTEX
  5
5374A
330
53741
100
AcDbEntity
  8
sink_label
  6
DASHED2
 48
5.0
370
     0
100
AcDbVertex
100
AcDb2dVertex
 10
29740.84733962381
 20
25665.89195808784
 30
0.0
  0
SEQEND
  5
5374B
330
53741
100
AcDbEntity
  8
sink_label
  6
DASHED2
 48
5.0
370
     0
  0
POLYLINE
  5
5374C
330
52C18
100
AcDbEntity
  8
sink_label
  6
DASHED2
 48
5.0
370
     0
100
AcDb2dPolyline
 66
     1
 10
0.0
 20
0.0
 30
0.0
  0
VERTEX
  5
5374D
330
5374C
100
AcDbEntity
  8
sink_label
  6
DASHED2
 48
5.0
370
     0
100
AcDbVertex
100
AcDb2dVertex
 10
29720.91542964395
 20
25685.80976471721
 30
0.0
  0
VERTEX
  5
5374E
330
5374C
100
AcDbEntity
  8
sink_label
  6
DASHED2
 48
5.0
370
     0
100
AcDbVertex
100
AcDb2dVertex
 10
29721.00360249933
 20
25768.63136752378
 30
0.0
  0
VERTEX
  5
5374F
330
5374C
100
AcDbEntity
  8
sink_label
  6
DASHED2
 48
5.0
370
     0
100
AcDbVertex
100
AcDb2dVertex
 10
29721.03358557653
 20
25851.46529730464
 30
0.0
  0
VERTEX
  5
53750
330
5374C
100
AcDbEntity
  8
sink_label
  6
DASHED2
 48
5.0
370
     0
100
AcDbVertex
100
AcDb2dVertex
 10
29721.00360249933
 20
25934.31333043599
 30
0.0
  0
VERTEX
  5
53751
330
5374C
100
AcDbEntity
  8
sink_label
  6
DASHED2
 48
5.0
370
     0
100
AcDbVertex
100
AcDb2dVertex
 10
29720.91542964395
 20
26017.16136356734
 30
0.0
  0
SEQEND
  5
53752
330
5374C
100
AcDbEntity
  8
sink_label
  6
DASHED2
 48
5.0
370
     0
  0
POLYLINE
  5
53753
330
52C18
100
AcDbEntity
  8
sink_label
  6
DASHED2
 48
5.0
370
     0
100
AcDb2dPolyline
 66
     1
 10
0.0
 20
0.0
 30
0.0
  0
VERTEX
  5
53754
330
53753
100
AcDbEntity
  8
sink_label
  6
DASHED2
 48
5.0
370
     0
100
AcDbVertex
100
AcDb2dVertex
 10
30427.11605175104
 20
26017.16136356734
 30
0.0
  0
VERTEX
  5
53755
330
53753
100
AcDbEntity
  8
sink_label
  6
DASHED2
 48
5.0
370
     0
100
AcDbVertex
100
AcDb2dVertex
 10
30427.02960144227
 20
25934.33798438457
 30
0.0
  0
VERTEX
  5
53756
330
53753
100
AcDbEntity
  8
sink_label
  6
DASHED2
 48
5.0
370
     0
100
AcDbVertex
100
AcDb2dVertex
 10
30426.99784198887
 20
25851.50583097991
 30
0.0
  0
VERTEX
  5
53757
330
53753
100
AcDbEntity
  8
sink_label
  6
DASHED2
 48
5.0
370
     0
100
AcDbVertex
100
AcDb2dVertex
 10
30427.02960144227
 20
25768.65782476335
 30
0.0
  0
VERTEX
  5
53758
330
53753
100
AcDbEntity
  8
sink_label
  6
DASHED2
 48
5.0
370
     0
100
AcDbVertex
100
AcDb2dVertex
 10
30427.11605175104
 20
25685.80976471721
 30
0.0
  0
SEQEND
  5
53759
330
53753
100
AcDbEntity
  8
sink_label
  6
DASHED2
 48
5.0
370
     0
  0
POLYLINE
  5
5375A
330
52C18
100
AcDbEntity
  8
sink_label
  6
DASHED2
 48
5.0
370
     0
100
AcDb2dPolyline
 66
     1
 10
0.0
 20
0.0
 30
0.0
  0
VERTEX
  5
5375B
330
5375A
100
AcDbEntity
  8
sink_label
  6
DASHED2
 48
5.0
370
     0
100
AcDbVertex
100
AcDb2dVertex
 10
29740.84733962381
 20
26037.07917019671
 30
0.0
  0
VERTEX
  5
5375C
330
5375A
100
AcDbEntity
  8
sink_label
  6
DASHED2
 48
5.0
370
     0
100
AcDbVertex
100
AcDb2dVertex
 10
29886.78789544701
 20
26036.70876884268
 30
0.0
  0
VERTEX
  5
5375D
330
5375A
100
AcDbEntity
  8
sink_label
  6
DASHED2
 48
5.0
370
     0
100
AcDbVertex
100
AcDb2dVertex
 10
29959.77402617052
 20
26036.56057600331
 30
0.0
  0
VERTEX
  5
5375E
330
5375A
100
AcDbEntity
  8
sink_label
  6
DASHED2
 48
5.0
370
     0
100
AcDbVertex
100
AcDb2dVertex
 10
30032.77603662073
 20
26036.4688503955
 30
0.0
  0
VERTEX
  5
5375F
330
5375A
100
AcDbEntity
  8
sink_label
  6
DASHED2
 48
5.0
370
     0
100
AcDbVertex
100
AcDb2dVertex
 10
30079.57019995022
 20
26036.45474704501
 30
0.0
  0
VERTEX
  5
53760
330
5375A
100
AcDbEntity
  8
sink_label
  6
DASHED2
 48
5.0
370
     0
100
AcDbVertex
100
AcDb2dVertex
 10
30126.36441710929
 20
26036.47767844696
 30
0.0
  0
VERTEX
  5
53761
330
5375A
100
AcDbEntity
  8
sink_label
  6
DASHED2
 48
5.0
370
     0
100
AcDbVertex
100
AcDb2dVertex
 10
30173.16740849024
 20
26036.53592205473
 30
0.0
  0
VERTEX
  5
53762
330
5375A
100
AcDbEntity
  8
sink_label
  6
DASHED2
 48
5.0
370
     0
100
AcDbVertex
100
AcDb2dVertex
 10
30219.96684711877
 20
26036.6205421577
 30
0.0
  0
VERTEX
  5
53763
330
5375A
100
AcDbEntity
  8
sink_label
  6
DASHED2
 48
5.0
370
     0
100
AcDbVertex
100
AcDb2dVertex
 10
30313.57988155591
 20
26036.8339764505
 30
0.0
  0
VERTEX
  5
53764
330
5375A
100
AcDbEntity
  8
sink_label
  6
DASHED2
 48
5.0
370
     0
100
AcDbVertex
100
AcDb2dVertex
 10
30407.1858643178
 20
26037.07917019671
 30
0.0
  0
SEQEND
  5
53765
330
5375A
100
AcDbEntity
  8
sink_label
  6
DASHED2
 48
5.0
370
     0
  0
POLYLINE
  5
53766
330
52C18
100
AcDbEntity
  8
sink_label
  6
DASHED2
 48
5.0
370
     0
100
AcDb2dPolyline
 66
     1
 10
0.0
 20
0.0
 30
0.0
  0
VERTEX
  5
53767
330
53766
100
AcDbEntity
  8
sink_label
  6
DASHED2
 48
5.0
370
     0
100
AcDbVertex
100
AcDb2dVertex
 10
30421.61273060125
 20
25651.46511871918
 30
0.0
  0
VERTEX
  5
53768
330
53766
100
AcDbEntity
  8
sink_label
  6
DASHED2
 48
5.0
370
     0
100
AcDbVertex
100
AcDb2dVertex
 10
30407.1858643178
 20
25665.89195808784
 30
0.0
  0
SEQEND
  5
53769
330
53766
100
AcDbEntity
  8
sink_label
  6
DASHED2
 48
5.0
370
     0
  0
POLYLINE
  5
5376A
330
52C18
100
AcDbEntity
  8
sink_label
  6
DASHED2
 48
5.0
370
     0
100
AcDb2dPolyline
 66
     1
 10
0.0
 20
0.0
 30
0.0
  0
VERTEX
  5
5376B
330
5376A
100
AcDbEntity
  8
sink_label
  6
DASHED2
 48
5.0
370
     0
100
AcDbVertex
100
AcDb2dVertex
 10
30427.11605175104
 20
25685.80976471721
 30
0.0
  0
VERTEX
  5
5376C
330
5376A
100
AcDbEntity
  8
sink_label
  6
DASHED2
 48
5.0
370
     0
100
AcDbVertex
100
AcDb2dVertex
 10
30441.53753507628
 20
25671.38822756238
 30
0.0
  0
SEQEND
  5
5376D
330
5376A
100
AcDbEntity
  8
sink_label
  6
DASHED2
 48
5.0
370
     0
  0
POLYLINE
  5
5376E
330
52C18
100
AcDbEntity
  8
sink_label
  6
DASHED2
 48
5.0
370
     0
100
AcDb2dPolyline
 66
     1
 10
0.0
 20
0.0
 30
0.0
  0
VERTEX
  5
5376F
330
5376E
100
AcDbEntity
  8
sink_label
  6
DASHED2
 48
5.0
370
     0
100
AcDbVertex
100
AcDb2dVertex
 10
30427.11605175104
 20
25685.80976471721
 30
0.0
  0
VERTEX
  5
53770
330
5376E
100
AcDbEntity
  8
sink_label
  6
DASHED2
 48
5.0
370
     0
100
AcDbVertex
100
AcDb2dVertex
 10
30426.59745755763
 20
25681.39299368096
 30
0.0
  0
VERTEX
  5
53771
330
5376E
100
AcDbEntity
  8
sink_label
  6
DASHED2
 48
5.0
370
     0
100
AcDbVertex
100
AcDb2dVertex
 10
30425.59730392326
 20
25678.27268121345
 30
0.0
  0
VERTEX
  5
53772
330
5376E
100
AcDbEntity
  8
sink_label
  6
DASHED2
 48
5.0
370
     0
100
AcDbVertex
100
AcDb2dVertex
 10
30424.0503493945
 20
25675.27760326855
 30
0.0
  0
VERTEX
  5
53773
330
5376E
100
AcDbEntity
  8
sink_label
  6
DASHED2
 48
5.0
370
     0
100
AcDbVertex
100
AcDb2dVertex
 10
30422.07480373351
 20
25672.63882332721
 30
0.0
  0
VERTEX
  5
53774
330
5376E
100
AcDbEntity
  8
sink_label
  6
DASHED2
 48
5.0
370
     0
100
AcDbVertex
100
AcDb2dVertex
 10
30419.61769863156
 20
25670.30167744884
 30
0.0
  0
VERTEX
  5
53775
330
5376E
100
AcDbEntity
  8
sink_label
  6
DASHED2
 48
5.0
370
     0
100
AcDbVertex
100
AcDb2dVertex
 10
30416.86786826245
 20
25668.44606409663
 30
0.0
  0
VERTEX
  5
53776
330
5376E
100
AcDbEntity
  8
sink_label
  6
DASHED2
 48
5.0
370
     0
100
AcDbVertex
100
AcDb2dVertex
 10
30413.76168606022
 20
25667.03847435578
 30
0.0
  0
VERTEX
  5
53777
330
5376E
100
AcDbEntity
  8
sink_label
  6
DASHED2
 48
5.0
370
     0
100
AcDbVertex
100
AcDb2dVertex
 10
30410.56722334344
 20
25666.19711798844
 30
0.0
  0
VERTEX
  5
53778
330
5376E
100
AcDbEntity
  8
sink_label
  6
DASHED2
 48
5.0
370
     0
100
AcDbVertex
100
AcDb2dVertex
 10
30407.1858643178
 20
25665.89195808784
 30
0.0
  0
SEQEND
  5
53779
330
5376E
100
AcDbEntity
  8
sink_label
  6
DASHED2
 48
5.0
370
     0
  0
POLYLINE
  5
5377A
330
52C18
100
AcDbEntity
  8
sink_label
  6
DASHED2
 48
5.0
370
     0
100
AcDb2dPolyline
 66
     1
 10
0.0
 20
0.0
 30
0.0
  0
VERTEX
  5
5377B
330
5377A
100
AcDbEntity
  8
sink_label
  6
DASHED2
 48
5.0
370
     0
100
AcDbVertex
100
AcDb2dVertex
 10
29706.49561503575
 20
25671.38822756238
 30
0.0
  0
VERTEX
  5
5377C
330
5377A
100
AcDbEntity
  8
sink_label
  6
DASHED2
 48
5.0
370
     0
100
AcDbVertex
100
AcDb2dVertex
 10
29720.91542964395
 20
25685.80976471721
 30
0.0
  0
SEQEND
  5
5377D
330
5377A
100
AcDbEntity
  8
sink_label
  6
DASHED2
 48
5.0
370
     0
  0
POLYLINE
  5
5377E
330
52C18
100
AcDbEntity
  8
sink_label
  6
DASHED2
 48
5.0
370
     0
100
AcDb2dPolyline
 66
     1
 10
0.0
 20
0.0
 30
0.0
  0
VERTEX
  5
5377F
330
5377E
100
AcDbEntity
  8
sink_label
  6
DASHED2
 48
5.0
370
     0
100
AcDbVertex
100
AcDb2dVertex
 10
29740.84733962381
 20
25665.89195808784
 30
0.0
  0
VERTEX
  5
53780
330
5377E
100
AcDbEntity
  8
sink_label
  6
DASHED2
 48
5.0
370
     0
100
AcDbVertex
100
AcDb2dVertex
 10
29726.41875079374
 20
25651.46511871918
 30
0.0
  0
SEQEND
  5
53781
330
5377E
100
AcDbEntity
  8
sink_label
  6
DASHED2
 48
5.0
370
     0
  0
POLYLINE
  5
53782
330
52C18
100
AcDbEntity
  8
sink_label
  6
DASHED2
 48
5.0
370
     0
100
AcDb2dPolyline
 66
     1
 10
0.0
 20
0.0
 30
0.0
  0
VERTEX
  5
53783
330
53782
100
AcDbEntity
  8
sink_label
  6
DASHED2
 48
5.0
370
     0
100
AcDbVertex
100
AcDb2dVertex
 10
29740.84733962381
 20
25665.89195808784
 30
0.0
  0
VERTEX
  5
53784
330
53782
100
AcDbEntity
  8
sink_label
  6
DASHED2
 48
5.0
370
     0
100
AcDbVertex
100
AcDb2dVertex
 10
29736.36527330455
 20
25666.42465563174
 30
0.0
  0
VERTEX
  5
53785
330
53782
100
AcDbEntity
  8
sink_label
  6
DASHED2
 48
5.0
370
     0
100
AcDbVertex
100
AcDb2dVertex
 10
29733.24848667466
 20
25667.43183402656
 30
0.0
  0
VERTEX
  5
53786
330
53782
100
AcDbEntity
  8
sink_label
  6
DASHED2
 48
5.0
370
     0
100
AcDbVertex
100
AcDb2dVertex
 10
29730.25873785838
 20
25668.98406385437
 30
0.0
  0
VERTEX
  5
53787
330
53782
100
AcDbEntity
  8
sink_label
  6
DASHED2
 48
5.0
370
     0
100
AcDbVertex
100
AcDb2dVertex
 10
29727.63228489132
 20
25670.96135897678
 30
0.0
  0
VERTEX
  5
53788
330
53782
100
AcDbEntity
  8
sink_label
  6
DASHED2
 48
5.0
370
     0
100
AcDbVertex
100
AcDb2dVertex
 10
29725.30571652582
 20
25673.41493824111
 30
0.0
  0
VERTEX
  5
53789
330
53782
100
AcDbEntity
  8
sink_label
  6
DASHED2
 48
5.0
370
     0
100
AcDbVertex
100
AcDb2dVertex
 10
29723.46070760129
 20
25676.15602130313
 30
0.0
  0
VERTEX
  5
5378A
330
53782
100
AcDbEntity
  8
sink_label
  6
DASHED2
 48
5.0
370
     0
100
AcDbVertex
100
AcDb2dVertex
 10
29722.06016953568
 20
25679.2534023687
 30
0.0
  0
VERTEX
  5
5378B
330
53782
100
AcDbEntity
  8
sink_label
  6
DASHED2
 48
5.0
370
     0
100
AcDbVertex
100
AcDb2dVertex
 10
29721.22053571497
 20
25682.43723374302
 30
0.0
  0
VERTEX
  5
5378C
330
53782
100
AcDbEntity
  8
sink_label
  6
DASHED2
 48
5.0
370
     0
100
AcDbVertex
100
AcDb2dVertex
 10
29720.91542964395
 20
25685.80976471721
 30
0.0
  0
SEQEND
  5
5378D
330
53782
100
AcDbEntity
  8
sink_label
  6
DASHED2
 48
5.0
370
     0
  0
POLYLINE
  5
5378E
330
52C18
100
AcDbEntity
  8
sink_label
  6
DASHED2
 48
5.0
370
     0
100
AcDb2dPolyline
 66
     1
 10
0.0
 20
0.0
 30
0.0
  0
VERTEX
  5
5378F
330
5378E
100
AcDbEntity
  8
sink_label
  6
DASHED2
 48
5.0
370
     0
100
AcDbVertex
100
AcDb2dVertex
 10
29726.41875079374
 20
26051.50603648016
 30
0.0
  0
VERTEX
  5
53790
330
5378E
100
AcDbEntity
  8
sink_label
  6
DASHED2
 48
5.0
370
     0
100
AcDbVertex
100
AcDb2dVertex
 10
29740.84733962381
 20
26037.07917019671
 30
0.0
  0
SEQEND
  5
53791
330
5378E
100
AcDbEntity
  8
sink_label
  6
DASHED2
 48
5.0
370
     0
  0
POLYLINE
  5
53792
330
52C18
100
AcDbEntity
  8
sink_label
  6
DASHED2
 48
5.0
370
     0
100
AcDb2dPolyline
 66
     1
 10
0.0
 20
0.0
 30
0.0
  0
VERTEX
  5
53793
330
53792
100
AcDbEntity
  8
sink_label
  6
DASHED2
 48
5.0
370
     0
100
AcDbVertex
100
AcDb2dVertex
 10
29720.91542964395
 20
26017.16136356734
 30
0.0
  0
VERTEX
  5
53794
330
53792
100
AcDbEntity
  8
sink_label
  6
DASHED2
 48
5.0
370
     0
100
AcDbVertex
100
AcDb2dVertex
 10
29706.49561503575
 20
26031.58290072217
 30
0.0
  0
SEQEND
  5
53795
330
53792
100
AcDbEntity
  8
sink_label
  6
DASHED2
 48
5.0
370
     0
  0
POLYLINE
  5
53796
330
52C18
100
AcDbEntity
  8
sink_label
  6
DASHED2
 48
5.0
370
     0
100
AcDb2dPolyline
 66
     1
 10
0.0
 20
0.0
 30
0.0
  0
VERTEX
  5
53797
330
53796
100
AcDbEntity
  8
sink_label
  6
DASHED2
 48
5.0
370
     0
100
AcDbVertex
100
AcDb2dVertex
 10
29720.91542964395
 20
26017.16136356734
 30
0.0
  0
VERTEX
  5
53798
330
53796
100
AcDbEntity
  8
sink_label
  6
DASHED2
 48
5.0
370
     0
100
AcDbVertex
100
AcDb2dVertex
 10
29721.43397000777
 20
26021.57813460359
 30
0.0
  0
VERTEX
  5
53799
330
53796
100
AcDbEntity
  8
sink_label
  6
DASHED2
 48
5.0
370
     0
100
AcDbVertex
100
AcDb2dVertex
 10
29722.43590001834
 20
26024.6984739859
 30
0.0
  0
VERTEX
  5
5379A
330
53796
100
AcDbEntity
  8
sink_label
  6
DASHED2
 48
5.0
370
     0
100
AcDbVertex
100
AcDb2dVertex
 10
29723.98102434132
 20
26027.69355193079
 30
0.0
  0
VERTEX
  5
5379B
330
53796
100
AcDbEntity
  8
sink_label
  6
DASHED2
 48
5.0
370
     0
100
AcDbVertex
100
AcDb2dVertex
 10
29725.95834637852
 20
26030.33055549593
 30
0.0
  0
VERTEX
  5
5379C
330
53796
100
AcDbEntity
  8
sink_label
  6
DASHED2
 48
5.0
370
     0
100
AcDbVertex
100
AcDb2dVertex
 10
29728.41367510426
 20
26032.66945083572
 30
0.0
  0
VERTEX
  5
5379D
330
53796
100
AcDbEntity
  8
sink_label
  6
DASHED2
 48
5.0
370
     0
100
AcDbVertex
100
AcDb2dVertex
 10
29731.16361313253
 20
26034.52328781171
 30
0.0
  0
VERTEX
  5
5379E
330
53796
100
AcDbEntity
  8
sink_label
  6
DASHED2
 48
5.0
370
     0
100
AcDbVertex
100
AcDb2dVertex
 10
29734.27157171097
 20
26035.93265392877
 30
0.0
  0
VERTEX
  5
5379F
330
53796
100
AcDbEntity
  8
sink_label
  6
DASHED2
 48
5.0
370
     0
100
AcDbVertex
100
AcDb2dVertex
 10
29737.46598059817
 20
26036.77401029611
 30
0.0
  0
VERTEX
  5
537A0
330
53796
100
AcDbEntity
  8
sink_label
  6
DASHED2
 48
5.0
370
     0
100
AcDbVertex
100
AcDb2dVertex
 10
29740.84733962381
 20
26037.07917019671
 30
0.0
  0
SEQEND
  5
537A1
330
53796
100
AcDbEntity
  8
sink_label
  6
DASHED2
 48
5.0
370
     0
  0
POLYLINE
  5
537A2
330
52C18
100
AcDbEntity
  8
sink_label
  6
DASHED2
 48
5.0
370
     0
100
AcDb2dPolyline
 66
     1
 10
0.0
 20
0.0
 30
0.0
  0
VERTEX
  5
537A3
330
537A2
100
AcDbEntity
  8
sink_label
  6
DASHED2
 48
5.0
370
     0
100
AcDbVertex
100
AcDb2dVertex
 10
30441.53753507628
 20
26031.58290072217
 30
0.0
  0
VERTEX
  5
537A4
330
537A2
100
AcDbEntity
  8
sink_label
  6
DASHED2
 48
5.0
370
     0
100
AcDbVertex
100
AcDb2dVertex
 10
30427.11605175104
 20
26017.16136356734
 30
0.0
  0
SEQEND
  5
537A5
330
537A2
100
AcDbEntity
  8
sink_label
  6
DASHED2
 48
5.0
370
     0
  0
POLYLINE
  5
537A6
330
52C18
100
AcDbEntity
  8
sink_label
  6
DASHED2
 48
5.0
370
     0
100
AcDb2dPolyline
 66
     1
 10
0.0
 20
0.0
 30
0.0
  0
VERTEX
  5
537A7
330
537A6
100
AcDbEntity
  8
sink_label
  6
DASHED2
 48
5.0
370
     0
100
AcDbVertex
100
AcDb2dVertex
 10
30407.1858643178
 20
26037.07917019671
 30
0.0
  0
VERTEX
  5
537A8
330
537A6
100
AcDbEntity
  8
sink_label
  6
DASHED2
 48
5.0
370
     0
100
AcDbVertex
100
AcDb2dVertex
 10
30421.61273060125
 20
26051.50603648016
 30
0.0
  0
SEQEND
  5
537A9
330
537A6
100
AcDbEntity
  8
sink_label
  6
DASHED2
 48
5.0
370
     0
  0
POLYLINE
  5
537AA
330
52C18
100
AcDbEntity
  8
sink_label
  6
DASHED2
 48
5.0
370
     0
100
AcDb2dPolyline
 66
     1
 10
0.0
 20
0.0
 30
0.0
  0
VERTEX
  5
537AB
330
537AA
100
AcDbEntity
  8
sink_label
  6
DASHED2
 48
5.0
370
     0
100
AcDbVertex
100
AcDb2dVertex
 10
30407.1858643178
 20
26037.07917019671
 30
0.0
  0
VERTEX
  5
537AC
330
537AA
100
AcDbEntity
  8
sink_label
  6
DASHED2
 48
5.0
370
     0
100
AcDbVertex
100
AcDb2dVertex
 10
30411.66793063706
 20
26036.54647265281
 30
0.0
  0
VERTEX
  5
537AD
330
537AA
100
AcDbEntity
  8
sink_label
  6
DASHED2
 48
5.0
370
     0
100
AcDbVertex
100
AcDb2dVertex
 10
30414.78294089074
 20
26035.53754479657
 30
0.0
  0
VERTEX
  5
537AE
330
537AA
100
AcDbEntity
  8
sink_label
  6
DASHED2
 48
5.0
370
     0
100
AcDbVertex
100
AcDb2dVertex
 10
30417.7727435366
 20
26033.98531496877
 30
0.0
  0
VERTEX
  5
537AF
330
537AA
100
AcDbEntity
  8
sink_label
  6
DASHED2
 48
5.0
370
     0
100
AcDbVertex
100
AcDb2dVertex
 10
30420.39919650366
 20
26032.00976930778
 30
0.0
  0
VERTEX
  5
537B0
330
537AA
100
AcDbEntity
  8
sink_label
  6
DASHED2
 48
5.0
370
     0
100
AcDbVertex
100
AcDb2dVertex
 10
30422.7274335862
 20
26029.55621695824
 30
0.0
  0
VERTEX
  5
537B1
330
537AA
100
AcDbEntity
  8
sink_label
  6
DASHED2
 48
5.0
370
     0
100
AcDbVertex
100
AcDb2dVertex
 10
30424.57249634032
 20
26026.81333060521
 30
0.0
  0
VERTEX
  5
537B2
330
537AA
100
AcDbEntity
  8
sink_label
  6
DASHED2
 48
5.0
370
     0
100
AcDbVertex
100
AcDb2dVertex
 10
30425.97303440592
 20
26023.71775283065
 30
0.0
  0
VERTEX
  5
537B3
330
537AA
100
AcDbEntity
  8
sink_label
  6
DASHED2
 48
5.0
370
     0
100
AcDbVertex
100
AcDb2dVertex
 10
30426.81083802085
 20
26020.5321719949
 30
0.0
  0
VERTEX
  5
537B4
330
537AA
100
AcDbEntity
  8
sink_label
  6
DASHED2
 48
5.0
370
     0
100
AcDbVertex
100
AcDb2dVertex
 10
30427.11605175104
 20
26017.16136356734
 30
0.0
  0
SEQEND
  5
537B5
330
537AA
100
AcDbEntity
  8
sink_label
  6
DASHED2
 48
5.0
370
     0
  0
POLYLINE
  5
537B6
330
52C18
100
AcDbEntity
  8
sink_label
  6
DASHED2
 48
5.0
370
     0
100
AcDb2dPolyline
 66
     1
 10
0.0
 20
0.0
 30
0.0
  0
VERTEX
  5
537B7
330
537B6
100
AcDbEntity
  8
sink_label
  6
DASHED2
 48
5.0
370
     0
100
AcDbVertex
100
AcDb2dVertex
 10
29726.41875079374
 20
25651.46511871918
 30
0.0
  0
VERTEX
  5
537B8
330
537B6
100
AcDbEntity
  8
sink_label
  6
DASHED2
 48
5.0
370
     0
100
AcDbVertex
100
AcDb2dVertex
 10
30421.61273060125
 20
25651.46511871918
 30
0.0
  0
SEQEND
  5
537B9
330
537B6
100
AcDbEntity
  8
sink_label
  6
DASHED2
 48
5.0
370
     0
  0
POLYLINE
  5
537BA
330
52C18
100
AcDbEntity
  8
sink_label
  6
DASHED2
 48
5.0
370
     0
100
AcDb2dPolyline
 66
     1
 10
0.0
 20
0.0
 30
0.0
  0
VERTEX
  5
537BB
330
537BA
100
AcDbEntity
  8
sink_label
  6
DASHED2
 48
5.0
370
     0
100
AcDbVertex
100
AcDb2dVertex
 10
29706.49561503575
 20
25671.38822756238
 30
0.0
  0
VERTEX
  5
537BC
330
537BA
100
AcDbEntity
  8
sink_label
  6
DASHED2
 48
5.0
370
     0
100
AcDbVertex
100
AcDb2dVertex
 10
29706.69139322564
 20
25668.54131554206
 30
0.0
  0
VERTEX
  5
537BD
330
537BA
100
AcDbEntity
  8
sink_label
  6
DASHED2
 48
5.0
370
     0
100
AcDbVertex
100
AcDb2dVertex
 10
29707.28938605255
 20
25665.75436967613
 30
0.0
  0
VERTEX
  5
537BE
330
537BA
100
AcDbEntity
  8
sink_label
  6
DASHED2
 48
5.0
370
     0
100
AcDbVertex
100
AcDb2dVertex
 10
29708.27715888305
 20
25663.08560665759
 30
0.0
  0
VERTEX
  5
537BF
330
537BA
100
AcDbEntity
  8
sink_label
  6
DASHED2
 48
5.0
370
     0
100
AcDbVertex
100
AcDb2dVertex
 10
29709.63533306759
 20
25660.58794096557
 30
0.0
  0
VERTEX
  5
537C0
330
537BA
100
AcDbEntity
  8
sink_label
  6
DASHED2
 48
5.0
370
     0
100
AcDbVertex
100
AcDb2dVertex
 10
29711.33575573476
 20
25658.3125376178
 30
0.0
  0
VERTEX
  5
537C1
330
537BA
100
AcDbEntity
  8
sink_label
  6
DASHED2
 48
5.0
370
     0
100
AcDbVertex
100
AcDb2dVertex
 10
29713.34306084916
 20
25656.3052325034
 30
0.0
  0
VERTEX
  5
537C2
330
537BA
100
AcDbEntity
  8
sink_label
  6
DASHED2
 48
5.0
370
     0
100
AcDbVertex
100
AcDb2dVertex
 10
29715.61843728213
 20
25654.60483675102
 30
0.0
  0
VERTEX
  5
537C3
330
537BA
100
AcDbEntity
  8
sink_label
  6
DASHED2
 48
5.0
370
     0
100
AcDbVertex
100
AcDb2dVertex
 10
29718.11612988894
 20
25653.2466356517
 30
0.0
  0
VERTEX
  5
537C4
330
537BA
100
AcDbEntity
  8
sink_label
  6
DASHED2
 48
5.0
370
     0
100
AcDbVertex
100
AcDb2dVertex
 10
29720.78489290749
 20
25652.2588628212
 30
0.0
  0
VERTEX
  5
537C5
330
537BA
100
AcDbEntity
  8
sink_label
  6
DASHED2
 48
5.0
370
     0
100
AcDbVertex
100
AcDb2dVertex
 10
29723.57181185862
 20
25651.66092382386
 30
0.0
  0
VERTEX
  5
537C6
330
537BA
100
AcDbEntity
  8
sink_label
  6
DASHED2
 48
5.0
370
     0
100
AcDbVertex
100
AcDb2dVertex
 10
29726.41875079374
 20
25651.46511871918
 30
0.0
  0
SEQEND
  5
537C7
330
537BA
100
AcDbEntity
  8
sink_label
  6
DASHED2
 48
5.0
370
     0
  0
POLYLINE
  5
537C8
330
52C18
100
AcDbEntity
  8
sink_label
  6
DASHED2
 48
5.0
370
     0
100
AcDb2dPolyline
 66
     1
 10
0.0
 20
0.0
 30
0.0
  0
VERTEX
  5
537C9
330
537C8
100
AcDbEntity
  8
sink_label
  6
DASHED2
 48
5.0
370
     0
100
AcDbVertex
100
AcDb2dVertex
 10
30421.61273060125
 20
25651.46511871918
 30
0.0
  0
VERTEX
  5
537CA
330
537C8
100
AcDbEntity
  8
sink_label
  6
DASHED2
 48
5.0
370
     0
100
AcDbVertex
100
AcDb2dVertex
 10
30424.46139208299
 20
25651.66092382386
 30
0.0
  0
VERTEX
  5
537CB
330
537C8
100
AcDbEntity
  8
sink_label
  6
DASHED2
 48
5.0
370
     0
100
AcDbVertex
100
AcDb2dVertex
 10
30427.24653465791
 20
25652.2588628212
 30
0.0
  0
VERTEX
  5
537CC
330
537C8
100
AcDbEntity
  8
sink_label
  6
DASHED2
 48
5.0
370
     0
100
AcDbVertex
100
AcDb2dVertex
 10
30429.91529767646
 20
25653.2466356517
 30
0.0
  0
VERTEX
  5
537CD
330
537C8
100
AcDbEntity
  8
sink_label
  6
DASHED2
 48
5.0
370
     0
100
AcDbVertex
100
AcDb2dVertex
 10
30432.41299028327
 20
25654.60483675102
 30
0.0
  0
VERTEX
  5
537CE
330
537C8
100
AcDbEntity
  8
sink_label
  6
DASHED2
 48
5.0
370
     0
100
AcDbVertex
100
AcDb2dVertex
 10
30434.68836671625
 20
25656.3052325034
 30
0.0
  0
VERTEX
  5
537CF
330
537C8
100
AcDbEntity
  8
sink_label
  6
DASHED2
 48
5.0
370
     0
100
AcDbVertex
100
AcDb2dVertex
 10
30436.69750203644
 20
25658.3125376178
 30
0.0
  0
VERTEX
  5
537D0
330
537C8
100
AcDbEntity
  8
sink_label
  6
DASHED2
 48
5.0
370
     0
100
AcDbVertex
100
AcDb2dVertex
 10
30438.3961483274
 20
25660.58794096557
 30
0.0
  0
VERTEX
  5
537D1
330
537C8
100
AcDbEntity
  8
sink_label
  6
DASHED2
 48
5.0
370
     0
100
AcDbVertex
100
AcDb2dVertex
 10
30439.75426868235
 20
25663.08560665759
 30
0.0
  0
VERTEX
  5
537D2
330
537C8
100
AcDbEntity
  8
sink_label
  6
DASHED2
 48
5.0
370
     0
100
AcDbVertex
100
AcDb2dVertex
 10
30440.74204151284
 20
25665.75436967613
 30
0.0
  0
VERTEX
  5
537D3
330
537C8
100
AcDbEntity
  8
sink_label
  6
DASHED2
 48
5.0
370
     0
100
AcDbVertex
100
AcDb2dVertex
 10
30441.33998051019
 20
25668.54131554206
 30
0.0
  0
VERTEX
  5
537D4
330
537C8
100
AcDbEntity
  8
sink_label
  6
DASHED2
 48
5.0
370
     0
100
AcDbVertex
100
AcDb2dVertex
 10
30441.53753507628
 20
25671.38822756238
 30
0.0
  0
SEQEND
  5
537D5
330
537C8
100
AcDbEntity
  8
sink_label
  6
DASHED2
 48
5.0
370
     0
  0
POLYLINE
  5
537D6
330
52C18
100
AcDbEntity
  8
sink_label
  6
DASHED2
 48
5.0
370
     0
100
AcDb2dPolyline
 66
     1
 10
0.0
 20
0.0
 30
0.0
  0
VERTEX
  5
537D7
330
537D6
100
AcDbEntity
  8
sink_label
  6
DASHED2
 48
5.0
370
     0
100
AcDbVertex
100
AcDb2dVertex
 10
30441.53753507628
 20
25671.38822756238
 30
0.0
  0
VERTEX
  5
537D8
330
537D6
100
AcDbEntity
  8
sink_label
  6
DASHED2
 48
5.0
370
     0
100
AcDbVertex
100
AcDb2dVertex
 10
30441.53753507628
 20
26031.58290072217
 30
0.0
  0
SEQEND
  5
537D9
330
537D6
100
AcDbEntity
  8
sink_label
  6
DASHED2
 48
5.0
370
     0
  0
POLYLINE
  5
537DA
330
52C18
100
AcDbEntity
  8
sink_label
  6
DASHED2
 48
5.0
370
     0
100
AcDb2dPolyline
 66
     1
 10
0.0
 20
0.0
 30
0.0
  0
VERTEX
  5
537DB
330
537DA
100
AcDbEntity
  8
sink_label
  6
DASHED2
 48
5.0
370
     0
100
AcDbVertex
100
AcDb2dVertex
 10
29706.49561503575
 20
26031.58290072217
 30
0.0
  0
VERTEX
  5
537DC
330
537DA
100
AcDbEntity
  8
sink_label
  6
DASHED2
 48
5.0
370
     0
100
AcDbVertex
100
AcDb2dVertex
 10
29706.49561503575
 20
25671.38822756238
 30
0.0
  0
SEQEND
  5
537DD
330
537DA
100
AcDbEntity
  8
sink_label
  6
DASHED2
 48
5.0
370
     0
  0
POLYLINE
  5
537DE
330
52C18
100
AcDbEntity
  8
sink_label
  6
DASHED2
 48
5.0
370
     0
100
AcDb2dPolyline
 66
     1
 10
0.0
 20
0.0
 30
0.0
  0
VERTEX
  5
537DF
330
537DE
100
AcDbEntity
  8
sink_label
  6
DASHED2
 48
5.0
370
     0
100
AcDbVertex
100
AcDb2dVertex
 10
29726.41875079374
 20
26051.50603648016
 30
0.0
  0
VERTEX
  5
537E0
330
537DE
100
AcDbEntity
  8
sink_label
  6
DASHED2
 48
5.0
370
     0
100
AcDbVertex
100
AcDb2dVertex
 10
29723.57181185862
 20
26051.31020446069
 30
0.0
  0
VERTEX
  5
537E1
330
537DE
100
AcDbEntity
  8
sink_label
  6
DASHED2
 48
5.0
370
     0
100
AcDbVertex
100
AcDb2dVertex
 10
29720.78489290749
 20
26050.71226546335
 30
0.0
  0
VERTEX
  5
537E2
330
537DE
100
AcDbEntity
  8
sink_label
  6
DASHED2
 48
5.0
370
     0
100
AcDbVertex
100
AcDb2dVertex
 10
29718.11612988894
 20
26049.72449263286
 30
0.0
  0
VERTEX
  5
537E3
330
537DE
100
AcDbEntity
  8
sink_label
  6
DASHED2
 48
5.0
370
     0
100
AcDbVertex
100
AcDb2dVertex
 10
29715.61843728213
 20
26048.36631844832
 30
0.0
  0
VERTEX
  5
537E4
330
537DE
100
AcDbEntity
  8
sink_label
  6
DASHED2
 48
5.0
370
     0
100
AcDbVertex
100
AcDb2dVertex
 10
29713.34306084916
 20
26046.66589578115
 30
0.0
  0
VERTEX
  5
537E5
330
537DE
100
AcDbEntity
  8
sink_label
  6
DASHED2
 48
5.0
370
     0
100
AcDbVertex
100
AcDb2dVertex
 10
29711.33575573476
 20
26044.65859066675
 30
0.0
  0
VERTEX
  5
537E6
330
537DE
100
AcDbEntity
  8
sink_label
  6
DASHED2
 48
5.0
370
     0
100
AcDbVertex
100
AcDb2dVertex
 10
29709.63533306759
 20
26042.3831604042
 30
0.0
  0
VERTEX
  5
537E7
330
537DE
100
AcDbEntity
  8
sink_label
  6
DASHED2
 48
5.0
370
     0
100
AcDbVertex
100
AcDb2dVertex
 10
29708.27715888305
 20
26039.88552162696
 30
0.0
  0
VERTEX
  5
537E8
330
537DE
100
AcDbEntity
  8
sink_label
  6
DASHED2
 48
5.0
370
     0
100
AcDbVertex
100
AcDb2dVertex
 10
29707.28938605255
 20
26037.21675860842
 30
0.0
  0
VERTEX
  5
537E9
330
537DE
100
AcDbEntity
  8
sink_label
  6
DASHED2
 48
5.0
370
     0
100
AcDbVertex
100
AcDb2dVertex
 10
29706.69139322564
 20
26034.42983965728
 30
0.0
  0
VERTEX
  5
537EA
330
537DE
100
AcDbEntity
  8
sink_label
  6
DASHED2
 48
5.0
370
     0
100
AcDbVertex
100
AcDb2dVertex
 10
29706.49561503575
 20
26031.58290072217
 30
0.0
  0
SEQEND
  5
537EB
330
537DE
100
AcDbEntity
  8
sink_label
  6
DASHED2
 48
5.0
370
     0
  0
POLYLINE
  5
537EC
330
52C18
100
AcDbEntity
  8
sink_label
  6
DASHED2
 48
5.0
370
     0
100
AcDb2dPolyline
 66
     1
 10
0.0
 20
0.0
 30
0.0
  0
VERTEX
  5
537ED
330
537EC
100
AcDbEntity
  8
sink_label
  6
DASHED2
 48
5.0
370
     0
100
AcDbVertex
100
AcDb2dVertex
 10
30421.61273060125
 20
26051.50603648016
 30
0.0
  0
VERTEX
  5
537EE
330
537EC
100
AcDbEntity
  8
sink_label
  6
DASHED2
 48
5.0
370
     0
100
AcDbVertex
100
AcDb2dVertex
 10
29726.41875079374
 20
26051.50603648016
 30
0.0
  0
SEQEND
  5
537EF
330
537EC
100
AcDbEntity
  8
sink_label
  6
DASHED2
 48
5.0
370
     0
  0
POLYLINE
  5
537F0
330
52C18
100
AcDbEntity
  8
CUTOUT
100
AcDb2dPolyline
 66
     1
 10
0.0
 20
0.0
 30
0.0
  0
VERTEX
  5
537F1
330
537F0
100
AcDbEntity
  8
CUTOUT
100
AcDbVertex
100
AcDb2dVertex
 10
30784.65200473778
 20
25644.98923813284
 30
0.0
  0
VERTEX
  5
537F2
330
537F0
100
AcDbEntity
  8
CUTOUT
100
AcDbVertex
100
AcDb2dVertex
 10
30457.51493335513
 20
25644.98923813284
 30
0.0
 42
-0.4142135623730951
  0
VERTEX
  5
537F3
330
537F0
100
AcDbEntity
  8
CUTOUT
100
AcDbVertex
100
AcDb2dVertex
 10
30447.51493335513
 20
25654.98923813284
 30
0.0
  0
VERTEX
  5
537F4
330
537F0
100
AcDbEntity
  8
CUTOUT
100
AcDbVertex
100
AcDb2dVertex
 10
30447.51493335513
 20
26031.50603648017
 30
0.0
 42
0.4142135623730951
  0
VERTEX
  5
537F5
330
537F0
100
AcDbEntity
  8
CUTOUT
100
AcDbVertex
100
AcDb2dVertex
 10
30421.51493335513
 20
26057.50603648016
 30
0.0
  0
VERTEX
  5
537F6
330
537F0
100
AcDbEntity
  8
CUTOUT
100
AcDbVertex
100
AcDb2dVertex
 10
29726.51837824565
 20
26057.50603648016
 30
0.0
 42
0.4142135623730951
  0
VERTEX
  5
537F7
330
537F0
100
AcDbEntity
  8
CUTOUT
100
AcDbVertex
100
AcDb2dVertex
 10
29700.51837824565
 20
26031.50603648017
 30
0.0
  0
VERTEX
  5
537F8
330
537F0
100
AcDbEntity
  8
CUTOUT
100
AcDbVertex
100
AcDb2dVertex
 10
29700.51837824565
 20
25654.98923813284
 30
0.0
 42
-0.4142135623730953
  0
VERTEX
  5
537F9
330
537F0
100
AcDbEntity
  8
CUTOUT
100
AcDbVertex
100
AcDb2dVertex
 10
29690.51837824565
 20
25644.98923813284
 30
0.0
  0
VERTEX
  5
537FA
330
537F0
100
AcDbEntity
  8
CUTOUT
100
AcDbVertex
100
AcDb2dVertex
 10
29581.95259700864
 20
25644.98923813284
 30
0.0
  0
SEQEND
  5
537FB
330
537F0
100
AcDbEntity
  8
CUTOUT
  0
POLYLINE
  5
537FC
330
52C18
100
AcDbEntity
  8
sink_label
  6
DASHED2
 48
5.0
370
     0
100
AcDb2dPolyline
 66
     1
 10
0.0
 20
0.0
 30
0.0
  0
VERTEX
  5
537FD
330
537FC
100
AcDbEntity
  8
sink_label
  6
DASHED2
 48
5.0
370
     0
100
AcDbVertex
100
AcDb2dVertex
 10
30441.53753507628
 20
26031.58290072217
 30
0.0
  0
VERTEX
  5
537FE
330
537FC
100
AcDbEntity
  8
sink_label
  6
DASHED2
 48
5.0
370
     0
100
AcDbVertex
100
AcDb2dVertex
 10
30441.33998051019
 20
26034.42983965728
 30
0.0
  0
VERTEX
  5
537FF
330
537FC
100
AcDbEntity
  8
sink_label
  6
DASHED2
 48
5.0
370
     0
100
AcDbVertex
100
AcDb2dVertex
 10
30440.74204151284
 20
26037.21675860842
 30
0.0
  0
VERTEX
  5
53800
330
537FC
100
AcDbEntity
  8
sink_label
  6
DASHED2
 48
5.0
370
     0
100
AcDbVertex
100
AcDb2dVertex
 10
30439.75426868235
 20
26039.88552162696
 30
0.0
  0
VERTEX
  5
53801
330
537FC
100
AcDbEntity
  8
sink_label
  6
DASHED2
 48
5.0
370
     0
100
AcDbVertex
100
AcDb2dVertex
 10
30438.3961483274
 20
26042.3831604042
 30
0.0
  0
VERTEX
  5
53802
330
537FC
100
AcDbEntity
  8
sink_label
  6
DASHED2
 48
5.0
370
     0
100
AcDbVertex
100
AcDb2dVertex
 10
30436.69750203644
 20
26044.65859066675
 30
0.0
  0
VERTEX
  5
53803
330
537FC
100
AcDbEntity
  8
sink_label
  6
DASHED2
 48
5.0
370
     0
100
AcDbVertex
100
AcDb2dVertex
 10
30434.68836671625
 20
26046.66589578115
 30
0.0
  0
VERTEX
  5
53804
330
537FC
100
AcDbEntity
  8
sink_label
  6
DASHED2
 48
5.0
370
     0
100
AcDbVertex
100
AcDb2dVertex
 10
30432.41299028327
 20
26048.36631844832
 30
0.0
  0
VERTEX
  5
53805
330
537FC
100
AcDbEntity
  8
sink_label
  6
DASHED2
 48
5.0
370
     0
100
AcDbVertex
100
AcDb2dVertex
 10
30429.91529767646
 20
26049.72449263286
 30
0.0
  0
VERTEX
  5
53806
330
537FC
100
AcDbEntity
  8
sink_label
  6
DASHED2
 48
5.0
370
     0
100
AcDbVertex
100
AcDb2dVertex
 10
30427.24653465791
 20
26050.71226546335
 30
0.0
  0
VERTEX
  5
53807
330
537FC
100
AcDbEntity
  8
sink_label
  6
DASHED2
 48
5.0
370
     0
100
AcDbVertex
100
AcDb2dVertex
 10
30424.46139208299
 20
26051.31020446069
 30
0.0
  0
VERTEX
  5
53808
330
537FC
100
AcDbEntity
  8
sink_label
  6
DASHED2
 48
5.0
370
     0
100
AcDbVertex
100
AcDb2dVertex
 10
30421.61273060125
 20
26051.50603648016
 30
0.0
  0
SEQEND
  5
53809
330
537FC
100
AcDbEntity
  8
sink_label
  6
DASHED2
 48
5.0
370
     0
  0
POLYLINE
  5
5380A
330
52C18
100
AcDbEntity
  8
sink_label
  6
DASHED2
 48
5.0
370
     0
100
AcDb2dPolyline
 66
     1
 10
0.0
 20
0.0
 30
0.0
  0
VERTEX
  5
5380B
330
5380A
100
AcDbEntity
  8
sink_label
  6
DASHED2
 48
5.0
370
     0
100
AcDbVertex
100
AcDb2dVertex
 10
30465.51592239751
 20
25676.4858620671
 30
0.0
  0
VERTEX
  5
5380C
330
5380A
100
AcDbEntity
  8
sink_label
  6
DASHED2
 48
5.0
370
     0
100
AcDbVertex
100
AcDb2dVertex
 10
30465.51592239751
 20
26026.48529313224
 30
0.0
  0
SEQEND
  5
5380D
330
5380A
100
AcDbEntity
  8
sink_label
  6
DASHED2
 48
5.0
370
     0
  0
POLYLINE
  5
5380E
330
52C18
100
AcDbEntity
  8
sink_label
  6
DASHED2
 48
5.0
370
     0
100
AcDb2dPolyline
 66
     1
 10
0.0
 20
0.0
 30
0.0
  0
VERTEX
  5
5380F
330
5380E
100
AcDbEntity
  8
sink_label
  6
DASHED2
 48
5.0
370
     0
100
AcDbVertex
100
AcDb2dVertex
 10
29682.51555899747
 20
26026.48529313224
 30
0.0
  0
VERTEX
  5
53810
330
5380E
100
AcDbEntity
  8
sink_label
  6
DASHED2
 48
5.0
370
     0
100
AcDbVertex
100
AcDb2dVertex
 10
29682.51555899747
 20
25676.4858620671
 30
0.0
  0
SEQEND
  5
53811
330
5380E
100
AcDbEntity
  8
sink_label
  6
DASHED2
 48
5.0
370
     0
  0
POLYLINE
  5
53812
330
52C18
100
AcDbEntity
  8
sink_label
  6
DASHED2
 48
5.0
370
     0
100
AcDb2dPolyline
 66
     1
 10
0.0
 20
0.0
 30
0.0
  0
VERTEX
  5
53813
330
53812
100
AcDbEntity
  8
sink_label
  6
DASHED2
 48
5.0
370
     0
100
AcDbVertex
100
AcDb2dVertex
 10
29682.51555899747
 20
25676.4858620671
 30
0.0
  0
VERTEX
  5
53814
330
53812
100
AcDbEntity
  8
sink_label
  6
DASHED2
 48
5.0
370
     0
100
AcDbVertex
100
AcDb2dVertex
 10
29682.70256296549
 20
25672.21550749402
 30
0.0
  0
VERTEX
  5
53815
330
53812
100
AcDbEntity
  8
sink_label
  6
DASHED2
 48
5.0
370
     0
100
AcDbVertex
100
AcDb2dVertex
 10
29683.26169083417
 20
25667.97688545955
 30
0.0
  0
VERTEX
  5
53816
330
53812
100
AcDbEntity
  8
sink_label
  6
DASHED2
 48
5.0
370
     0
100
AcDbVertex
100
AcDb2dVertex
 10
29684.18594475786
 20
25663.80350487851
 30
0.0
  0
VERTEX
  5
53817
330
53812
100
AcDbEntity
  8
sink_label
  6
DASHED2
 48
5.0
370
     0
100
AcDbVertex
100
AcDb2dVertex
 10
29685.47182581371
 20
25659.7271790339
 30
0.0
  0
VERTEX
  5
53818
330
53812
100
AcDbEntity
  8
sink_label
  6
DASHED2
 48
5.0
370
     0
100
AcDbVertex
100
AcDb2dVertex
 10
29687.10695319786
 20
25655.77783717333
 30
0.0
  0
VERTEX
  5
53819
330
53812
100
AcDbEntity
  8
sink_label
  6
DASHED2
 48
5.0
370
     0
100
AcDbVertex
100
AcDb2dVertex
 10
29689.08077631223
 20
25651.985462374
 30
0.0
  0
VERTEX
  5
5381A
330
53812
100
AcDbEntity
  8
sink_label
  6
DASHED2
 48
5.0
370
     0
100
AcDbVertex
100
AcDb2dVertex
 10
29691.37736160053
 20
25648.38009154269
 30
0.0
  0
VERTEX
  5
5381B
330
53812
100
AcDbEntity
  8
sink_label
  6
DASHED2
 48
5.0
370
     0
100
AcDbVertex
100
AcDb2dVertex
 10
29693.98082933606
 20
25644.98812808939
 30
0.0
  0
VERTEX
  5
5381C
330
53812
100
AcDbEntity
  8
sink_label
  6
DASHED2
 48
5.0
370
     0
100
AcDbVertex
100
AcDb2dVertex
 10
29696.86830194644
 20
25641.83783254467
 30
0.0
  0
VERTEX
  5
5381D
330
53812
100
AcDbEntity
  8
sink_label
  6
DASHED2
 48
5.0
370
     0
100
AcDbVertex
100
AcDb2dVertex
 10
29700.02040078216
 20
25638.94858355808
 30
0.0
  0
VERTEX
  5
5381E
330
53812
100
AcDbEntity
  8
sink_label
  6
DASHED2
 48
5.0
370
     0
100
AcDbVertex
100
AcDb2dVertex
 10
29703.41058785925
 20
25636.34683836917
 30
0.0
  0
VERTEX
  5
5381F
330
53812
100
AcDbEntity
  8
sink_label
  6
DASHED2
 48
5.0
370
     0
100
AcDbVertex
100
AcDb2dVertex
 10
29707.01598560536
 20
25634.05025308088
 30
0.0
  0
VERTEX
  5
53820
330
53812
100
AcDbEntity
  8
sink_label
  6
DASHED2
 48
5.0
370
     0
100
AcDbVertex
100
AcDb2dVertex
 10
29710.8083334899
 20
25632.0764568813
 30
0.0
  0
VERTEX
  5
53821
330
53812
100
AcDbEntity
  8
sink_label
  6
DASHED2
 48
5.0
370
     0
100
AcDbVertex
100
AcDb2dVertex
 10
29714.75764843567
 20
25630.44132949715
 30
0.0
  0
VERTEX
  5
53822
330
53812
100
AcDbEntity
  8
sink_label
  6
DASHED2
 48
5.0
370
     0
100
AcDbVertex
100
AcDb2dVertex
 10
29718.83400119508
 20
25629.15547535609
 30
0.0
  0
VERTEX
  5
53823
330
53812
100
AcDbEntity
  8
sink_label
  6
DASHED2
 48
5.0
370
     0
100
AcDbVertex
100
AcDb2dVertex
 10
29723.00735486132
 20
25628.2294181414
 30
0.0
  0
VERTEX
  5
53824
330
53812
100
AcDbEntity
  8
sink_label
  6
DASHED2
 48
5.0
370
     0
100
AcDbVertex
100
AcDb2dVertex
 10
29727.24600381058
 20
25627.67203973414
 30
0.0
  0
VERTEX
  5
53825
330
53812
100
AcDbEntity
  8
sink_label
  6
DASHED2
 48
5.0
370
     0
100
AcDbVertex
100
AcDb2dVertex
 10
29731.51635838366
 20
25627.48506268091
 30
0.0
  0
SEQEND
  5
53826
330
53812
100
AcDbEntity
  8
sink_label
  6
DASHED2
 48
5.0
370
     0
  0
POLYLINE
  5
53827
330
52C18
100
AcDbEntity
  8
sink_label
  6
DASHED2
 48
5.0
370
     0
100
AcDb2dPolyline
 66
     1
 10
0.0
 20
0.0
 30
0.0
  0
VERTEX
  5
53828
330
53827
100
AcDbEntity
  8
sink_label
  6
DASHED2
 48
5.0
370
     0
100
AcDbVertex
100
AcDb2dVertex
 10
29731.51635838366
 20
25627.48506268091
 30
0.0
  0
VERTEX
  5
53829
330
53827
100
AcDbEntity
  8
sink_label
  6
DASHED2
 48
5.0
370
     0
100
AcDbVertex
100
AcDb2dVertex
 10
30416.51506918173
 20
25627.48506268091
 30
0.0
  0
SEQEND
  5
5382A
330
53827
100
AcDbEntity
  8
sink_label
  6
DASHED2
 48
5.0
370
     0
  0
POLYLINE
  5
5382B
330
52C18
100
AcDbEntity
  8
sink_label
  6
DASHED2
 48
5.0
370
     0
100
AcDb2dPolyline
 66
     1
 10
0.0
 20
0.0
 30
0.0
  0
VERTEX
  5
5382C
330
5382B
100
AcDbEntity
  8
sink_label
  6
DASHED2
 48
5.0
370
     0
100
AcDbVertex
100
AcDb2dVertex
 10
30416.51506918173
 20
25627.48506268091
 30
0.0
  0
VERTEX
  5
5382D
330
5382B
100
AcDbEntity
  8
sink_label
  6
DASHED2
 48
5.0
370
     0
100
AcDbVertex
100
AcDb2dVertex
 10
30420.78720013103
 20
25627.67203973414
 30
0.0
  0
VERTEX
  5
5382E
330
5382B
100
AcDbEntity
  8
sink_label
  6
DASHED2
 48
5.0
370
     0
100
AcDbVertex
100
AcDb2dVertex
 10
30425.0240188745
 20
25628.2294181414
 30
0.0
  0
VERTEX
  5
5382F
330
5382B
100
AcDbEntity
  8
sink_label
  6
DASHED2
 48
5.0
370
     0
100
AcDbVertex
100
AcDb2dVertex
 10
30429.19742637033
 20
25629.15547535609
 30
0.0
  0
VERTEX
  5
53830
330
5382B
100
AcDbEntity
  8
sink_label
  6
DASHED2
 48
5.0
370
     0
100
AcDbVertex
100
AcDb2dVertex
 10
30433.27555550594
 20
25630.44132949715
 30
0.0
  0
VERTEX
  5
53831
330
5382B
100
AcDbEntity
  8
sink_label
  6
DASHED2
 48
5.0
370
     0
100
AcDbVertex
100
AcDb2dVertex
 10
30437.2249242813
 20
25632.0764568813
 30
0.0
  0
VERTEX
  5
53832
330
5382B
100
AcDbEntity
  8
sink_label
  6
DASHED2
 48
5.0
370
     0
100
AcDbVertex
100
AcDb2dVertex
 10
30441.01549578962
 20
25634.05025308088
 30
0.0
  0
VERTEX
  5
53833
330
5382B
100
AcDbEntity
  8
sink_label
  6
DASHED2
 48
5.0
370
     0
100
AcDbVertex
100
AcDb2dVertex
 10
30444.62089353573
 20
25636.34683836917
 30
0.0
  0
VERTEX
  5
53834
330
5382B
100
AcDbEntity
  8
sink_label
  6
DASHED2
 48
5.0
370
     0
100
AcDbVertex
100
AcDb2dVertex
 10
30448.01280315945
 20
25638.94858355808
 30
0.0
  0
VERTEX
  5
53835
330
5382B
100
AcDbEntity
  8
sink_label
  6
DASHED2
 48
5.0
370
     0
100
AcDbVertex
100
AcDb2dVertex
 10
30451.16484816558
 20
25641.83783254467
 30
0.0
  0
VERTEX
  5
53836
330
5382B
100
AcDbEntity
  8
sink_label
  6
DASHED2
 48
5.0
370
     0
100
AcDbVertex
100
AcDb2dVertex
 10
30454.05237460555
 20
25644.98812808939
 30
0.0
  0
VERTEX
  5
53837
330
5382B
100
AcDbEntity
  8
sink_label
  6
DASHED2
 48
5.0
370
     0
100
AcDbVertex
100
AcDb2dVertex
 10
30456.65406596488
 20
25648.38009154269
 30
0.0
  0
VERTEX
  5
53838
330
5382B
100
AcDbEntity
  8
sink_label
  6
DASHED2
 48
5.0
370
     0
100
AcDbVertex
100
AcDb2dVertex
 10
30458.95065125317
 20
25651.985462374
 30
0.0
  0
VERTEX
  5
53839
330
5382B
100
AcDbEntity
  8
sink_label
  6
DASHED2
 48
5.0
370
     0
100
AcDbVertex
100
AcDb2dVertex
 10
30460.92447436754
 20
25655.77783717333
 30
0.0
  0
VERTEX
  5
5383A
330
5382B
100
AcDbEntity
  8
sink_label
  6
DASHED2
 48
5.0
370
     0
100
AcDbVertex
100
AcDb2dVertex
 10
30462.56132429832
 20
25659.7271790339
 30
0.0
  0
VERTEX
  5
5383B
330
5382B
100
AcDbEntity
  8
sink_label
  6
DASHED2
 48
5.0
370
     0
100
AcDbVertex
100
AcDb2dVertex
 10
30463.84548280754
 20
25663.80350487851
 30
0.0
  0
VERTEX
  5
5383C
330
5382B
100
AcDbEntity
  8
sink_label
  6
DASHED2
 48
5.0
370
     0
100
AcDbVertex
100
AcDb2dVertex
 10
30464.77145927786
 20
25667.97688545955
 30
0.0
  0
VERTEX
  5
5383D
330
5382B
100
AcDbEntity
  8
sink_label
  6
DASHED2
 48
5.0
370
     0
100
AcDbVertex
100
AcDb2dVertex
 10
30465.3289184295
 20
25672.21550749402
 30
0.0
  0
VERTEX
  5
5383E
330
5382B
100
AcDbEntity
  8
sink_label
  6
DASHED2
 48
5.0
370
     0
100
AcDbVertex
100
AcDb2dVertex
 10
30465.51592239751
 20
25676.4858620671
 30
0.0
  0
SEQEND
  5
5383F
330
5382B
100
AcDbEntity
  8
sink_label
  6
DASHED2
 48
5.0
370
     0
  0
POLYLINE
  5
53840
330
52C18
100
AcDbEntity
  8
sink_label
  6
DASHED2
 48
5.0
370
     0
100
AcDb2dPolyline
 66
     1
 10
0.0
 20
0.0
 30
0.0
  0
VERTEX
  5
53841
330
53840
100
AcDbEntity
  8
sink_label
  6
DASHED2
 48
5.0
370
     0
100
AcDbVertex
100
AcDb2dVertex
 10
30416.51506918173
 20
26075.48431614223
 30
0.0
  0
VERTEX
  5
53842
330
53840
100
AcDbEntity
  8
sink_label
  6
DASHED2
 48
5.0
370
     0
100
AcDbVertex
100
AcDb2dVertex
 10
29731.51635838366
 20
26075.48431614223
 30
0.0
  0
SEQEND
  5
53843
330
53840
100
AcDbEntity
  8
sink_label
  6
DASHED2
 48
5.0
370
     0
  0
POLYLINE
  5
53844
330
52C18
100
AcDbEntity
  8
sink_label
  6
DASHED2
 48
5.0
370
     0
100
AcDb2dPolyline
 66
     1
 10
0.0
 20
0.0
 30
0.0
  0
VERTEX
  5
53845
330
53844
100
AcDbEntity
  8
sink_label
  6
DASHED2
 48
5.0
370
     0
100
AcDbVertex
100
AcDb2dVertex
 10
29731.51635838366
 20
26075.48431614223
 30
0.0
  0
VERTEX
  5
53846
330
53844
100
AcDbEntity
  8
sink_label
  6
DASHED2
 48
5.0
370
     0
100
AcDbVertex
100
AcDb2dVertex
 10
29727.24600381058
 20
26075.29908855042
 30
0.0
  0
VERTEX
  5
53847
330
53844
100
AcDbEntity
  8
sink_label
  6
DASHED2
 48
5.0
370
     0
100
AcDbVertex
100
AcDb2dVertex
 10
29723.00735486132
 20
26074.73996068173
 30
0.0
  0
VERTEX
  5
53848
330
53844
100
AcDbEntity
  8
sink_label
  6
DASHED2
 48
5.0
370
     0
100
AcDbVertex
100
AcDb2dVertex
 10
29718.83400119508
 20
26073.81565292847
 30
0.0
  0
VERTEX
  5
53849
330
53844
100
AcDbEntity
  8
sink_label
  6
DASHED2
 48
5.0
370
     0
100
AcDbVertex
100
AcDb2dVertex
 10
29714.75764843567
 20
26072.52977187262
 30
0.0
  0
VERTEX
  5
5384A
330
53844
100
AcDbEntity
  8
sink_label
  6
DASHED2
 48
5.0
370
     0
100
AcDbVertex
100
AcDb2dVertex
 10
29710.8083334899
 20
26070.89464448847
 30
0.0
  0
VERTEX
  5
5384B
330
53844
100
AcDbEntity
  8
sink_label
  6
DASHED2
 48
5.0
370
     0
100
AcDbVertex
100
AcDb2dVertex
 10
29707.01598560536
 20
26068.92087520368
 30
0.0
  0
VERTEX
  5
5384C
330
53844
100
AcDbEntity
  8
sink_label
  6
DASHED2
 48
5.0
370
     0
100
AcDbVertex
100
AcDb2dVertex
 10
29703.41058785925
 20
26066.62428991538
 30
0.0
  0
VERTEX
  5
5384D
330
53844
100
AcDbEntity
  8
sink_label
  6
DASHED2
 48
5.0
370
     0
100
AcDbVertex
100
AcDb2dVertex
 10
29700.02040078216
 20
26064.02082217985
 30
0.0
  0
VERTEX
  5
5384E
330
53844
100
AcDbEntity
  8
sink_label
  6
DASHED2
 48
5.0
370
     0
100
AcDbVertex
100
AcDb2dVertex
 10
29696.86830194644
 20
26061.13329573988
 30
0.0
  0
VERTEX
  5
5384F
330
53844
100
AcDbEntity
  8
sink_label
  6
DASHED2
 48
5.0
370
     0
100
AcDbVertex
100
AcDb2dVertex
 10
29693.98082933606
 20
26057.98125073374
 30
0.0
  0
VERTEX
  5
53850
330
53844
100
AcDbEntity
  8
sink_label
  6
DASHED2
 48
5.0
370
     0
100
AcDbVertex
100
AcDb2dVertex
 10
29691.37736160053
 20
26054.59106365665
 30
0.0
  0
VERTEX
  5
53851
330
53844
100
AcDbEntity
  8
sink_label
  6
DASHED2
 48
5.0
370
     0
100
AcDbVertex
100
AcDb2dVertex
 10
29689.08077631223
 20
26050.98566591055
 30
0.0
  0
VERTEX
  5
53852
330
53844
100
AcDbEntity
  8
sink_label
  6
DASHED2
 48
5.0
370
     0
100
AcDbVertex
100
AcDb2dVertex
 10
29687.10695319786
 20
26047.19331802601
 30
0.0
  0
VERTEX
  5
53853
330
53844
100
AcDbEntity
  8
sink_label
  6
DASHED2
 48
5.0
370
     0
100
AcDbVertex
100
AcDb2dVertex
 10
29685.47182581371
 20
26043.24394925065
 30
0.0
  0
VERTEX
  5
53854
330
53844
100
AcDbEntity
  8
sink_label
  6
DASHED2
 48
5.0
370
     0
100
AcDbVertex
100
AcDb2dVertex
 10
29684.18594475786
 20
26039.16759649125
 30
0.0
  0
VERTEX
  5
53855
330
53844
100
AcDbEntity
  8
sink_label
  6
DASHED2
 48
5.0
370
     0
100
AcDbVertex
100
AcDb2dVertex
 10
29683.26169083417
 20
26034.99424282501
 30
0.0
  0
VERTEX
  5
53856
330
53844
100
AcDbEntity
  8
sink_label
  6
DASHED2
 48
5.0
370
     0
100
AcDbVertex
100
AcDb2dVertex
 10
29682.70256296549
 20
26030.75564770533
 30
0.0
  0
VERTEX
  5
53857
330
53844
100
AcDbEntity
  8
sink_label
  6
DASHED2
 48
5.0
370
     0
100
AcDbVertex
100
AcDb2dVertex
 10
29682.51555899747
 20
26026.48529313224
 30
0.0
  0
SEQEND
  5
53858
330
53844
100
AcDbEntity
  8
sink_label
  6
DASHED2
 48
5.0
370
     0
  0
POLYLINE
  5
53859
330
52C18
100
AcDbEntity
  8
sink_label
  6
DASHED2
 48
5.0
370
     0
100
AcDb2dPolyline
 66
     1
 10
0.0
 20
0.0
 30
0.0
  0
VERTEX
  5
5385A
330
53859
100
AcDbEntity
  8
sink_label
  6
DASHED2
 48
5.0
370
     0
100
AcDbVertex
100
AcDb2dVertex
 10
30465.51592239751
 20
26026.48529313224
 30
0.0
  0
VERTEX
  5
5385B
330
53859
100
AcDbEntity
  8
sink_label
  6
DASHED2
 48
5.0
370
     0
100
AcDbVertex
100
AcDb2dVertex
 10
30465.3289184295
 20
26030.75564770533
 30
0.0
  0
VERTEX
  5
5385C
330
53859
100
AcDbEntity
  8
sink_label
  6
DASHED2
 48
5.0
370
     0
100
AcDbVertex
100
AcDb2dVertex
 10
30464.77145927786
 20
26034.99424282501
 30
0.0
  0
VERTEX
  5
5385D
330
53859
100
AcDbEntity
  8
sink_label
  6
DASHED2
 48
5.0
370
     0
100
AcDbVertex
100
AcDb2dVertex
 10
30463.84548280754
 20
26039.16759649125
 30
0.0
  0
VERTEX
  5
5385E
330
53859
100
AcDbEntity
  8
sink_label
  6
DASHED2
 48
5.0
370
     0
100
AcDbVertex
100
AcDb2dVertex
 10
30462.56132429832
 20
26043.24394925065
 30
0.0
  0
VERTEX
  5
5385F
330
53859
100
AcDbEntity
  8
sink_label
  6
DASHED2
 48
5.0
370
     0
100
AcDbVertex
100
AcDb2dVertex
 10
30460.92447436754
 20
26047.19331802601
 30
0.0
  0
VERTEX
  5
53860
330
53859
100
AcDbEntity
  8
sink_label
  6
DASHED2
 48
5.0
370
     0
100
AcDbVertex
100
AcDb2dVertex
 10
30458.95065125317
 20
26050.98566591055
 30
0.0
  0
VERTEX
  5
53861
330
53859
100
AcDbEntity
  8
sink_label
  6
DASHED2
 48
5.0
370
     0
100
AcDbVertex
100
AcDb2dVertex
 10
30456.65406596488
 20
26054.59106365665
 30
0.0
  0
VERTEX
  5
53862
330
53859
100
AcDbEntity
  8
sink_label
  6
DASHED2
 48
5.0
370
     0
100
AcDbVertex
100
AcDb2dVertex
 10
30454.05237460555
 20
26057.98125073374
 30
0.0
  0
VERTEX
  5
53863
330
53859
100
AcDbEntity
  8
sink_label
  6
DASHED2
 48
5.0
370
     0
100
AcDbVertex
100
AcDb2dVertex
 10
30451.16484816558
 20
26061.13329573988
 30
0.0
  0
VERTEX
  5
53864
330
53859
100
AcDbEntity
  8
sink_label
  6
DASHED2
 48
5.0
370
     0
100
AcDbVertex
100
AcDb2dVertex
 10
30448.01280315945
 20
26064.02082217985
 30
0.0
  0
VERTEX
  5
53865
330
53859
100
AcDbEntity
  8
sink_label
  6
DASHED2
 48
5.0
370
     0
100
AcDbVertex
100
AcDb2dVertex
 10
30444.62089353573
 20
26066.62428991538
 30
0.0
  0
VERTEX
  5
53866
330
53859
100
AcDbEntity
  8
sink_label
  6
DASHED2
 48
5.0
370
     0
100
AcDbVertex
100
AcDb2dVertex
 10
30441.01549578962
 20
26068.92087520368
 30
0.0
  0
VERTEX
  5
53867
330
53859
100
AcDbEntity
  8
sink_label
  6
DASHED2
 48
5.0
370
     0
100
AcDbVertex
100
AcDb2dVertex
 10
30437.2249242813
 20
26070.89464448847
 30
0.0
  0
VERTEX
  5
53868
330
53859
100
AcDbEntity
  8
sink_label
  6
DASHED2
 48
5.0
370
     0
100
AcDbVertex
100
AcDb2dVertex
 10
30433.27555550594
 20
26072.52977187262
 30
0.0
  0
VERTEX
  5
53869
330
53859
100
AcDbEntity
  8
sink_label
  6
DASHED2
 48
5.0
370
     0
100
AcDbVertex
100
AcDb2dVertex
 10
30429.19742637033
 20
26073.81565292847
 30
0.0
  0
VERTEX
  5
5386A
330
53859
100
AcDbEntity
  8
sink_label
  6
DASHED2
 48
5.0
370
     0
100
AcDbVertex
100
AcDb2dVertex
 10
30425.0240188745
 20
26074.73996068173
 30
0.0
  0
VERTEX
  5
5386B
330
53859
100
AcDbEntity
  8
sink_label
  6
DASHED2
 48
5.0
370
     0
100
AcDbVertex
100
AcDb2dVertex
 10
30420.78720013103
 20
26075.29908855042
 30
0.0
  0
VERTEX
  5
5386C
330
53859
100
AcDbEntity
  8
sink_label
  6
DASHED2
 48
5.0
370
     0
100
AcDbVertex
100
AcDb2dVertex
 10
30416.51506918173
 20
26075.48431614223
 30
0.0
  0
SEQEND
  5
5386D
330
53859
100
AcDbEntity
  8
sink_label
  6
DASHED2
 48
5.0
370
     0
  0
POLYLINE
  5
5386E
330
52C18
100
AcDbEntity
  8
sink_label
  6
DASHED2
 48
5.0
370
     0
100
AcDb2dPolyline
 66
     1
 10
0.0
 20
0.0
 30
0.0
  0
VERTEX
  5
5386F
330
5386E
100
AcDbEntity
  8
sink_label
  6
DASHED2
 48
5.0
370
     0
100
AcDbVertex
100
AcDb2dVertex
 10
30416.51603811421
 20
25621.48632097278
 30
0.0
  0
VERTEX
  5
53870
330
5386E
100
AcDbEntity
  8
sink_label
  6
DASHED2
 48
5.0
370
     0
100
AcDbVertex
100
AcDb2dVertex
 10
29731.51727348655
 20
25621.48632097278
 30
0.0
  0
SEQEND
  5
53871
330
5386E
100
AcDbEntity
  8
sink_label
  6
DASHED2
 48
5.0
370
     0
  0
POLYLINE
  5
53872
330
52C18
100
AcDbEntity
  8
sink_label
  6
DASHED2
 48
5.0
370
     0
100
AcDb2dPolyline
 66
     1
 10
0.0
 20
0.0
 30
0.0
  0
VERTEX
  5
53873
330
53872
100
AcDbEntity
  8
sink_label
  6
DASHED2
 48
5.0
370
     0
100
AcDbVertex
100
AcDb2dVertex
 10
30471.51576761207
 20
25676.48607738543
 30
0.0
  0
VERTEX
  5
53874
330
53872
100
AcDbEntity
  8
sink_label
  6
DASHED2
 48
5.0
370
     0
100
AcDbVertex
100
AcDb2dVertex
 10
30471.32876364405
 20
25671.94407182656
 30
0.0
  0
VERTEX
  5
53875
330
53872
100
AcDbEntity
  8
sink_label
  6
DASHED2
 48
5.0
370
     0
100
AcDbVertex
100
AcDb2dVertex
 10
30470.76613685253
 20
25667.43204934489
 30
0.0
  0
VERTEX
  5
53876
330
53872
100
AcDbEntity
  8
sink_label
  6
DASHED2
 48
5.0
370
     0
100
AcDbVertex
100
AcDb2dVertex
 10
30469.83305487739
 20
25662.98351885525
 30
0.0
  0
VERTEX
  5
53877
330
53872
100
AcDbEntity
  8
sink_label
  6
DASHED2
 48
5.0
370
     0
100
AcDbVertex
100
AcDb2dVertex
 10
30468.5365155643
 20
25658.6267139734
 30
0.0
  0
VERTEX
  5
53878
330
53872
100
AcDbEntity
  8
sink_label
  6
DASHED2
 48
5.0
370
     0
100
AcDbVertex
100
AcDb2dVertex
 10
30466.8838397364
 20
25654.39161777655
 30
0.0
  0
VERTEX
  5
53879
330
53872
100
AcDbEntity
  8
sink_label
  6
DASHED2
 48
5.0
370
     0
100
AcDbVertex
100
AcDb2dVertex
 10
30464.88708522008
 20
25650.3082133419
 30
0.0
  0
VERTEX
  5
5387A
330
53872
100
AcDbEntity
  8
sink_label
  6
DASHED2
 48
5.0
370
     0
100
AcDbVertex
100
AcDb2dVertex
 10
30462.560463025
 20
25646.40298482382
 30
0.0
  0
VERTEX
  5
5387B
330
53872
100
AcDbEntity
  8
sink_label
  6
DASHED2
 48
5.0
370
     0
100
AcDbVertex
100
AcDb2dVertex
 10
30459.91818416082
 20
25642.7041120085
 30
0.0
  0
VERTEX
  5
5387C
330
53872
100
AcDbEntity
  8
sink_label
  6
DASHED2
 48
5.0
370
     0
100
AcDbVertex
100
AcDb2dVertex
 10
30456.9813498237
 20
25639.23452629789
 30
0.0
  0
VERTEX
  5
5387D
330
53872
100
AcDbEntity
  8
sink_label
  6
DASHED2
 48
5.0
370
     0
100
AcDbVertex
100
AcDb2dVertex
 10
30453.76578591076
 20
25636.02073876115
 30
0.0
  0
VERTEX
  5
5387E
330
53872
100
AcDbEntity
  8
sink_label
  6
DASHED2
 48
5.0
370
     0
100
AcDbVertex
100
AcDb2dVertex
 10
30450.29797657635
 20
25633.08210113303
 30
0.0
  0
VERTEX
  5
5387F
330
53872
100
AcDbEntity
  8
sink_label
  6
DASHED2
 48
5.0
370
     0
100
AcDbVertex
100
AcDb2dVertex
 10
30446.59730047003
 20
25630.44154481548
 30
0.0
  0
VERTEX
  5
53880
330
53872
100
AcDbEntity
  8
sink_label
  6
DASHED2
 48
5.0
370
     0
100
AcDbVertex
100
AcDb2dVertex
 10
30442.69379449858
 20
25628.11500336477
 30
0.0
  0
VERTEX
  5
53881
330
53872
100
AcDbEntity
  8
sink_label
  6
DASHED2
 48
5.0
370
     0
100
AcDbVertex
100
AcDb2dVertex
 10
30438.6086675173
 20
25626.11824884845
 30
0.0
  0
VERTEX
  5
53882
330
53872
100
AcDbEntity
  8
sink_label
  6
DASHED2
 48
5.0
370
     0
100
AcDbVertex
100
AcDb2dVertex
 10
30434.37540152625
 20
25624.46551919097
 30
0.0
  0
VERTEX
  5
53883
330
53872
100
AcDbEntity
  8
sink_label
  6
DASHED2
 48
5.0
370
     0
100
AcDbVertex
100
AcDb2dVertex
 10
30430.01854281481
 20
25623.16903370745
 30
0.0
  0
VERTEX
  5
53884
330
53872
100
AcDbEntity
  8
sink_label
  6
DASHED2
 48
5.0
370
     0
100
AcDbVertex
100
AcDb2dVertex
 10
30425.56823594896
 20
25622.23595173232
 30
0.0
  0
VERTEX
  5
53885
330
53872
100
AcDbEntity
  8
sink_label
  6
DASHED2
 48
5.0
370
     0
100
AcDbVertex
100
AcDb2dVertex
 10
30421.05796292871
 20
25621.67327111122
 30
0.0
  0
VERTEX
  5
53886
330
53872
100
AcDbEntity
  8
sink_label
  6
DASHED2
 48
5.0
370
     0
100
AcDbVertex
100
AcDb2dVertex
 10
30416.51603811421
 20
25621.48632097278
 30
0.0
  0
SEQEND
  5
53887
330
53872
100
AcDbEntity
  8
sink_label
  6
DASHED2
 48
5.0
370
     0
  0
POLYLINE
  5
53888
330
52C18
100
AcDbEntity
  8
sink_label
  6
DASHED2
 48
5.0
370
     0
100
AcDb2dPolyline
 66
     1
 10
0.0
 20
0.0
 30
0.0
  0
VERTEX
  5
53889
330
53888
100
AcDbEntity
  8
sink_label
  6
DASHED2
 48
5.0
370
     0
100
AcDbVertex
100
AcDb2dVertex
 10
29731.51727348655
 20
25621.48632097278
 30
0.0
  0
VERTEX
  5
5388A
330
53888
100
AcDbEntity
  8
sink_label
  6
DASHED2
 48
5.0
370
     0
100
AcDbVertex
100
AcDb2dVertex
 10
29726.97529484248
 20
25621.67327111122
 30
0.0
  0
VERTEX
  5
5388B
330
53888
100
AcDbEntity
  8
sink_label
  6
DASHED2
 48
5.0
370
     0
100
AcDbVertex
100
AcDb2dVertex
 10
29722.46324544602
 20
25622.23595173232
 30
0.0
  0
VERTEX
  5
5388C
330
53888
100
AcDbEntity
  8
sink_label
  6
DASHED2
 48
5.0
370
     0
100
AcDbVertex
100
AcDb2dVertex
 10
29718.01471495638
 20
25623.16903370745
 30
0.0
  0
VERTEX
  5
5388D
330
53888
100
AcDbEntity
  8
sink_label
  6
DASHED2
 48
5.0
370
     0
100
AcDbVertex
100
AcDb2dVertex
 10
29713.65791007453
 20
25624.46551919097
 30
0.0
  0
VERTEX
  5
5388E
330
53888
100
AcDbEntity
  8
sink_label
  6
DASHED2
 48
5.0
370
     0
100
AcDbVertex
100
AcDb2dVertex
 10
29709.42281387768
 20
25626.11824884845
 30
0.0
  0
VERTEX
  5
5388F
330
53888
100
AcDbEntity
  8
sink_label
  6
DASHED2
 48
5.0
370
     0
100
AcDbVertex
100
AcDb2dVertex
 10
29705.33940944303
 20
25628.11500336477
 30
0.0
  0
VERTEX
  5
53890
330
53888
100
AcDbEntity
  8
sink_label
  6
DASHED2
 48
5.0
370
     0
100
AcDbVertex
100
AcDb2dVertex
 10
29701.43418092495
 20
25630.44154481548
 30
0.0
  0
VERTEX
  5
53891
330
53888
100
AcDbEntity
  8
sink_label
  6
DASHED2
 48
5.0
370
     0
100
AcDbVertex
100
AcDb2dVertex
 10
29697.73533502442
 20
25633.08210113303
 30
0.0
  0
VERTEX
  5
53892
330
53888
100
AcDbEntity
  8
sink_label
  6
DASHED2
 48
5.0
370
     0
100
AcDbVertex
100
AcDb2dVertex
 10
29694.26574931381
 20
25636.02073876115
 30
0.0
  0
VERTEX
  5
53893
330
53888
100
AcDbEntity
  8
sink_label
  6
DASHED2
 48
5.0
370
     0
100
AcDbVertex
100
AcDb2dVertex
 10
29691.05196177707
 20
25639.23452629789
 30
0.0
  0
VERTEX
  5
53894
330
53888
100
AcDbEntity
  8
sink_label
  6
DASHED2
 48
5.0
370
     0
100
AcDbVertex
100
AcDb2dVertex
 10
29688.11329723416
 20
25642.7041120085
 30
0.0
  0
VERTEX
  5
53895
330
53888
100
AcDbEntity
  8
sink_label
  6
DASHED2
 48
5.0
370
     0
100
AcDbVertex
100
AcDb2dVertex
 10
29685.4727409166
 20
25646.40298482382
 30
0.0
  0
VERTEX
  5
53896
330
53888
100
AcDbEntity
  8
sink_label
  6
DASHED2
 48
5.0
370
     0
100
AcDbVertex
100
AcDb2dVertex
 10
29683.14617255111
 20
25650.3082133419
 30
0.0
  0
VERTEX
  5
53897
330
53888
100
AcDbEntity
  8
sink_label
  6
DASHED2
 48
5.0
370
     0
100
AcDbVertex
100
AcDb2dVertex
 10
29681.14947186437
 20
25654.39161777655
 30
0.0
  0
VERTEX
  5
53898
330
53888
100
AcDbEntity
  8
sink_label
  6
DASHED2
 48
5.0
370
     0
100
AcDbVertex
100
AcDb2dVertex
 10
29679.49668837731
 20
25658.6267139734
 30
0.0
  0
VERTEX
  5
53899
330
53888
100
AcDbEntity
  8
sink_label
  6
DASHED2
 48
5.0
370
     0
100
AcDbVertex
100
AcDb2dVertex
 10
29678.20025672338
 20
25662.98351885525
 30
0.0
  0
VERTEX
  5
5389A
330
53888
100
AcDbEntity
  8
sink_label
  6
DASHED2
 48
5.0
370
     0
100
AcDbVertex
100
AcDb2dVertex
 10
29677.26717474824
 20
25667.43204934489
 30
0.0
  0
VERTEX
  5
5389B
330
53888
100
AcDbEntity
  8
sink_label
  6
DASHED2
 48
5.0
370
     0
100
AcDbVertex
100
AcDb2dVertex
 10
29676.70449412714
 20
25671.94407182656
 30
0.0
  0
VERTEX
  5
5389C
330
53888
100
AcDbEntity
  8
sink_label
  6
DASHED2
 48
5.0
370
     0
100
AcDbVertex
100
AcDb2dVertex
 10
29676.51571378291
 20
25676.48607738543
 30
0.0
  0
SEQEND
  5
5389D
330
53888
100
AcDbEntity
  8
sink_label
  6
DASHED2
 48
5.0
370
     0
  0
POLYLINE
  5
5389E
330
52C18
100
AcDbEntity
  8
sink_label
  6
DASHED2
 48
5.0
370
     0
100
AcDb2dPolyline
 66
     1
 10
0.0
 20
0.0
 30
0.0
  0
VERTEX
  5
5389F
330
5389E
100
AcDbEntity
  8
sink_label
  6
DASHED2
 48
5.0
370
     0
100
AcDbVertex
100
AcDb2dVertex
 10
29676.51571378291
 20
25676.48607738543
 30
0.0
  0
VERTEX
  5
538A0
330
5389E
100
AcDbEntity
  8
sink_label
  6
DASHED2
 48
5.0
370
     0
100
AcDbVertex
100
AcDb2dVertex
 10
29676.51571378291
 20
26026.48550845057
 30
0.0
  0
SEQEND
  5
538A1
330
5389E
100
AcDbEntity
  8
sink_label
  6
DASHED2
 48
5.0
370
     0
  0
POLYLINE
  5
538A2
330
52C18
100
AcDbEntity
  8
sink_label
  6
DASHED2
 48
5.0
370
     0
100
AcDb2dPolyline
 66
     1
 10
0.0
 20
0.0
 30
0.0
  0
VERTEX
  5
538A3
330
538A2
100
AcDbEntity
  8
sink_label
  6
DASHED2
 48
5.0
370
     0
100
AcDbVertex
100
AcDb2dVertex
 10
30471.51576761207
 20
26026.48550845057
 30
0.0
  0
VERTEX
  5
538A4
330
538A2
100
AcDbEntity
  8
sink_label
  6
DASHED2
 48
5.0
370
     0
100
AcDbVertex
100
AcDb2dVertex
 10
30471.51576761207
 20
25676.48607738543
 30
0.0
  0
SEQEND
  5
538A5
330
538A2
100
AcDbEntity
  8
sink_label
  6
DASHED2
 48
5.0
370
     0
  0
POLYLINE
  5
538A6
330
52C18
100
AcDbEntity
  8
sink_label
  6
DASHED2
 48
5.0
370
     0
100
AcDb2dPolyline
 66
     1
 10
0.0
 20
0.0
 30
0.0
  0
VERTEX
  5
538A7
330
538A6
100
AcDbEntity
  8
sink_label
  6
DASHED2
 48
5.0
370
     0
100
AcDbVertex
100
AcDb2dVertex
 10
29731.51727348655
 20
26081.48529177801
 30
0.0
  0
VERTEX
  5
538A8
330
538A6
100
AcDbEntity
  8
sink_label
  6
DASHED2
 48
5.0
370
     0
100
AcDbVertex
100
AcDb2dVertex
 10
30416.51603811421
 20
26081.48529177801
 30
0.0
  0
SEQEND
  5
538A9
330
538A6
100
AcDbEntity
  8
sink_label
  6
DASHED2
 48
5.0
370
     0
  0
POLYLINE
  5
538AA
330
52C18
100
AcDbEntity
  8
sink_label
  6
DASHED2
 48
5.0
370
     0
100
AcDb2dPolyline
 66
     1
 10
0.0
 20
0.0
 30
0.0
  0
VERTEX
  5
538AB
330
538AA
100
AcDbEntity
  8
sink_label
  6
DASHED2
 48
5.0
370
     0
100
AcDbVertex
100
AcDb2dVertex
 10
29676.51571378291
 20
26026.48550845057
 30
0.0
  0
VERTEX
  5
538AC
330
538AA
100
AcDbEntity
  8
sink_label
  6
DASHED2
 48
5.0
370
     0
100
AcDbVertex
100
AcDb2dVertex
 10
29676.70449412714
 20
26031.02748709465
 30
0.0
  0
VERTEX
  5
538AD
330
538AA
100
AcDbEntity
  8
sink_label
  6
DASHED2
 48
5.0
370
     0
100
AcDbVertex
100
AcDb2dVertex
 10
29677.26717474824
 20
26035.5377601149
 30
0.0
  0
VERTEX
  5
538AE
330
538AA
100
AcDbEntity
  8
sink_label
  6
DASHED2
 48
5.0
370
     0
100
AcDbVertex
100
AcDb2dVertex
 10
29678.20025672338
 20
26039.98629060455
 30
0.0
  0
VERTEX
  5
538AF
330
538AA
100
AcDbEntity
  8
sink_label
  6
DASHED2
 48
5.0
370
     0
100
AcDbVertex
100
AcDb2dVertex
 10
29679.49668837731
 20
26044.34309548639
 30
0.0
  0
VERTEX
  5
538B0
330
538AA
100
AcDbEntity
  8
sink_label
  6
DASHED2
 48
5.0
370
     0
100
AcDbVertex
100
AcDb2dVertex
 10
29681.14947186437
 20
26048.57819168324
 30
0.0
  0
VERTEX
  5
538B1
330
538AA
100
AcDbEntity
  8
sink_label
  6
DASHED2
 48
5.0
370
     0
100
AcDbVertex
100
AcDb2dVertex
 10
29683.14617255111
 20
26052.66159611789
 30
0.0
  0
VERTEX
  5
538B2
330
538AA
100
AcDbEntity
  8
sink_label
  6
DASHED2
 48
5.0
370
     0
100
AcDbVertex
100
AcDb2dVertex
 10
29685.4727409166
 20
26056.56682463597
 30
0.0
  0
VERTEX
  5
538B3
330
538AA
100
AcDbEntity
  8
sink_label
  6
DASHED2
 48
5.0
370
     0
100
AcDbVertex
100
AcDb2dVertex
 10
29688.11329723416
 20
26060.26744691271
 30
0.0
  0
VERTEX
  5
538B4
330
538AA
100
AcDbEntity
  8
sink_label
  6
DASHED2
 48
5.0
370
     0
100
AcDbVertex
100
AcDb2dVertex
 10
29691.05196177707
 20
26063.73525624711
 30
0.0
  0
VERTEX
  5
538B5
330
538AA
100
AcDbEntity
  8
sink_label
  6
DASHED2
 48
5.0
370
     0
100
AcDbVertex
100
AcDb2dVertex
 10
29694.26574931381
 20
26066.95082016006
 30
0.0
  0
VERTEX
  5
538B6
330
538AA
100
AcDbEntity
  8
sink_label
  6
DASHED2
 48
5.0
370
     0
100
AcDbVertex
100
AcDb2dVertex
 10
29697.73533502442
 20
26069.88770832676
 30
0.0
  0
VERTEX
  5
538B7
330
538AA
100
AcDbEntity
  8
sink_label
  6
DASHED2
 48
5.0
370
     0
100
AcDbVertex
100
AcDb2dVertex
 10
29701.43418092495
 20
26072.52998719094
 30
0.0
  0
VERTEX
  5
538B8
330
538AA
100
AcDbEntity
  8
sink_label
  6
DASHED2
 48
5.0
370
     0
100
AcDbVertex
100
AcDb2dVertex
 10
29705.33940944303
 20
26074.85655555644
 30
0.0
  0
VERTEX
  5
538B9
330
538AA
100
AcDbEntity
  8
sink_label
  6
DASHED2
 48
5.0
370
     0
100
AcDbVertex
100
AcDb2dVertex
 10
29709.42281387768
 20
26076.85331007276
 30
0.0
  0
VERTEX
  5
538BA
330
538AA
100
AcDbEntity
  8
sink_label
  6
DASHED2
 48
5.0
370
     0
100
AcDbVertex
100
AcDb2dVertex
 10
29713.65791007453
 20
26078.50603973024
 30
0.0
  0
VERTEX
  5
538BB
330
538AA
100
AcDbEntity
  8
sink_label
  6
DASHED2
 48
5.0
370
     0
100
AcDbVertex
100
AcDb2dVertex
 10
29718.01471495638
 20
26079.80252521375
 30
0.0
  0
VERTEX
  5
538BC
330
538AA
100
AcDbEntity
  8
sink_label
  6
DASHED2
 48
5.0
370
     0
100
AcDbVertex
100
AcDb2dVertex
 10
29722.46324544602
 20
26080.7356071889
 30
0.0
  0
VERTEX
  5
538BD
330
538AA
100
AcDbEntity
  8
sink_label
  6
DASHED2
 48
5.0
370
     0
100
AcDbVertex
100
AcDb2dVertex
 10
29726.97529484248
 20
26081.29828780999
 30
0.0
  0
VERTEX
  5
538BE
330
538AA
100
AcDbEntity
  8
sink_label
  6
DASHED2
 48
5.0
370
     0
100
AcDbVertex
100
AcDb2dVertex
 10
29731.51727348655
 20
26081.48529177801
 30
0.0
  0
SEQEND
  5
538BF
330
538AA
100
AcDbEntity
  8
sink_label
  6
DASHED2
 48
5.0
370
     0
  0
POLYLINE
  5
538C0
330
52C18
100
AcDbEntity
  8
sink_label
  6
DASHED2
 48
5.0
370
     0
100
AcDb2dPolyline
 66
     1
 10
0.0
 20
0.0
 30
0.0
  0
VERTEX
  5
538C1
330
538C0
100
AcDbEntity
  8
sink_label
  6
DASHED2
 48
5.0
370
     0
100
AcDbVertex
100
AcDb2dVertex
 10
30416.51603811421
 20
26081.48529177801
 30
0.0
  0
VERTEX
  5
538C2
330
538C0
100
AcDbEntity
  8
sink_label
  6
DASHED2
 48
5.0
370
     0
100
AcDbVertex
100
AcDb2dVertex
 10
30421.05796292871
 20
26081.29828780999
 30
0.0
  0
VERTEX
  5
538C3
330
538C0
100
AcDbEntity
  8
sink_label
  6
DASHED2
 48
5.0
370
     0
100
AcDbVertex
100
AcDb2dVertex
 10
30425.56823594896
 20
26080.7356071889
 30
0.0
  0
VERTEX
  5
538C4
330
538C0
100
AcDbEntity
  8
sink_label
  6
DASHED2
 48
5.0
370
     0
100
AcDbVertex
100
AcDb2dVertex
 10
30430.01854281481
 20
26079.80252521375
 30
0.0
  0
VERTEX
  5
538C5
330
538C0
100
AcDbEntity
  8
sink_label
  6
DASHED2
 48
5.0
370
     0
100
AcDbVertex
100
AcDb2dVertex
 10
30434.37540152625
 20
26078.50603973024
 30
0.0
  0
VERTEX
  5
538C6
330
538C0
100
AcDbEntity
  8
sink_label
  6
DASHED2
 48
5.0
370
     0
100
AcDbVertex
100
AcDb2dVertex
 10
30438.6086675173
 20
26076.85331007276
 30
0.0
  0
VERTEX
  5
538C7
330
538C0
100
AcDbEntity
  8
sink_label
  6
DASHED2
 48
5.0
370
     0
100
AcDbVertex
100
AcDb2dVertex
 10
30442.69379449858
 20
26074.85655555644
 30
0.0
  0
VERTEX
  5
538C8
330
538C0
100
AcDbEntity
  8
sink_label
  6
DASHED2
 48
5.0
370
     0
100
AcDbVertex
100
AcDb2dVertex
 10
30446.59730047003
 20
26072.52998719094
 30
0.0
  0
VERTEX
  5
538C9
330
538C0
100
AcDbEntity
  8
sink_label
  6
DASHED2
 48
5.0
370
     0
100
AcDbVertex
100
AcDb2dVertex
 10
30450.29797657635
 20
26069.88770832676
 30
0.0
  0
VERTEX
  5
538CA
330
538C0
100
AcDbEntity
  8
sink_label
  6
DASHED2
 48
5.0
370
     0
100
AcDbVertex
100
AcDb2dVertex
 10
30453.76578591076
 20
26066.95082016006
 30
0.0
  0
VERTEX
  5
538CB
330
538C0
100
AcDbEntity
  8
sink_label
  6
DASHED2
 48
5.0
370
     0
100
AcDbVertex
100
AcDb2dVertex
 10
30456.9813498237
 20
26063.73525624711
 30
0.0
  0
VERTEX
  5
538CC
330
538C0
100
AcDbEntity
  8
sink_label
  6
DASHED2
 48
5.0
370
     0
100
AcDbVertex
100
AcDb2dVertex
 10
30459.91818416082
 20
26060.26744691271
 30
0.0
  0
VERTEX
  5
538CD
330
538C0
100
AcDbEntity
  8
sink_label
  6
DASHED2
 48
5.0
370
     0
100
AcDbVertex
100
AcDb2dVertex
 10
30462.560463025
 20
26056.56682463597
 30
0.0
  0
VERTEX
  5
538CE
330
538C0
100
AcDbEntity
  8
sink_label
  6
DASHED2
 48
5.0
370
     0
100
AcDbVertex
100
AcDb2dVertex
 10
30464.88708522008
 20
26052.66159611789
 30
0.0
  0
VERTEX
  5
538CF
330
538C0
100
AcDbEntity
  8
sink_label
  6
DASHED2
 48
5.0
370
     0
100
AcDbVertex
100
AcDb2dVertex
 10
30466.8838397364
 20
26048.57819168324
 30
0.0
  0
VERTEX
  5
538D0
330
538C0
100
AcDbEntity
  8
sink_label
  6
DASHED2
 48
5.0
370
     0
100
AcDbVertex
100
AcDb2dVertex
 10
30468.5365155643
 20
26044.34309548639
 30
0.0
  0
VERTEX
  5
538D1
330
538C0
100
AcDbEntity
  8
sink_label
  6
DASHED2
 48
5.0
370
     0
100
AcDbVertex
100
AcDb2dVertex
 10
30469.83305487739
 20
26039.98629060455
 30
0.0
  0
VERTEX
  5
538D2
330
538C0
100
AcDbEntity
  8
sink_label
  6
DASHED2
 48
5.0
370
     0
100
AcDbVertex
100
AcDb2dVertex
 10
30470.76613685253
 20
26035.5377601149
 30
0.0
  0
VERTEX
  5
538D3
330
538C0
100
AcDbEntity
  8
sink_label
  6
DASHED2
 48
5.0
370
     0
100
AcDbVertex
100
AcDb2dVertex
 10
30471.32876364405
 20
26031.02748709465
 30
0.0
  0
VERTEX
  5
538D4
330
538C0
100
AcDbEntity
  8
sink_label
  6
DASHED2
 48
5.0
370
     0
100
AcDbVertex
100
AcDb2dVertex
 10
30471.51576761207
 20
26026.48550845057
 30
0.0
  0
SEQEND
  5
538D5
330
538C0
100
AcDbEntity
  8
sink_label
  6
DASHED2
 48
5.0
370
     0
  0
POLYLINE
  5
538D6
330
52C18
100
AcDbEntity
  8
sink_label
  6
DASHED2
 48
5.0
370
     0
100
AcDb2dPolyline
 66
     1
 10
0.0
 20
0.0
 30
0.0
 70
     1
  0
VERTEX
  5
538D7
330
538D6
100
AcDbEntity
  8
sink_label
  6
DASHED2
 48
5.0
370
     0
100
AcDbVertex
100
AcDb2dVertex
 10
30028.02319171541
 20
25851.43308159311
 30
0.0
  0
VERTEX
  5
538D8
330
538D6
100
AcDbEntity
  8
sink_label
  6
DASHED2
 48
5.0
370
     0
100
AcDbVertex
100
AcDb2dVertex
 10
30028.20091802778
 20
25847.45553734514
 30
0.0
  0
VERTEX
  5
538D9
330
538D6
100
AcDbEntity
  8
sink_label
  6
DASHED2
 48
5.0
370
     0
100
AcDbVertex
100
AcDb2dVertex
 10
30028.72528409003
 20
25843.50736934714
 30
0.0
  0
VERTEX
  5
538DA
330
538D6
100
AcDbEntity
  8
sink_label
  6
DASHED2
 48
5.0
370
     0
100
AcDbVertex
100
AcDb2dVertex
 10
30029.59922752715
 20
25839.62382909912
 30
0.0
  0
VERTEX
  5
538DB
330
538D6
100
AcDbEntity
  8
sink_label
  6
DASHED2
 48
5.0
370
     0
100
AcDbVertex
100
AcDb2dVertex
 10
30030.81393546401
 20
25835.83429285105
 30
0.0
  0
VERTEX
  5
538DC
330
538D6
100
AcDbEntity
  8
sink_label
  6
DASHED2
 48
5.0
370
     0
100
AcDbVertex
100
AcDb2dVertex
 10
30032.35765740071
 20
25832.16519922792
 30
0.0
  0
VERTEX
  5
538DD
330
538D6
100
AcDbEntity
  8
sink_label
  6
DASHED2
 48
5.0
370
     0
100
AcDbVertex
100
AcDb2dVertex
 10
30034.22011164977
 20
25828.6459244797
 30
0.0
  0
VERTEX
  5
538DE
330
538D6
100
AcDbEntity
  8
sink_label
  6
DASHED2
 48
5.0
370
     0
100
AcDbVertex
100
AcDb2dVertex
 10
30036.38367246114
 20
25825.3058448564
 30
0.0
  0
VERTEX
  5
538DF
330
538D6
100
AcDbEntity
  8
sink_label
  6
DASHED2
 48
5.0
370
     0
100
AcDbVertex
100
AcDb2dVertex
 10
30038.83658933487
 20
25822.168461358
 30
0.0
  0
VERTEX
  5
538E0
330
538D6
100
AcDbEntity
  8
sink_label
  6
DASHED2
 48
5.0
370
     0
100
AcDbVertex
100
AcDb2dVertex
 10
30041.558298896
 20
25819.26315023448
 30
0.0
  0
VERTEX
  5
538E1
330
538D6
100
AcDbEntity
  8
sink_label
  6
DASHED2
 48
5.0
370
     0
100
AcDbVertex
100
AcDb2dVertex
 10
30044.52236251946
 20
25816.60753723583
 30
0.0
  0
VERTEX
  5
538E2
330
538D6
100
AcDbEntity
  8
sink_label
  6
DASHED2
 48
5.0
370
     0
100
AcDbVertex
100
AcDb2dVertex
 10
30047.71115445537
 20
25814.22512336204
 30
0.0
  0
VERTEX
  5
538E3
330
538D6
100
AcDbEntity
  8
sink_label
  6
DASHED2
 48
5.0
370
     0
100
AcDbVertex
100
AcDb2dVertex
 10
30051.09970489114
 20
25812.13353436311
 30
0.0
  0
VERTEX
  5
538E4
330
538D6
100
AcDbEntity
  8
sink_label
  6
DASHED2
 48
5.0
370
     0
100
AcDbVertex
100
AcDb2dVertex
 10
30054.65716876432
 20
25810.35039598901
 30
0.0
  0
VERTEX
  5
538E5
330
538D6
100
AcDbEntity
  8
sink_label
  6
DASHED2
 48
5.0
370
     0
100
AcDbVertex
100
AcDb2dVertex
 10
30058.36151388747
 20
25808.88745873975
 30
0.0
  0
VERTEX
  5
538E6
330
538D6
100
AcDbEntity
  8
sink_label
  6
DASHED2
 48
5.0
370
     0
100
AcDbVertex
100
AcDb2dVertex
 10
30062.17748876055
 20
25807.75941074033
 30
0.0
  0
VERTEX
  5
538E7
330
538D6
100
AcDbEntity
  8
sink_label
  6
DASHED2
 48
5.0
370
     0
100
AcDbVertex
100
AcDb2dVertex
 10
30066.07865475857
 20
25806.97212724073
 30
0.0
  0
VERTEX
  5
538E8
330
538D6
100
AcDbEntity
  8
sink_label
  6
DASHED2
 48
5.0
370
     0
100
AcDbVertex
100
AcDb2dVertex
 10
30070.03857325651
 20
25806.53148349096
 30
0.0
  0
VERTEX
  5
538E9
330
538D6
100
AcDbEntity
  8
sink_label
  6
DASHED2
 48
5.0
370
     0
100
AcDbVertex
100
AcDb2dVertex
 10
30074.01611750456
 20
25806.443354741
 30
0.0
  0
VERTEX
  5
538EA
330
538D6
100
AcDbEntity
  8
sink_label
  6
DASHED2
 48
5.0
370
     0
100
AcDbVertex
100
AcDb2dVertex
 10
30077.9907241275
 20
25806.70480336586
 30
0.0
  0
VERTEX
  5
538EB
330
538D6
100
AcDbEntity
  8
sink_label
  6
DASHED2
 48
5.0
370
     0
100
AcDbVertex
100
AcDb2dVertex
 10
30081.92273518798
 20
25807.31876699056
 30
0.0
  0
VERTEX
  5
538EC
330
538D6
100
AcDbEntity
  8
sink_label
  6
DASHED2
 48
5.0
370
     0
100
AcDbVertex
100
AcDb2dVertex
 10
30085.78571206098
 20
25808.27937036507
 30
0.0
  0
VERTEX
  5
538ED
330
538D6
100
AcDbEntity
  8
sink_label
  6
DASHED2
 48
5.0
370
     0
100
AcDbVertex
100
AcDb2dVertex
 10
30089.54880968411
 20
25809.58073823941
 30
0.0
  0
VERTEX
  5
538EE
330
538D6
100
AcDbEntity
  8
sink_label
  6
DASHED2
 48
5.0
370
     0
100
AcDbVertex
100
AcDb2dVertex
 10
30093.18412061978
 20
25811.20230723858
 30
0.0
  0
VERTEX
  5
538EF
330
538D6
100
AcDbEntity
  8
sink_label
  6
DASHED2
 48
5.0
370
     0
100
AcDbVertex
100
AcDb2dVertex
 10
30096.66079980548
 20
25813.14113973759
 30
0.0
  0
VERTEX
  5
538F0
330
538D6
100
AcDbEntity
  8
sink_label
  6
DASHED2
 48
5.0
370
     0
100
AcDbVertex
100
AcDb2dVertex
 10
30099.95240861631
 20
25815.38254761146
 30
0.0
  0
VERTEX
  5
538F1
330
538D6
100
AcDbEntity
  8
sink_label
  6
DASHED2
 48
5.0
370
     0
100
AcDbVertex
100
AcDb2dVertex
 10
30103.03103961475
 20
25817.90302986016
 30
0.0
  0
VERTEX
  5
538F2
330
538D6
100
AcDbEntity
  8
sink_label
  6
DASHED2
 48
5.0
370
     0
100
AcDbVertex
100
AcDb2dVertex
 10
30105.87906705075
 20
25820.68789835875
 30
0.0
  0
VERTEX
  5
538F3
330
538D6
100
AcDbEntity
  8
sink_label
  6
DASHED2
 48
5.0
370
     0
100
AcDbVertex
100
AcDb2dVertex
 10
30108.4671146745
 20
25823.71071448222
 30
0.0
  0
VERTEX
  5
538F4
330
538D6
100
AcDbEntity
  8
sink_label
  6
DASHED2
 48
5.0
370
     0
100
AcDbVertex
100
AcDb2dVertex
 10
30110.77902554831
 20
25826.95091485557
 30
0.0
  0
VERTEX
  5
538F5
330
538D6
100
AcDbEntity
  8
sink_label
  6
DASHED2
 48
5.0
370
     0
100
AcDbVertex
100
AcDb2dVertex
 10
30112.7942362973
 20
25830.38499847882
 30
0.0
  0
VERTEX
  5
538F6
330
538D6
100
AcDbEntity
  8
sink_label
  6
DASHED2
 48
5.0
370
     0
100
AcDbVertex
100
AcDb2dVertex
 10
30114.49805879645
 20
25833.98065147699
 30
0.0
  0
VERTEX
  5
538F7
330
538D6
100
AcDbEntity
  8
sink_label
  6
DASHED2
 48
5.0
370
     0
100
AcDbVertex
100
AcDb2dVertex
 10
30115.87874254572
 20
25837.71731047509
 30
0.0
  0
VERTEX
  5
538F8
330
538D6
100
AcDbEntity
  8
sink_label
  6
DASHED2
 48
5.0
370
     0
100
AcDbVertex
100
AcDb2dVertex
 10
30116.92306823265
 20
25841.55678634814
 30
0.0
  0
VERTEX
  5
538F9
330
538D6
100
AcDbEntity
  8
sink_label
  6
DASHED2
 48
5.0
370
     0
100
AcDbVertex
100
AcDb2dVertex
 10
30117.6236917948
 20
25845.47851572115
 30
0.0
  0
VERTEX
  5
538FA
330
538D6
100
AcDbEntity
  8
sink_label
  6
DASHED2
 48
5.0
370
     0
100
AcDbVertex
100
AcDb2dVertex
 10
30117.97620679461
 20
25849.44137184413
 30
0.0
  0
VERTEX
  5
538FB
330
538D6
100
AcDbEntity
  8
sink_label
  6
DASHED2
 48
5.0
370
     0
100
AcDbVertex
100
AcDb2dVertex
 10
30117.97620679461
 20
25853.4218537171
 30
0.0
  0
VERTEX
  5
538FC
330
538D6
100
AcDbEntity
  8
sink_label
  6
DASHED2
 48
5.0
370
     0
100
AcDbVertex
100
AcDb2dVertex
 10
30117.6236917948
 20
25857.38764746508
 30
0.0
  0
VERTEX
  5
538FD
330
538D6
100
AcDbEntity
  8
sink_label
  6
DASHED2
 48
5.0
370
     0
100
AcDbVertex
100
AcDb2dVertex
 10
30116.92306823265
 20
25861.30643921309
 30
0.0
  0
VERTEX
  5
538FE
330
538D6
100
AcDbEntity
  8
sink_label
  6
DASHED2
 48
5.0
370
     0
100
AcDbVertex
100
AcDb2dVertex
 10
30115.87874254572
 20
25865.14885271113
 30
0.0
  0
VERTEX
  5
538FF
330
538D6
100
AcDbEntity
  8
sink_label
  6
DASHED2
 48
5.0
370
     0
100
AcDbVertex
100
AcDb2dVertex
 10
30114.49805879645
 20
25868.88257408424
 30
0.0
  0
VERTEX
  5
53900
330
538D6
100
AcDbEntity
  8
sink_label
  6
DASHED2
 48
5.0
370
     0
100
AcDbVertex
100
AcDb2dVertex
 10
30112.7942362973
 20
25872.4811647074
 30
0.0
  0
VERTEX
  5
53901
330
538D6
100
AcDbEntity
  8
sink_label
  6
DASHED2
 48
5.0
370
     0
100
AcDbVertex
100
AcDb2dVertex
 10
30110.77902554831
 20
25875.91231070566
 30
0.0
  0
VERTEX
  5
53902
330
538D6
100
AcDbEntity
  8
sink_label
  6
DASHED2
 48
5.0
370
     0
100
AcDbVertex
100
AcDb2dVertex
 10
30108.4671146745
 20
25879.15544870401
 30
0.0
  0
VERTEX
  5
53903
330
538D6
100
AcDbEntity
  8
sink_label
  6
DASHED2
 48
5.0
370
     0
100
AcDbVertex
100
AcDb2dVertex
 10
30105.87906705075
 20
25882.17826482747
 30
0.0
  0
VERTEX
  5
53904
330
538D6
100
AcDbEntity
  8
sink_label
  6
DASHED2
 48
5.0
370
     0
100
AcDbVertex
100
AcDb2dVertex
 10
30103.03103961475
 20
25884.96313332606
 30
0.0
  0
VERTEX
  5
53905
330
538D6
100
AcDbEntity
  8
sink_label
  6
DASHED2
 48
5.0
370
     0
100
AcDbVertex
100
AcDb2dVertex
 10
30099.95240861631
 20
25887.48655319977
 30
0.0
  0
VERTEX
  5
53906
330
538D6
100
AcDbEntity
  8
sink_label
  6
DASHED2
 48
5.0
370
     0
100
AcDbVertex
100
AcDb2dVertex
 10
30096.66079980548
 20
25889.72208582363
 30
0.0
  0
VERTEX
  5
53907
330
538D6
100
AcDbEntity
  8
sink_label
  6
DASHED2
 48
5.0
370
     0
100
AcDbVertex
100
AcDb2dVertex
 10
30093.18412061978
 20
25891.66385594765
 30
0.0
  0
VERTEX
  5
53908
330
538D6
100
AcDbEntity
  8
sink_label
  6
DASHED2
 48
5.0
370
     0
100
AcDbVertex
100
AcDb2dVertex
 10
30089.54880968411
 20
25893.28542494682
 30
0.0
  0
VERTEX
  5
53909
330
538D6
100
AcDbEntity
  8
sink_label
  6
DASHED2
 48
5.0
370
     0
100
AcDbVertex
100
AcDb2dVertex
 10
30085.78571206098
 20
25894.58385519616
 30
0.0
  0
VERTEX
  5
5390A
330
538D6
100
AcDbEntity
  8
sink_label
  6
DASHED2
 48
5.0
370
     0
100
AcDbVertex
100
AcDb2dVertex
 10
30081.92273518798
 20
25895.54152094568
 30
0.0
  0
VERTEX
  5
5390B
330
538D6
100
AcDbEntity
  8
sink_label
  6
DASHED2
 48
5.0
370
     0
100
AcDbVertex
100
AcDb2dVertex
 10
30077.9907241275
 20
25896.15842219536
 30
0.0
  0
VERTEX
  5
5390C
330
538D6
100
AcDbEntity
  8
sink_label
  6
DASHED2
 48
5.0
370
     0
100
AcDbVertex
100
AcDb2dVertex
 10
30074.01611750456
 20
25896.41987082023
 30
0.0
  0
VERTEX
  5
5390D
330
538D6
100
AcDbEntity
  8
sink_label
  6
DASHED2
 48
5.0
370
     0
100
AcDbVertex
100
AcDb2dVertex
 10
30070.03857325651
 20
25896.33174207027
 30
0.0
  0
VERTEX
  5
5390E
330
538D6
100
AcDbEntity
  8
sink_label
  6
DASHED2
 48
5.0
370
     0
100
AcDbVertex
100
AcDb2dVertex
 10
30066.07865475857
 20
25895.89403594549
 30
0.0
  0
VERTEX
  5
5390F
330
538D6
100
AcDbEntity
  8
sink_label
  6
DASHED2
 48
5.0
370
     0
100
AcDbVertex
100
AcDb2dVertex
 10
30062.17748876055
 20
25895.10675244589
 30
0.0
  0
VERTEX
  5
53910
330
538D6
100
AcDbEntity
  8
sink_label
  6
DASHED2
 48
5.0
370
     0
100
AcDbVertex
100
AcDb2dVertex
 10
30058.36151388747
 20
25893.97576682147
 30
0.0
  0
VERTEX
  5
53911
330
538D6
100
AcDbEntity
  8
sink_label
  6
DASHED2
 48
5.0
370
     0
100
AcDbVertex
100
AcDb2dVertex
 10
30054.65716876432
 20
25892.51576719721
 30
0.0
  0
VERTEX
  5
53912
330
538D6
100
AcDbEntity
  8
sink_label
  6
DASHED2
 48
5.0
370
     0
100
AcDbVertex
100
AcDb2dVertex
 10
30051.09970489114
 20
25890.72969119812
 30
0.0
  0
VERTEX
  5
53913
330
538D6
100
AcDbEntity
  8
sink_label
  6
DASHED2
 48
5.0
370
     0
100
AcDbVertex
100
AcDb2dVertex
 10
30047.71115445537
 20
25888.64103982418
 30
0.0
  0
VERTEX
  5
53914
330
538D6
100
AcDbEntity
  8
sink_label
  6
DASHED2
 48
5.0
370
     0
100
AcDbVertex
100
AcDb2dVertex
 10
30044.52236251946
 20
25886.25568832539
 30
0.0
  0
VERTEX
  5
53915
330
538D6
100
AcDbEntity
  8
sink_label
  6
DASHED2
 48
5.0
370
     0
100
AcDbVertex
100
AcDb2dVertex
 10
30041.558298896
 20
25883.60301295175
 30
0.0
  0
VERTEX
  5
53916
330
538D6
100
AcDbEntity
  8
sink_label
  6
DASHED2
 48
5.0
370
     0
100
AcDbVertex
100
AcDb2dVertex
 10
30038.83658933487
 20
25880.69476420323
 30
0.0
  0
VERTEX
  5
53917
330
538D6
100
AcDbEntity
  8
sink_label
  6
DASHED2
 48
5.0
370
     0
100
AcDbVertex
100
AcDb2dVertex
 10
30036.38367246114
 20
25877.55738070482
 30
0.0
  0
VERTEX
  5
53918
330
538D6
100
AcDbEntity
  8
sink_label
  6
DASHED2
 48
5.0
370
     0
100
AcDbVertex
100
AcDb2dVertex
 10
30034.22011164977
 20
25874.22023870652
 30
0.0
  0
VERTEX
  5
53919
330
538D6
100
AcDbEntity
  8
sink_label
  6
DASHED2
 48
5.0
370
     0
100
AcDbVertex
100
AcDb2dVertex
 10
30032.35765740071
 20
25870.70096395831
 30
0.0
  0
VERTEX
  5
5391A
330
538D6
100
AcDbEntity
  8
sink_label
  6
DASHED2
 48
5.0
370
     0
100
AcDbVertex
100
AcDb2dVertex
 10
30030.81393546401
 20
25867.03187033517
 30
0.0
  0
VERTEX
  5
5391B
330
538D6
100
AcDbEntity
  8
sink_label
  6
DASHED2
 48
5.0
370
     0
100
AcDbVertex
100
AcDb2dVertex
 10
30029.59922752715
 20
25863.2393964621
 30
0.0
  0
VERTEX
  5
5391C
330
538D6
100
AcDbEntity
  8
sink_label
  6
DASHED2
 48
5.0
370
     0
100
AcDbVertex
100
AcDb2dVertex
 10
30028.72528409003
 20
25859.35585621409
 30
0.0
  0
VERTEX
  5
5391D
330
538D6
100
AcDbEntity
  8
sink_label
  6
DASHED2
 48
5.0
370
     0
100
AcDbVertex
100
AcDb2dVertex
 10
30028.20091802778
 20
25855.41062584109
 30
0.0
  0
SEQEND
  5
5391E
330
538D6
100
AcDbEntity
  8
sink_label
  6
DASHED2
 48
5.0
370
     0
  0
POLYLINE
  5
5391F
330
52C18
100
AcDbEntity
  8
sink_label
  6
DASHED2
 48
5.0
370
     0
100
AcDb2dPolyline
 66
     1
 10
0.0
 20
0.0
 30
0.0
 70
     1
  0
VERTEX
  5
53920
330
5391F
100
AcDbEntity
  8
sink_label
  6
DASHED2
 48
5.0
370
     0
100
AcDbVertex
100
AcDb2dVertex
 10
30126.63045004021
 20
25851.43308159311
 30
0.0
  0
VERTEX
  5
53921
330
5391F
100
AcDbEntity
  8
sink_label
  6
DASHED2
 48
5.0
370
     0
100
AcDbVertex
100
AcDb2dVertex
 10
30126.45125491532
 20
25855.7954547159
 30
0.0
  0
VERTEX
  5
53922
330
5391F
100
AcDbEntity
  8
sink_label
  6
DASHED2
 48
5.0
370
     0
100
AcDbVertex
100
AcDb2dVertex
 10
30125.91807597811
 20
25860.12845158869
 30
0.0
  0
VERTEX
  5
53923
330
5391F
100
AcDbEntity
  8
sink_label
  6
DASHED2
 48
5.0
370
     0
100
AcDbVertex
100
AcDb2dVertex
 10
30125.03385085356
 20
25864.40563358652
 30
0.0
  0
VERTEX
  5
53924
330
5391F
100
AcDbEntity
  8
sink_label
  6
DASHED2
 48
5.0
370
     0
100
AcDbVertex
100
AcDb2dVertex
 10
30123.80445479164
 20
25868.59762445938
 30
0.0
  0
VERTEX
  5
53925
330
5391F
100
AcDbEntity
  8
sink_label
  6
DASHED2
 48
5.0
370
     0
100
AcDbVertex
100
AcDb2dVertex
 10
30122.23429422994
 20
25872.6750479573
 30
0.0
  0
VERTEX
  5
53926
330
5391F
100
AcDbEntity
  8
sink_label
  6
DASHED2
 48
5.0
370
     0
100
AcDbVertex
100
AcDb2dVertex
 10
30120.33952610596
 20
25876.60852783031
 30
0.0
  0
VERTEX
  5
53927
330
5391F
100
AcDbEntity
  8
sink_label
  6
DASHED2
 48
5.0
370
     0
100
AcDbVertex
100
AcDb2dVertex
 10
30118.1319009196
 20
25880.37750070339
 30
0.0
  0
VERTEX
  5
53928
330
5391F
100
AcDbEntity
  8
sink_label
  6
DASHED2
 48
5.0
370
     0
100
AcDbVertex
100
AcDb2dVertex
 10
30115.62170035834
 20
25883.95259032657
 30
0.0
  0
VERTEX
  5
53929
330
5391F
100
AcDbEntity
  8
sink_label
  6
DASHED2
 48
5.0
370
     0
100
AcDbVertex
100
AcDb2dVertex
 10
30112.82948779727
 20
25887.31029569987
 30
0.0
  0
VERTEX
  5
5392A
330
5391F
100
AcDbEntity
  8
sink_label
  6
DASHED2
 48
5.0
370
     0
100
AcDbVertex
100
AcDb2dVertex
 10
30109.77435779885
 20
25890.43005344827
 30
0.0
  0
VERTEX
  5
5392B
330
5391F
100
AcDbEntity
  8
sink_label
  6
DASHED2
 48
5.0
370
     0
100
AcDbVertex
100
AcDb2dVertex
 10
30106.47246730048
 20
25893.28836257182
 30
0.0
  0
VERTEX
  5
5392C
330
5391F
100
AcDbEntity
  8
sink_label
  6
DASHED2
 48
5.0
370
     0
100
AcDbVertex
100
AcDb2dVertex
 10
30102.95172373973
 20
25895.8705349455
 30
0.0
  0
VERTEX
  5
5392D
330
5391F
100
AcDbEntity
  8
sink_label
  6
DASHED2
 48
5.0
370
     0
100
AcDbVertex
100
AcDb2dVertex
 10
30099.22975286672
 20
25898.15306956934
 30
0.0
  0
VERTEX
  5
5392E
330
5391F
100
AcDbEntity
  8
sink_label
  6
DASHED2
 48
5.0
370
     0
100
AcDbVertex
100
AcDb2dVertex
 10
30095.33299330616
 20
25900.13009119334
 30
0.0
  0
VERTEX
  5
5392F
330
5391F
100
AcDbEntity
  8
sink_label
  6
DASHED2
 48
5.0
370
     0
100
AcDbVertex
100
AcDb2dVertex
 10
30091.2908213082
 20
25901.7810364425
 30
0.0
  0
VERTEX
  5
53930
330
5391F
100
AcDbEntity
  8
sink_label
  6
DASHED2
 48
5.0
370
     0
100
AcDbVertex
100
AcDb2dVertex
 10
30087.12673787283
 20
25903.09709244184
 30
0.0
  0
VERTEX
  5
53931
330
5391F
100
AcDbEntity
  8
sink_label
  6
DASHED2
 48
5.0
370
     0
100
AcDbVertex
100
AcDb2dVertex
 10
30082.8686504375
 20
25904.06944631634
 30
0.0
  0
VERTEX
  5
53932
330
5391F
100
AcDbEntity
  8
sink_label
  6
DASHED2
 48
5.0
370
     0
100
AcDbVertex
100
AcDb2dVertex
 10
30078.54740406467
 20
25904.69222281602
 30
0.0
  0
VERTEX
  5
53933
330
5391F
100
AcDbEntity
  8
sink_label
  6
DASHED2
 48
5.0
370
     0
100
AcDbVertex
100
AcDb2dVertex
 10
30074.18649975443
 20
25904.95660906589
 30
0.0
  0
VERTEX
  5
53934
330
5391F
100
AcDbEntity
  8
sink_label
  6
DASHED2
 48
5.0
370
     0
100
AcDbVertex
100
AcDb2dVertex
 10
30069.82265781913
 20
25904.86848031593
 30
0.0
  0
VERTEX
  5
53935
330
5391F
100
AcDbEntity
  8
sink_label
  6
DASHED2
 48
5.0
370
     0
100
AcDbVertex
100
AcDb2dVertex
 10
30065.47644163382
 20
25904.42196131616
 30
0.0
  0
VERTEX
  5
53936
330
5391F
100
AcDbEntity
  8
sink_label
  6
DASHED2
 48
5.0
370
     0
100
AcDbVertex
100
AcDb2dVertex
 10
30061.18310269852
 20
25903.62586494156
 30
0.0
  0
VERTEX
  5
53937
330
5391F
100
AcDbEntity
  8
sink_label
  6
DASHED2
 48
5.0
370
     0
100
AcDbVertex
100
AcDb2dVertex
 10
30056.96907963819
 20
25902.48019119214
 30
0.0
  0
VERTEX
  5
53938
330
5391F
100
AcDbEntity
  8
sink_label
  6
DASHED2
 48
5.0
370
     0
100
AcDbVertex
100
AcDb2dVertex
 10
30052.86081107775
 20
25900.9966905679
 30
0.0
  0
VERTEX
  5
53939
330
5391F
100
AcDbEntity
  8
sink_label
  6
DASHED2
 48
5.0
370
     0
100
AcDbVertex
100
AcDb2dVertex
 10
30048.89061089226
 20
25899.18123831882
 30
0.0
  0
VERTEX
  5
5393A
330
5391F
100
AcDbEntity
  8
sink_label
  6
DASHED2
 48
5.0
370
     0
100
AcDbVertex
100
AcDb2dVertex
 10
30045.07610483176
 20
25897.05146019491
 30
0.0
  0
VERTEX
  5
5393B
330
5391F
100
AcDbEntity
  8
sink_label
  6
DASHED2
 48
5.0
370
     0
100
AcDbVertex
100
AcDb2dVertex
 10
30041.45254439604
 20
25894.61323144615
 30
0.0
  0
VERTEX
  5
5393C
330
5391F
100
AcDbEntity
  8
sink_label
  6
DASHED2
 48
5.0
370
     0
100
AcDbVertex
100
AcDb2dVertex
 10
30038.03902414784
 20
25891.89299069753
 30
0.0
  0
VERTEX
  5
5393D
330
5391F
100
AcDbEntity
  8
sink_label
  6
DASHED2
 48
5.0
370
     0
100
AcDbVertex
100
AcDb2dVertex
 10
30034.85757627442
 20
25888.89955082405
 30
0.0
  0
VERTEX
  5
5393E
330
5391F
100
AcDbEntity
  8
sink_label
  6
DASHED2
 48
5.0
370
     0
100
AcDbVertex
100
AcDb2dVertex
 10
30031.93317058839
 20
25885.65935045071
 30
0.0
  0
VERTEX
  5
5393F
330
5391F
100
AcDbEntity
  8
sink_label
  6
DASHED2
 48
5.0
370
     0
100
AcDbVertex
100
AcDb2dVertex
 10
30029.2804952148
 20
25882.18707770247
 30
0.0
  0
VERTEX
  5
53940
330
5391F
100
AcDbEntity
  8
sink_label
  6
DASHED2
 48
5.0
370
     0
100
AcDbVertex
100
AcDb2dVertex
 10
30026.91864471597
 20
25878.51504645434
 30
0.0
  0
VERTEX
  5
53941
330
5391F
100
AcDbEntity
  8
sink_label
  6
DASHED2
 48
5.0
370
     0
100
AcDbVertex
100
AcDb2dVertex
 10
30024.86377602949
 20
25874.6608824563
 30
0.0
  0
VERTEX
  5
53942
330
5391F
100
AcDbEntity
  8
sink_label
  6
DASHED2
 48
5.0
370
     0
100
AcDbVertex
100
AcDb2dVertex
 10
30023.13204609288
 20
25870.65396195833
 30
0.0
  0
VERTEX
  5
53943
330
5391F
100
AcDbEntity
  8
sink_label
  6
DASHED2
 48
5.0
370
     0
100
AcDbVertex
100
AcDb2dVertex
 10
30021.7322677811
 20
25866.51484833544
 30
0.0
  0
VERTEX
  5
53944
330
5391F
100
AcDbEntity
  8
sink_label
  6
DASHED2
 48
5.0
370
     0
100
AcDbVertex
100
AcDb2dVertex
 10
30020.67178515664
 20
25862.2787930876
 30
0.0
  0
VERTEX
  5
53945
330
5391F
100
AcDbEntity
  8
sink_label
  6
DASHED2
 48
5.0
370
     0
100
AcDbVertex
100
AcDb2dVertex
 10
30019.96381753205
 20
25857.96929721479
 30
0.0
  0
VERTEX
  5
53946
330
5391F
100
AcDbEntity
  8
sink_label
  6
DASHED2
 48
5.0
370
     0
100
AcDbVertex
100
AcDb2dVertex
 10
30019.60689609468
 20
25853.61573696701
 30
0.0
  0
VERTEX
  5
53947
330
5391F
100
AcDbEntity
  8
sink_label
  6
DASHED2
 48
5.0
370
     0
100
AcDbVertex
100
AcDb2dVertex
 10
30019.60689609468
 20
25849.24748859422
 30
0.0
  0
VERTEX
  5
53948
330
5391F
100
AcDbEntity
  8
sink_label
  6
DASHED2
 48
5.0
370
     0
100
AcDbVertex
100
AcDb2dVertex
 10
30019.96381753205
 20
25844.89686597144
 30
0.0
  0
VERTEX
  5
53949
330
5391F
100
AcDbEntity
  8
sink_label
  6
DASHED2
 48
5.0
370
     0
100
AcDbVertex
100
AcDb2dVertex
 10
30020.67178515664
 20
25840.58737009863
 30
0.0
  0
VERTEX
  5
5394A
330
5391F
100
AcDbEntity
  8
sink_label
  6
DASHED2
 48
5.0
370
     0
100
AcDbVertex
100
AcDb2dVertex
 10
30021.7322677811
 20
25836.35131485078
 30
0.0
  0
VERTEX
  5
5394B
330
5391F
100
AcDbEntity
  8
sink_label
  6
DASHED2
 48
5.0
370
     0
100
AcDbVertex
100
AcDb2dVertex
 10
30023.13204609288
 20
25832.21220122789
 30
0.0
  0
VERTEX
  5
5394C
330
5391F
100
AcDbEntity
  8
sink_label
  6
DASHED2
 48
5.0
370
     0
100
AcDbVertex
100
AcDb2dVertex
 10
30024.86377602949
 20
25828.20528072994
 30
0.0
  0
VERTEX
  5
5394D
330
5391F
100
AcDbEntity
  8
sink_label
  6
DASHED2
 48
5.0
370
     0
100
AcDbVertex
100
AcDb2dVertex
 10
30026.91864471597
 20
25824.3511167319
 30
0.0
  0
VERTEX
  5
5394E
330
5391F
100
AcDbEntity
  8
sink_label
  6
DASHED2
 48
5.0
370
     0
100
AcDbVertex
100
AcDb2dVertex
 10
30029.2804952148
 20
25820.67614785876
 30
0.0
  0
VERTEX
  5
5394F
330
5391F
100
AcDbEntity
  8
sink_label
  6
DASHED2
 48
5.0
370
     0
100
AcDbVertex
100
AcDb2dVertex
 10
30031.93317058839
 20
25817.20681273553
 30
0.0
  0
VERTEX
  5
53950
330
5391F
100
AcDbEntity
  8
sink_label
  6
DASHED2
 48
5.0
370
     0
100
AcDbVertex
100
AcDb2dVertex
 10
30034.85757627442
 20
25813.96367473718
 30
0.0
  0
VERTEX
  5
53951
330
5391F
100
AcDbEntity
  8
sink_label
  6
DASHED2
 48
5.0
370
     0
100
AcDbVertex
100
AcDb2dVertex
 10
30038.03902414784
 20
25810.9731724887
 30
0.0
  0
VERTEX
  5
53952
330
5391F
100
AcDbEntity
  8
sink_label
  6
DASHED2
 48
5.0
370
     0
100
AcDbVertex
100
AcDb2dVertex
 10
30041.45254439604
 20
25808.24999411508
 30
0.0
  0
VERTEX
  5
53953
330
5391F
100
AcDbEntity
  8
sink_label
  6
DASHED2
 48
5.0
370
     0
100
AcDbVertex
100
AcDb2dVertex
 10
30045.07610483176
 20
25805.81470299132
 30
0.0
  0
VERTEX
  5
53954
330
5391F
100
AcDbEntity
  8
sink_label
  6
DASHED2
 48
5.0
370
     0
100
AcDbVertex
100
AcDb2dVertex
 10
30048.89061089226
 20
25803.6819872424
 30
0.0
  0
VERTEX
  5
53955
330
5391F
100
AcDbEntity
  8
sink_label
  6
DASHED2
 48
5.0
370
     0
100
AcDbVertex
100
AcDb2dVertex
 10
30052.86081107775
 20
25801.86947261832
 30
0.0
  0
VERTEX
  5
53956
330
5391F
100
AcDbEntity
  8
sink_label
  6
DASHED2
 48
5.0
370
     0
100
AcDbVertex
100
AcDb2dVertex
 10
30056.96907963819
 20
25800.38597199408
 30
0.0
  0
VERTEX
  5
53957
330
5391F
100
AcDbEntity
  8
sink_label
  6
DASHED2
 48
5.0
370
     0
100
AcDbVertex
100
AcDb2dVertex
 10
30061.18310269852
 20
25799.23736061966
 30
0.0
  0
VERTEX
  5
53958
330
5391F
100
AcDbEntity
  8
sink_label
  6
DASHED2
 48
5.0
370
     0
100
AcDbVertex
100
AcDb2dVertex
 10
30065.47644163382
 20
25798.44126424508
 30
0.0
  0
VERTEX
  5
53959
330
5391F
100
AcDbEntity
  8
sink_label
  6
DASHED2
 48
5.0
370
     0
100
AcDbVertex
100
AcDb2dVertex
 10
30069.82265781913
 20
25797.99768287029
 30
0.0
  0
VERTEX
  5
5395A
330
5391F
100
AcDbEntity
  8
sink_label
  6
DASHED2
 48
5.0
370
     0
100
AcDbVertex
100
AcDb2dVertex
 10
30074.18649975443
 20
25797.90955412034
 30
0.0
  0
VERTEX
  5
5395B
330
5391F
100
AcDbEntity
  8
sink_label
  6
DASHED2
 48
5.0
370
     0
100
AcDbVertex
100
AcDb2dVertex
 10
30078.54740406467
 20
25798.17394037021
 30
0.0
  0
VERTEX
  5
5395C
330
5391F
100
AcDbEntity
  8
sink_label
  6
DASHED2
 48
5.0
370
     0
100
AcDbVertex
100
AcDb2dVertex
 10
30082.8686504375
 20
25798.7967168699
 30
0.0
  0
VERTEX
  5
5395D
330
5391F
100
AcDbEntity
  8
sink_label
  6
DASHED2
 48
5.0
370
     0
100
AcDbVertex
100
AcDb2dVertex
 10
30087.12673787283
 20
25799.7690707444
 30
0.0
  0
VERTEX
  5
5395E
330
5391F
100
AcDbEntity
  8
sink_label
  6
DASHED2
 48
5.0
370
     0
100
AcDbVertex
100
AcDb2dVertex
 10
30091.2908213082
 20
25801.08512674373
 30
0.0
  0
VERTEX
  5
5395F
330
5391F
100
AcDbEntity
  8
sink_label
  6
DASHED2
 48
5.0
370
     0
100
AcDbVertex
100
AcDb2dVertex
 10
30095.33299330616
 20
25802.73313436789
 30
0.0
  0
VERTEX
  5
53960
330
5391F
100
AcDbEntity
  8
sink_label
  6
DASHED2
 48
5.0
370
     0
100
AcDbVertex
100
AcDb2dVertex
 10
30099.22975286672
 20
25804.70721836689
 30
0.0
  0
VERTEX
  5
53961
330
5391F
100
AcDbEntity
  8
sink_label
  6
DASHED2
 48
5.0
370
     0
100
AcDbVertex
100
AcDb2dVertex
 10
30102.95172373973
 20
25806.99269061573
 30
0.0
  0
VERTEX
  5
53962
330
5391F
100
AcDbEntity
  8
sink_label
  6
DASHED2
 48
5.0
370
     0
100
AcDbVertex
100
AcDb2dVertex
 10
30106.47246730048
 20
25809.5748629894
 30
0.0
  0
VERTEX
  5
53963
330
5391F
100
AcDbEntity
  8
sink_label
  6
DASHED2
 48
5.0
370
     0
100
AcDbVertex
100
AcDb2dVertex
 10
30109.77435779885
 20
25812.43610973795
 30
0.0
  0
VERTEX
  5
53964
330
5391F
100
AcDbEntity
  8
sink_label
  6
DASHED2
 48
5.0
370
     0
100
AcDbVertex
100
AcDb2dVertex
 10
30112.82948779727
 20
25815.55586748637
 30
0.0
  0
VERTEX
  5
53965
330
5391F
100
AcDbEntity
  8
sink_label
  6
DASHED2
 48
5.0
370
     0
100
AcDbVertex
100
AcDb2dVertex
 10
30115.62170035834
 20
25818.91357285965
 30
0.0
  0
VERTEX
  5
53966
330
5391F
100
AcDbEntity
  8
sink_label
  6
DASHED2
 48
5.0
370
     0
100
AcDbVertex
100
AcDb2dVertex
 10
30118.1319009196
 20
25822.48866248284
 30
0.0
  0
VERTEX
  5
53967
330
5391F
100
AcDbEntity
  8
sink_label
  6
DASHED2
 48
5.0
370
     0
100
AcDbVertex
100
AcDb2dVertex
 10
30120.33952610596
 20
25826.25763535592
 30
0.0
  0
VERTEX
  5
53968
330
5391F
100
AcDbEntity
  8
sink_label
  6
DASHED2
 48
5.0
370
     0
100
AcDbVertex
100
AcDb2dVertex
 10
30122.23429422994
 20
25830.19111522892
 30
0.0
  0
VERTEX
  5
53969
330
5391F
100
AcDbEntity
  8
sink_label
  6
DASHED2
 48
5.0
370
     0
100
AcDbVertex
100
AcDb2dVertex
 10
30123.80445479164
 20
25834.26560110185
 30
0.0
  0
VERTEX
  5
5396A
330
5391F
100
AcDbEntity
  8
sink_label
  6
DASHED2
 48
5.0
370
     0
100
AcDbVertex
100
AcDb2dVertex
 10
30125.03385085356
 20
25838.45759197472
 30
0.0
  0
VERTEX
  5
5396B
330
5391F
100
AcDbEntity
  8
sink_label
  6
DASHED2
 48
5.0
370
     0
100
AcDbVertex
100
AcDb2dVertex
 10
30125.91807597811
 20
25842.73477397254
 30
0.0
  0
VERTEX
  5
5396C
330
5391F
100
AcDbEntity
  8
sink_label
  6
DASHED2
 48
5.0
370
     0
100
AcDbVertex
100
AcDb2dVertex
 10
30126.45125491532
 20
25847.06777084534
 30
0.0
  0
SEQEND
  5
5396D
330
5391F
100
AcDbEntity
  8
sink_label
  6
DASHED2
 48
5.0
370
     0
  0
POLYLINE
  5
5396E
330
52C18
100
AcDbEntity
  8
sink_label
  6
DASHED2
 48
5.0
370
     0
100
AcDb2dPolyline
 66
     1
 10
0.0
 20
0.0
 30
0.0
 70
     1
  0
VERTEX
  5
5396F
330
5396E
100
AcDbEntity
  8
sink_label
  6
DASHED2
 48
5.0
370
     0
100
AcDbVertex
100
AcDb2dVertex
 10
30130.17763222596
 20
25851.43308159311
 30
0.0
  0
VERTEX
  5
53970
330
5396E
100
AcDbEntity
  8
sink_label
  6
DASHED2
 48
5.0
370
     0
100
AcDbVertex
100
AcDb2dVertex
 10
30130.001374726
 20
25846.95320347039
 30
0.0
  0
VERTEX
  5
53971
330
5396E
100
AcDbEntity
  8
sink_label
  6
DASHED2
 48
5.0
370
     0
100
AcDbVertex
100
AcDb2dVertex
 10
30129.47553985129
 20
25842.50563922266
 30
0.0
  0
VERTEX
  5
53972
330
5396E
100
AcDbEntity
  8
sink_label
  6
DASHED2
 48
5.0
370
     0
100
AcDbVertex
100
AcDb2dVertex
 10
30128.60159641422
 20
25838.10801459989
 30
0.0
  0
VERTEX
  5
53973
330
5396E
100
AcDbEntity
  8
sink_label
  6
DASHED2
 48
5.0
370
     0
100
AcDbVertex
100
AcDb2dVertex
 10
30127.38395085237
 20
25833.79558110208
 30
0.0
  0
VERTEX
  5
53974
330
5396E
100
AcDbEntity
  8
sink_label
  6
DASHED2
 48
5.0
370
     0
100
AcDbVertex
100
AcDb2dVertex
 10
30125.83435366564
 20
25829.59183972922
 30
0.0
  0
VERTEX
  5
53975
330
5396E
100
AcDbEntity
  8
sink_label
  6
DASHED2
 48
5.0
370
     0
100
AcDbVertex
100
AcDb2dVertex
 10
30123.95721129159
 20
25825.52322910629
 30
0.0
  0
VERTEX
  5
53976
330
5396E
100
AcDbEntity
  8
sink_label
  6
DASHED2
 48
5.0
370
     0
100
AcDbVertex
100
AcDb2dVertex
 10
30121.76721185521
 20
25821.61325023328
 30
0.0
  0
VERTEX
  5
53977
330
5396E
100
AcDbEntity
  8
sink_label
  6
DASHED2
 48
5.0
370
     0
100
AcDbVertex
100
AcDb2dVertex
 10
30119.27904348145
 20
25817.88540411018
 30
0.0
  0
VERTEX
  5
53978
330
5396E
100
AcDbEntity
  8
sink_label
  6
DASHED2
 48
5.0
370
     0
100
AcDbVertex
100
AcDb2dVertex
 10
30116.50445667036
 20
25814.36906698697
 30
0.0
  0
VERTEX
  5
53979
330
5396E
100
AcDbEntity
  8
sink_label
  6
DASHED2
 48
5.0
370
     0
100
AcDbVertex
100
AcDb2dVertex
 10
30113.46254598442
 20
25811.07598936364
 30
0.0
  0
VERTEX
  5
5397A
330
5396E
100
AcDbEntity
  8
sink_label
  6
DASHED2
 48
5.0
370
     0
100
AcDbVertex
100
AcDb2dVertex
 10
30110.17093717364
 20
25808.0355474902
 30
0.0
  0
VERTEX
  5
5397B
330
5396E
100
AcDbEntity
  8
sink_label
  6
DASHED2
 48
5.0
370
     0
100
AcDbVertex
100
AcDb2dVertex
 10
30106.65313123789
 20
25805.25949186661
 30
0.0
  0
VERTEX
  5
5397C
330
5396E
100
AcDbEntity
  8
sink_label
  6
DASHED2
 48
5.0
370
     0
100
AcDbVertex
100
AcDb2dVertex
 10
30102.92822273983
 20
25802.77132349287
 30
0.0
  0
VERTEX
  5
5397D
330
5396E
100
AcDbEntity
  8
sink_label
  6
DASHED2
 48
5.0
370
     0
100
AcDbVertex
100
AcDb2dVertex
 10
30099.01677505433
 20
25800.58279286898
 30
0.0
  0
VERTEX
  5
5397E
330
5396E
100
AcDbEntity
  8
sink_label
  6
DASHED2
 48
5.0
370
     0
100
AcDbVertex
100
AcDb2dVertex
 10
30094.94816443137
 20
25798.70271286993
 30
0.0
  0
VERTEX
  5
5397F
330
5396E
100
AcDbEntity
  8
sink_label
  6
DASHED2
 48
5.0
370
     0
100
AcDbVertex
100
AcDb2dVertex
 10
30090.74295424599
 20
25797.15458449573
 30
0.0
  0
VERTEX
  5
53980
330
5396E
100
AcDbEntity
  8
sink_label
  6
DASHED2
 48
5.0
370
     0
100
AcDbVertex
100
AcDb2dVertex
 10
30086.43052074819
 20
25795.93840774634
 30
0.0
  0
VERTEX
  5
53981
330
5396E
100
AcDbEntity
  8
sink_label
  6
DASHED2
 48
5.0
370
     0
100
AcDbVertex
100
AcDb2dVertex
 10
30082.03436493792
 20
25795.06593312179
 30
0.0
  0
VERTEX
  5
53982
330
5396E
100
AcDbEntity
  8
sink_label
  6
DASHED2
 48
5.0
370
     0
100
AcDbVertex
100
AcDb2dVertex
 10
30077.58533187775
 20
25794.53716062206
 30
0.0
  0
VERTEX
  5
53983
330
5396E
100
AcDbEntity
  8
sink_label
  6
DASHED2
 48
5.0
370
     0
100
AcDbVertex
100
AcDb2dVertex
 10
30073.10986019245
 20
25794.36090312214
 30
0.0
  0
VERTEX
  5
53984
330
5396E
100
AcDbEntity
  8
sink_label
  6
DASHED2
 48
5.0
370
     0
100
AcDbVertex
100
AcDb2dVertex
 10
30068.63145088223
 20
25794.53716062206
 30
0.0
  0
VERTEX
  5
53985
330
5396E
100
AcDbEntity
  8
sink_label
  6
DASHED2
 48
5.0
370
     0
100
AcDbVertex
100
AcDb2dVertex
 10
30064.18094900954
 20
25795.06593312179
 30
0.0
  0
VERTEX
  5
53986
330
5396E
100
AcDbEntity
  8
sink_label
  6
DASHED2
 48
5.0
370
     0
100
AcDbVertex
100
AcDb2dVertex
 10
30059.78479319927
 20
25795.93840774634
 30
0.0
  0
VERTEX
  5
53987
330
5396E
100
AcDbEntity
  8
sink_label
  6
DASHED2
 48
5.0
370
     0
100
AcDbVertex
100
AcDb2dVertex
 10
30055.47235970146
 20
25797.15458449573
 30
0.0
  0
VERTEX
  5
53988
330
5396E
100
AcDbEntity
  8
sink_label
  6
DASHED2
 48
5.0
370
     0
100
AcDbVertex
100
AcDb2dVertex
 10
30051.26861832855
 20
25798.70271286993
 30
0.0
  0
VERTEX
  5
53989
330
5396E
100
AcDbEntity
  8
sink_label
  6
DASHED2
 48
5.0
370
     0
100
AcDbVertex
100
AcDb2dVertex
 10
30047.20000770559
 20
25800.58279286898
 30
0.0
  0
VERTEX
  5
5398A
330
5396E
100
AcDbEntity
  8
sink_label
  6
DASHED2
 48
5.0
370
     0
100
AcDbVertex
100
AcDb2dVertex
 10
30043.28856002015
 20
25802.77132349287
 30
0.0
  0
VERTEX
  5
5398B
330
5396E
100
AcDbEntity
  8
sink_label
  6
DASHED2
 48
5.0
370
     0
100
AcDbVertex
100
AcDb2dVertex
 10
30039.56365152197
 20
25805.25949186661
 30
0.0
  0
VERTEX
  5
5398C
330
5396E
100
AcDbEntity
  8
sink_label
  6
DASHED2
 48
5.0
370
     0
100
AcDbVertex
100
AcDb2dVertex
 10
30036.04584558628
 20
25808.0355474902
 30
0.0
  0
VERTEX
  5
5398D
330
5396E
100
AcDbEntity
  8
sink_label
  6
DASHED2
 48
5.0
370
     0
100
AcDbVertex
100
AcDb2dVertex
 10
30032.75570558797
 20
25811.07598936364
 30
0.0
  0
VERTEX
  5
5398E
330
5396E
100
AcDbEntity
  8
sink_label
  6
DASHED2
 48
5.0
370
     0
100
AcDbVertex
100
AcDb2dVertex
 10
30029.71379490208
 20
25814.36906698697
 30
0.0
  0
VERTEX
  5
5398F
330
5396E
100
AcDbEntity
  8
sink_label
  6
DASHED2
 48
5.0
370
     0
100
AcDbVertex
100
AcDb2dVertex
 10
30026.93920809094
 20
25817.88540411018
 30
0.0
  0
VERTEX
  5
53990
330
5396E
100
AcDbEntity
  8
sink_label
  6
DASHED2
 48
5.0
370
     0
100
AcDbVertex
100
AcDb2dVertex
 10
30024.44957090471
 20
25821.61325023328
 30
0.0
  0
VERTEX
  5
53991
330
5396E
100
AcDbEntity
  8
sink_label
  6
DASHED2
 48
5.0
370
     0
100
AcDbVertex
100
AcDb2dVertex
 10
30022.25957146833
 20
25825.52322910629
 30
0.0
  0
VERTEX
  5
53992
330
5396E
100
AcDbEntity
  8
sink_label
  6
DASHED2
 48
5.0
370
     0
100
AcDbVertex
100
AcDb2dVertex
 10
30020.38389790675
 20
25829.59183972922
 30
0.0
  0
VERTEX
  5
53993
330
5396E
100
AcDbEntity
  8
sink_label
  6
DASHED2
 48
5.0
370
     0
100
AcDbVertex
100
AcDb2dVertex
 10
30018.83283190755
 20
25833.79558110208
 30
0.0
  0
VERTEX
  5
53994
330
5396E
100
AcDbEntity
  8
sink_label
  6
DASHED2
 48
5.0
370
     0
100
AcDbVertex
100
AcDb2dVertex
 10
30017.6151863457
 20
25838.10801459989
 30
0.0
  0
VERTEX
  5
53995
330
5396E
100
AcDbEntity
  8
sink_label
  6
DASHED2
 48
5.0
370
     0
100
AcDbVertex
100
AcDb2dVertex
 10
30016.74271172116
 20
25842.50563922266
 30
0.0
  0
VERTEX
  5
53996
330
5396E
100
AcDbEntity
  8
sink_label
  6
DASHED2
 48
5.0
370
     0
100
AcDbVertex
100
AcDb2dVertex
 10
30016.21393922145
 20
25846.95320347039
 30
0.0
  0
VERTEX
  5
53997
330
5396E
100
AcDbEntity
  8
sink_label
  6
DASHED2
 48
5.0
370
     0
100
AcDbVertex
100
AcDb2dVertex
 10
30016.04061934648
 20
25851.43308159311
 30
0.0
  0
VERTEX
  5
53998
330
5396E
100
AcDbEntity
  8
sink_label
  6
DASHED2
 48
5.0
370
     0
100
AcDbVertex
100
AcDb2dVertex
 10
30016.21393922145
 20
25855.91002209084
 30
0.0
  0
VERTEX
  5
53999
330
5396E
100
AcDbEntity
  8
sink_label
  6
DASHED2
 48
5.0
370
     0
100
AcDbVertex
100
AcDb2dVertex
 10
30016.74271172116
 20
25860.36052396357
 30
0.0
  0
VERTEX
  5
5399A
330
5396E
100
AcDbEntity
  8
sink_label
  6
DASHED2
 48
5.0
370
     0
100
AcDbVertex
100
AcDb2dVertex
 10
30017.6151863457
 20
25864.75521096133
 30
0.0
  0
VERTEX
  5
5399B
330
5396E
100
AcDbEntity
  8
sink_label
  6
DASHED2
 48
5.0
370
     0
100
AcDbVertex
100
AcDb2dVertex
 10
30018.83283190755
 20
25869.06764445914
 30
0.0
  0
VERTEX
  5
5399C
330
5396E
100
AcDbEntity
  8
sink_label
  6
DASHED2
 48
5.0
370
     0
100
AcDbVertex
100
AcDb2dVertex
 10
30020.38389790675
 20
25873.271385832
 30
0.0
  0
VERTEX
  5
5399D
330
5396E
100
AcDbEntity
  8
sink_label
  6
DASHED2
 48
5.0
370
     0
100
AcDbVertex
100
AcDb2dVertex
 10
30022.25957146833
 20
25877.34293407993
 30
0.0
  0
VERTEX
  5
5399E
330
5396E
100
AcDbEntity
  8
sink_label
  6
DASHED2
 48
5.0
370
     0
100
AcDbVertex
100
AcDb2dVertex
 10
30024.44957090471
 20
25881.25291295294
 30
0.0
  0
VERTEX
  5
5399F
330
5396E
100
AcDbEntity
  8
sink_label
  6
DASHED2
 48
5.0
370
     0
100
AcDbVertex
100
AcDb2dVertex
 10
30026.93920809094
 20
25884.97782145105
 30
0.0
  0
VERTEX
  5
539A0
330
5396E
100
AcDbEntity
  8
sink_label
  6
DASHED2
 48
5.0
370
     0
100
AcDbVertex
100
AcDb2dVertex
 10
30029.71379490208
 20
25888.49709619926
 30
0.0
  0
VERTEX
  5
539A1
330
5396E
100
AcDbEntity
  8
sink_label
  6
DASHED2
 48
5.0
370
     0
100
AcDbVertex
100
AcDb2dVertex
 10
30032.75570558797
 20
25891.79017382258
 30
0.0
  0
VERTEX
  5
539A2
330
5396E
100
AcDbEntity
  8
sink_label
  6
DASHED2
 48
5.0
370
     0
100
AcDbVertex
100
AcDb2dVertex
 10
30036.04584558628
 20
25894.83061569604
 30
0.0
  0
VERTEX
  5
539A3
330
5396E
100
AcDbEntity
  8
sink_label
  6
DASHED2
 48
5.0
370
     0
100
AcDbVertex
100
AcDb2dVertex
 10
30039.56365152197
 20
25897.60373369462
 30
0.0
  0
VERTEX
  5
539A4
330
5396E
100
AcDbEntity
  8
sink_label
  6
DASHED2
 48
5.0
370
     0
100
AcDbVertex
100
AcDb2dVertex
 10
30043.28856002015
 20
25900.09483969336
 30
0.0
  0
VERTEX
  5
539A5
330
5396E
100
AcDbEntity
  8
sink_label
  6
DASHED2
 48
5.0
370
     0
100
AcDbVertex
100
AcDb2dVertex
 10
30047.20000770559
 20
25902.28337031724
 30
0.0
  0
VERTEX
  5
539A6
330
5396E
100
AcDbEntity
  8
sink_label
  6
DASHED2
 48
5.0
370
     0
100
AcDbVertex
100
AcDb2dVertex
 10
30051.26861832855
 20
25904.15757506629
 30
0.0
  0
VERTEX
  5
539A7
330
5396E
100
AcDbEntity
  8
sink_label
  6
DASHED2
 48
5.0
370
     0
100
AcDbVertex
100
AcDb2dVertex
 10
30055.47235970146
 20
25905.7115786905
 30
0.0
  0
VERTEX
  5
539A8
330
5396E
100
AcDbEntity
  8
sink_label
  6
DASHED2
 48
5.0
370
     0
100
AcDbVertex
100
AcDb2dVertex
 10
30059.78479319927
 20
25906.92775543988
 30
0.0
  0
VERTEX
  5
539A9
330
5396E
100
AcDbEntity
  8
sink_label
  6
DASHED2
 48
5.0
370
     0
100
AcDbVertex
100
AcDb2dVertex
 10
30064.18094900954
 20
25907.80023006444
 30
0.0
  0
VERTEX
  5
539AA
330
5396E
100
AcDbEntity
  8
sink_label
  6
DASHED2
 48
5.0
370
     0
100
AcDbVertex
100
AcDb2dVertex
 10
30068.63145088223
 20
25908.32606493917
 30
0.0
  0
VERTEX
  5
539AB
330
5396E
100
AcDbEntity
  8
sink_label
  6
DASHED2
 48
5.0
370
     0
100
AcDbVertex
100
AcDb2dVertex
 10
30073.10986019245
 20
25908.50232243908
 30
0.0
  0
VERTEX
  5
539AC
330
5396E
100
AcDbEntity
  8
sink_label
  6
DASHED2
 48
5.0
370
     0
100
AcDbVertex
100
AcDb2dVertex
 10
30077.58533187775
 20
25908.32606493917
 30
0.0
  0
VERTEX
  5
539AD
330
5396E
100
AcDbEntity
  8
sink_label
  6
DASHED2
 48
5.0
370
     0
100
AcDbVertex
100
AcDb2dVertex
 10
30082.03436493792
 20
25907.80023006444
 30
0.0
  0
VERTEX
  5
539AE
330
5396E
100
AcDbEntity
  8
sink_label
  6
DASHED2
 48
5.0
370
     0
100
AcDbVertex
100
AcDb2dVertex
 10
30086.43052074819
 20
25906.92775543988
 30
0.0
  0
VERTEX
  5
539AF
330
5396E
100
AcDbEntity
  8
sink_label
  6
DASHED2
 48
5.0
370
     0
100
AcDbVertex
100
AcDb2dVertex
 10
30090.74295424599
 20
25905.7115786905
 30
0.0
  0
VERTEX
  5
539B0
330
5396E
100
AcDbEntity
  8
sink_label
  6
DASHED2
 48
5.0
370
     0
100
AcDbVertex
100
AcDb2dVertex
 10
30090.74295424599
 20
25905.7115786905
 30
0.0
  0
VERTEX
  5
539B1
330
5396E
100
AcDbEntity
  8
sink_label
  6
DASHED2
 48
5.0
370
     0
100
AcDbVertex
100
AcDb2dVertex
 10
30099.01677505433
 20
25902.28337031724
 30
0.0
  0
VERTEX
  5
539B2
330
5396E
100
AcDbEntity
  8
sink_label
  6
DASHED2
 48
5.0
370
     0
100
AcDbVertex
100
AcDb2dVertex
 10
30102.92822273983
 20
25900.09483969336
 30
0.0
  0
VERTEX
  5
539B3
330
5396E
100
AcDbEntity
  8
sink_label
  6
DASHED2
 48
5.0
370
     0
100
AcDbVertex
100
AcDb2dVertex
 10
30106.65313123789
 20
25897.60373369462
 30
0.0
  0
VERTEX
  5
539B4
330
5396E
100
AcDbEntity
  8
sink_label
  6
DASHED2
 48
5.0
370
     0
100
AcDbVertex
100
AcDb2dVertex
 10
30110.17093717364
 20
25894.83061569604
 30
0.0
  0
VERTEX
  5
539B5
330
5396E
100
AcDbEntity
  8
sink_label
  6
DASHED2
 48
5.0
370
     0
100
AcDbVertex
100
AcDb2dVertex
 10
30113.46254598442
 20
25891.79017382258
 30
0.0
  0
VERTEX
  5
539B6
330
5396E
100
AcDbEntity
  8
sink_label
  6
DASHED2
 48
5.0
370
     0
100
AcDbVertex
100
AcDb2dVertex
 10
30116.50445667036
 20
25888.49709619926
 30
0.0
  0
VERTEX
  5
539B7
330
5396E
100
AcDbEntity
  8
sink_label
  6
DASHED2
 48
5.0
370
     0
100
AcDbVertex
100
AcDb2dVertex
 10
30119.27904348145
 20
25884.97782145105
 30
0.0
  0
VERTEX
  5
539B8
330
5396E
100
AcDbEntity
  8
sink_label
  6
DASHED2
 48
5.0
370
     0
100
AcDbVertex
100
AcDb2dVertex
 10
30121.76721185521
 20
25881.25291295294
 30
0.0
  0
VERTEX
  5
539B9
330
5396E
100
AcDbEntity
  8
sink_label
  6
DASHED2
 48
5.0
370
     0
100
AcDbVertex
100
AcDb2dVertex
 10
30123.95721129159
 20
25877.34293407993
 30
0.0
  0
VERTEX
  5
539BA
330
5396E
100
AcDbEntity
  8
sink_label
  6
DASHED2
 48
5.0
370
     0
100
AcDbVertex
100
AcDb2dVertex
 10
30125.83435366564
 20
25873.271385832
 30
0.0
  0
VERTEX
  5
539BB
330
5396E
100
AcDbEntity
  8
sink_label
  6
DASHED2
 48
5.0
370
     0
100
AcDbVertex
100
AcDb2dVertex
 10
30127.38395085237
 20
25869.06764445914
 30
0.0
  0
VERTEX
  5
539BC
330
5396E
100
AcDbEntity
  8
sink_label
  6
DASHED2
 48
5.0
370
     0
100
AcDbVertex
100
AcDb2dVertex
 10
30128.60159641422
 20
25864.75521096133
 30
0.0
  0
VERTEX
  5
539BD
330
5396E
100
AcDbEntity
  8
sink_label
  6
DASHED2
 48
5.0
370
     0
100
AcDbVertex
100
AcDb2dVertex
 10
30129.47553985129
 20
25860.36052396357
 30
0.0
  0
VERTEX
  5
539BE
330
5396E
100
AcDbEntity
  8
sink_label
  6
DASHED2
 48
5.0
370
     0
100
AcDbVertex
100
AcDb2dVertex
 10
30130.001374726
 20
25855.91002209084
 30
0.0
  0
SEQEND
  5
539BF
330
5396E
100
AcDbEntity
  8
sink_label
  6
DASHED2
 48
5.0
370
     0
  0
DIMENSION
  5
539C0
330
52C18
100
AcDbEntity
  8
DIMS SPECS
100
AcDbDimension
  2
*D13
 10
29726.51837824565
 20
26031.50603648017
 30
0.0
 11
29654.5376963963
 21
26108.38150703837
 31
0.0
 70
   164
 71
     5
 42
26.00000000000364
 73
     0
 74
     0
 75
     0
  3
abode-iso$4
100
AcDbRadialDimension
 15
29712.75132599395
 25
26053.56206223957
 35
0.0
 40
0.0
1001
ACAD_DSTYLE_DIMINSPECT
1070
   396
1000
100%
1070
   395
1000

1070
   394
1070
    33
1070
   393
1070
     0
1001
ACAD_DSTYLE_DIMRADIAL_EXTENSION
1070
   387
1070
     1
1070
   388
1040
1.570796326794896
1070
   390
1040
3.141592653589793
1001
ACAD
1000
DSTYLE
1002
{
1070
   340
1005
53181
1070
   371
1070
    -1
1070
   372
1070
    -1
1002
}
  0
DIMENSION
  5
539C1
330
52C18
100
AcDbEntity
  8
DIMS SPECS
100
AcDbDimension
  2
*D14
 10
29690.51837824564
 20
25654.98923813284
 30
0.0
 11
29640.44424638802
 21
25688.16354460223
 31
0.0
 70
   164
 71
     5
 42
10.00000000000727
 73
     0
 74
     0
 75
     0
  3
abode-iso$4
100
AcDbRadialDimension
 15
29696.64776716009
 25
25647.08793497858
 35
0.0
 40
0.0
1001
ACAD_DSTYLE_DIMINSPECT
1070
   396
1000
100%
1070
   395
1000

1070
   394
1070
    33
1070
   393
1070
     0
1001
ACAD_DSTYLE_DIMRADIAL_EXTENSION
1070
   387
1070
     1
1070
   388
1040
4.712388980384689
1070
   390
1040
0.0
1001
ACAD
1000
DSTYLE
1002
{
1070
   340
1005
53181
1070
   371
1070
    -1
1070
   372
1070
    -1
1002
}
  0
DIMENSION
  5
539C2
330
52C18
100
AcDbEntity
  8
DIMS SPECS
100
AcDbDimension
  2
*D15
 10
30447.51493335513
 20
25564.612473063
 30
0.0
 11
30074.01665580038
 21
25581.04007333493
 31
0.0
 70
    32
 71
     5
 42
746.9965551094828
 73
     0
 74
     0
 75
     0
  3
abode-iso$0
100
AcDbAlignedDimension
 13
29700.51837824565
 23
25654.98923813284
 33
0.0
 14
30447.51493335513
 24
25654.98923813284
 34
0.0
100
AcDbRotatedDimension
1001
ACAD_DSTYLE_DIMINSPECT
1070
   396
1000
100%
1070
   395
1000

1070
   394
1070
    33
1070
   393
1070
     0
1001
ACAD
1000
DSTYLE
1002
{
1070
   340
1005
53181
1070
   371
1070
    -1
1070
   372
1070
    -1
1002
}
  0
DIMENSION
  5
539C3
330
52C18
100
AcDbEntity
  8
DIMS SPECS
100
AcDbDimension
  2
*D16
 10
29791.89684347677
 20
26057.50603648016
 30
0.0
 11
29791.89684347677
 21
25851.24763730651
 31
0.0
 70
    32
 71
     5
 42
412.516798347322
 73
     0
 74
     0
 75
     0
  3
abode-iso$0
100
AcDbAlignedDimension
 13
29690.51837824565
 23
25644.98923813284
 33
0.0
 14
29726.51837824565
 24
26057.50603648016
 34
0.0
 50
90.0
100
AcDbRotatedDimension
1001
ACAD_DSTYLE_DIMINSPECT
1070
   396
1000
100%
1070
   395
1000

1070
   394
1070
    33
1070
   393
1070
     0
1001
ACAD
1000
DSTYLE
1002
{
1070
   340
1005
53181
1070
   371
1070
    -1
1070
   372
1070
    -1
1002
}
  0
ENDSEC
  0
SECTION
  2
OBJECTS
  0
DICTIONARY
  5
52BB0
330
0
100
AcDbDictionary
281
     1
  3
ACAD_COLOR
350
52C0E
  3
ACAD_GROUP
350
52BB1
  3
ACAD_LAYOUT
350
52C0D
  3
ACAD_MATERIAL
350
52BB4
  3
ACAD_MLEADERSTYLE
350
52C11
  3
ACAD_MLINESTYLE
350
52C0A
  3
ACAD_PLOTSETTINGS
350
52C0C
  3
ACAD_PLOTSTYLENAME
350
52BB2
  3
ACAD_SCALELIST
350
52BDE
  3
ACAD_TABLESTYLE
350
52C0F
  3
ACAD_VISUALSTYLE
350
52BCD
  3
ACDB_RECOMPOSE_DATA
350
52DBE
  3
AcDbVariableDictionary
350
52DB0
  3
AcmDictionary
350
5310E
  3
AMG
350
530B8
  3
AMGSNAPSETTINGS
350
53296
  0
DICTIONARY
  5
52CA6
330
52BA6
100
AcDbDictionary
280
     1
281
     1
  3
ACAD_LAYERSTATES
360
52CA7
  0
DICTIONARY
  5
52DA2
330
52C00
100
AcDbDictionary
280
     1
281
     1
  3
ADSK_XREC_LAYER_RECONCILED
360
52DA3
  0
DICTIONARY
  5
52DA4
330
52C1E
100
AcDbDictionary
280
     1
281
     1
  3
ADSK_XREC_LAYER_RECONCILED
360
52DA5
  0
DICTIONARY
  5
52DA8
330
52C21
100
AcDbDictionary
280
     1
281
     1
  3
ADSK_XREC_LAYER_RECONCILED
360
52DA9
  0
DICTIONARY
  5
52DAC
330
52C9C
100
AcDbDictionary
280
     1
281
     1
  3
ADSK_XREC_LAYER_RECONCILED
360
52DAD
  0
DICTIONARY
  5
53A12
330
5373D
100
AcDbDictionary
280
     1
281
     1
  3
ACAD_MTEXT_2008_RT
360
53A13
  0
DICTIONARY
  5
52C0E
102
{ACAD_REACTORS
330
52BB0
102
}
330
52BB0
100
AcDbDictionary
281
     1
  0
DICTIONARY
  5
52BB1
102
{ACAD_REACTORS
330
52BB0
102
}
330
52BB0
100
AcDbDictionary
281
     1
  0
DICTIONARY
  5
52C0D
102
{ACAD_REACTORS
330
52BB0
102
}
330
52BB0
100
AcDbDictionary
281
     1
  3
Layout1
350
52C17
  3
Model
350
52C1B
  0
DICTIONARY
  5
52BB4
102
{ACAD_REACTORS
330
52BB0
102
}
330
52BB0
100
AcDbDictionary
281
     1
  3
ByBlock
350
52BBD
  3
ByLayer
350
52BB5
  3
Global
350
52BC5
  0
DICTIONARY
  5
52C11
102
{ACAD_REACTORS
330
52BB0
102
}
330
52BB0
100
AcDbDictionary
281
     1
  3
Standard
350
52C12
  0
DICTIONARY
  5
52C0A
102
{ACAD_REACTORS
330
52BB0
102
}
330
52BB0
100
AcDbDictionary
281
     1
  3
Standard
350
52C0B
  0
DICTIONARY
  5
52C0C
102
{ACAD_REACTORS
330
52BB0
102
}
330
52BB0
100
AcDbDictionary
281
     1
  0
ACDBDICTIONARYWDFLT
  5
52BB2
102
{ACAD_REACTORS
330
52BB0
102
}
330
52BB0
100
AcDbDictionary
281
     1
  3
Normal
350
52BB3
100
AcDbDictionaryWithDefault
340
52BB3
  0
DICTIONARY
  5
52BDE
102
{ACAD_REACTORS
330
52BB0
102
}
330
52BB0
100
AcDbDictionary
281
     1
  3
A0
350
52BDF
  3
A1
350
52BE0
  3
A2
350
52BE1
  3
A3
350
52BE2
  3
A4
350
52BE3
  3
A5
350
52BE4
  3
A6
350
52BE5
  3
A7
350
52BE6
  3
A8
350
52BE7
  3
A9
350
52BE8
  3
B0
350
52BE9
  3
B1
350
52BEA
  3
B2
350
52BEB
  3
B3
350
52BEC
  3
B4
350
52BED
  3
B5
350
52BEE
  3
B6
350
52BEF
  3
B7
350
52BF0
  3
B8
350
52BF1
  3
B9
350
52BF2
  3
C0
350
52BF3
  3
C1
350
52BF4
  3
C2
350
52BF5
  3
C3
350
52BF6
  3
C4
350
52BF7
  3
C5
350
52BF8
  3
C6
350
52BF9
  3
C7
350
52BFA
  3
C8
350
52BFB
  3
C9
350
52BFC
  3
D0
350
52BFD
  3
D1
350
52BFE
  3
D2
350
52BFF
  0
DICTIONARY
  5
52C0F
102
{ACAD_REACTORS
330
52BB0
102
}
330
52BB0
100
AcDbDictionary
281
     1
  3
Standard
350
52C10
  0
DICTIONARY
  5
52BCD
102
{ACAD_REACTORS
330
52BB0
102
}
330
52BB0
100
AcDbDictionary
281
     1
  3
2dWireframe
350
52BD3
  3
3D Hidden
350
52BD5
  3
3dWireframe
350
52BD4
  3
Basic
350
52BD2
  3
Brighten
350
52BD9
  3
ColorChange
350
52BDD
  3
Conceptual
350
52BD6
  3
Dim
350
52BD8
  3
Facepattern
350
52BDC
  3
Flat
350
52BCE
  3
FlatWithEdges
350
52BCF
  3
Gouraud
350
52BD0
  3
GouraudWithEdges
350
52BD1
  3
Linepattern
350
52BDB
  3
Realistic
350
52BD7
  3
Thicken
350
52BDA
  0
XRECORD
  5
52DBE
102
{ACAD_REACTORS
330
52BB0
102
}
330
52BB0
100
AcDbXrecord
280
     1
 90
        1
330
52C10
330
5373D
  0
DICTIONARY
  5
52DB0
102
{ACAD_REACTORS
330
52BB0
102
}
330
52BB0
100
AcDbDictionary
281
     1
  3
CANNOSCALE
350
52DB4
  3
CMLEADERSTYLE
350
52DB2
  3
CTABLESTYLE
350
52DB1
  3
LAYEREVAL
350
52DB6
  3
LAYERNOTIFY
350
52DB7
  3
LIGHTINGUNITS
350
52DB5
  3
MSLTSCALE
350
52DB3
  0
DICTIONARY
  5
5310E
102
{ACAD_REACTORS
330
52BB0
102
}
330
52BB0
100
AcDbDictionary
281
     1
  3
AcmStdDictionary
350
53119
  0
DICTIONARY
  5
530B8
102
{ACAD_REACTORS
330
52BB0
102
}
330
52BB0
100
AcDbDictionary
281
     1
  0
DICTIONARY
  5
53296
102
{ACAD_REACTORS
330
52BB0
102
}
330
52BB0
100
AcDbDictionary
281
     1
  0
DICTIONARY
  5
52CA7
102
{ACAD_REACTORS
330
52CA6
102
}
330
52CA6
100
AcDbDictionary
281
     1
  0
XRECORD
  5
52DA3
102
{ACAD_REACTORS
330
52DA2
102
}
330
52DA2
100
AcDbXrecord
280
     1
290
     1
  0
XRECORD
  5
52DA5
102
{ACAD_REACTORS
330
52DA4
102
}
330
52DA4
100
AcDbXrecord
280
     1
290
     1
  0
XRECORD
  5
52DA9
102
{ACAD_REACTORS
330
52DA8
102
}
330
52DA8
100
AcDbXrecord
280
     1
290
     1
  0
XRECORD
  5
52DAD
102
{ACAD_REACTORS
330
52DAC
102
}
330
52DAC
100
AcDbXrecord
280
     1
290
     1
  0
XRECORD
  5
53A13
102
{ACAD_REACTORS
330
53A12
102
}
330
53A12
100
AcDbXrecord
280
     1
 40
30497.0
  1
\pxqc;APRON FRONT CUT OUT
  0
LAYOUT
  5
52C17
102
{ACAD_REACTORS
330
52C0D
102
}
330
52C0D
100
AcDbPlotSettings
  1

  2
\\ABODESERVER\upstairs
  4

  6

 40
0.0
 41
0.0
 42
0.0
 43
0.0
 44
0.0
 45
0.0
 46
0.0
 47
0.0
 48
0.0
 49
0.0
140
0.0
141
0.0
142
1.0
143
1.0
 70
   688
 72
     0
 73
     0
 74
     5
  7

 75
    16
147
1.0
 76
     0
 77
     2
 78
   300
148
0.0
149
0.0
100
AcDbLayout
  1
Layout1
 70
     1
 71
     1
 10
0.0
 20
0.0
 11
420.0
 21
297.0
 12
0.0
 22
0.0
 32
0.0
 14
1.000000000000000E+20
 24
1.000000000000000E+20
 34
1.000000000000000E+20
 15
-1.000000000000000E+20
 25
-1.000000000000000E+20
 35
-1.000000000000000E+20
146
0.0
 13
0.0
 23
0.0
 33
0.0
 16
1.0
 26
0.0
 36
0.0
 17
0.0
 27
1.0
 37
0.0
 76
     0
330
52C14
  0
LAYOUT
  5
52C1B
102
{ACAD_REACTORS
330
52C0D
102
}
330
52C0D
100
AcDbPlotSettings
  1

  2
\\ABODESERVER\upstairs
  4

  6

 40
0.0
 41
0.0
 42
0.0
 43
0.0
 44
0.0
 45
0.0
 46
0.0
 47
0.0
 48
0.0
 49
0.0
140
0.0
141
0.0
142
1.0
143
1.0
 70
  1712
 72
     0
 73
     0
 74
     0
  7

 75
     0
147
1.0
 76
     0
 77
     2
 78
   300
148
0.0
149
0.0
100
AcDbLayout
  1
Model
 70
     1
 71
     0
 10
0.0
 20
0.0
 11
12.0
 21
9.0
 12
0.0
 22
0.0
 32
0.0
 14
0.0
 24
0.0
 34
0.0
 15
0.0
 25
0.0
 35
0.0
146
0.0
 13
0.0
 23
0.0
 33
0.0
 16
1.0
 26
0.0
 36
0.0
 17
0.0
 27
1.0
 37
0.0
 76
     0
330
52C18
331
52C1C
  0
MATERIAL
  5
52BBD
102
{ACAD_XDICTIONARY
360
52BBE
102
}
102
{ACAD_REACTORS
330
52BB4
102
}
330
52BB4
100
AcDbMaterial
  1
ByBlock
 72
     0
 43
0.0208333333333333
 43
0.0
 43
0.0
 43
0.0
 43
0.0
 43
0.0208333333333333
 43
0.0
 43
0.0
 43
0.0
 43
0.0
 43
1.0
 43
0.0
 43
0.0
 43
0.0
 43
0.0
 43
1.0
 77
     0
 47
0.0208333333333333
 47
0.0
 47
0.0
 47
0.0
 47
0.0
 47
0.0208333333333333
 47
0.0
 47
0.0
 47
0.0
 47
0.0
 47
1.0
 47
0.0
 47
0.0
 47
0.0
 47
0.0
 47
1.0
171
     0
 49
0.0208333333333333
 49
0.0
 49
0.0
 49
0.0
 49
0.0
 49
0.0208333333333333
 49
0.0
 49
0.0
 49
0.0
 49
0.0
 49
1.0
 49
0.0
 49
0.0
 49
0.0
 49
0.0
 49
1.0
175
     0
142
0.0208333333333333
142
0.0
142
0.0
142
0.0
142
0.0
142
0.0208333333333333
142
0.0
142
0.0
142
0.0
142
0.0
142
1.0
142
0.0
142
0.0
142
0.0
142
0.0
142
1.0
179
     0
144
0.0208333333333333
144
0.0
144
0.0
144
0.0
144
0.0
144
0.0208333333333333
144
0.0
144
0.0
144
0.0
144
0.0
144
1.0
144
0.0
144
0.0
144
0.0
144
0.0
144
1.0
147
0.0208333333333333
147
0.0
147
0.0
147
0.0
147
0.0
147
0.0208333333333333
147
0.0
147
0.0
147
0.0
147
0.0
147
1.0
147
0.0
147
0.0
147
0.0
147
0.0
147
1.0
  0
MATERIAL
  5
52BB5
102
{ACAD_XDICTIONARY
360
52BB6
102
}
102
{ACAD_REACTORS
330
52BB4
102
}
330
52BB4
100
AcDbMaterial
  1
ByLayer
 72
     0
 43
0.0208333333333333
 43
0.0
 43
0.0
 43
0.0
 43
0.0
 43
0.0208333333333333
 43
0.0
 43
0.0
 43
0.0
 43
0.0
 43
1.0
 43
0.0
 43
0.0
 43
0.0
 43
0.0
 43
1.0
 77
     0
 47
0.0208333333333333
 47
0.0
 47
0.0
 47
0.0
 47
0.0
 47
0.0208333333333333
 47
0.0
 47
0.0
 47
0.0
 47
0.0
 47
1.0
 47
0.0
 47
0.0
 47
0.0
 47
0.0
 47
1.0
171
     0
 49
0.0208333333333333
 49
0.0
 49
0.0
 49
0.0
 49
0.0
 49
0.0208333333333333
 49
0.0
 49
0.0
 49
0.0
 49
0.0
 49
1.0
 49
0.0
 49
0.0
 49
0.0
 49
0.0
 49
1.0
175
     0
142
0.0208333333333333
142
0.0
142
0.0
142
0.0
142
0.0
142
0.0208333333333333
142
0.0
142
0.0
142
0.0
142
0.0
142
1.0
142
0.0
142
0.0
142
0.0
142
0.0
142
1.0
179
     0
144
0.0208333333333333
144
0.0
144
0.0
144
0.0
144
0.0
144
0.0208333333333333
144
0.0
144
0.0
144
0.0
144
0.0
144
1.0
144
0.0
144
0.0
144
0.0
144
0.0
144
1.0
147
0.0208333333333333
147
0.0
147
0.0
147
0.0
147
0.0
147
0.0208333333333333
147
0.0
147
0.0
147
0.0
147
0.0
147
1.0
147
0.0
147
0.0
147
0.0
147
0.0
147
1.0
  0
MATERIAL
  5
52BC5
102
{ACAD_XDICTIONARY
360
52BC6
102
}
102
{ACAD_REACTORS
330
52BB4
102
}
330
52BB4
100
AcDbMaterial
  1
Global
 72
     0
 43
0.0208333333333333
 43
0.0
 43
0.0
 43
0.0
 43
0.0
 43
0.0208333333333333
 43
0.0
 43
0.0
 43
0.0
 43
0.0
 43
1.0
 43
0.0
 43
0.0
 43
0.0
 43
0.0
 43
1.0
 77
     0
 47
0.0208333333333333
 47
0.0
 47
0.0
 47
0.0
 47
0.0
 47
0.0208333333333333
 47
0.0
 47
0.0
 47
0.0
 47
0.0
 47
1.0
 47
0.0
 47
0.0
 47
0.0
 47
0.0
 47
1.0
171
     0
 49
0.0208333333333333
 49
0.0
 49
0.0
 49
0.0
 49
0.0
 49
0.0208333333333333
 49
0.0
 49
0.0
 49
0.0
 49
0.0
 49
1.0
 49
0.0
 49
0.0
 49
0.0
 49
0.0
 49
1.0
175
     0
142
0.0208333333333333
142
0.0
142
0.0
142
0.0
142
0.0
142
0.0208333333333333
142
0.0
142
0.0
142
0.0
142
0.0
142
1.0
142
0.0
142
0.0
142
0.0
142
0.0
142
1.0
179
     0
144
0.0208333333333333
144
0.0
144
0.0
144
0.0
144
0.0
144
0.0208333333333333
144
0.0
144
0.0
144
0.0
144
0.0
144
1.0
144
0.0
144
0.0
144
0.0
144
0.0
144
1.0
147
0.0208333333333333
147
0.0
147
0.0
147
0.0
147
0.0
147
0.0208333333333333
147
0.0
147
0.0
147
0.0
147
0.0
147
1.0
147
0.0
147
0.0
147
0.0
147
0.0
147
1.0
  0
MLEADERSTYLE
  5
52C12
102
{ACAD_REACTORS
330
52C11
102
}
330
52C11
100
AcDbMLeaderStyle
170
     2
171
     1
172
     0
 90
        2
 40
0.0
 41
0.0
173
     1
 91
-1056964608
340
52C06
 92
       -2
290
     1
 42
0.09
291
     1
 43
0.36
  3
Standard
 44
0.18
300

342
52C01
174
     1
178
     6
175
     1
176
     0
 93
-1056964608
 45
0.18
292
     0
297
     0
 46
0.18
 94
-1056964608
 47
1.0
 49
1.0
140
1.0
293
     1
141
0.0
294
     1
177
     0
142
1.0
295
     0
296
     0
143
0.125
1001
ACAD_MLEADERVER
1070
     2
  0
MLINESTYLE
  5
52C0B
102
{ACAD_REACTORS
330
52C0A
102
}
330
52C0A
100
AcDbMlineStyle
  2
STANDARD
 70
     0
  3

 62
   256
 51
90.0
 52
90.0
 71
     2
 49
0.5
 62
   256
  6
BYLAYER
 49
-0.5
 62
   256
  6
BYLAYER
  0
ACDBPLACEHOLDER
  5
52BB3
102
{ACAD_REACTORS
330
52BB2
102
}
330
52BB2
  0
SCALE
  5
52BDF
102
{ACAD_REACTORS
330
52BDE
102
}
330
52BDE
100
AcDbScale
 70
     0
300
1:1
140
1.0
141
1.0
290
     1
  0
SCALE
  5
52BE0
102
{ACAD_REACTORS
330
52BDE
102
}
330
52BDE
100
AcDbScale
 70
     0
300
1:2
140
1.0
141
2.0
290
     0
  0
SCALE
  5
52BE1
102
{ACAD_REACTORS
330
52BDE
102
}
330
52BDE
100
AcDbScale
 70
     0
300
1:4
140
1.0
141
4.0
290
     0
  0
SCALE
  5
52BE2
102
{ACAD_REACTORS
330
52BDE
102
}
330
52BDE
100
AcDbScale
 70
     0
300
1:5
140
1.0
141
5.0
290
     0
  0
SCALE
  5
52BE3
102
{ACAD_REACTORS
330
52BDE
102
}
330
52BDE
100
AcDbScale
 70
     0
300
1:8
140
1.0
141
8.0
290
     0
  0
SCALE
  5
52BE4
102
{ACAD_REACTORS
330
52BDE
102
}
330
52BDE
100
AcDbScale
 70
     0
300
1:10
140
1.0
141
10.0
290
     0
  0
SCALE
  5
52BE5
102
{ACAD_REACTORS
330
52BDE
102
}
330
52BDE
100
AcDbScale
 70
     0
300
1:16
140
1.0
141
16.0
290
     0
  0
SCALE
  5
52BE6
102
{ACAD_REACTORS
330
52BDE
102
}
330
52BDE
100
AcDbScale
 70
     0
300
1:20
140
1.0
141
20.0
290
     0
  0
SCALE
  5
52BE7
102
{ACAD_REACTORS
330
52BDE
102
}
330
52BDE
100
AcDbScale
 70
     0
300
1:30
140
1.0
141
30.0
290
     0
  0
SCALE
  5
52BE8
102
{ACAD_REACTORS
330
52BDE
102
}
330
52BDE
100
AcDbScale
 70
     0
300
1:40
140
1.0
141
40.0
290
     0
  0
SCALE
  5
52BE9
102
{ACAD_REACTORS
330
52BDE
102
}
330
52BDE
100
AcDbScale
 70
     0
300
1:50
140
1.0
141
50.0
290
     0
  0
SCALE
  5
52BEA
102
{ACAD_REACTORS
330
52BDE
102
}
330
52BDE
100
AcDbScale
 70
     0
300
1:100
140
1.0
141
100.0
290
     0
  0
SCALE
  5
52BEB
102
{ACAD_REACTORS
330
52BDE
102
}
330
52BDE
100
AcDbScale
 70
     0
300
2:1
140
2.0
141
1.0
290
     0
  0
SCALE
  5
52BEC
102
{ACAD_REACTORS
330
52BDE
102
}
330
52BDE
100
AcDbScale
 70
     0
300
4:1
140
4.0
141
1.0
290
     0
  0
SCALE
  5
52BED
102
{ACAD_REACTORS
330
52BDE
102
}
330
52BDE
100
AcDbScale
 70
     0
300
8:1
140
8.0
141
1.0
290
     0
  0
SCALE
  5
52BEE
102
{ACAD_REACTORS
330
52BDE
102
}
330
52BDE
100
AcDbScale
 70
     0
300
10:1
140
10.0
141
1.0
290
     0
  0
SCALE
  5
52BEF
102
{ACAD_REACTORS
330
52BDE
102
}
330
52BDE
100
AcDbScale
 70
     0
300
100:1
140
100.0
141
1.0
290
     0
  0
SCALE
  5
52BF0
102
{ACAD_REACTORS
330
52BDE
102
}
330
52BDE
100
AcDbScale
 70
     0
300
1/128" = 1'-0"
140
0.0078125
141
12.0
290
     0
  0
SCALE
  5
52BF1
102
{ACAD_REACTORS
330
52BDE
102
}
330
52BDE
100
AcDbScale
 70
     0
300
1/64" = 1'-0"
140
0.015625
141
12.0
290
     0
  0
SCALE
  5
52BF2
102
{ACAD_REACTORS
330
52BDE
102
}
330
52BDE
100
AcDbScale
 70
     0
300
1/32" = 1'-0"
140
0.03125
141
12.0
290
     0
  0
SCALE
  5
52BF3
102
{ACAD_REACTORS
330
52BDE
102
}
330
52BDE
100
AcDbScale
 70
     0
300
1/16" = 1'-0"
140
0.0625
141
12.0
290
     0
  0
SCALE
  5
52BF4
102
{ACAD_REACTORS
330
52BDE
102
}
330
52BDE
100
AcDbScale
 70
     0
300
3/32" = 1'-0"
140
0.09375
141
12.0
290
     0
  0
SCALE
  5
52BF5
102
{ACAD_REACTORS
330
52BDE
102
}
330
52BDE
100
AcDbScale
 70
     0
300
1/8" = 1'-0"
140
0.125
141
12.0
290
     0
  0
SCALE
  5
52BF6
102
{ACAD_REACTORS
330
52BDE
102
}
330
52BDE
100
AcDbScale
 70
     0
300
3/16" = 1'-0"
140
0.1875
141
12.0
290
     0
  0
SCALE
  5
52BF7
102
{ACAD_REACTORS
330
52BDE
102
}
330
52BDE
100
AcDbScale
 70
     0
300
1/4" = 1'-0"
140
0.25
141
12.0
290
     0
  0
SCALE
  5
52BF8
102
{ACAD_REACTORS
330
52BDE
102
}
330
52BDE
100
AcDbScale
 70
     0
300
3/8" = 1'-0"
140
0.375
141
12.0
290
     0
  0
SCALE
  5
52BF9
102
{ACAD_REACTORS
330
52BDE
102
}
330
52BDE
100
AcDbScale
 70
     0
300
1/2" = 1'-0"
140
0.5
141
12.0
290
     0
  0
SCALE
  5
52BFA
102
{ACAD_REACTORS
330
52BDE
102
}
330
52BDE
100
AcDbScale
 70
     0
300
3/4" = 1'-0"
140
0.75
141
12.0
290
     0
  0
SCALE
  5
52BFB
102
{ACAD_REACTORS
330
52BDE
102
}
330
52BDE
100
AcDbScale
 70
     0
300
1" = 1'-0"
140
1.0
141
12.0
290
     0
  0
SCALE
  5
52BFC
102
{ACAD_REACTORS
330
52BDE
102
}
330
52BDE
100
AcDbScale
 70
     0
300
1-1/2" = 1'-0"
140
1.5
141
12.0
290
     0
  0
SCALE
  5
52BFD
102
{ACAD_REACTORS
330
52BDE
102
}
330
52BDE
100
AcDbScale
 70
     0
300
3" = 1'-0"
140
3.0
141
12.0
290
     0
  0
SCALE
  5
52BFE
102
{ACAD_REACTORS
330
52BDE
102
}
330
52BDE
100
AcDbScale
 70
     0
300
6" = 1'-0"
140
6.0
141
12.0
290
     0
  0
SCALE
  5
52BFF
102
{ACAD_REACTORS
330
52BDE
102
}
330
52BDE
100
AcDbScale
 70
     0
300
1'-0" = 1'-0"
140
12.0
141
12.0
290
     0
  0
TABLESTYLE
  5
52C10
102
{ACAD_XDICTIONARY
360
52DB8
102
}
102
{ACAD_REACTORS
330
52C0F
102
}
330
52C0F
100
AcDbTableStyle
  3
Standard
 70
     0
 71
     0
 40
0.06
 41
0.06
280
     0
281
     0
  7
STANDARD
140
0.18
170
     2
 62
     0
 63
     7
283
     0
 90
      512
 91
        0
  1

274
    -2
284
     1
 64
     0
275
    -2
285
     1
 65
     0
276
    -2
286
     1
 66
     0
277
    -2
287
     1
 67
     0
278
    -2
288
     1
 68
     0
279
    -2
289
     1
 69
     0
  7
STANDARD
140
0.25
170
     5
 62
     0
 63
     7
283
     0
 90
      512
 91
        0
  1

274
    -2
284
     1
 64
     0
275
    -2
285
     1
 65
     0
276
    -2
286
     1
 66
     0
277
    -2
287
     1
 67
     0
278
    -2
288
     1
 68
     0
279
    -2
289
     1
 69
     0
  7
STANDARD
140
0.18
170
     5
 62
     0
 63
     7
283
     0
 90
      512
 91
        0
  1

274
    -2
284
     1
 64
     0
275
    -2
285
     1
 65
     0
276
    -2
286
     1
 66
     0
277
    -2
287
     1
 67
     0
278
    -2
288
     1
 68
     0
279
    -2
289
     1
 69
     0
  0
VISUALSTYLE
  5
52BD3
102
{ACAD_REACTORS
330
52BCD
102
}
330
52BCD
100
AcDbVisualStyle
  2
2dWireframe
 70
     4
 71
     0
 72
     2
 73
     0
 90
        0
 40
-0.6
 41
-30.0
 62
     5
 63
     7
421
 16777215
 74
     1
 91
        4
 64
     7
 65
   257
 75
     1
175
     1
 42
1.0
 92
        0
 66
   257
 43
1.0
 76
     1
 77
     6
 78
     2
 67
     7
 79
     5
170
     0
171
     0
290
     0
174
     0
 93
        1
 44
0.0
173
     0
291
     0
 45
0.0
  0
VISUALSTYLE
  5
52BD5
102
{ACAD_REACTORS
330
52BCD
102
}
330
52BCD
100
AcDbVisualStyle
  2
3D Hidden
 70
     6
 71
     1
 72
     2
 73
     2
 90
        0
 40
-0.6
 41
-30.0
 62
     5
 63
     7
421
 16777215
 74
     2
 91
        2
 64
     7
 65
   257
 75
     2
175
     1
 42
40.0
 92
        0
 66
   257
 43
1.0
 76
     1
 77
     6
 78
     2
 67
     7
 79
     3
170
     0
171
     0
290
     0
174
     0
 93
        1
 44
0.0
173
     0
291
     0
 45
0.0
  0
VISUALSTYLE
  5
52BD4
102
{ACAD_REACTORS
330
52BCD
102
}
330
52BCD
100
AcDbVisualStyle
  2
3dWireframe
 70
     5
 71
     0
 72
     2
 73
     0
 90
        0
 40
-0.6
 41
-30.0
 62
     5
 63
     7
421
 16777215
 74
     1
 91
        4
 64
     7
 65
   257
 75
     1
175
     1
 42
1.0
 92
        0
 66
   257
 43
1.0
 76
     1
 77
     6
 78
     2
 67
     7
 79
     5
170
     0
171
     0
290
     0
174
     0
 93
        1
 44
0.0
173
     0
291
     0
 45
0.0
  0
VISUALSTYLE
  5
52BD2
102
{ACAD_REACTORS
330
52BCD
102
}
330
52BCD
100
AcDbVisualStyle
  2
Basic
 70
     7
 71
     1
 72
     0
 73
     1
 90
        0
 40
-0.6
 41
-30.0
 62
     5
 63
     7
421
 16777215
 74
     0
 91
        4
 64
     7
 65
   257
 75
     1
175
     1
 42
1.0
 92
        8
 66
     7
 43
1.0
 76
     1
 77
     6
 78
     2
 67
     7
 79
     5
170
     0
171
     0
290
     0
174
     0
 93
        1
 44
0.0
173
     0
291
     1
 45
0.0
  0
VISUALSTYLE
  5
52BD9
102
{ACAD_REACTORS
330
52BCD
102
}
330
52BCD
100
AcDbVisualStyle
  2
Brighten
 70
    12
 71
     2
 72
     2
 73
     0
 90
        0
 40
-0.6
 41
-30.0
 62
     5
 63
     7
421
 16777215
 74
     1
 91
        4
 64
     7
 65
   257
 75
     1
175
     1
 42
1.0
 92
        8
 66
     7
 43
1.0
 76
     1
 77
     6
 78
     2
 67
     7
 79
     5
170
     0
171
     0
290
     0
174
     0
 93
        1
 44
50.0
173
     0
291
     1
 45
0.0
  0
VISUALSTYLE
  5
52BDD
102
{ACAD_REACTORS
330
52BCD
102
}
330
52BCD
100
AcDbVisualStyle
  2
ColorChange
 70
    16
 71
     2
 72
     2
 73
     3
 90
        0
 40
-0.6
 41
-30.0
 62
     5
 63
     8
421
  8421504
 74
     1
 91
        4
 64
     7
 65
   257
 75
     1
175
     1
 42
1.0
 92
        8
 66
     8
424
  8421504
 43
1.0
 76
     1
 77
     6
 78
     2
 67
     7
 79
     5
170
     0
171
     0
290
     0
174
     0
 93
        1
 44
0.0
173
     0
291
     1
 45
0.0
  0
VISUALSTYLE
  5
52BD6
102
{ACAD_REACTORS
330
52BCD
102
}
330
52BCD
100
AcDbVisualStyle
  2
Conceptual
 70
     9
 71
     3
 72
     2
 73
     0
 90
        0
 40
-0.6
 41
-30.0
 62
     5
 63
     7
421
 16777215
 74
     2
 91
        2
 64
     7
 65
   257
 75
     1
175
     1
 42
40.0
 92
        8
 66
     7
 43
1.0
 76
     1
 77
     6
 78
     2
 67
     7
 79
     3
170
     0
171
     0
290
     0
174
     0
 93
        1
 44
0.0
173
     0
291
     0
 45
0.0
  0
VISUALSTYLE
  5
52BD8
102
{ACAD_REACTORS
330
52BCD
102
}
330
52BCD
100
AcDbVisualStyle
  2
Dim
 70
    11
 71
     2
 72
     2
 73
     0
 90
        0
 40
-0.6
 41
-30.0
 62
     5
 63
     7
421
 16777215
 74
     1
 91
        4
 64
     7
 65
   257
 75
     1
175
     1
 42
1.0
 92
        8
 66
     7
 43
1.0
 76
     1
 77
     6
 78
     2
 67
     7
 79
     5
170
     0
171
     0
290
     0
174
     0
 93
        1
 44
-50.0
173
     0
291
     1
 45
0.0
  0
VISUALSTYLE
  5
52BDC
102
{ACAD_REACTORS
330
52BCD
102
}
330
52BCD
100
AcDbVisualStyle
  2
Facepattern
 70
    15
 71
     2
 72
     2
 73
     0
 90
        0
 40
-0.6
 41
-30.0
 62
     5
 63
     7
421
 16777215
 74
     1
 91
        4
 64
     7
 65
   257
 75
     1
175
     1
 42
1.0
 92
        8
 66
     7
 43
1.0
 76
     1
 77
     6
 78
     2
 67
     7
 79
     5
170
     0
171
     0
290
     0
174
     0
 93
        1
 44
0.0
173
     0
291
     1
 45
0.0
  0
VISUALSTYLE
  5
52BCE
102
{ACAD_REACTORS
330
52BCD
102
}
330
52BCD
100
AcDbVisualStyle
  2
Flat
 70
     0
 71
     2
 72
     1
 73
     1
 90
        2
 40
-0.6
 41
30.0
 62
     5
 63
     7
421
 16777215
 74
     0
 91
        4
 64
     7
 65
   257
 75
     1
175
     1
 42
1.0
 92
        8
 66
     7
 43
1.0
 76
     1
 77
     6
 78
     2
 67
     7
 79
     5
170
     0
171
     0
290
     0
174
     0
 93
       13
 44
0.0
173
     0
291
     1
 45
0.0
  0
VISUALSTYLE
  5
52BCF
102
{ACAD_REACTORS
330
52BCD
102
}
330
52BCD
100
AcDbVisualStyle
  2
FlatWithEdges
 70
     1
 71
     2
 72
     1
 73
     1
 90
        2
 40
-0.6
 41
30.0
 62
     5
 63
     7
421
 16777215
 74
     1
 91
        4
 64
     7
 65
   257
 75
     1
175
     1
 42
1.0
 92
        0
 66
   257
 43
1.0
 76
     1
 77
     6
 78
     2
 67
     7
 79
     5
170
     0
171
     0
290
     0
174
     0
 93
       13
 44
0.0
173
     0
291
     1
 45
0.0
  0
VISUALSTYLE
  5
52BD0
102
{ACAD_REACTORS
330
52BCD
102
}
330
52BCD
100
AcDbVisualStyle
  2
Gouraud
 70
     2
 71
     2
 72
     2
 73
     1
 90
        2
 40
-0.6
 41
30.0
 62
     5
 63
     7
421
 16777215
 74
     0
 91
        4
 64
     7
 65
   257
 75
     1
175
     1
 42
1.0
 92
        0
 66
     7
 43
1.0
 76
     1
 77
     6
 78
     2
 67
     7
 79
     5
170
     0
171
     0
290
     0
174
     0
 93
       13
 44
0.0
173
     0
291
     1
 45
0.0
  0
VISUALSTYLE
  5
52BD1
102
{ACAD_REACTORS
330
52BCD
102
}
330
52BCD
100
AcDbVisualStyle
  2
GouraudWithEdges
 70
     3
 71
     2
 72
     2
 73
     1
 90
        2
 40
-0.6
 41
30.0
 62
     5
 63
     7
421
 16777215
 74
     1
 91
        4
 64
     7
 65
   257
 75
     1
175
     1
 42
1.0
 92
        0
 66
   257
 43
1.0
 76
     1
 77
     6
 78
     2
 67
     7
 79
     5
170
     0
171
     0
290
     0
174
     0
 93
       13
 44
0.0
173
     0
291
     1
 45
0.0
  0
VISUALSTYLE
  5
52BDB
102
{ACAD_REACTORS
330
52BCD
102
}
330
52BCD
100
AcDbVisualStyle
  2
Linepattern
 70
    14
 71
     2
 72
     2
 73
     0
 90
        0
 40
-0.6
 41
-30.0
 62
     5
 63
     7
421
 16777215
 74
     1
 91
        4
 64
     7
 65
   257
 75
     7
175
     7
 42
1.0
 92
        8
 66
     7
 43
1.0
 76
     1
 77
     6
 78
     2
 67
     7
 79
     5
170
     0
171
     0
290
     0
174
     0
 93
        1
 44
0.0
173
     0
291
     1
 45
0.0
  0
VISUALSTYLE
  5
52BD7
102
{ACAD_REACTORS
330
52BCD
102
}
330
52BCD
100
AcDbVisualStyle
  2
Realistic
 70
     8
 71
     2
 72
     2
 73
     0
 90
        0
 40
-0.6
 41
-30.0
 62
     5
 63
     7
421
 16777215
 74
     1
 91
        0
 64
     7
 65
   257
 75
     1
175
     1
 42
1.0
 92
        8
 66
     8
424
  7895160
 43
1.0
 76
     1
 77
     6
 78
     2
 67
     7
 79
     5
170
     0
171
     0
290
     0
174
     0
 93
       13
 44
0.0
173
     0
291
     0
 45
0.0
  0
VISUALSTYLE
  5
52BDA
102
{ACAD_REACTORS
330
52BCD
102
}
330
52BCD
100
AcDbVisualStyle
  2
Thicken
 70
    13
 71
     2
 72
     2
 73
     0
 90
        0
 40
-0.6
 41
-30.0
 62
     5
 63
     7
421
 16777215
 74
     1
 91
        4
 64
     7
 65
   257
 75
     1
175
     1
 42
1.0
 92
       12
 66
     7
 43
1.0
 76
     1
 77
     6
 78
     2
 67
     7
 79
     5
170
     0
171
     0
290
     0
174
     0
 93
        1
 44
0.0
173
     0
291
     1
 45
0.0
  0
DICTIONARYVAR
  5
52DB4
102
{ACAD_REACTORS
330
52DB0
102
}
330
52DB0
100
DictionaryVariables
280
     0
  1
1:1
  0
DICTIONARYVAR
  5
52DB2
102
{ACAD_REACTORS
330
52DB0
102
}
330
52DB0
100
DictionaryVariables
280
     0
  1
STANDARD
  0
DICTIONARYVAR
  5
52DB1
102
{ACAD_REACTORS
330
52DB0
102
}
330
52DB0
100
DictionaryVariables
280
     0
  1
STANDARD
  0
DICTIONARYVAR
  5
52DB6
102
{ACAD_REACTORS
330
52DB0
102
}
330
52DB0
100
DictionaryVariables
280
     0
  1
1
  0
DICTIONARYVAR
  5
52DB7
102
{ACAD_REACTORS
330
52DB0
102
}
330
52DB0
100
DictionaryVariables
280
     0
  1
15
  0
DICTIONARYVAR
  5
52DB5
102
{ACAD_REACTORS
330
52DB0
102
}
330
52DB0
100
DictionaryVariables
280
     0
  1
0
  0
DICTIONARYVAR
  5
52DB3
102
{ACAD_REACTORS
330
52DB0
102
}
330
52DB0
100
DictionaryVariables
280
     0
  1
0
  0
DICTIONARY
  5
53119
102
{ACAD_REACTORS
330
5310E
102
}
330
5310E
100
AcDbDictionary
281
     1
  0
DICTIONARY
  5
52BBE
330
52BBD
100
AcDbDictionary
280
     1
281
     1
  3
BUMPTILE
360
52BC0
  3
DIFFUSETILE
360
52BBF
  3
OPACITYTILE
360
52BC3
  3
REFLECTIONTILE
360
52BC2
  3
REFRACTIONTILE
360
52BC4
  3
SPECULARTILE
360
52BC1
  0
DICTIONARY
  5
52BB6
330
52BB5
100
AcDbDictionary
280
     1
281
     1
  3
BUMPTILE
360
52BB8
  3
DIFFUSETILE
360
52BB7
  3
OPACITYTILE
360
52BBB
  3
REFLECTIONTILE
360
52BBA
  3
REFRACTIONTILE
360
52BBC
  3
SPECULARTILE
360
52BB9
  0
DICTIONARY
  5
52BC6
330
52BC5
100
AcDbDictionary
280
     1
281
     1
  3
BUMPTILE
360
52BC8
  3
DIFFUSETILE
360
52BC7
  3
OPACITYTILE
360
52BCB
  3
REFLECTIONTILE
360
52BCA
  3
REFRACTIONTILE
360
52BCC
  3
SPECULARTILE
360
52BC9
  0
DICTIONARY
  5
52DB8
330
52C10
100
AcDbDictionary
280
     1
281
     1
  3
ACAD_ROUNDTRIP_2008_TABLESTYLE_CELLSTYLEMAP
360
53A11
  0
XRECORD
  5
52BC0
102
{ACAD_REACTORS
330
52BBE
102
}
330
52BBE
100
AcDbXrecord
280
     1
270
     1
271
     1
  0
XRECORD
  5
52BBF
102
{ACAD_REACTORS
330
52BBE
102
}
330
52BBE
100
AcDbXrecord
280
     1
270
     1
271
     1
  0
XRECORD
  5
52BC3
102
{ACAD_REACTORS
330
52BBE
102
}
330
52BBE
100
AcDbXrecord
280
     1
270
     1
271
     1
  0
XRECORD
  5
52BC2
102
{ACAD_REACTORS
330
52BBE
102
}
330
52BBE
100
AcDbXrecord
280
     1
270
     1
271
     1
  0
XRECORD
  5
52BC4
102
{ACAD_REACTORS
330
52BBE
102
}
330
52BBE
100
AcDbXrecord
280
     1
270
     1
271
     1
  0
XRECORD
  5
52BC1
102
{ACAD_REACTORS
330
52BBE
102
}
330
52BBE
100
AcDbXrecord
280
     1
270
     1
271
     1
  0
XRECORD
  5
52BB8
102
{ACAD_REACTORS
330
52BB6
102
}
330
52BB6
100
AcDbXrecord
280
     1
270
     1
271
     1
  0
XRECORD
  5
52BB7
102
{ACAD_REACTORS
330
52BB6
102
}
330
52BB6
100
AcDbXrecord
280
     1
270
     1
271
     1
  0
XRECORD
  5
52BBB
102
{ACAD_REACTORS
330
52BB6
102
}
330
52BB6
100
AcDbXrecord
280
     1
270
     1
271
     1
  0
XRECORD
  5
52BBA
102
{ACAD_REACTORS
330
52BB6
102
}
330
52BB6
100
AcDbXrecord
280
     1
270
     1
271
     1
  0
XRECORD
  5
52BBC
102
{ACAD_REACTORS
330
52BB6
102
}
330
52BB6
100
AcDbXrecord
280
     1
270
     1
271
     1
  0
XRECORD
  5
52BB9
102
{ACAD_REACTORS
330
52BB6
102
}
330
52BB6
100
AcDbXrecord
280
     1
270
     1
271
     1
  0
XRECORD
  5
52BC8
102
{ACAD_REACTORS
330
52BC6
102
}
330
52BC6
100
AcDbXrecord
280
     1
270
     1
271
     1
  0
XRECORD
  5
52BC7
102
{ACAD_REACTORS
330
52BC6
102
}
330
52BC6
100
AcDbXrecord
280
     1
270
     1
271
     1
  0
XRECORD
  5
52BCB
102
{ACAD_REACTORS
330
52BC6
102
}
330
52BC6
100
AcDbXrecord
280
     1
270
     1
271
     1
  0
XRECORD
  5
52BCA
102
{ACAD_REACTORS
330
52BC6
102
}
330
52BC6
100
AcDbXrecord
280
     1
270
     1
271
     1
  0
XRECORD
  5
52BCC
102
{ACAD_REACTORS
330
52BC6
102
}
330
52BC6
100
AcDbXrecord
280
     1
270
     1
271
     1
  0
XRECORD
  5
52BC9
102
{ACAD_REACTORS
330
52BC6
102
}
330
52BC6
100
AcDbXrecord
280
     1
270
     1
271
     1
  0
CELLSTYLEMAP
  5
53A11
102
{ACAD_REACTORS
330
52DB8
102
}
330
52DB8
100
AcDbCellStyleMap
 90
        3
300
CELLSTYLE
  1
TABLEFORMAT_BEGIN
 90
        5
170
     1
 91
        0
 92
    32768
 62
   257
 93
        1
300
CONTENTFORMAT
  1
CONTENTFORMAT_BEGIN
 90
        0
 91
        0
 92
      512
 93
        0
300

 40
0.0
140
1.0
 94
        5
 62
     0
340
52C01
144
0.25
309
CONTENTFORMAT_END
171
     1
301
MARGIN
  1
CELLMARGIN_BEGIN
 40
0.06
 40
0.06
 40
0.06
 40
0.06
 40
0.18
 40
0.18
309
CELLMARGIN_END
 94
        6
 95
        1
302
GRIDFORMAT
  1
GRIDFORMAT_BEGIN
 90
        0
 91
        1
 62
     0
 92
       -2
340
0
 93
        0
 40
0.045
309
GRIDFORMAT_END
 95
        2
302
GRIDFORMAT
  1
GRIDFORMAT_BEGIN
 90
        0
 91
        1
 62
     0
 92
       -2
340
0
 93
        0
 40
0.045
309
GRIDFORMAT_END
 95
        4
302
GRIDFORMAT
  1
GRIDFORMAT_BEGIN
 90
        0
 91
        1
 62
     0
 92
       -2
340
0
 93
        0
 40
0.045
309
GRIDFORMAT_END
 95
        8
302
GRIDFORMAT
  1
GRIDFORMAT_BEGIN
 90
        0
 91
        1
 62
     0
 92
       -2
340
0
 93
        0
 40
0.045
309
GRIDFORMAT_END
 95
       16
302
GRIDFORMAT
  1
GRIDFORMAT_BEGIN
 90
        0
 91
        1
 62
     0
 92
       -2
340
0
 93
        0
 40
0.045
309
GRIDFORMAT_END
 95
       32
302
GRIDFORMAT
  1
GRIDFORMAT_BEGIN
 90
        0
 91
        1
 62
     0
 92
       -2
340
0
 93
        0
 40
0.045
309
GRIDFORMAT_END
309
TABLEFORMAT_END
  1
CELLSTYLE_BEGIN
 90
        1
 91
        1
300
_TITLE
309
CELLSTYLE_END
300
CELLSTYLE
  1
TABLEFORMAT_BEGIN
 90
        5
170
     1
 91
        0
 92
        0
 62
   257
 93
        1
300
CONTENTFORMAT
  1
CONTENTFORMAT_BEGIN
 90
        0
 91
        0
 92
      512
 93
        0
300

 40
0.0
140
1.0
 94
        5
 62
     0
340
52C01
144
0.18
309
CONTENTFORMAT_END
171
     1
301
MARGIN
  1
CELLMARGIN_BEGIN
 40
0.06
 40
0.06
 40
0.06
 40
0.06
 40
0.18
 40
0.18
309
CELLMARGIN_END
 94
        6
 95
        1
302
GRIDFORMAT
  1
GRIDFORMAT_BEGIN
 90
        0
 91
        1
 62
     0
 92
       -2
340
0
 93
        0
 40
0.045
309
GRIDFORMAT_END
 95
        2
302
GRIDFORMAT
  1
GRIDFORMAT_BEGIN
 90
        0
 91
        1
 62
     0
 92
       -2
340
0
 93
        0
 40
0.045
309
GRIDFORMAT_END
 95
        4
302
GRIDFORMAT
  1
GRIDFORMAT_BEGIN
 90
        0
 91
        1
 62
     0
 92
       -2
340
0
 93
        0
 40
0.045
309
GRIDFORMAT_END
 95
        8
302
GRIDFORMAT
  1
GRIDFORMAT_BEGIN
 90
        0
 91
        1
 62
     0
 92
       -2
340
0
 93
        0
 40
0.045
309
GRIDFORMAT_END
 95
       16
302
GRIDFORMAT
  1
GRIDFORMAT_BEGIN
 90
        0
 91
        1
 62
     0
 92
       -2
340
0
 93
        0
 40
0.045
309
GRIDFORMAT_END
 95
       32
302
GRIDFORMAT
  1
GRIDFORMAT_BEGIN
 90
        0
 91
        1
 62
     0
 92
       -2
340
0
 93
        0
 40
0.045
309
GRIDFORMAT_END
309
TABLEFORMAT_END
  1
CELLSTYLE_BEGIN
 90
        2
 91
        1
300
_HEADER
309
CELLSTYLE_END
300
CELLSTYLE
  1
TABLEFORMAT_BEGIN
 90
        5
170
     1
 91
        0
 92
        0
 62
   257
 93
        1
300
CONTENTFORMAT
  1
CONTENTFORMAT_BEGIN
 90
        0
 91
        0
 92
      512
 93
        0
300

 40
0.0
140
1.0
 94
        2
 62
     0
340
52C01
144
0.18
309
CONTENTFORMAT_END
171
     1
301
MARGIN
  1
CELLMARGIN_BEGIN
 40
0.06
 40
0.06
 40
0.06
 40
0.06
 40
0.18
 40
0.18
309
CELLMARGIN_END
 94
        6
 95
        1
302
GRIDFORMAT
  1
GRIDFORMAT_BEGIN
 90
        0
 91
        1
 62
     0
 92
       -2
340
0
 93
        0
 40
0.045
309
GRIDFORMAT_END
 95
        2
302
GRIDFORMAT
  1
GRIDFORMAT_BEGIN
 90
        0
 91
        1
 62
     0
 92
       -2
340
0
 93
        0
 40
0.045
309
GRIDFORMAT_END
 95
        4
302
GRIDFORMAT
  1
GRIDFORMAT_BEGIN
 90
        0
 91
        1
 62
     0
 92
       -2
340
0
 93
        0
 40
0.045
309
GRIDFORMAT_END
 95
        8
302
GRIDFORMAT
  1
GRIDFORMAT_BEGIN
 90
        0
 91
        1
 62
     0
 92
       -2
340
0
 93
        0
 40
0.045
309
GRIDFORMAT_END
 95
       16
302
GRIDFORMAT
  1
GRIDFORMAT_BEGIN
 90
        0
 91
        1
 62
     0
 92
       -2
340
0
 93
        0
 40
0.045
309
GRIDFORMAT_END
 95
       32
302
GRIDFORMAT
  1
GRIDFORMAT_BEGIN
 90
        0
 91
        1
 62
     0
 92
       -2
340
0
 93
        0
 40
0.045
309
GRIDFORMAT_END
309
TABLEFORMAT_END
  1
CELLSTYLE_BEGIN
 90
        3
 91
        2
300
_DATA
309
CELLSTYLE_END
  0
ENDSEC
  0
EOF
