  0
SECTION
  2
HEADER
  9
$ACADVER
  1
AC1009
  9
$INSBASE
 10
0.0
 20
0.0
 30
0.0
  9
$EXTMIN
 10
20339.66950194669
 20
17201.68098644269
 30
0.0
  9
$EXTMAX
 10
21746.609525704491
 20
18340.091320628391
 30
0.0
  9
$LIMMIN
 10
0.0
 20
0.0
  9
$LIMMAX
 10
420.0
 20
297.0
  9
$ORTHOMODE
 70
     0
  9
$REGENMODE
 70
     1
  9
$FILLMODE
 70
     1
  9
$QTEXTMODE
 70
     0
  9
$MIRRTEXT
 70
     0
  9
$DRAGMODE
 70
     2
  9
$LTSCALE
 40
1.0
  9
$OSMODE
 70
    39
  9
$ATTMODE
 70
     1
  9
$TEXTSIZE
 40
2.5
  9
$TRACEWID
 40
1.0
  9
$TEXTSTYLE
  7
STANDARD
  9
$CLAYER
  8
0
  9
$CELTYPE
  6
BYLAYER
  9
$CECOLOR
 62
   256
  9
$DIMSCALE
 40
1.0
  9
$DIMASZ
 40
3.5
  9
$DIMEXO
 40
1.0
  9
$DIMDLI
 40
10.0
  9
$DIMRND
 40
0.0
  9
$DIMDLE
 40
0.0
  9
$DIMEXE
 40
1.0
  9
$DIMTP
 40
0.1
  9
$DIMTM
 40
0.1
  9
$DIMTXT
 40
3.5
  9
$DIMCEN
 40
0.0
  9
$DIMTSZ
 40
0.0
  9
$DIMTOL
 70
     0
  9
$DIMLIM
 70
     0
  9
$DIMTIH
 70
     0
  9
$DIMTOH
 70
     0
  9
$DIMSE1
 70
     0
  9
$DIMSE2
 70
     0
  9
$DIMTAD
 70
     1
  9
$DIMZIN
 70
     8
  9
$DIMBLK
  1

  9
$DIMASO
 70
     1
  9
$DIMSHO
 70
     1
  9
$DIMPOST
  1

  9
$DIMAPOST
  1
"
  9
$DIMALT
 70
     0
  9
$DIMALTD
 70
     2
  9
$DIMALTF
 40
0.0393701
  9
$DIMLFAC
 40
1.0
  9
$DIMTOFL
 70
     1
  9
$DIMTVP
 40
0.0
  9
$DIMTIX
 70
     0
  9
$DIMSOXD
 70
     0
  9
$DIMSAH
 70
     0
  9
$DIMBLK1
  1

  9
$DIMBLK2
  1

  9
$DIMSTYLE
  2
AM_ISO
  9
$DIMCLRD
 70
   256
  9
$DIMCLRE
 70
   256
  9
$DIMCLRT
 70
     2
  9
$DIMTFAC
 40
0.71
  9
$DIMGAP
 40
1.5
  9
$LUNITS
 70
     2
  9
$LUPREC
 70
     2
  9
$SKETCHINC
 40
1.0
  9
$FILLETRAD
 40
2.5
  9
$AUNITS
 70
     0
  9
$AUPREC
 70
     0
  9
$MENU
  1
.
  9
$ELEVATION
 40
0.0
  9
$PELEVATION
 40
0.0
  9
$THICKNESS
 40
0.0
  9
$LIMCHECK
 70
     0
  9
$BLIPMODE
 70
     0
  9
$CHAMFERA
 40
2.5
  9
$CHAMFERB
 40
2.5
  9
$SKPOLY
 70
     0
  9
$TDCREATE
 40
2455251.6429182058
  9
$TDUPDATE
 40
2455251.7061743401
  9
$TDINDWG
 40
0.0388546875
  9
$TDUSRTIMER
 40
0.0388545602
  9
$USRTIMER
 70
     1
  9
$ANGBASE
 50
0.0
  9
$ANGDIR
 70
     0
  9
$PDMODE
 70
     0
  9
$PDSIZE
 40
0.0
  9
$PLINEWID
 40
0.0
  9
$COORDS
 70
     1
  9
$SPLFRAME
 70
     0
  9
$SPLINETYPE
 70
     6
  9
$SPLINESEGS
 70
     8
  9
$ATTDIA
 70
     0
  9
$ATTREQ
 70
     1
  9
$HANDLING
 70
     1
  9
$HANDSEED
  5
27D9C
  9
$SURFTAB1
 70
     6
  9
$SURFTAB2
 70
     6
  9
$SURFTYPE
 70
     6
  9
$SURFU
 70
     6
  9
$SURFV
 70
     6
  9
$UCSNAME
  2

  9
$UCSORG
 10
0.0
 20
0.0
 30
0.0
  9
$UCSXDIR
 10
1.0
 20
0.0
 30
0.0
  9
$UCSYDIR
 10
0.0
 20
1.0
 30
0.0
  9
$PUCSNAME
  2

  9
$PUCSORG
 10
0.0
 20
0.0
 30
0.0
  9
$PUCSXDIR
 10
1.0
 20
0.0
 30
0.0
  9
$PUCSYDIR
 10
0.0
 20
1.0
 30
0.0
  9
$USERI1
 70
     0
  9
$USERI2
 70
     0
  9
$USERI3
 70
     0
  9
$USERI4
 70
     0
  9
$USERI5
 70
     0
  9
$USERR1
 40
0.0
  9
$USERR2
 40
0.0
  9
$USERR3
 40
0.0
  9
$USERR4
 40
0.0
  9
$USERR5
 40
0.0
  9
$WORLDVIEW
 70
     1
  9
$SHADEDGE
 70
     3
  9
$SHADEDIF
 70
    70
  9
$TILEMODE
 70
     1
  9
$MAXACTVP
 70
    64
  9
$PLIMCHECK
 70
     0
  9
$PEXTMIN
 10
1.0000000000000000E+020
 20
1.0000000000000000E+020
 30
1.0000000000000000E+020
  9
$PEXTMAX
 10
-1.0000000000000000E+020
 20
-1.0000000000000000E+020
 30
-1.0000000000000000E+020
  9
$PLIMMIN
 10
0.0
 20
0.0
  9
$PLIMMAX
 10
420.0
 20
297.0
  9
$UNITMODE
 70
     0
  9
$VISRETAIN
 70
     1
  9
$PLINEGEN
 70
     0
  9
$PSLTSCALE
 70
     1
  0
ENDSEC
  0
SECTION
  2
TABLES
  0
TABLE
  2
VPORT
 70
     1
  0
VPORT
  2
*ACTIVE
 70
     0
 10
0.0
 20
0.0
 11
1.0
 21
1.0
 12
22101.591453183621
 22
17771.16954472804
 13
0.0
 23
0.0
 14
2.5
 24
2.5
 15
10.0
 25
10.0
 16
0.0
 26
0.0
 36
1.0
 17
0.0
 27
0.0
 37
0.0
 40
1542.003037812209
 41
2.2952182952182949
 42
50.0
 43
0.0
 44
0.0
 50
0.0
 51
0.0
 71
     0
 72
  1000
 73
     1
 74
     3
 75
     0
 76
     0
 77
     0
 78
     0
  0
ENDTAB
  0
TABLE
  2
LTYPE
 70
    16
  0
LTYPE
  2
CONTINUOUS
 70
     0
  3
Solid line
 72
    65
 73
     0
 40
0.0
  0
LTYPE
  2
DASHED2
 70
     0
  3
Dashed (.5x) _ _ _ _ _ _ _ _ _ _ _ _ _ _ _ _ _
 72
    65
 73
     2
 40
9.5249999999999986
 49
6.3499999999999979
 49
-3.174999999999998
  0
ENDTAB
  0
TABLE
  2
LAYER
 70
     6
  0
LAYER
  2
0
 70
     0
 62
     7
  6
CONTINUOUS
  0
LAYER
  2
LAYER1
 70
     0
 62
     1
  6
CONTINUOUS
  0
LAYER
  2
DEFPOINTS
 70
     0
 62
     7
  6
CONTINUOUS
  0
LAYER
  2
DIMS_SPECS
 70
     0
 62
    41
  6
CONTINUOUS
  0
LAYER
  2
CUTOUT
 70
     0
 62
    60
  6
CONTINUOUS
  0
ENDTAB
  0
TABLE
  2
STYLE
 70
     9
  0
STYLE
  2
STANDARD
 70
     0
 40
0.0
 41
1.0
 50
0.0
 71
     0
 42
2.5
  3
ISOCP.SHX
  4

  0
STYLE
  2
ACISOTS
 70
     0
 40
1.0
 41
1.0
 50
0.0
 71
     0
 42
2.5
  3
isocp.shx
  4

  0
STYLE
  2
ABODE-ISO
 70
     0
 40
17.0
 41
0.9
 50
0.0
 71
     0
 42
0.2
  3
txt
  4

  0
ENDTAB
  0
TABLE
  2
VIEW
 70
     0
  0
ENDTAB
  0
TABLE
  2
UCS
 70
     0
  0
ENDTAB
  0
TABLE
  2
APPID
 70
    21
  0
APPID
  2
ACAD
 70
     0
  0
APPID
  2
ACADANNOTATIVE
 70
     0
  0
APPID
  2
ACAD_MLEADERVER
 70
     0
  0
APPID
  2
MCAD_NO_VIS
 70
     0
  0
APPID
  2
ACAD_TEMP_GRAPHIC
 70
     0
  0
APPID
  2
AD_DRAW
 70
     0
  0
APPID
  2
ACATTRIBSERVICES
 70
     0
  0
APPID
  2
DESIGNERASSEMBLIES
 70
     0
  0
APPID
  2
ACADM_DIM_EDIT
 70
     0
  0
APPID
  2
AMDT_DM_ADJ
 70
     0
  0
APPID
  2
ACAD_DSTYLE_DIMJOGGED_JOGA
 70
     0
  0
APPID
  2
ACAECLAYERSTANDARD
 70
     0
  0
APPID
  2
ACAD_PSEXT
 70
     0
  0
APPID
  2
ACAD_DSTYLE_DIMJAG
 70
     0
  0
APPID
  2
ACAD_DSTYLE_DIMTALN
 70
     0
  0
APPID
  2
GENIUS_GENODEF_13
 70
     0
  0
APPID
  2
ACAD_DSTYLE_DIMINSPECT
 70
     0
  0
APPID
  2
GENIUS_GENREC_14
 70
     0
  0
APPID
  2
GENIUS_GENOBJ-N-REC_13
 70
     0
  0
APPID
  2
ACAD_DSTYLE_DIMRADIAL_EXTENSION
 70
     0
  0
APPID
  2
ACAD_DSTYLE_DIMBREAK
 70
     0
  0
ENDTAB
  0
TABLE
  2
DIMSTYLE
 70
    16
  0
DIMSTYLE
  2
STANDARD
 70
     0
  3

  4

  5

  6

  7

 40
1.0
 41
0.18
 42
0.0625
 43
0.38
 44
0.18
 45
0.0
 46
0.0
 47
0.0
 48
0.0
140
0.18
141
0.09
142
0.0
143
25.399999999999999
144
1.0
145
0.0
146
1.0
147
0.09
 71
     0
 72
     0
 73
     1
 74
     1
 75
     0
 76
     0
 77
     0
 78
     0
170
     0
171
     2
172
     0
173
     0
174
     0
175
     0
176
     0
177
     0
178
     0
  0
DIMSTYLE
  2
AM_ISO
 70
     0
  3

  4
"
  5

  6

  7

 40
1.0
 41
3.5
 42
1.0
 43
10.0
 44
1.0
 45
0.0
 46
0.0
 47
0.1
 48
0.1
140
3.5
141
0.0
142
0.0
143
0.0393701
144
1.0
145
0.0
146
0.71
147
1.5
 71
     0
 72
     0
 73
     0
 74
     0
 75
     0
 76
     0
 77
     1
 78
     8
170
     0
171
     2
172
     1
173
     0
174
     0
175
     0
176
   256
177
   256
178
     2
  0
ENDTAB
  0
ENDSEC
  0
SECTION
  2
BLOCKS
  0
BLOCK
  8
0
  2
$MODEL_SPACE
 70
     0
 10
0.0
 20
0.0
 30
0.0
  3
$MODEL_SPACE
  1

  0
ENDBLK
  5
273BE
  8
0
  0
BLOCK
 67
     1
  8
0
  2
$PAPER_SPACE
 70
     0
 10
0.0
 20
0.0
 30
0.0
  3
$PAPER_SPACE
  1

  0
ENDBLK
  5
273BA
 67
     1
  8
0
  0
BLOCK
  8
0
  2
FILLED-1
 70
     0
 10
0.0
 20
0.0
 30
0.0
  3
FILLED-1
  1

  0
LINE
  5
13A
  8
0
 62
     0
 10
-1.0
 20
0.0
 30
0.0
 11
0.0
 21
0.0
 31
0.0
  0
POLYLINE
  5
13B
  8
0
 62
     0
 66
     1
 10
0.0
 20
0.0
 30
0.0
 70
   128
  0
VERTEX
  5
27D79
  8
0
 62
     0
 10
-1.0
 20
-0.3333333333333333
 30
0.0
  0
VERTEX
  5
27D7A
  8
0
 62
     0
 10
0.0
 20
0.0
 30
0.0
  0
VERTEX
  5
27D7B
  8
0
 62
     0
 10
-1.0
 20
0.3333333333333333
 30
0.0
  0
VERTEX
  5
27D7C
  8
0
 62
     0
 10
-1.0
 20
-0.3333333333333333
 30
0.0
  0
SEQEND
  5
27D7D
  8
0
 62
     0
  0
SOLID
  5
141
  8
0
 62
     0
 10
-1.0
 20
-0.3333333333333333
 30
0.0
 11
0.0
 21
0.0
 31
0.0
 12
-1.0
 22
0.3333333333333333
 32
0.0
 13
-1.0
 23
-0.3333333333333333
 33
0.0
  0
LINE
  5
142
  8
0
 62
     0
 10
-1.0
 20
-0.3333333333333333
 30
0.0
 11
0.0
 21
0.0
 31
0.0
  0
LINE
  5
143
  8
0
 62
     0
 10
0.0
 20
0.0
 30
0.0
 11
-1.0
 21
0.3333333333333333
 31
0.0
  0
LINE
  5
144
  8
0
 62
     0
 10
-1.0
 20
0.3333333333333333
 30
0.0
 11
-1.0
 21
-0.3333333333333333
 31
0.0
  0
ENDBLK
  5
145
  8
0
  0
BLOCK
  8
0
  2
*D993
 70
     1
 10
0.0
 20
0.0
 30
0.0
  3
*D993
  1

  0
LINE
  5
25B94
  8
DIMS_SPECS
 10
20837.59623293937
 20
17286.705180607711
 30
0.0
 11
20837.59623293937
 21
17269.634565587548
 31
0.0
  0
LINE
  5
25B95
  8
DIMS_SPECS
 10
20856.596232939381
 20
17276.705128520869
 30
0.0
 11
20856.596232939381
 21
17269.634565587548
 31
0.0
  0
LINE
  5
25B96
  8
DIMS_SPECS
 10
20869.096232939381
 20
17269.634565587548
 30
0.0
 11
20881.596232939381
 21
17269.634565587548
 31
0.0
  0
LINE
  5
25B97
  8
DIMS_SPECS
 10
20825.09623293937
 20
17269.634565587548
 30
0.0
 11
20777.158095617819
 21
17269.634565587548
 31
0.0
  0
LINE
  5
25B98
  8
DIMS_SPECS
 10
20856.596232939381
 20
17269.634565587548
 30
0.0
 11
20837.59623293937
 21
17269.634565587548
 31
0.0
  0
INSERT
  5
25B99
  8
DIMS_SPECS
  2
FILLED-1
 10
20856.596232939381
 20
17269.634565587548
 30
0.0
 41
12.5
 42
12.5
 43
12.5
 50
180.0
  0
INSERT
  5
25B9A
  8
DIMS_SPECS
  2
FILLED-1
 10
20837.59623293937
 20
17269.634565587548
 30
0.0
 41
12.5
 42
12.5
 43
12.5
  0
INSERT
  5
25B9B
  8
0
  2
*U994
 10
0.0
 20
0.0
 30
0.0
  0
POINT
  5
25B9C
  8
DEFPOINTS
 62
     0
 10
20837.59623293937
 20
17301.7051806077
 30
0.0
  0
POINT
  5
25B9D
  8
DEFPOINTS
 62
     0
 10
20856.596232939381
 20
17291.705128520869
 30
0.0
  0
POINT
  5
25B9E
  8
DEFPOINTS
 62
     0
 10
20856.596232939381
 20
17269.634565587548
 30
0.0
  0
ENDBLK
  5
25B93
  8
0
  0
BLOCK
  8
0
  2
*U994
 70
     1
 10
0.0
 20
0.0
 30
0.0
  3
*U994
  1

  0
TEXT
  5
271B2
  8
DIMS_SPECS
 10
20781.63137909845
 20
17277.775965995439
 30
0.0
 40
17.0
  1
19
 41
0.9
  7
ABODE-ISO
  0
ENDBLK
  5
271B4
  8
0
  0
BLOCK
  8
0
  2
*D995
 70
     1
 10
0.0
 20
0.0
 30
0.0
  3
*D995
  1

  0
LINE
  5
25BA2
  8
DIMS_SPECS
 10
20856.596232939381
 20
17276.705128520869
 30
0.0
 11
20856.596232939381
 21
17251.203471539611
 31
0.0
  0
LINE
  5
25BA3
  8
DIMS_SPECS
 10
21254.888408232371
 20
17276.705128520869
 30
0.0
 11
21254.888408232371
 21
17251.203471539611
 31
0.0
  0
LINE
  5
25BA4
  8
DIMS_SPECS
 10
20869.096232939381
 20
17251.203471539611
 30
0.0
 11
21242.388408232349
 21
17251.203471539611
 31
0.0
  0
INSERT
  5
25BA5
  8
DIMS_SPECS
  2
FILLED-1
 10
20856.596232939381
 20
17251.203471539611
 30
0.0
 41
12.5
 42
12.5
 43
12.5
 50
180.0
  0
INSERT
  5
25BA6
  8
DIMS_SPECS
  2
FILLED-1
 10
21254.888408232371
 20
17251.203471539611
 30
0.0
 41
12.5
 42
12.5
 43
12.5
  0
INSERT
  5
25BA7
  8
0
  2
*U996
 10
0.0
 20
0.0
 30
0.0
  0
POINT
  5
25BA8
  8
DEFPOINTS
 62
     0
 10
20856.596232939381
 20
17291.705128520869
 30
0.0
  0
POINT
  5
25BA9
  8
DEFPOINTS
 62
     0
 10
21254.888408232371
 20
17291.705128520869
 30
0.0
  0
POINT
  5
25BAA
  8
DEFPOINTS
 62
     0
 10
21254.888408232371
 20
17251.203471539611
 30
0.0
  0
ENDBLK
  5
25BA1
  8
0
  0
BLOCK
  8
0
  2
*U996
 70
     1
 10
0.0
 20
0.0
 30
0.0
  3
*U996
  1

  0
TEXT
  5
271B6
  8
DIMS_SPECS
 10
21027.691551704189
 20
17259.344871947502
 30
0.0
 40
17.0
  1
397
 41
0.9
  7
ABODE-ISO
  0
ENDBLK
  5
271B8
  8
0
  0
BLOCK
  8
0
  2
*D997
 70
     1
 10
0.0
 20
0.0
 30
0.0
  3
*D997
  1

  0
LINE
  5
25BAE
  8
DIMS_SPECS
 10
20837.59623293937
 20
17286.705180607711
 30
0.0
 11
20837.59623293937
 21
17205.847653109358
 31
0.0
  0
LINE
  5
25BAF
  8
DIMS_SPECS
 10
21677.596232939381
 20
17286.705128520869
 30
0.0
 11
21677.596232939381
 21
17205.847653109358
 31
0.0
  0
LINE
  5
25BB0
  8
DIMS_SPECS
 10
20850.09623293937
 20
17205.847653109358
 30
0.0
 11
21665.096232939381
 21
17205.847653109358
 31
0.0
  0
INSERT
  5
25BB1
  8
DIMS_SPECS
  2
FILLED-1
 10
20837.59623293937
 20
17205.847653109358
 30
0.0
 41
12.5
 42
12.5
 43
12.5
 50
180.0
  0
INSERT
  5
25BB2
  8
DIMS_SPECS
  2
FILLED-1
 10
21677.596232939381
 20
17205.847653109358
 30
0.0
 41
12.5
 42
12.5
 43
12.5
  0
INSERT
  5
25BB3
  8
0
  2
*U998
 10
0.0
 20
0.0
 30
0.0
  0
POINT
  5
25BB4
  8
DEFPOINTS
 62
     0
 10
20837.59623293937
 20
17301.7051806077
 30
0.0
  0
POINT
  5
25BB5
  8
DEFPOINTS
 62
     0
 10
21677.596232939381
 20
17301.705128520869
 30
0.0
  0
POINT
  5
25BB6
  8
DEFPOINTS
 62
     0
 10
21677.596232939381
 20
17205.847653109358
 30
0.0
  0
ENDBLK
  5
25BAD
  8
0
  0
BLOCK
  8
0
  2
*U998
 70
     1
 10
0.0
 20
0.0
 30
0.0
  3
*U998
  1

  0
TEXT
  5
271BA
  8
DIMS_SPECS
 10
21263.580724324649
 20
17213.989053517242
 30
0.0
 40
17.0
  1
840
 41
0.9
  7
ABODE-ISO
  0
ENDBLK
  5
271BC
  8
0
  0
BLOCK
  8
0
  2
*D999
 70
     1
 10
0.0
 20
0.0
 30
0.0
  3
*D999
  1

  0
LINE
  5
25BBA
  8
DIMS_SPECS
 10
21682.596232939381
 20
17291.705128520869
 30
0.0
 11
21723.052886047972
 21
17291.705128520869
 31
0.0
  0
LINE
  5
25BBB
  8
DIMS_SPECS
 10
21682.596232939381
 20
17771.705128520869
 30
0.0
 11
21723.052886047972
 21
17771.705128520869
 31
0.0
  0
LINE
  5
25BBC
  8
DIMS_SPECS
 10
21723.052886047972
 20
17304.205128520869
 30
0.0
 11
21723.052886047972
 21
17515.277528248949
 31
0.0
  0
LINE
  5
25BBD
  8
DIMS_SPECS
 10
21723.052886047972
 20
17759.205128520869
 30
0.0
 11
21723.052886047972
 21
17548.1327287928
 31
0.0
  0
INSERT
  5
25BBE
  8
DIMS_SPECS
  2
FILLED-1
 10
21723.052886047972
 20
17291.705128520869
 30
0.0
 41
12.5
 42
12.5
 43
12.5
 50
270.0
  0
INSERT
  5
25BBF
  8
DIMS_SPECS
  2
FILLED-1
 10
21723.052886047972
 20
17771.705128520869
 30
0.0
 41
12.5
 42
12.5
 43
12.5
 50
90.0
  0
INSERT
  5
25BC0
  8
0
  2
*U1000
 10
0.0
 20
0.0
 30
0.0
  0
POINT
  5
25BC1
  8
DEFPOINTS
 62
     0
 10
21667.596232939381
 20
17291.705128520869
 30
0.0
  0
POINT
  5
25BC2
  8
DEFPOINTS
 62
     0
 10
21667.596232939381
 20
17771.705128520869
 30
0.0
  0
POINT
  5
25BC3
  8
DEFPOINTS
 62
     0
 10
21723.052886047972
 20
17771.705128520869
 30
0.0
  0
ENDBLK
  5
25BB9
  8
0
  0
BLOCK
  8
0
  2
*U1000
 70
     1
 10
0.0
 20
0.0
 30
0.0
  3
*U1000
  1

  0
TEXT
  5
271BE
  8
DIMS_SPECS
 10
21705.417841860351
 20
17523.41892865684
 30
0.0
 40
17.0
  1
480
 41
0.9
  7
ABODE-ISO
  0
ENDBLK
  5
271C0
  8
0
  0
BLOCK
  8
0
  2
*D1001
 70
     1
 10
0.0
 20
0.0
 30
0.0
  3
*D1001
  1

  0
LINE
  5
25BC7
  8
DIMS_SPECS
 10
21746.609525704491
 20
17254.132068001269
 30
0.0
 11
21705.20197981731
 21
17254.132068001269
 31
0.0
  0
LINE
  5
25BC8
  8
DIMS_SPECS
 10
21705.20197981731
 20
17254.132068001269
 30
0.0
 11
21681.549213606599
 21
17284.05394356063
 31
0.0
  0
INSERT
  5
25BC9
  8
0
  2
*U1002
 10
0.0
 20
0.0
 30
0.0
  0
LINE
  5
25BCA
  8
DIMS_SPECS
 10
21667.596232939391
 20
17301.70512852088
 30
0.0
 11
21673.797557680369
 21
17293.860157427429
 31
0.0
  0
INSERT
  5
25BCB
  8
DIMS_SPECS
  2
FILLED-1
 10
21673.797557680369
 20
17293.860157427429
 30
0.0
 41
12.5
 42
12.5
 43
12.5
 50
128.32580907940519
  0
POINT
  5
25BCC
  8
DEFPOINTS
 62
     0
 10
21673.797557680369
 20
17293.860157427429
 30
0.0
  0
POINT
  5
25BCD
  8
DEFPOINTS
 62
     0
 10
21667.596232939391
 20
17301.70512852088
 30
0.0
  0
ENDBLK
  5
25BC6
  8
0
  0
BLOCK
  8
0
  2
*U1002
 70
     1
 10
0.0
 20
0.0
 30
0.0
  3
*U1002
  1

  0
TEXT
  5
271C2
  8
DIMS_SPECS
 10
21710.756976418281
 20
17262.273468409159
 30
0.0
 40
17.0
  1
R10
 41
0.9
  7
ABODE-ISO
  0
ENDBLK
  5
271C4
  8
0
  0
BLOCK
  8
0
  2
*U1198
 70
     1
 10
0.0
 20
0.0
 30
0.0
  3
*U1198
  1

  0
TEXT
  5
27186
  8
CUTOUT
 10
21116.77920450726
 20
17584.198744293019
 30
0.0
 40
40.0
  1
BOWL(S),
  0
TEXT
  5
27187
  8
CUTOUT
 10
21056.77920450726
 20
17517.532077626351
 30
0.0
 40
40.0
  1
OVERFLOW,
  0
TEXT
  5
27188
  8
CUTOUT
 10
21082.77920450726
 20
17450.86541095969
 30
0.0
 40
40.0
  1
TAP AREA
  0
ENDBLK
  5
2718A
  8
0
  0
BLOCK
  8
0
  2
*U1199
 70
     1
 10
0.0
 20
0.0
 30
0.0
  3
*U1199
  1

  0
TEXT
  5
27195
  8
CUTOUT
 10
21186.586106818741
 20
17790.372749202521
 30
0.0
 40
40.0
  1
INSET CUT OUT
  0
ENDBLK
  5
27197
  8
0
  0
BLOCK
  8
0
  2
*U1200
 70
     1
 10
0.0
 20
0.0
 30
0.0
  3
*U1200
  1

  0
TEXT
  5
27199
  8
0
 62
     1
 10
20356.944372941311
 20
17636.283541265431
 30
0.0
 40
8.0
  1
All details are provided in good faith and
  7
ACISOTS
  0
TEXT
  5
2719A
  8
0
 62
     1
 10
20338.496372941321
 20
17622.950207932099
 30
0.0
 40
8.0
  1
within
  7
ACISOTS
  0
TEXT
  5
2719B
  8
0
 62
     1
 10
20374.467372941319
 20
17609.616874598771
 30
0.0
 40
8.0
  1
the tolerances of the manufacturing process.
  7
ACISOTS
  0
TEXT
  5
2719C
  8
0
 62
     1
 10
20339.801172941319
 20
17596.283541265439
 30
0.0
 40
8.0
  1
Note: the dimensions on ceramic fireclay
  7
ACISOTS
  0
TEXT
  5
2719D
  8
0
 62
     1
 10
20338.496372941321
 20
17582.950207932099
 30
0.0
 40
8.0
  1
products
  7
ACISOTS
  0
TEXT
  5
2719E
  8
0
 62
     1
 10
20341.324972941318
 20
17569.616874598771
 30
0.0
 40
8.0
  1
are subject to wider tolerances due to the
  7
ACISOTS
  0
TEXT
  5
2719F
  8
0
 62
     1
 10
20338.496372941321
 20
17556.283541265439
 30
0.0
 40
8.0
  1
nature
  7
ACISOTS
  0
TEXT
  5
271A0
  8
0
 62
     1
 10
20363.039372941319
 20
17542.95020793211
 30
0.0
 40
8.0
  1
of this natural material and the firing
  7
ACISOTS
  0
TEXT
  5
271A1
  8
0
 62
     1
 10
20338.496372941321
 20
17529.616874598782
 30
0.0
 40
8.0
  1
process.
  7
ACISOTS
  0
TEXT
  5
271A2
  8
0
 62
     1
 10
20367.991372941309
 20
17502.95020793211
 30
0.0
 40
8.0
  1
We recommend that a test cutout is made in
  7
ACISOTS
  0
TEXT
  5
271A3
  8
0
 62
     1
 10
20343.610672941319
 20
17489.616874598782
 30
0.0
 40
8.0
  1
scrap timber and checked against the actual
  7
ACISOTS
  0
TEXT
  5
271A4
  8
0
 62
     1
 10
20338.496372941321
 20
17476.283541265449
 30
0.0
 40
8.0
  1
sink
  7
ACISOTS
  0
TEXT
  5
271A5
  8
0
 62
     1
 10
20394.658372941321
 20
17462.95020793211
 30
0.0
 40
8.0
  1
supplied before committing to cutting
  7
ACISOTS
  0
TEXT
  5
271A6
  8
0
 62
     1
 10
20338.496372941321
 20
17449.616874598782
 30
0.0
 40
8.0
  1
the
  7
ACISOTS
  0
TEXT
  5
271A7
  8
0
 62
     1
 10
20585.13637294131
 20
17436.283541265449
 30
0.0
 40
8.0
  1
worksurface.
  7
ACISOTS
  0
TEXT
  5
271A8
  8
0
 62
     1
 10
20365.325372941319
 20
17409.616874598789
 30
0.0
 40
8.0
  1
Abode can not accept liability for problems
  7
ACISOTS
  0
TEXT
  5
271A9
  8
0
 62
     1
 10
20338.496372941321
 20
17396.28354126546
 30
0.0
 40
8.0
  1
or
  7
ACISOTS
  0
TEXT
  5
271AA
  8
0
 62
     1
 10
20369.515372941321
 20
17382.95020793211
 30
0.0
 40
8.0
  1
costs incurred by failure to follow this advise,
  7
ACISOTS
  0
TEXT
  5
271AB
  8
0
 62
     1
 10
20362.277372941309
 20
17369.616874598789
 30
0.0
 40
8.0
  1
dimensions weights & measures are subject
  7
ACISOTS
  0
TEXT
  5
271AC
  8
0
 62
     1
 10
20338.496372941321
 20
17356.28354126546
 30
0.0
 40
8.0
  1
to
  7
ACISOTS
  0
TEXT
  5
271AD
  8
0
 62
     1
 10
20345.51537294131
 20
17342.950207932128
 30
0.0
 40
8.0
  1
change without prior notice. Errors and omissions
  7
ACISOTS
  0
TEXT
  5
271AE
  8
0
 62
     1
 10
20606.08637294131
 20
17329.616874598789
 30
0.0
 40
8.0
  1
excepted
  7
ACISOTS
  0
ENDBLK
  5
271B0
  8
0
  0
ENDSEC
  0
SECTION
  2
ENTITIES
  0
TEXT
  5
25B7C
  8
LAYER1
 10
20912.387930201701
 20
18197.532265510279
 30
0.0
 40
150.0
  1
AW5023
  0
LINE
  5
25B7D
  8
CUTOUT
 10
21677.596232939381
 20
17761.705128520869
 30
0.0
 11
21677.596232939381
 21
17301.705128520869
 31
0.0
  0
ARC
  5
25B7E
  8
CUTOUT
 10
21667.596232939381
 20
17301.705128520869
 30
0.0
 40
10.0
 50
270.0
 51
0.0
  0
LINE
  5
25B7F
  8
CUTOUT
 10
20837.596232939381
 20
17761.705128520869
 30
0.0
 11
20837.59623293937
 21
17301.705128520869
 31
0.0
  0
ARC
  5
25B80
  8
CUTOUT
 10
20847.596232939359
 20
17301.705128520869
 30
0.0
 40
10.0
 50
180.0
 51
270.0
  0
LINE
  5
25B81
  8
CUTOUT
  6
DASHED2
 10
20856.596232939381
 20
17771.705128520869
 30
0.0
 11
20856.596232939381
 21
17291.705128520869
 31
0.0
  0
LINE
  5
25B82
  8
CUTOUT
  6
DASHED2
 10
21254.888408232371
 20
17771.705128520869
 30
0.0
 11
21254.888408232371
 21
17291.705128520869
 31
0.0
  0
LINE
  5
25B83
  8
CUTOUT
 10
20847.596232939381
 20
17771.705128520869
 30
0.0
 11
21667.596232939381
 21
17771.705128520869
 31
0.0
  0
ARC
  5
25B84
  8
CUTOUT
 10
20847.596232939381
 20
17761.705128520869
 30
0.0
 40
10.0
 50
90.0
 51
180.0
  0
ARC
  5
25B85
  8
CUTOUT
 10
21667.596232939381
 20
17761.705128520869
 30
0.0
 40
10.0
 50
0.0
 51
90.0
  0
LINE
  5
25B86
  8
CUTOUT
 10
20847.596232939359
 20
17291.705128520869
 30
0.0
 11
21667.596232939381
 21
17291.705128520869
 31
0.0
  0
INSERT
  5
25B87
  8
0
  2
*U1198
 10
0.0
 20
0.0
 30
0.0
  0
POLYLINE
  5
25B88
  8
CUTOUT
  6
DASHED2
 66
     1
 10
0.0
 20
0.0
 30
0.0
 70
     1
1001
GENIUS_GENREC_14
1002
{
1000
PYDIR
1011
20900.167424889431
1021
0.0
1031
0.0
1021
17430.226151154431
1031
0.0
1002
}
1002
{
1000
PXDIR
1011
21193.327698912301
1021
0.0
1031
0.0
1021
17638.1841058873
1031
0.0
1002
}
1002
{
1000
PORI
1011
20900.167424889431
1021
0.0
1031
0.0
1021
17638.1841058873
1031
0.0
1002
}
1002
{
1000
PINS
1011
20900.167424889431
1021
0.0
1031
0.0
1021
17638.1841058873
1031
0.0
1002
}
1002
{
1000
PINS2
1011
21193.327698912301
1021
0.0
1031
0.0
1021
17430.226151154431
1031
0.0
1002
}
1002
{
1000
C
1070
     1
1002
}
1001
GENIUS_GENOBJ-N-REC_13
1002
{
1000
OWNER
1000
GEN
1002
}
1001
GENIUS_GENODEF_13
1002
{
1000
HIER
1070
     0
1002
}
1002
{
1000
MANEDIT
1070
     0
1002
}
1002
{
1000
NOSEL
1070
     0
1002
}
1002
{
1000
BEHIND
1070
     0
1002
}
1002
{
1000
OTHER
1070
     0
1002
}
1002
{
1000
REACTOR
1002
}
  0
VERTEX
  5
27D87
  8
CUTOUT
  6
DASHED2
 10
20920.167424889431
 20
17638.1841058873
 30
0.0
  0
VERTEX
  5
27D88
  8
CUTOUT
  6
DASHED2
 10
21173.327698912301
 20
17638.1841058873
 30
0.0
 42
-0.4142135623730951
  0
VERTEX
  5
27D89
  8
CUTOUT
  6
DASHED2
 10
21193.327698912301
 20
17618.1841058873
 30
0.0
  0
VERTEX
  5
27D8A
  8
CUTOUT
  6
DASHED2
 10
21193.327698912301
 20
17450.226151154431
 30
0.0
 42
-0.4142135623730951
  0
VERTEX
  5
27D8B
  8
CUTOUT
  6
DASHED2
 10
21173.327698912301
 20
17430.226151154431
 30
0.0
  0
VERTEX
  5
27D8C
  8
CUTOUT
  6
DASHED2
 10
20920.167424889431
 20
17430.226151154431
 30
0.0
 42
-0.4142135623730951
  0
VERTEX
  5
27D8D
  8
CUTOUT
  6
DASHED2
 10
20900.167424889431
 20
17450.226151154431
 30
0.0
  0
VERTEX
  5
27D8E
  8
CUTOUT
  6
DASHED2
 10
20900.167424889431
 20
17618.1841058873
 30
0.0
 42
-0.4142135623730951
  0
SEQEND
  5
27D8F
  8
CUTOUT
  6
DASHED2
  0
INSERT
  5
25B89
  8
0
  2
*U1199
 10
0.0
 20
0.0
 30
0.0
  0
DIMENSION
  5
25B8A
  8
DIMS_SPECS
  2
*D993
 10
20856.596232939381
 20
17269.634565587548
 30
0.0
 11
20794.279101736109
 21
17269.634565587548
 31
0.0
 70
   128
 13
20837.59623293937
 23
17301.7051806077
 33
0.0
 14
20856.596232939381
 24
17291.705128520869
 34
0.0
1001
ACAD_DSTYLE_DIMINSPECT
1070
   396
1000
100%
1070
   395
1000

1070
   394
1070
    33
1070
   393
1070
     0
1001
ACAD
1000
DSTYLE
1002
{
1070
   174
1070
     1
1002
}
  0
DIMENSION
  5
25B8B
  8
DIMS_SPECS
  2
*D995
 10
21254.888408232371
 20
17251.203471539611
 30
0.0
 11
21045.487812751078
 21
17251.203471539611
 31
0.0
 70
   128
  1
397
 13
20856.596232939381
 23
17291.705128520869
 33
0.0
 14
21254.888408232371
 24
17291.705128520869
 34
0.0
1001
ACAD_DSTYLE_DIMINSPECT
1070
   396
1000
100%
1070
   395
1000

1070
   394
1070
    33
1070
   393
1070
     0
1001
ACAD
1000
DSTYLE
1002
{
1070
   174
1070
     1
1002
}
  0
DIMENSION
  5
25B8C
  8
DIMS_SPECS
  2
*D997
 10
21677.596232939381
 20
17205.847653109358
 30
0.0
 11
21281.304177757698
 21
17205.847653109358
 31
0.0
 70
   128
 13
20837.59623293937
 23
17301.7051806077
 33
0.0
 14
21677.596232939381
 24
17301.705128520869
 34
0.0
1001
ACAD_DSTYLE_DIMINSPECT
1070
   396
1000
100%
1070
   395
1000

1070
   394
1070
    33
1070
   393
1070
     0
1001
ACAD
1000
DSTYLE
1002
{
1070
   174
1070
     1
1002
}
  0
DIMENSION
  5
25B8D
  8
DIMS_SPECS
  2
*D999
 10
21723.052886047972
 20
17771.705128520869
 30
0.0
 11
21723.052886047972
 21
17531.705128520869
 31
0.0
 70
   128
 13
21667.596232939381
 23
17291.705128520869
 33
0.0
 14
21667.596232939381
 24
17771.705128520869
 34
0.0
 50
90.0
1001
ACAD_DSTYLE_DIMINSPECT
1070
   396
1000
100%
1070
   395
1000

1070
   394
1070
    33
1070
   393
1070
     0
1001
ACAD
1000
DSTYLE
1002
{
1070
   174
1070
     1
1002
}
  0
DIMENSION
  5
25B8E
  8
DIMS_SPECS
  2
*D1001
 10
21667.596232939391
 20
17301.70512852088
 30
0.0
 11
21729.655752760918
 21
17254.132068001269
 31
0.0
 70
   132
 15
21673.797557680369
 25
17293.860157427429
 35
0.0
 40
0.0
1001
ACAD_DSTYLE_DIMINSPECT
1070
   396
1000
100%
1070
   395
1000

1070
   394
1070
    33
1070
   393
1070
     0
1001
ACAD_DSTYLE_DIMRADIAL_EXTENSION
1070
   387
1070
     1
1070
   388
1040
4.7123889803846879
1070
   390
1040
0.0000000000000191
1001
ACAD
1000
DSTYLE
1002
{
1070
   174
1070
     1
1002
}
  0
INSERT
  5
25B8F
  8
0
  2
*U1200
 10
0.0
 20
0.0
 30
0.0
  0
TEXT
  5
25B90
  8
LAYER1
 10
20430.497295965051
 20
17374.78918448518
 30
0.0
 40
30.0
  1
file version 1
  0
ENDSEC
  0
EOF
