  0
SECTION
  2
HEADER
  9
$ACADVER
  1
AC1018
  9
$ACADMAINTVER
 70
   104
  9
$DWGCODEPAGE
  3
ANSI_1252
  9
$LASTSAVEDBY
  1
mstaweczny
  9
$INSBASE
 10
0.0
 20
0.0
 30
0.0
  9
$EXTMIN
 10
27199.58293248101
 20
23754.15336902185
 30
0.0
  9
$EXTMAX
 10
29111.53255160741
 20
24994.31826505857
 30
0.000000000001
  9
$LIMMIN
 10
0.0
 20
0.0
  9
$LIMMAX
 10
420.0
 20
297.0
  9
$ORTHOMODE
 70
     0
  9
$REGENMODE
 70
     1
  9
$FILLMODE
 70
     1
  9
$QTEXTMODE
 70
     0
  9
$MIRRTEXT
 70
     0
  9
$LTSCALE
 40
1.0
  9
$ATTMODE
 70
     1
  9
$TEXTSIZE
 40
2.5
  9
$TRACEWID
 40
1.0
  9
$TEXTSTYLE
  7
STANDARD
  9
$CLAYER
  8
0
  9
$CELTYPE
  6
ByLayer
  9
$CECOLOR
 62
   256
  9
$CELTSCALE
 40
1.0
  9
$DISPSILH
 70
     0
  9
$DIMSCALE
 40
1.0
  9
$DIMASZ
 40
0.12
  9
$DIMEXO
 40
0.05
  9
$DIMDLI
 40
0.5
  9
$DIMRND
 40
0.0
  9
$DIMDLE
 40
0.0
  9
$DIMEXE
 40
0.1
  9
$DIMTP
 40
0.1
  9
$DIMTM
 40
0.1
  9
$DIMTXT
 40
0.12
  9
$DIMCEN
 40
0.0
  9
$DIMTSZ
 40
0.0
  9
$DIMTOL
 70
     0
  9
$DIMLIM
 70
     0
  9
$DIMTIH
 70
     1
  9
$DIMTOH
 70
     1
  9
$DIMSE1
 70
     0
  9
$DIMSE2
 70
     0
  9
$DIMTAD
 70
     0
  9
$DIMZIN
 70
     7
  9
$DIMBLK
  1

  9
$DIMASO
 70
     1
  9
$DIMSHO
 70
     1
  9
$DIMPOST
  1

  9
$DIMAPOST
  1
mm
  9
$DIMALT
 70
     0
  9
$DIMALTD
 70
     2
  9
$DIMALTF
 40
25.4
  9
$DIMLFAC
 40
1.0
  9
$DIMTOFL
 70
     0
  9
$DIMTVP
 40
0.0
  9
$DIMTIX
 70
     0
  9
$DIMSOXD
 70
     0
  9
$DIMSAH
 70
     0
  9
$DIMBLK1
  1

  9
$DIMBLK2
  1

  9
$DIMSTYLE
  2
AM_ANSI
  9
$DIMCLRD
 70
   256
  9
$DIMCLRE
 70
   256
  9
$DIMCLRT
 70
   140
  9
$DIMTFAC
 40
0.71
  9
$DIMGAP
 40
0.06
  9
$DIMJUST
 70
     0
  9
$DIMSD1
 70
     0
  9
$DIMSD2
 70
     0
  9
$DIMTOLJ
 70
     1
  9
$DIMTZIN
 70
     7
  9
$DIMALTZ
 70
     0
  9
$DIMALTTZ
 70
     0
  9
$DIMUPT
 70
     0
  9
$DIMDEC
 70
     4
  9
$DIMTDEC
 70
     4
  9
$DIMALTU
 70
     2
  9
$DIMALTTD
 70
     4
  9
$DIMTXSTY
  7
STANDARD
  9
$DIMAUNIT
 70
     0
  9
$DIMADEC
 70
     0
  9
$DIMALTRND
 40
0.0
  9
$DIMAZIN
 70
     2
  9
$DIMDSEP
 70
    46
  9
$DIMATFIT
 70
     3
  9
$DIMFRAC
 70
     0
  9
$DIMLDRBLK
  1

  9
$DIMLUNIT
 70
     2
  9
$DIMLWD
 70
    -1
  9
$DIMLWE
 70
    -1
  9
$DIMTMOVE
 70
     0
  9
$LUNITS
 70
     2
  9
$LUPREC
 70
     2
  9
$SKETCHINC
 40
1.0
  9
$FILLETRAD
 40
2.5
  9
$AUNITS
 70
     0
  9
$AUPREC
 70
     0
  9
$MENU
  1
.
  9
$ELEVATION
 40
0.0
  9
$PELEVATION
 40
0.0
  9
$THICKNESS
 40
0.0
  9
$LIMCHECK
 70
     0
  9
$CHAMFERA
 40
2.5
  9
$CHAMFERB
 40
2.5
  9
$CHAMFERC
 40
0.0
  9
$CHAMFERD
 40
0.0
  9
$SKPOLY
 70
     0
  9
$TDCREATE
 40
2455251.642918206
  9
$TDUCREATE
 40
2455251.642918206
  9
$TDUPDATE
 40
2458493.667370058
  9
$TDUUPDATE
 40
2458493.667370058
  9
$TDINDWG
 40
0.0368372801
  9
$TDUSRTIMER
 40
0.0368371875
  9
$USRTIMER
 70
     1
  9
$ANGBASE
 50
0.0
  9
$ANGDIR
 70
     0
  9
$PDMODE
 70
     0
  9
$PDSIZE
 40
0.0
  9
$PLINEWID
 40
0.0
  9
$SPLFRAME
 70
     0
  9
$SPLINETYPE
 70
     6
  9
$SPLINESEGS
 70
     8
  9
$HANDSEED
  5
4AB02
  9
$SURFTAB1
 70
     6
  9
$SURFTAB2
 70
     6
  9
$SURFTYPE
 70
     6
  9
$SURFU
 70
     6
  9
$SURFV
 70
     6
  9
$UCSBASE
  2

  9
$UCSNAME
  2

  9
$UCSORG
 10
0.0
 20
0.0
 30
0.0
  9
$UCSXDIR
 10
1.0
 20
0.0
 30
0.0
  9
$UCSYDIR
 10
0.0
 20
1.0
 30
0.0
  9
$UCSORTHOREF
  2

  9
$UCSORTHOVIEW
 70
     0
  9
$UCSORGTOP
 10
0.0
 20
0.0
 30
0.0
  9
$UCSORGBOTTOM
 10
0.0
 20
0.0
 30
0.0
  9
$UCSORGLEFT
 10
0.0
 20
0.0
 30
0.0
  9
$UCSORGRIGHT
 10
0.0
 20
0.0
 30
0.0
  9
$UCSORGFRONT
 10
0.0
 20
0.0
 30
0.0
  9
$UCSORGBACK
 10
0.0
 20
0.0
 30
0.0
  9
$PUCSBASE
  2

  9
$PUCSNAME
  2

  9
$PUCSORG
 10
0.0
 20
0.0
 30
0.0
  9
$PUCSXDIR
 10
1.0
 20
0.0
 30
0.0
  9
$PUCSYDIR
 10
0.0
 20
1.0
 30
0.0
  9
$PUCSORTHOREF
  2

  9
$PUCSORTHOVIEW
 70
     0
  9
$PUCSORGTOP
 10
0.0
 20
0.0
 30
0.0
  9
$PUCSORGBOTTOM
 10
0.0
 20
0.0
 30
0.0
  9
$PUCSORGLEFT
 10
0.0
 20
0.0
 30
0.0
  9
$PUCSORGRIGHT
 10
0.0
 20
0.0
 30
0.0
  9
$PUCSORGFRONT
 10
0.0
 20
0.0
 30
0.0
  9
$PUCSORGBACK
 10
0.0
 20
0.0
 30
0.0
  9
$USERI1
 70
     0
  9
$USERI2
 70
     0
  9
$USERI3
 70
     0
  9
$USERI4
 70
     0
  9
$USERI5
 70
     0
  9
$USERR1
 40
0.0
  9
$USERR2
 40
0.0
  9
$USERR3
 40
0.0
  9
$USERR4
 40
0.0
  9
$USERR5
 40
0.0
  9
$WORLDVIEW
 70
     1
  9
$SHADEDGE
 70
     3
  9
$SHADEDIF
 70
    70
  9
$TILEMODE
 70
     1
  9
$MAXACTVP
 70
    64
  9
$PINSBASE
 10
0.0
 20
0.0
 30
0.0
  9
$PLIMCHECK
 70
     0
  9
$PEXTMIN
 10
1.000000000000000E+20
 20
1.000000000000000E+20
 30
1.000000000000000E+20
  9
$PEXTMAX
 10
-1.000000000000000E+20
 20
-1.000000000000000E+20
 30
-1.000000000000000E+20
  9
$PLIMMIN
 10
0.0
 20
0.0
  9
$PLIMMAX
 10
420.0
 20
297.0
  9
$UNITMODE
 70
     0
  9
$VISRETAIN
 70
     1
  9
$PLINEGEN
 70
     0
  9
$PSLTSCALE
 70
     1
  9
$TREEDEPTH
 70
  3020
  9
$CMLSTYLE
  2
Standard
  9
$CMLJUST
 70
     0
  9
$CMLSCALE
 40
1.0
  9
$PROXYGRAPHICS
 70
     1
  9
$MEASUREMENT
 70
     0
  9
$CELWEIGHT
370
    -1
  9
$ENDCAPS
280
     0
  9
$JOINSTYLE
280
     0
  9
$LWDISPLAY
290
     0
  9
$INSUNITS
 70
     0
  9
$HYPERLINKBASE
  1

  9
$STYLESHEET
  1

  9
$XEDIT
290
     1
  9
$CEPSNTYPE
380
     0
  9
$PSTYLEMODE
290
     1
  9
$FINGERPRINTGUID
  2
{38E07038-D91F-44CB-A890-0DDBB3892DD1}
  9
$VERSIONGUID
  2
{E5D22E75-0517-438A-9768-2FF57510ED0A}
  9
$EXTNAMES
290
     1
  9
$PSVPSCALE
 40
0.0
  9
$OLESTARTUP
290
     0
  9
$SORTENTS
280
   127
  9
$INDEXCTL
280
     0
  9
$HIDETEXT
280
     0
  9
$XCLIPFRAME
290
     0
  9
$HALOGAP
280
     0
  9
$OBSCOLOR
 70
   257
  9
$OBSLTYPE
280
     0
  9
$INTERSECTIONDISPLAY
280
     0
  9
$INTERSECTIONCOLOR
 70
   257
  9
$DIMASSOC
280
     1
  9
$PROJECTNAME
  1

  0
ENDSEC
  0
SECTION
  2
CLASSES
  0
CLASS
  1
ACDBDICTIONARYWDFLT
  2
AcDbDictionaryWithDefault
  3
ObjectDBX Classes
 90
        0
 91
        1
280
     0
281
     0
  0
CLASS
  1
MATERIAL
  2
AcDbMaterial
  3
ObjectDBX Classes
 90
     1153
 91
        3
280
     0
281
     0
  0
CLASS
  1
VISUALSTYLE
  2
AcDbVisualStyle
  3
ObjectDBX Classes
 90
     4095
 91
       16
280
     0
281
     0
  0
CLASS
  1
SCALE
  2
AcDbScale
  3
ObjectDBX Classes
 90
     1153
 91
       33
280
     0
281
     0
  0
CLASS
  1
TABLESTYLE
  2
AcDbTableStyle
  3
ObjectDBX Classes
 90
     4095
 91
        1
280
     0
281
     0
  0
CLASS
  1
MLEADERSTYLE
  2
AcDbMLeaderStyle
  3
ACDB_MLEADERSTYLE_CLASS
 90
     4095
 91
        1
280
     0
281
     0
  0
CLASS
  1
EXACXREFPANELOBJECT
  2
ExAcXREFPanelObject
  3
EXAC_ESW
 90
     1025
 91
        2
280
     0
281
     0
  0
CLASS
  1
NPOCOLLECTION
  2
AcDbImpNonPersistentObjectsCollection
  3
ObjectDBX Classes
 90
     1153
 91
        1
280
     0
281
     0
  0
CLASS
  1
DIMASSOC
  2
AcDbDimAssoc
  3
"AcDbDimAssoc|Product Desc:     AcDim ARX App For Dimension|Company:          Autodesk, Inc.|WEB Address:      www.autodesk.com"
 90
        0
 91
        7
280
     0
281
     0
  0
CLASS
  1
SORTENTSTABLE
  2
AcDbSortentsTable
  3
ObjectDBX Classes
 90
        0
 91
        0
280
     0
281
     0
  0
CLASS
  1
DICTIONARYVAR
  2
AcDbDictionaryVar
  3
ObjectDBX Classes
 90
        0
 91
       10
280
     0
281
     0
  0
CLASS
  1
CELLSTYLEMAP
  2
AcDbCellStyleMap
  3
ObjectDBX Classes
 90
     1152
 91
        2
280
     0
281
     0
  0
CLASS
  1
ACME_DOCUMENT
  2
AcMeDbDoc
  3
AcMeServices
 90
     1024
 91
        1
280
     0
281
     0
  0
CLASS
  1
ACMESCOPE
  2
AcMeScope
  3
AcMeServices
 90
     1024
 91
        1
280
     0
281
     0
  0
CLASS
  1
ACMECOMMANDHISTORY
  2
AcMeCommandHistory
  3
AcMeServices
 90
     1024
 91
        1
280
     0
281
     0
  0
CLASS
  1
ACIMSYSVARMAN
  2
AcImSysVarManager
  3
AcMeServices
 90
     1024
 91
        6
280
     0
281
     0
  0
CLASS
  1
ACIMINTSYSVAR
  2
AcImIntSysVar
  3
AcMeServices
 90
     1024
 91
       27
280
     0
281
     0
  0
CLASS
  1
ACMEDRAWINGMAN
  2
AcMeDrawingMan
  3
AcMeServices
 90
     1024
 91
        1
280
     0
281
     0
  0
CLASS
  1
ACMEVIEW
  2
AcMeView
  3
AcMeServices
 90
     1024
 91
        1
280
     0
281
     0
  0
CLASS
  1
ACDBENTITYCACHE
  2
AcMeEntityCache
  3
AcMeServices
 90
     1024
 91
        1
280
     0
281
     0
  0
CLASS
  1
GSMANAGER
  2
AcMeGSManager
  3
AcMeServices
 90
     1024
 91
        1
280
     0
281
     0
  0
CLASS
  1
AMDTINTERNALREACTOR
  2
AmdtInternalReactor
  3
AcMeServices
 90
     1024
 91
        2
280
     0
281
     0
  0
CLASS
  1
ACMESTATEMGR
  2
AcMeStateMgr
  3
AcMeServices
 90
     1024
 91
        1
280
     0
281
     0
  0
CLASS
  1
ACGREFMASTER
  2
AcGrefMaster
  3
AcAttribServices
 90
     1024
 91
        1
280
     0
281
     0
  0
CLASS
  1
AM_DRAWING_MGR
  2
AcDmDwgMgr
  3
AcMechDwgViewMgmt
 90
     1024
 91
        1
280
     0
281
     0
  0
CLASS
  1
AM_DWG_DOCUMENT
  2
AcDmDwgDocument
  3
AcMechDwgViewMgmt
 90
     1024
 91
        1
280
     0
281
     0
  0
CLASS
  1
AM_DWG_SHEET
  2
AcDmSheet
  3
AcMechDwgViewMgmt
 90
     1024
 91
        1
280
     0
281
     0
  0
CLASS
  1
AM_VIEWDIMPARMAP
  2
AcDmViewDimParMap
  3
AcMechDwgViewMgmt
 90
     1024
 91
        1
280
     0
281
     0
  0
CLASS
  1
ACIMREALSYSVAR
  2
AcImRealSysVar
  3
AcMeServices
 90
     1024
 91
        1
280
     0
281
     0
  0
CLASS
  1
AM_DWGMGR_NAME
  2
AcDmDwgMgrName
  3
AcMechDwgViewMgmt
 90
     1024
 91
        1
280
     0
281
     0
  0
CLASS
  1
ACME_DATABASE
  2
AcMeDbDatabase
  3
AcMeServices
 90
     1024
 91
        1
280
     0
281
     0
  0
CLASS
  1
ACRFINSADJUSTERMGR
  2
AcRfInsAdjusterMgr
  3
AcMeServices
 90
     1024
 91
        1
280
     0
281
     0
  0
CLASS
  1
ACGREFACADMASTER
  2
AcGrefacadMaster
  3
AcGrefServices
 90
     1024
 91
        1
280
     0
281
     0
  0
CLASS
  1
AMDTMENUSTATEMGR
  2
AmdtMenuStateMgr
  3
McadcomServices
 90
     1024
 91
        1
280
     0
281
     0
  0
CLASS
  1
AMDTMCOMMENUSTATE
  2
AmdtMcomMenuState
  3
McadcomServices
 90
     1024
 91
        1
280
     0
281
     0
  0
CLASS
  1
AMIMASTER
  2
AmiMaster
  3
AmiServices
 90
     1024
 91
        1
280
     0
281
     0
  0
CLASS
  1
AMGSETTINGSOBJ
  2
AmgSettingsObj
  3
"AcadM|Product Description: AutoCAD Mechanical|Company: Autodesk, Inc."
 90
     1024
 91
        2
280
     0
281
     0
  0
CLASS
  1
MAPIAMMOUDLE
  2
MApiAmModule
  3
MApiAmServices
 90
     1024
 91
        1
280
     0
281
     0
  0
CLASS
  1
ACIMSTRSYSVAR
  2
AcImStrSysVar
  3
AcMeServices
 90
     1024
 91
        6
280
     0
281
     0
  0
CLASS
  1
AMDTADMENUSTATE
  2
AmdtAdMenuState
  3
DesignerServices
 90
     1024
 91
        1
280
     0
281
     0
  0
CLASS
  1
ADAPPL
  2
AcAdAppl
  3
DesignerServices
 90
     1024
 91
        1
280
     0
281
     0
  0
CLASS
  1
DEPMGR
  2
AcAdDepMgr
  3
DesignerServices
 90
     1024
 91
        1
280
     0
281
     0
  0
CLASS
  1
PARAMMGR
  2
AcAdParamMgr
  3
DesignerServices
 90
     1024
 91
        1
280
     0
281
     0
  0
CLASS
  1
PARAMSCOPE
  2
AcAdParamScope
  3
DesignerServices
 90
     1024
 91
        1
280
     0
281
     0
  0
CLASS
  1
NAMEDAPPL
  2
AcAdNamedAppl
  3
DesignerServices
 90
     1024
 91
        1
280
     0
281
     0
  0
CLASS
  1
AMDTDMMENUSTATE
  2
AmdtDmMenuState
  3
AcMechDwgViewMgmt
 90
     1024
 91
        1
280
     0
281
     0
  0
CLASS
  1
AMDTAMMENUSTATE
  2
AmdtAmMenuState
  3
DesignerAssemblies
 90
     1024
 91
        1
280
     0
281
     0
  0
CLASS
  1
ACAMPROJECT
  2
AcAmProject
  3
DesignerAssemblies
 90
     1024
 91
        1
280
     0
281
     0
  0
CLASS
  1
ACAMGRCOMPDEF
  2
AcAmGrCompDef
  3
DesignerAssemblies
 90
     1024
 91
        1
280
     0
281
     0
  0
CLASS
  1
ACCMCONTEXT
  2
AcCmContext
  3
DesignerAssemblies
 90
     1024
 91
        1
280
     0
281
     0
  0
CLASS
  1
ACAMCOMPDEF
  2
AcAmCompDef
  3
DesignerAssemblies
 90
     1024
 91
        1
280
     0
281
     0
  0
CLASS
  1
ACAMCOMPDEFMGR
  2
AcAmCompDefMgr
  3
DesignerAssemblies
 90
     1024
 91
        1
280
     0
281
     0
  0
CLASS
  1
AMCONTEXTMGR
  2
AcAmContextMgr
  3
DesignerAssemblies
 90
     1024
 91
        1
280
     0
281
     0
  0
CLASS
  1
ACAMCONTEXTMODELER
  2
AcAmContextModeler
  3
DesignerAssemblies
 90
     1024
 91
        1
280
     0
281
     0
  0
CLASS
  1
ACMDATADICTIONARY
  2
AcmDataDictionary
  3
"AcmSymBB|Product Description: AutoCAD Mechanical|Company: Autodesk, Inc."
 90
     1024
 91
        1
280
     0
281
     0
  0
CLASS
  1
CATALOGSTATE
  2
AcAmCatalogState
  3
DesignerAssemblies
 90
     1024
 91
        1
280
     0
281
     0
  0
CLASS
  1
ACAMGRCOMPDEFSET
  2
AcAmGrCompDefSet
  3
DesignerAssemblies
 90
     1024
 91
        1
280
     0
281
     0
  0
CLASS
  1
AMDTBROWSERDBTAB
  2
AmdtBrowserDbTab
  3
McadcomServices
 90
     1024
 91
        1
280
     0
281
     0
  0
CLASS
  1
CBROWSERAPPOBJECT
  2
CBrowserAppObject
  3
McadcomServices
 90
     1024
 91
        3
280
     0
281
     0
  0
CLASS
  1
DM_PLACEHOLDER
  2
AcDmSelsetPlaceholder
  3
AcMechDwgViewMgmt
 90
     1024
 91
        1
280
     0
281
     0
  0
CLASS
  1
ACMSTANDARDANSI
  2
AcmStandardANSI
  3
"Amdt_StdImp|Product Description: AutoCAD Mechanical|Company: Autodesk, Inc."
 90
     1024
 91
        1
280
     0
281
     0
  0
CLASS
  1
ACMSURFSTANDARDANSI
  2
AcmSurfTextStdANSI
  3
"Amdt_StdImp|Product Description: AutoCAD Mechanical|Company: Autodesk, Inc."
 90
     1024
 91
        1
280
     0
281
     0
  0
CLASS
  1
ACMFCFSTANDARDANSI
  2
AcmFCFStdANSI
  3
"Amdt_StdImp|Product Description: AutoCAD Mechanical|Company: Autodesk, Inc."
 90
     1024
 91
        1
280
     0
281
     0
  0
CLASS
  1
ACMWELDSTANDARDANSI
  2
AcmWeldingStdANSI
  3
"Amdt_StdImp|Product Description: AutoCAD Mechanical|Company: Autodesk, Inc."
 90
     1024
 91
        1
280
     0
281
     0
  0
CLASS
  1
ACMIDSTANDARDANSI
  2
AcmIdStdANSI
  3
"Amdt_StdImp|Product Description: AutoCAD Mechanical|Company: Autodesk, Inc."
 90
     1024
 91
        1
280
     0
281
     0
  0
CLASS
  1
ACMDATUMSTANDARDANSI
  2
AcmDatumStdANSI
  3
"Amdt_StdImp|Product Description: AutoCAD Mechanical|Company: Autodesk, Inc."
 90
     1024
 91
        1
280
     0
281
     0
  0
CLASS
  1
ACMBOMSTANDARDANSI
  2
AcmBOMStdANSI
  3
"Amdt_StdImp|Product Description: AutoCAD Mechanical|Company: Autodesk, Inc."
 90
     1024
 91
        1
280
     0
281
     0
  0
CLASS
  1
ACMDETAILSTANDARDANSI
  2
AmdtDetailSymStdANSI
  3
"Amdt_StdImp|Product Description: AutoCAD Mechanical|Company: Autodesk, Inc."
 90
     1024
 91
        1
280
     0
281
     0
  0
CLASS
  1
ACMSECTIONSTANDARDANSI
  2
AmdtSectionSymStdANSI
  3
"Amdt_StdImp|Product Description: AutoCAD Mechanical|Company: Autodesk, Inc."
 90
     1024
 91
        1
280
     0
281
     0
  0
CLASS
  1
ACMCENTERLINESTANDARDANSI
  2
AmdtCenterLineStdANSI
  3
"Amdt_StdImp|Product Description: AutoCAD Mechanical|Company: Autodesk, Inc."
 90
     1024
 91
        1
280
     0
281
     0
  0
CLASS
  1
ACMTHREADLINESTANDARDANSI
  2
AmdtThreadLineStdANSI
  3
"Amdt_StdImp|Product Description: AutoCAD Mechanical|Company: Autodesk, Inc."
 90
     1024
 91
        1
280
     0
281
     0
  0
CLASS
  1
ACMNOTESTANDARDANSI
  2
AmdtNoteStdANSI
  3
"Amdt_StdImp|Product Description: AutoCAD Mechanical|Company: Autodesk, Inc."
 90
     1024
 91
        1
280
     0
281
     0
  0
CLASS
  1
ACMTAPERSTANDARDANSI
  2
AcmTaperStdANSI
  3
"Amdt_StdImp|Product Description: AutoCAD Mechanical|Company: Autodesk, Inc."
 90
     1024
 91
        1
280
     0
281
     0
  0
CLASS
  1
ACMANOOTATIONVIEWSTANDARDANSI
  2
AmdtAnViewStdANSI
  3
"Amdt_StdImp|Product Description: AutoCAD Mechanical|Company: Autodesk, Inc."
 90
     1024
 91
        1
280
     0
281
     0
  0
CLASS
  1
ACAMGLAYSTD
  2
AcAmgLayStd
  3
"AmgLay|Product Description: AutoCAD Mechanical|Company: Autodesk, Inc."
 90
     1024
 91
        1
280
     0
281
     0
  0
CLASS
  1
ACAMGDIMSTD
  2
AcAmgDimStd
  3
"AmgDim|Product Description: AutoCAD Mechanical|Company: Autodesk, Inc."
 90
     1024
 91
        1
280
     0
281
     0
  0
CLASS
  1
AMGOBJPROPCFG
  2
AmgObjPropCfg
  3
"AmgLay|Product Description: AutoCAD Mechanical|Company: Autodesk, Inc."
 90
     1025
 91
        1
280
     0
281
     0
  0
CLASS
  1
ACAMGHOLECHARTSTDANSI
  2
AcAmgHoleChartStdANSI
  3
AmgDim|Product Description: AutoCAD Mechanical|Company: Autodesk, Inc.
 90
     1024
 91
        1
280
     0
281
     0
  0
CLASS
  1
ACAMGTITLESTD
  2
AcAmgTitleStd
  3
"AmgTitle|Product Description: AutoCAD Mechanical|Company: Autodesk, Inc."
 90
     4095
 91
        1
280
     0
281
     0
  0
CLASS
  1
AMDTNOTETEMPLATEDB
  2
AmdtNoteTemplateDB
  3
AcmSymBB|Product Description: AutoCAD Mechanical|Company: Autodesk, Inc.
 90
     1024
 91
        6
280
     0
281
     0
  0
CLASS
  1
ACAMGFILTERDAT
  2
AcAmgFilterDat
  3
"AcadM|Product Description: AutoCAD Mechanical|Company: Autodesk, Inc."
 90
     1024
 91
        6
280
     0
281
     0
  0
ENDSEC
  0
SECTION
  2
TABLES
  0
TABLE
  2
VPORT
  5
4A623
330
0
100
AcDbSymbolTable
 70
     1
  0
VPORT
  5
4A693
330
4A623
100
AcDbSymbolTableRecord
100
AcDbViewportTableRecord
  2
*ACTIVE
 70
     0
 10
0.0
 20
0.0
 11
1.0
 21
1.0
 12
28430.9556844922
 22
24538.35206911514
 13
0.0
 23
0.0
 14
2.5
 24
2.5
 15
10.0
 25
10.0
 16
0.0
 26
0.0
 36
1.0
 17
0.0
 27
0.0
 37
0.0
 40
2804.673186737288
 41
1.607277289836888
 42
50.0
 43
0.0
 44
0.0
 50
0.0
 51
0.0
 71
     0
 72
  1000
 73
     1
 74
     3
 75
     0
 76
     0
 77
     0
 78
     0
281
     0
 65
     0
110
0.0
120
0.0
130
0.0
111
1.0
121
0.0
131
0.0
112
0.0
122
1.0
132
0.0
 79
     0
146
0.0
  0
ENDTAB
  0
TABLE
  2
LTYPE
  5
4A620
330
0
100
AcDbSymbolTable
 70
    17
  0
LTYPE
  5
4A67D
330
4A620
100
AcDbSymbolTableRecord
100
AcDbLinetypeTableRecord
  2
ByBlock
 70
     0
  3

 72
    65
 73
     0
 40
0.0
  0
LTYPE
  5
4A67E
330
4A620
100
AcDbSymbolTableRecord
100
AcDbLinetypeTableRecord
  2
ByLayer
 70
     0
  3

 72
    65
 73
     0
 40
0.0
  0
LTYPE
  5
4A67F
330
4A620
100
AcDbSymbolTableRecord
100
AcDbLinetypeTableRecord
  2
CONTINUOUS
 70
     0
  3
Solid line
 72
    65
 73
     0
 40
0.0
  0
LTYPE
  5
4A694
330
4A620
100
AcDbSymbolTableRecord
100
AcDbLinetypeTableRecord
  2
DASHED2
 70
     0
  3
Dashed (.5x) _ _ _ _ _ _ _ _ _ _ _ _ _ _ _ _ _
 72
    65
 73
     2
 40
9.524999999999996
 49
6.349999999999997
 74
     0
 49
-3.174999999999998
 74
     0
  0
LTYPE
  5
4AA78
330
4A620
100
AcDbSymbolTableRecord
100
AcDbLinetypeTableRecord
  2
HIDDEN
 70
     0
  3
Hidden __ __ __ __ __ __ __ __ __ __ __ __ __ _
 72
    65
 73
     2
 40
0.375
 49
0.25
 74
     0
 49
-0.125
 74
     0
  0
LTYPE
  5
4AA79
330
4A620
100
AcDbSymbolTableRecord
100
AcDbLinetypeTableRecord
  2
PHANTOM2
 70
     0
  3
Phantom (.5x) ___ _ _ ___ _ _ ___ _ _ ___ _ _
 72
    65
 73
     6
 40
1.25
 49
0.625
 74
     0
 49
-0.125
 74
     0
 49
0.125
 74
     0
 49
-0.125
 74
     0
 49
0.125
 74
     0
 49
-0.125
 74
     0
  0
LTYPE
  5
4AA7A
330
4A620
100
AcDbSymbolTableRecord
100
AcDbLinetypeTableRecord
  2
CENTER
 70
     0
  3
Center ____ _ ____ _ ____ _ ____ _ ____ _ ____
 72
    65
 73
     4
 40
2.0
 49
1.25
 74
     0
 49
-0.25
 74
     0
 49
0.25
 74
     0
 49
-0.25
 74
     0
  0
LTYPE
  5
4AABE
330
4A620
100
AcDbSymbolTableRecord
100
AcDbLinetypeTableRecord
  2
AM_ISO02W050
 70
     0
  3
__ __ __ __ __ __ __ __ __ __ __ __ __ __ __
 72
    65
 73
     2
 40
7.5
 49
6.0
 74
     0
 49
-1.5
 74
     0
  0
LTYPE
  5
4AABF
330
4A620
100
AcDbSymbolTableRecord
100
AcDbLinetypeTableRecord
  2
AM_ISO08W050
 70
     0
  3
____ . ____ . ____ . ____ . ____ . ____ . ____
 72
    65
 73
     4
 40
18.0
 49
12.0
 74
     0
 49
-1.5
 74
     0
 49
3.0
 74
     0
 49
-1.5
 74
     0
  0
LTYPE
  5
4AAC0
330
4A620
100
AcDbSymbolTableRecord
100
AcDbLinetypeTableRecord
  2
AM_ISO09W050
 70
     0
  3
_____ . . _____ . . _____ . . ____ .. ____
 72
    65
 73
     6
 40
22.5
 49
12.0
 74
     0
 49
-1.5
 74
     0
 49
3.0
 74
     0
 49
-1.5
 74
     0
 49
3.0
 74
     0
 49
-1.5
 74
     0
  0
LTYPE
  5
4AAC1
330
4A620
100
AcDbSymbolTableRecord
100
AcDbLinetypeTableRecord
  2
Amconstr
 70
     0
  3
_______________________
 72
    65
 73
     2
 40
9999.0
 49
9999.0
 74
     0
 49
0.0
 74
     0
  0
LTYPE
  5
4AAC2
330
4A620
100
AcDbSymbolTableRecord
100
AcDbLinetypeTableRecord
  2
AM_ISO08W050x2
 70
     0
  3
__ . __ . __ . __ . __ . __
 72
    65
 73
     4
 40
9.0
 49
6.0
 74
     0
 49
-0.75
 74
     0
 49
1.5
 74
     0
 49
-0.75
 74
     0
  0
LTYPE
  5
4AAC3
330
4A620
100
AcDbSymbolTableRecord
100
AcDbLinetypeTableRecord
  2
AM_ISO02W050x2
 70
     0
  3
 _ _ _ _ _ _ _ _ _ _ _ _
 72
    65
 73
     2
 40
3.75
 49
3.0
 74
     0
 49
-0.75
 74
     0
  0
LTYPE
  5
4AAC6
330
4A620
100
AcDbSymbolTableRecord
100
AcDbLinetypeTableRecord
  2
Amzigzag
 70
     0
  3
/\/-/\/-/\/-/\/-/\/-/\/
 72
    65
 73
     2
 40
11.0001
 49
0.0001
 74
     4
 75
   136
340
4AAC5
 46
0.04
 50
0.0
 44
0.0
 45
0.0
 49
-11.0
 74
     0
  0
LTYPE
  5
4AAC7
330
4A620
100
AcDbSymbolTableRecord
100
AcDbLinetypeTableRecord
  2
CENTER2
 70
     0
  3
Center (.5x) ___ _ ___ _ ___ _ ___ _ ___ _ ___
 72
    65
 73
     4
 40
1.125
 49
0.75
 74
     0
 49
-0.125
 74
     0
 49
0.125
 74
     0
 49
-0.125
 74
     0
  0
LTYPE
  5
4AAC8
330
4A620
100
AcDbSymbolTableRecord
100
AcDbLinetypeTableRecord
  2
HIDDEN2
 70
     0
  3
Hidden (.5x) _ _ _ _ _ _ _ _ _ _ _ _ _ _ _ _ _
 72
    65
 73
     2
 40
0.1875
 49
0.125
 74
     0
 49
-0.0625
 74
     0
  0
LTYPE
  5
4AAC9
330
4A620
100
AcDbSymbolTableRecord
100
AcDbLinetypeTableRecord
  2
Amzigzag2
 70
     0
  3
/\/-/\/-/\/-/\/-/\/-/\/
 72
    65
 73
     2
 40
0.4401
 49
0.0001
 74
     4
 75
   136
340
4AAC5
 46
0.0016
 50
0.0
 44
0.0
 45
0.0
 49
-0.4400000000000001
 74
     0
  0
LTYPE
  5
4AAD7
330
4A620
100
AcDbSymbolTableRecord
100
AcDbLinetypeTableRecord
  2
ACANSTGB
 70
     0
  3
__ . . __ . .
 72
    65
 73
     6
 40
0.35433070866
 49
0.15748031496
 74
     0
 49
-0.03937007874
 74
     0
 49
0.03937007874
 74
     0
 49
-0.03937007874
 74
     0
 49
0.03937007874
 74
     0
 49
-0.03937007874
 74
     0
  0
LTYPE
  5
4AAD8
330
4A620
100
AcDbSymbolTableRecord
100
AcDbLinetypeTableRecord
  2
ACANSTGL
 70
     0
  3
_ _ _ _ _
 72
    65
 73
     2
 40
0.11811023622
 49
0.07874015748
 74
     0
 49
-0.03937007874
 74
     0
  0
ENDTAB
  0
TABLE
  2
LAYER
  5
4A61D
102
{ACAD_XDICTIONARY
360
4A72E
102
}
330
0
100
AcDbSymbolTable
 70
     8
  0
LAYER
  5
4A677
102
{ACAD_XDICTIONARY
360
4A865
102
}
330
4A61D
100
AcDbSymbolTableRecord
100
AcDbLayerTableRecord
  2
0
 70
     0
 62
     7
  6
CONTINUOUS
370
    -3
390
4A62A
  0
LAYER
  5
4A695
102
{ACAD_XDICTIONARY
360
4A867
102
}
330
4A61D
100
AcDbSymbolTableRecord
100
AcDbLayerTableRecord
  2
LAYER1
 70
     0
 62
     1
  6
CONTINUOUS
370
    -3
390
4A62A
  0
LAYER
  5
4A696
330
4A61D
100
AcDbSymbolTableRecord
100
AcDbLayerTableRecord
  2
DEFPOINTS
 70
     0
 62
     7
  6
CONTINUOUS
290
     0
370
    -3
390
4A62A
  0
LAYER
  5
4A697
102
{ACAD_XDICTIONARY
360
4A869
102
}
330
4A61D
100
AcDbSymbolTableRecord
100
AcDbLayerTableRecord
  2
DIMS_SPECS
 70
     0
 62
    41
  6
CONTINUOUS
370
    -3
390
4A62A
  0
LAYER
  5
4A698
102
{ACAD_XDICTIONARY
360
4A86B
102
}
330
4A61D
100
AcDbSymbolTableRecord
100
AcDbLayerTableRecord
  2
CUTOUT
 70
     0
 62
    60
  6
CONTINUOUS
370
    -3
390
4A62A
  0
LAYER
  5
4A723
102
{ACAD_XDICTIONARY
360
4A86D
102
}
330
4A61D
100
AcDbSymbolTableRecord
100
AcDbLayerTableRecord
  2
DIMS SPECS
 70
     0
 62
    41
  6
CONTINUOUS
370
    35
390
4A62A
  0
LAYER
  5
4A724
102
{ACAD_XDICTIONARY
360
4A86F
102
}
330
4A61D
100
AcDbSymbolTableRecord
100
AcDbLayerTableRecord
  2
sink_specs
 70
     0
 62
   254
  6
CONTINUOUS
370
    35
390
4A62A
1001
ACAECLAYERSTANDARD
1000

1000

  0
LAYER
  5
4A725
102
{ACAD_XDICTIONARY
360
4A871
102
}
330
4A61D
100
AcDbSymbolTableRecord
100
AcDbLayerTableRecord
  2
sink_brouchure
 70
     0
 62
   124
  6
CONTINUOUS
370
    50
390
4A62A
1001
ACAECLAYERSTANDARD
1000

1000

  0
ENDTAB
  0
TABLE
  2
STYLE
  5
4A61E
330
0
100
AcDbSymbolTable
 70
     8
  0
STYLE
  5
4A678
330
4A61E
100
AcDbSymbolTableRecord
100
AcDbTextStyleTableRecord
  2
STANDARD
 70
     0
 40
0.0
 41
1.0
 50
0.0
 71
     0
 42
2.5
  3
ISOCP.SHX
  4

  0
STYLE
  5
4A67C
330
4A61E
100
AcDbSymbolTableRecord
100
AcDbTextStyleTableRecord
  2
Annotative
 70
     0
 40
0.0
 41
1.0
 50
0.0
 71
     0
 42
0.2
  3
txt
  4

1001
ACADANNOTATIVE
1000
AnnotativeData
1002
{
1070
     1
1070
     1
1002
}
  0
STYLE
  5
4A699
330
4A61E
100
AcDbSymbolTableRecord
100
AcDbTextStyleTableRecord
  2
ACISOTS
 70
     0
 40
1.0
 41
1.0
 50
0.0
 71
     0
 42
2.5
  3
isocp.shx
  4

  0
STYLE
  5
4A69A
330
4A61E
100
AcDbSymbolTableRecord
100
AcDbTextStyleTableRecord
  2
ABODE-ISO
 70
     0
 40
17.0
 41
0.9
 50
0.0
 71
     0
 42
0.2
  3
txt
  4

  0
STYLE
  5
4A726
330
4A61E
100
AcDbSymbolTableRecord
100
AcDbTextStyleTableRecord
  2
SLDTEXTSTYLE0
 70
     0
 40
0.0
 41
0.75
 50
0.0
 71
     0
 42
0.2
  3
TXT
  4

  0
STYLE
  5
4AAC5
330
4A61E
100
AcDbSymbolTableRecord
100
AcDbTextStyleTableRecord
  2

 70
     1
 40
0.0
 41
1.0
 50
0.0
 71
     0
 42
2.5
  3
genltshp.shx
  4

  0
STYLE
  5
4AAD5
330
4A61E
100
AcDbSymbolTableRecord
100
AcDbTextStyleTableRecord
  2
ACANSTS
 70
     0
 40
1.0
 41
1.0
 50
0.0
 71
     0
 42
2.5
  3
romans.shx
  4

  0
STYLE
  5
4AAD6
330
4A61E
100
AcDbSymbolTableRecord
100
AcDbTextStyleTableRecord
  2
ACANSGDT
 70
     0
 40
0.0
 41
1.0
 50
0.0
 71
     0
 42
2.5
  3
amgdt.shx
  4

  0
ENDTAB
  0
TABLE
  2
VIEW
  5
4A621
330
0
100
AcDbSymbolTable
 70
     0
  0
ENDTAB
  0
TABLE
  2
UCS
  5
4A622
330
0
100
AcDbSymbolTable
 70
     0
  0
ENDTAB
  0
TABLE
  2
APPID
  5
4A624
330
0
100
AcDbSymbolTable
 70
    26
  0
APPID
  5
4A679
330
4A624
100
AcDbSymbolTableRecord
100
AcDbRegAppTableRecord
  2
ACAD
 70
     0
  0
APPID
  5
4A680
330
4A624
100
AcDbSymbolTableRecord
100
AcDbRegAppTableRecord
  2
ACADANNOTATIVE
 70
     0
  0
APPID
  5
4A68A
330
4A624
100
AcDbSymbolTableRecord
100
AcDbRegAppTableRecord
  2
ACAD_MLEADERVER
 70
     0
  0
APPID
  5
4A69B
330
4A624
100
AcDbSymbolTableRecord
100
AcDbRegAppTableRecord
  2
MCAD_NO_VIS
 70
     0
  0
APPID
  5
4A69C
330
4A624
100
AcDbSymbolTableRecord
100
AcDbRegAppTableRecord
  2
ACAD_TEMP_GRAPHIC
 70
     0
  0
APPID
  5
4A69D
330
4A624
100
AcDbSymbolTableRecord
100
AcDbRegAppTableRecord
  2
AD_DRAW
 70
     0
  0
APPID
  5
4A69E
330
4A624
100
AcDbSymbolTableRecord
100
AcDbRegAppTableRecord
  2
ACATTRIBSERVICES
 70
     0
  0
APPID
  5
4A69F
330
4A624
100
AcDbSymbolTableRecord
100
AcDbRegAppTableRecord
  2
DESIGNERASSEMBLIES
 70
     0
  0
APPID
  5
4A6A0
330
4A624
100
AcDbSymbolTableRecord
100
AcDbRegAppTableRecord
  2
ACADM_DIM_EDIT
 70
     0
  0
APPID
  5
4A6A1
330
4A624
100
AcDbSymbolTableRecord
100
AcDbRegAppTableRecord
  2
AMDT_DM_ADJ
 70
     0
  0
APPID
  5
4A6A2
330
4A624
100
AcDbSymbolTableRecord
100
AcDbRegAppTableRecord
  2
ACAD_DSTYLE_DIMJOGGED_JOGA
 70
     0
  0
APPID
  5
4A6A3
330
4A624
100
AcDbSymbolTableRecord
100
AcDbRegAppTableRecord
  2
ACAECLAYERSTANDARD
 70
     0
  0
APPID
  5
4A6A4
330
4A624
100
AcDbSymbolTableRecord
100
AcDbRegAppTableRecord
  2
ACAD_PSEXT
 70
     0
  0
APPID
  5
4A6A5
330
4A624
100
AcDbSymbolTableRecord
100
AcDbRegAppTableRecord
  2
ACAD_DSTYLE_DIMJAG
 70
     0
  0
APPID
  5
4A6A6
330
4A624
100
AcDbSymbolTableRecord
100
AcDbRegAppTableRecord
  2
ACAD_DSTYLE_DIMTALN
 70
     0
  0
APPID
  5
4A6A7
330
4A624
100
AcDbSymbolTableRecord
100
AcDbRegAppTableRecord
  2
GENIUS_GENODEF_13
 70
     0
  0
APPID
  5
4A6A8
330
4A624
100
AcDbSymbolTableRecord
100
AcDbRegAppTableRecord
  2
ACAD_DSTYLE_DIMINSPECT
 70
     0
  0
APPID
  5
4A6A9
330
4A624
100
AcDbSymbolTableRecord
100
AcDbRegAppTableRecord
  2
GENIUS_GENREC_14
 70
     0
  0
APPID
  5
4A6AA
330
4A624
100
AcDbSymbolTableRecord
100
AcDbRegAppTableRecord
  2
GENIUS_GENOBJ-N-REC_13
 70
     0
  0
APPID
  5
4A6AB
330
4A624
100
AcDbSymbolTableRecord
100
AcDbRegAppTableRecord
  2
ACAD_DSTYLE_DIMRADIAL_EXTENSION
 70
     0
  0
APPID
  5
4A6AC
330
4A624
100
AcDbSymbolTableRecord
100
AcDbRegAppTableRecord
  2
ACAD_DSTYLE_DIMBREAK
 70
     0
  0
APPID
  5
4A6CF
330
4A624
100
AcDbSymbolTableRecord
100
AcDbRegAppTableRecord
  2
ACAD_EXEMPT_FROM_CAD_STANDARDS
 70
     0
  0
APPID
  5
4AAFC
330
4A624
100
AcDbSymbolTableRecord
100
AcDbRegAppTableRecord
  2
ACAD_DSTYLE_DIMARC_LENGTH_SYMBOL
 70
     0
  0
APPID
  5
4AAFD
330
4A624
100
AcDbSymbolTableRecord
100
AcDbRegAppTableRecord
  2
ACAD_DSTYLE_DIM_LINETYPE
 70
     0
  0
APPID
  5
4AAFE
330
4A624
100
AcDbSymbolTableRecord
100
AcDbRegAppTableRecord
  2
ACAD_DSTYLE_DIM_EXT1_LINETYPE
 70
     0
  0
APPID
  5
4AAFF
330
4A624
100
AcDbSymbolTableRecord
100
AcDbRegAppTableRecord
  2
ACAD_DSTYLE_DIM_EXT2_LINETYPE
 70
     0
  0
ENDTAB
  0
TABLE
  2
DIMSTYLE
  5
4A625
330
0
100
AcDbSymbolTable
 70
    16
100
AcDbDimStyleTable
 71
     1
340
4AABC
  0
DIMSTYLE
105
4A67A
330
4A625
100
AcDbSymbolTableRecord
100
AcDbDimStyleTableRecord
  2
STANDARD
 70
     0
271
     2
272
     2
279
     2
284
     8
285
     8
286
     8
340
4A678
  0
DIMSTYLE
105
4A67B
330
4A625
100
AcDbSymbolTableRecord
100
AcDbDimStyleTableRecord
  2
Annotative
 70
     0
340
4A678
1001
ACADANNOTATIVE
1000
AnnotativeData
1002
{
1070
     1
1070
     1
1002
}
  0
DIMSTYLE
105
4A6AD
330
4A625
100
AcDbSymbolTableRecord
100
AcDbDimStyleTableRecord
  2
AM_ISO
 70
     0
  4
"
 41
3.5
 42
1.0
 43
10.0
 44
1.0
 47
0.1
 48
0.1
 73
     0
 74
     0
 77
     1
 78
     8
140
3.5
141
0.0
143
0.0393701
146
0.71
147
1.5
172
     1
176
   256
177
   256
178
     2
271
     2
272
     2
279
     2
284
     8
285
     8
286
     8
340
4A678
  0
DIMSTYLE
105
4A727
330
4A625
100
AcDbSymbolTableRecord
100
AcDbDimStyleTableRecord
  2
ISO-25
 70
     0
 41
2.5
 42
0.625
 43
3.75
 44
1.25
 73
     0
 74
     0
 77
     1
 78
     8
140
2.5
141
2.5
143
0.03937007874016
147
0.625
171
     3
172
     1
271
     2
272
     2
274
     3
278
    44
283
     0
284
     8
340
4A678
  0
DIMSTYLE
105
4A728
330
4A625
100
AcDbSymbolTableRecord
100
AcDbDimStyleTableRecord
  2
abode-iso
 70
     0
 40
10.0
 41
1.25
 42
1.5
 43
6.0
 44
0.0
 45
0.00000001
 46
10.0
 77
     1
 78
    12
 79
     3
140
17.0
143
0.03937
147
0.75
171
     3
172
     1
176
   256
177
   256
178
   256
271
     0
272
     0
274
     3
340
4A69A
342
4A6B4
371
    25
372
    25
1001
ACAD_DSTYLE_DIMJAG
1070
   388
1040
1.5
1001
ACAD_DSTYLE_DIMTALN
1070
   392
1070
     0
  0
DIMSTYLE
105
4A729
102
{ACAD_REACTORS
330
4A93F
330
4A958
102
}
330
4A625
100
AcDbSymbolTableRecord
100
AcDbDimStyleTableRecord
  2
abode-iso$4
 70
     0
 40
10.0
 41
1.25
 42
1.5
 43
6.0
 44
0.0
 45
0.00000001
 46
10.0
 77
     1
 78
    12
 79
     3
140
17.0
143
0.03937
147
0.75
171
     3
172
     1
176
   256
177
   256
178
   256
271
     0
272
     0
274
     3
340
4A69A
342
4A6B4
371
    25
372
    25
1001
ACAD_DSTYLE_DIMBREAK
1070
   391
1040
3.75
1001
ACAD_DSTYLE_DIMJAG
1070
   388
1040
1.5
1001
ACAD_DSTYLE_DIMTALN
1070
   392
1070
     0
  0
DIMSTYLE
105
4A72A
102
{ACAD_REACTORS
330
4A938
330
4A93B
330
4A94C
330
4A94F
330
4A952
102
}
330
4A625
100
AcDbSymbolTableRecord
100
AcDbDimStyleTableRecord
  2
abode-iso$0
 70
     0
 40
10.0
 41
1.25
 42
1.5
 43
6.0
 44
0.0
 45
0.00000001
 46
10.0
 77
     1
 78
    12
 79
     3
140
17.0
143
0.03937
147
0.75
171
     3
172
     1
176
   256
177
   256
178
   256
271
     0
272
     0
274
     3
340
4A69A
342
4A6B4
371
    25
372
    25
1001
ACAD_DSTYLE_DIMJAG
1070
   388
1040
1.5
1001
ACAD_DSTYLE_DIMTALN
1070
   392
1070
     0
  0
DIMSTYLE
105
4A72B
330
4A625
100
AcDbSymbolTableRecord
100
AcDbDimStyleTableRecord
  2
SLDDIMSTYLE0
 70
     0
 41
3.301999999999998
 44
0.0
 45
0.000000001
 73
     0
 77
     1
 78
    12
140
3.5
144
8.0
147
0.875
173
     1
271
     2
272
     2
284
    12
340
4A726
  0
DIMSTYLE
105
4A72C
330
4A625
100
AcDbSymbolTableRecord
100
AcDbDimStyleTableRecord
  2
SLDDIMSTYLE1
 70
     0
 41
3.301999999999998
 44
0.0
 45
0.000000001
 73
     0
 77
     1
 78
    12
140
3.5
144
8.0
147
0.875
173
     1
271
     2
272
     2
284
    12
340
4A726
  0
DIMSTYLE
105
4A72D
330
4A625
100
AcDbSymbolTableRecord
100
AcDbDimStyleTableRecord
  2
SLDDIMSTYLE3
 70
     0
 41
3.301999999999998
 44
0.0
 45
0.000000001
 73
     0
 77
     1
 78
    12
140
3.5
144
8.0
147
0.875
173
     1
271
     2
272
     2
284
    12
340
4A726
  0
DIMSTYLE
105
4AABC
102
{ACAD_REACTORS
330
4AAAC
102
}
330
4A625
100
AcDbSymbolTableRecord
100
AcDbDimStyleTableRecord
  2
AM_ANSI
 70
     0
  4
mm
 41
0.12
 42
0.05
 43
0.5
 44
0.1
 47
0.1
 48
0.1
 78
     7
 79
     2
140
0.12
141
0.0
146
0.71
147
0.06
176
   256
177
   256
178
   140
274
     4
284
     7
340
4A678
371
    -1
372
    -1
1001
ACAD_DSTYLE_DIMARC_LENGTH_SYMBOL
1070
   379
1070
     1
1001
ACAD_DSTYLE_DIM_LINETYPE
1070
   380
1005
4A67D
1001
ACAD_DSTYLE_DIM_EXT1_LINETYPE
1070
   381
1005
4A67D
1001
ACAD_DSTYLE_DIM_EXT2_LINETYPE
1070
   382
1005
4A67D
  0
DIMSTYLE
105
4AACA
330
4A625
100
AcDbSymbolTableRecord
100
AcDbDimStyleTableRecord
  2
AM_ANSI$3
 70
     0
  4
mm
 41
0.12
 42
0.05
 43
0.5
 44
0.1
 47
0.1
 48
0.1
 78
     7
 79
     2
140
0.12
141
0.0
146
0.71
147
0.06
176
   256
177
   256
178
   140
274
     4
284
     7
288
     1
289
     0
340
4A678
371
    -1
372
    -1
1001
ACAD_DSTYLE_DIMARC_LENGTH_SYMBOL
1070
   379
1070
     1
1001
ACAD_DSTYLE_DIM_LINETYPE
1070
   380
1005
4A67D
1001
ACAD_DSTYLE_DIM_EXT1_LINETYPE
1070
   381
1005
4A67D
1001
ACAD_DSTYLE_DIM_EXT2_LINETYPE
1070
   382
1005
4A67D
  0
DIMSTYLE
105
4AACB
330
4A625
100
AcDbSymbolTableRecord
100
AcDbDimStyleTableRecord
  2
AM_ANSI$4
 70
     0
  4
mm
 41
0.12
 42
0.05
 43
0.5
 44
0.1
 47
0.1
 48
0.1
 78
     7
 79
     2
140
0.12
141
0.0
146
0.71
147
0.06
176
   256
177
   256
178
   140
274
     4
284
     7
340
4A678
371
    -1
372
    -1
1001
ACAD_DSTYLE_DIMARC_LENGTH_SYMBOL
1070
   379
1070
     1
1001
ACAD_DSTYLE_DIM_LINETYPE
1070
   380
1005
4A67D
1001
ACAD_DSTYLE_DIM_EXT1_LINETYPE
1070
   381
1005
4A67D
1001
ACAD_DSTYLE_DIM_EXT2_LINETYPE
1070
   382
1005
4A67D
  0
DIMSTYLE
105
4AACC
330
4A625
100
AcDbSymbolTableRecord
100
AcDbDimStyleTableRecord
  2
AM_ANSI$7
 70
     0
  4
mm
 41
0.12
 42
0.05
 43
0.5
 44
0.1
 47
0.1
 48
0.1
 78
     7
 79
     2
140
0.12
141
0.0
146
0.71
147
0.06
176
   256
177
   256
178
   140
274
     4
284
     7
340
4A678
371
    -1
372
    -1
1001
ACAD_DSTYLE_DIMARC_LENGTH_SYMBOL
1070
   379
1070
     1
1001
ACAD_DSTYLE_DIM_LINETYPE
1070
   380
1005
4A67D
1001
ACAD_DSTYLE_DIM_EXT1_LINETYPE
1070
   381
1005
4A67D
1001
ACAD_DSTYLE_DIM_EXT2_LINETYPE
1070
   382
1005
4A67D
  0
DIMSTYLE
105
4AACD
330
4A625
100
AcDbSymbolTableRecord
100
AcDbDimStyleTableRecord
  2
AM_ANSI$SF
 70
     0
  4
mm
 41
0.12
 42
0.05
 43
0.5
 44
0.1
 47
0.1
 48
0.1
 75
     1
 76
     1
 78
     7
 79
     2
140
0.12
141
0.0
146
0.71
147
0.06
176
   256
177
   256
178
   140
274
     4
284
     7
340
4A678
371
    -1
372
    -1
1001
ACAD_DSTYLE_DIMARC_LENGTH_SYMBOL
1070
   379
1070
     1
1001
ACAD_DSTYLE_DIM_LINETYPE
1070
   380
1005
4A67D
1001
ACAD_DSTYLE_DIM_EXT1_LINETYPE
1070
   381
1005
4A67D
1001
ACAD_DSTYLE_DIM_EXT2_LINETYPE
1070
   382
1005
4A67D
  0
DIMSTYLE
105
4AAD2
330
4A625
100
AcDbSymbolTableRecord
100
AcDbDimStyleTableRecord
  2
AM_ANSI$SH
 70
     0
  4
mm
 41
0.12
 42
0.05
 43
0.5
 44
0.1
 47
0.1
 48
0.1
 75
     1
 76
     1
 78
     7
 79
     2
140
0.12
141
0.0
146
0.71
147
0.06
173
     1
176
   256
177
   256
178
   140
274
     4
284
     7
340
4A678
343
4AACE
371
    -1
372
    -1
1001
ACAD_DSTYLE_DIMARC_LENGTH_SYMBOL
1070
   379
1070
     1
1001
ACAD_DSTYLE_DIM_LINETYPE
1070
   380
1005
4A67D
1001
ACAD_DSTYLE_DIM_EXT1_LINETYPE
1070
   381
1005
4A67D
1001
ACAD_DSTYLE_DIM_EXT2_LINETYPE
1070
   382
1005
4A67D
  0
ENDTAB
  0
TABLE
  2
BLOCK_RECORD
  5
4A61C
330
0
100
AcDbSymbolTable
 70
    44
  0
BLOCK_RECORD
  5
4A68F
330
4A61C
100
AcDbSymbolTableRecord
100
AcDbBlockTableRecord
  2
*Model_Space
340
4A692
  0
BLOCK_RECORD
  5
4A68B
330
4A61C
100
AcDbSymbolTableRecord
100
AcDbBlockTableRecord
  2
*Paper_Space
340
4A68E
  0
BLOCK_RECORD
  5
4A6B0
330
4A61C
100
AcDbSymbolTableRecord
100
AcDbBlockTableRecord
  2
$MODEL_SPACE
340
0
  0
BLOCK_RECORD
  5
4A6B2
330
4A61C
100
AcDbSymbolTableRecord
100
AcDbBlockTableRecord
  2
$PAPER_SPACE
340
0
  0
BLOCK_RECORD
  5
4A6B4
330
4A61C
100
AcDbSymbolTableRecord
100
AcDbBlockTableRecord
  2
FILLED-1
340
0
102
{BLKREFS
331
46C51
331
46C52
331
46C5E
331
46C68
331
46C69
331
46C74
331
46C75
331
4A6D6
331
4A6D7
331
4A6E3
331
4A6E4
331
4A6F0
331
4A6F9
331
4A6FA
331
4A706
331
4A707
331
4A712
331
4A713
331
4A71F
331
4A81D
331
4A81E
331
4A827
331
4A828
331
4A837
331
4A838
331
4A841
331
4A842
331
4A84A
331
4A84B
331
4A85B
331
4A862
331
4A8CF
331
4A8D0
331
4A8DC
331
4A8DD
331
4A8E9
331
4A8A0
331
4A8A1
331
4A8AD
331
4A8AE
331
4A8B9
331
4A8BA
331
4A8C6
331
4A9DA
331
4A9DB
331
4A9E4
331
4A9E5
331
4A9F4
331
4A9F5
331
4A9FE
331
4A9FF
331
4AA07
331
4AA08
331
4AA18
331
4AA1F
102
}
  0
BLOCK_RECORD
  5
4A6B6
330
4A61C
100
AcDbSymbolTableRecord
100
AcDbBlockTableRecord
  2
*D3
340
0
  0
BLOCK_RECORD
  5
4A6B8
330
4A61C
100
AcDbSymbolTableRecord
100
AcDbBlockTableRecord
  2
*U4
340
0
102
{BLKREFS
331
46C53
102
}
  0
BLOCK_RECORD
  5
4A6BA
330
4A61C
100
AcDbSymbolTableRecord
100
AcDbBlockTableRecord
  2
*D5
340
0
  0
BLOCK_RECORD
  5
4A6BC
330
4A61C
100
AcDbSymbolTableRecord
100
AcDbBlockTableRecord
  2
*U6
340
0
102
{BLKREFS
331
46C5C
102
}
  0
BLOCK_RECORD
  5
4A6BE
330
4A61C
100
AcDbSymbolTableRecord
100
AcDbBlockTableRecord
  2
*D7
340
0
  0
BLOCK_RECORD
  5
4A6C0
330
4A61C
100
AcDbSymbolTableRecord
100
AcDbBlockTableRecord
  2
*U8
340
0
102
{BLKREFS
331
46C6A
102
}
  0
BLOCK_RECORD
  5
4A6C2
330
4A61C
100
AcDbSymbolTableRecord
100
AcDbBlockTableRecord
  2
*D9
340
0
  0
BLOCK_RECORD
  5
4A6C4
330
4A61C
100
AcDbSymbolTableRecord
100
AcDbBlockTableRecord
  2
*U10
340
0
102
{BLKREFS
331
46C76
102
}
  0
BLOCK_RECORD
  5
4A6C6
330
4A61C
100
AcDbSymbolTableRecord
100
AcDbBlockTableRecord
  2
*U11
340
0
  0
BLOCK_RECORD
  5
4A6C8
330
4A61C
100
AcDbSymbolTableRecord
100
AcDbBlockTableRecord
  2
*U12
340
0
  0
BLOCK_RECORD
  5
4A6CA
330
4A61C
100
AcDbSymbolTableRecord
100
AcDbBlockTableRecord
  2
*U13
340
0
102
{BLKREFS
331
46C49
102
}
  0
BLOCK_RECORD
  5
4A6D1
330
4A61C
100
AcDbSymbolTableRecord
100
AcDbBlockTableRecord
  2
*D14
340
0
  0
BLOCK_RECORD
  5
4A6DD
330
4A61C
100
AcDbSymbolTableRecord
100
AcDbBlockTableRecord
  2
*D15
340
0
  0
BLOCK_RECORD
  5
4A6EA
330
4A61C
100
AcDbSymbolTableRecord
100
AcDbBlockTableRecord
  2
*D16
340
0
  0
BLOCK_RECORD
  5
4A6F4
330
4A61C
100
AcDbSymbolTableRecord
100
AcDbBlockTableRecord
  2
*D17
340
0
  0
BLOCK_RECORD
  5
4A700
330
4A61C
100
AcDbSymbolTableRecord
100
AcDbBlockTableRecord
  2
*D18
340
0
  0
BLOCK_RECORD
  5
4A70D
330
4A61C
100
AcDbSymbolTableRecord
100
AcDbBlockTableRecord
  2
*D19
340
0
  0
BLOCK_RECORD
  5
4A719
330
4A61C
100
AcDbSymbolTableRecord
100
AcDbBlockTableRecord
  2
*D20
340
0
  0
BLOCK_RECORD
  5
4A79E
330
4A61C
100
AcDbSymbolTableRecord
100
AcDbBlockTableRecord
  2
*D21
340
0
  0
BLOCK_RECORD
  5
4A7AA
330
4A61C
100
AcDbSymbolTableRecord
100
AcDbBlockTableRecord
  2
*D22
340
0
  0
BLOCK_RECORD
  5
4A7B7
330
4A61C
100
AcDbSymbolTableRecord
100
AcDbBlockTableRecord
  2
*D23
340
0
  0
BLOCK_RECORD
  5
4A7C1
330
4A61C
100
AcDbSymbolTableRecord
100
AcDbBlockTableRecord
  2
*D24
340
0
  0
BLOCK_RECORD
  5
4A7CD
330
4A61C
100
AcDbSymbolTableRecord
100
AcDbBlockTableRecord
  2
*D25
340
0
  0
BLOCK_RECORD
  5
4A7DA
330
4A61C
100
AcDbSymbolTableRecord
100
AcDbBlockTableRecord
  2
*D26
340
0
  0
BLOCK_RECORD
  5
4A7E6
330
4A61C
100
AcDbSymbolTableRecord
100
AcDbBlockTableRecord
  2
*D27
340
0
  0
BLOCK_RECORD
  5
4A89B
330
4A61C
100
AcDbSymbolTableRecord
100
AcDbBlockTableRecord
  2
*D28
340
0
  0
BLOCK_RECORD
  5
4A8A7
330
4A61C
100
AcDbSymbolTableRecord
100
AcDbBlockTableRecord
  2
*D29
340
0
  0
BLOCK_RECORD
  5
4A8B4
330
4A61C
100
AcDbSymbolTableRecord
100
AcDbBlockTableRecord
  2
*D30
340
0
  0
BLOCK_RECORD
  5
4A8C0
330
4A61C
100
AcDbSymbolTableRecord
100
AcDbBlockTableRecord
  2
*D31
340
0
  0
BLOCK_RECORD
  5
4A8CA
330
4A61C
100
AcDbSymbolTableRecord
100
AcDbBlockTableRecord
  2
*D32
340
0
  0
BLOCK_RECORD
  5
4A8D6
330
4A61C
100
AcDbSymbolTableRecord
100
AcDbBlockTableRecord
  2
*D33
340
0
  0
BLOCK_RECORD
  5
4A8E3
330
4A61C
100
AcDbSymbolTableRecord
100
AcDbBlockTableRecord
  2
*D34
340
0
  0
BLOCK_RECORD
  5
4A95B
330
4A61C
100
AcDbSymbolTableRecord
100
AcDbBlockTableRecord
  2
*D35
340
0
  0
BLOCK_RECORD
  5
4A967
330
4A61C
100
AcDbSymbolTableRecord
100
AcDbBlockTableRecord
  2
*D36
340
0
  0
BLOCK_RECORD
  5
4A974
330
4A61C
100
AcDbSymbolTableRecord
100
AcDbBlockTableRecord
  2
*D37
340
0
  0
BLOCK_RECORD
  5
4A97E
330
4A61C
100
AcDbSymbolTableRecord
100
AcDbBlockTableRecord
  2
*D38
340
0
  0
BLOCK_RECORD
  5
4A98A
330
4A61C
100
AcDbSymbolTableRecord
100
AcDbBlockTableRecord
  2
*D39
340
0
  0
BLOCK_RECORD
  5
4A997
330
4A61C
100
AcDbSymbolTableRecord
100
AcDbBlockTableRecord
  2
*D40
340
0
  0
BLOCK_RECORD
  5
4A9A3
330
4A61C
100
AcDbSymbolTableRecord
100
AcDbBlockTableRecord
  2
*D41
340
0
  0
BLOCK_RECORD
  5
4AACE
330
4A61C
100
AcDbSymbolTableRecord
100
AcDbBlockTableRecord
  2
GENAXEH
340
0
  0
ENDTAB
  0
ENDSEC
  0
SECTION
  2
BLOCKS
  0
BLOCK
  5
4A690
330
4A68F
100
AcDbEntity
  8
0
100
AcDbBlockBegin
  2
*Model_Space
 70
     0
 10
0.0
 20
0.0
 30
0.0
  3
*Model_Space
  1

  0
ENDBLK
  5
4A691
330
4A68F
100
AcDbEntity
  8
0
100
AcDbBlockEnd
  0
BLOCK
  5
4A68C
330
4A68B
100
AcDbEntity
 67
     1
  8
0
100
AcDbBlockBegin
  2
*Paper_Space
 70
     0
 10
0.0
 20
0.0
 30
0.0
  3
*Paper_Space
  1

  0
ENDBLK
  5
4A68D
330
4A68B
100
AcDbEntity
 67
     1
  8
0
100
AcDbBlockEnd
  0
BLOCK
  5
4A6B1
330
4A6B0
100
AcDbEntity
  8
0
100
AcDbBlockBegin
  2
$MODEL_SPACE
 70
     0
 10
0.0
 20
0.0
 30
0.0
  3
$MODEL_SPACE
  1

  0
ENDBLK
  5
498D8
330
4A6B0
100
AcDbEntity
  8
0
100
AcDbBlockEnd
  0
BLOCK
  5
4A6B3
330
4A6B2
100
AcDbEntity
  8
0
100
AcDbBlockBegin
  2
$PAPER_SPACE
 70
     0
 10
0.0
 20
0.0
 30
0.0
  3
$PAPER_SPACE
  1

  0
ENDBLK
  5
498D4
330
4A6B2
100
AcDbEntity
  8
0
100
AcDbBlockEnd
  0
BLOCK
  5
4A6B5
330
4A6B4
100
AcDbEntity
  8
0
100
AcDbBlockBegin
  2
FILLED-1
 70
     0
 10
0.0
 20
0.0
 30
0.0
  3
FILLED-1
  1

  0
LINE
  5
13A
330
4A6B4
100
AcDbEntity
  8
0
 62
     0
100
AcDbLine
 10
-1.0
 20
0.0
 30
0.0
 11
0.0
 21
0.0
 31
0.0
  0
LWPOLYLINE
  5
13B
330
4A6B4
100
AcDbEntity
  8
0
 62
     0
100
AcDbPolyline
 90
        4
 70
   128
 43
0.0
 10
-1.0
 20
-0.3333333333333333
 10
0.0
 20
0.0
 10
-1.0
 20
0.3333333333333333
 10
-1.0
 20
-0.3333333333333333
  0
SOLID
  5
141
330
4A6B4
100
AcDbEntity
  8
0
 62
     0
100
AcDbTrace
 10
-1.0
 20
-0.3333333333333333
 30
0.0
 11
0.0
 21
0.0
 31
0.0
 12
-1.0
 22
0.3333333333333333
 32
0.0
 13
-1.0
 23
-0.3333333333333333
 33
0.0
  0
LINE
  5
142
330
4A6B4
100
AcDbEntity
  8
0
 62
     0
100
AcDbLine
 10
-1.0
 20
-0.3333333333333333
 30
0.0
 11
0.0
 21
0.0
 31
0.0
  0
LINE
  5
143
330
4A6B4
100
AcDbEntity
  8
0
 62
     0
100
AcDbLine
 10
0.0
 20
0.0
 30
0.0
 11
-1.0
 21
0.3333333333333333
 31
0.0
  0
LINE
  5
144
330
4A6B4
100
AcDbEntity
  8
0
 62
     0
100
AcDbLine
 10
-1.0
 20
0.3333333333333333
 30
0.0
 11
-1.0
 21
-0.3333333333333333
 31
0.0
  0
ENDBLK
  5
145
330
4A6B4
100
AcDbEntity
  8
0
100
AcDbBlockEnd
  0
BLOCK
  5
4A6B7
330
4A6B6
100
AcDbEntity
  8
0
100
AcDbBlockBegin
  2
*D3
 70
     1
 10
0.0
 20
0.0
 30
0.0
  3
*D3
  1

  0
LINE
  5
46C4E
330
4A6B6
100
AcDbEntity
  8
DIMS_SPECS
100
AcDbLine
 10
27697.50966347372
 20
23868.95820333854
 30
0.0
 11
27697.50966347372
 21
23779.56217227326
 31
0.0
  0
LINE
  5
46C4F
330
4A6B6
100
AcDbEntity
  8
DIMS_SPECS
100
AcDbLine
 10
28658.50966347372
 20
23868.95820333854
 30
0.0
 11
28658.50966347372
 21
23779.56217227326
 31
0.0
  0
LINE
  5
46C50
330
4A6B6
100
AcDbEntity
  8
DIMS_SPECS
100
AcDbLine
 10
27710.00966347372
 20
23779.56217227326
 30
0.0
 11
28646.00966347372
 21
23779.56217227326
 31
0.0
  0
INSERT
  5
46C51
330
4A6B6
100
AcDbEntity
  8
DIMS_SPECS
100
AcDbBlockReference
  2
FILLED-1
 10
27697.50966347372
 20
23779.56217227326
 30
0.0
 41
12.5
 42
12.5
 43
12.5
 50
180.0
  0
INSERT
  5
46C52
330
4A6B6
100
AcDbEntity
  8
DIMS_SPECS
100
AcDbBlockReference
  2
FILLED-1
 10
28658.50966347372
 20
23779.56217227326
 30
0.0
 41
12.5
 42
12.5
 43
12.5
  0
INSERT
  5
46C53
330
4A6B6
100
AcDbEntity
  8
0
100
AcDbBlockReference
  2
*U4
 10
0.0
 20
0.0
 30
0.0
  0
POINT
  5
46C54
330
4A6B6
100
AcDbEntity
  8
DEFPOINTS
 62
     0
100
AcDbPoint
 10
27697.50966347372
 20
23883.95820333854
 30
0.0
  0
POINT
  5
46C55
330
4A6B6
100
AcDbEntity
  8
DEFPOINTS
 62
     0
100
AcDbPoint
 10
28658.50966347372
 20
23883.95820333854
 30
0.0
  0
POINT
  5
46C56
330
4A6B6
100
AcDbEntity
  8
DEFPOINTS
 62
     0
100
AcDbPoint
 10
28658.50966347372
 20
23779.56217227326
 30
0.0
  0
ENDBLK
  5
46C4D
330
4A6B6
100
AcDbEntity
  8
0
100
AcDbBlockEnd
  0
BLOCK
  5
4A6B9
330
4A6B8
100
AcDbEntity
  8
0
100
AcDbBlockBegin
  2
*U4
 70
     1
 10
0.0
 20
0.0
 30
0.0
  3
*U4
  1

  0
TEXT
  5
496D0
330
4A6B8
100
AcDbEntity
  8
DIMS_SPECS
100
AcDbText
 10
28154.71041126434
 20
23787.70357268115
 30
0.0
 40
17.0
  1
961
 41
0.9
  7
ABODE-ISO
100
AcDbText
  0
ENDBLK
  5
496D2
330
4A6B8
100
AcDbEntity
  8
0
100
AcDbBlockEnd
  0
BLOCK
  5
4A6BB
330
4A6BA
100
AcDbEntity
  8
0
100
AcDbBlockBegin
  2
*D5
 70
     1
 10
0.0
 20
0.0
 30
0.0
  3
*D5
  1

  0
LINE
  5
46C5A
330
4A6BA
100
AcDbEntity
  8
DIMS_SPECS
100
AcDbLine
 10
28743.65619706137
 20
23817.54140504033
 30
0.0
 11
28702.24865117421
 21
23817.54140504033
 31
0.0
  0
LINE
  5
46C5B
330
4A6BA
100
AcDbEntity
  8
DIMS_SPECS
100
AcDbLine
 10
28702.24865117421
 20
23817.54140504033
 30
0.0
 11
28661.19506323108
 21
23866.68991078979
 31
0.0
  0
INSERT
  5
46C5C
330
4A6BA
100
AcDbEntity
  8
0
100
AcDbBlockReference
  2
*U6
 10
0.0
 20
0.0
 30
0.0
  0
LINE
  5
46C5D
330
4A6BA
100
AcDbEntity
  8
DIMS_SPECS
100
AcDbLine
 10
28646.77091429777
 20
23883.95820333857
 30
0.0
 11
28653.18164715703
 21
23876.28340665021
 31
0.0
  0
INSERT
  5
46C5E
330
4A6BA
100
AcDbEntity
  8
DIMS_SPECS
100
AcDbBlockReference
  2
FILLED-1
 10
28653.18164715703
 20
23876.28340665021
 30
0.0
 41
12.5
 42
12.5
 43
12.5
 50
129.8718983619246
  0
POINT
  5
46C5F
330
4A6BA
100
AcDbEntity
  8
DEFPOINTS
 62
     0
100
AcDbPoint
 10
28653.18164715703
 20
23876.28340665021
 30
0.0
  0
POINT
  5
46C60
330
4A6BA
100
AcDbEntity
  8
DEFPOINTS
 62
     0
100
AcDbPoint
 10
28646.77091429777
 20
23883.95820333857
 30
0.0
  0
ENDBLK
  5
46C59
330
4A6BA
100
AcDbEntity
  8
0
100
AcDbBlockEnd
  0
BLOCK
  5
4A6BD
330
4A6BC
100
AcDbEntity
  8
0
100
AcDbBlockBegin
  2
*U6
 70
     1
 10
0.0
 20
0.0
 30
0.0
  3
*U6
  1

  0
TEXT
  5
496D4
330
4A6BC
100
AcDbEntity
  8
DIMS_SPECS
100
AcDbText
 10
28707.80364777516
 20
23825.6828054482
 30
0.0
 40
17.0
  1
R10
 41
0.9
  7
ABODE-ISO
100
AcDbText
  0
ENDBLK
  5
496D6
330
4A6BC
100
AcDbEntity
  8
0
100
AcDbBlockEnd
  0
BLOCK
  5
4A6BF
330
4A6BE
100
AcDbEntity
  8
0
100
AcDbBlockBegin
  2
*D7
 70
     1
 10
0.0
 20
0.0
 30
0.0
  3
*D7
  1

  0
LINE
  5
46C64
330
4A6BE
100
AcDbEntity
  8
DIMS_SPECS
100
AcDbLine
 10
28661.77091429772
 20
23873.95820333854
 30
0.0
 11
28693.74868833494
 21
23873.95820333854
 31
0.0
  0
LINE
  5
46C65
330
4A6BE
100
AcDbEntity
  8
DIMS_SPECS
100
AcDbLine
 10
28661.77091429772
 20
24364.95820333854
 30
0.0
 11
28693.74868833494
 21
24364.95820333854
 31
0.0
  0
LINE
  5
46C66
330
4A6BE
100
AcDbEntity
  8
DIMS_SPECS
100
AcDbLine
 10
28693.74868833494
 20
23886.45820333854
 30
0.0
 11
28693.74868833494
 21
24095.5306030666
 31
0.0
  0
LINE
  5
46C67
330
4A6BE
100
AcDbEntity
  8
DIMS_SPECS
100
AcDbLine
 10
28693.74868833494
 20
24352.45820333854
 30
0.0
 11
28693.74868833494
 21
24128.38580361045
 31
0.0
  0
INSERT
  5
46C68
330
4A6BE
100
AcDbEntity
  8
DIMS_SPECS
100
AcDbBlockReference
  2
FILLED-1
 10
28693.74868833494
 20
23873.95820333854
 30
0.0
 41
12.5
 42
12.5
 43
12.5
 50
270.0
  0
INSERT
  5
46C69
330
4A6BE
100
AcDbEntity
  8
DIMS_SPECS
100
AcDbBlockReference
  2
FILLED-1
 10
28693.74868833494
 20
24364.95820333854
 30
0.0
 41
12.5
 42
12.5
 43
12.5
 50
90.0
  0
INSERT
  5
46C6A
330
4A6BE
100
AcDbEntity
  8
0
100
AcDbBlockReference
  2
*U8
 10
0.0
 20
0.0
 30
0.0
  0
POINT
  5
46C6B
330
4A6BE
100
AcDbEntity
  8
DEFPOINTS
 62
     0
100
AcDbPoint
 10
28646.77091429772
 20
23873.95820333854
 30
0.0
  0
POINT
  5
46C6C
330
4A6BE
100
AcDbEntity
  8
DEFPOINTS
 62
     0
100
AcDbPoint
 10
28646.77091429772
 20
24364.95820333854
 30
0.0
  0
POINT
  5
46C6D
330
4A6BE
100
AcDbEntity
  8
DEFPOINTS
 62
     0
100
AcDbPoint
 10
28693.74868833494
 20
24364.95820333854
 30
0.0
  0
ENDBLK
  5
46C63
330
4A6BE
100
AcDbEntity
  8
0
100
AcDbBlockEnd
  0
BLOCK
  5
4A6C1
330
4A6C0
100
AcDbEntity
  8
0
100
AcDbBlockBegin
  2
*U8
 70
     1
 10
0.0
 20
0.0
 30
0.0
  3
*U8
  1

  0
TEXT
  5
496D8
330
4A6C0
100
AcDbEntity
  8
DIMS_SPECS
100
AcDbText
 10
28678.19906223024
 20
24103.6720034745
 30
0.0
 40
17.0
  1
491
 41
0.9
  7
ABODE-ISO
100
AcDbText
  0
ENDBLK
  5
496DA
330
4A6C0
100
AcDbEntity
  8
0
100
AcDbBlockEnd
  0
BLOCK
  5
4A6C3
330
4A6C2
100
AcDbEntity
  8
0
100
AcDbBlockBegin
  2
*D9
 70
     1
 10
0.0
 20
0.0
 30
0.0
  3
*D9
  1

  0
LINE
  5
46C71
330
4A6C2
100
AcDbEntity
  8
DIMS_SPECS
100
AcDbLine
 10
27697.50966347372
 20
23868.95820333854
 30
0.0
 11
27697.50966347372
 21
23826.59369289194
 31
0.0
  0
LINE
  5
46C72
330
4A6C2
100
AcDbEntity
  8
DIMS_SPECS
100
AcDbLine
 10
28142.50966347374
 20
23858.95820333854
 30
0.0
 11
28142.50966347374
 21
23826.59369289194
 31
0.0
  0
LINE
  5
46C73
330
4A6C2
100
AcDbEntity
  8
DIMS_SPECS
100
AcDbLine
 10
27710.00966347372
 20
23826.59369289194
 30
0.0
 11
28130.00966347375
 21
23826.59369289194
 31
0.0
  0
INSERT
  5
46C74
330
4A6C2
100
AcDbEntity
  8
DIMS_SPECS
100
AcDbBlockReference
  2
FILLED-1
 10
27697.50966347372
 20
23826.59369289194
 30
0.0
 41
12.5
 42
12.5
 43
12.5
 50
180.0
  0
INSERT
  5
46C75
330
4A6C2
100
AcDbEntity
  8
DIMS_SPECS
100
AcDbBlockReference
  2
FILLED-1
 10
28142.50966347374
 20
23826.59369289194
 30
0.0
 41
12.5
 42
12.5
 43
12.5
  0
INSERT
  5
46C76
330
4A6C2
100
AcDbEntity
  8
0
100
AcDbBlockReference
  2
*U10
 10
0.0
 20
0.0
 30
0.0
  0
POINT
  5
46C77
330
4A6C2
100
AcDbEntity
  8
DEFPOINTS
 62
     0
100
AcDbPoint
 10
27697.50966347372
 20
23883.95820333854
 30
0.0
  0
POINT
  5
46C78
330
4A6C2
100
AcDbEntity
  8
DEFPOINTS
 62
     0
100
AcDbPoint
 10
28142.50966347374
 20
23873.95820333854
 30
0.0
  0
POINT
  5
46C79
330
4A6C2
100
AcDbEntity
  8
DEFPOINTS
 62
     0
100
AcDbPoint
 10
28142.50966347374
 20
23826.59369289194
 30
0.0
  0
ENDBLK
  5
46C70
330
4A6C2
100
AcDbEntity
  8
0
100
AcDbBlockEnd
  0
BLOCK
  5
4A6C5
330
4A6C4
100
AcDbEntity
  8
0
100
AcDbBlockBegin
  2
*U10
 70
     1
 10
0.0
 20
0.0
 30
0.0
  3
*U10
  1

  0
TEXT
  5
496DC
330
4A6C4
100
AcDbEntity
  8
DIMS_SPECS
100
AcDbText
 10
27902.49943233845
 20
23834.73509329983
 30
0.0
 40
17.0
  1
445
 41
0.9
  7
ABODE-ISO
100
AcDbText
  0
ENDBLK
  5
496DE
330
4A6C4
100
AcDbEntity
  8
0
100
AcDbBlockEnd
  0
BLOCK
  5
4A6C7
330
4A6C6
100
AcDbEntity
  8
0
100
AcDbBlockBegin
  2
*U11
 70
     1
 10
0.0
 20
0.0
 30
0.0
  3
*U11
  1

  0
TEXT
  5
496A4
330
4A6C6
100
AcDbEntity
  8
CUTOUT
100
AcDbText
 10
27997.34157707748
 20
24169.80436654411
 30
0.0
 40
40.0
  1
BOWL(S),
100
AcDbText
  0
TEXT
  5
496A5
330
4A6C6
100
AcDbEntity
  8
CUTOUT
100
AcDbText
 10
27937.34157707748
 20
24103.13769987745
 30
0.0
 40
40.0
  1
OVERFLOW,
100
AcDbText
  0
TEXT
  5
496A6
330
4A6C6
100
AcDbEntity
  8
CUTOUT
100
AcDbText
 10
27963.34157707748
 20
24036.47103321078
 30
0.0
 40
40.0
  1
TAP AREA
100
AcDbText
  0
ENDBLK
  5
496A8
330
4A6C6
100
AcDbEntity
  8
0
100
AcDbBlockEnd
  0
BLOCK
  5
4A6C9
330
4A6C8
100
AcDbEntity
  8
0
100
AcDbBlockBegin
  2
*U12
 70
     1
 10
0.0
 20
0.0
 30
0.0
  3
*U12
  1

  0
TEXT
  5
496B3
330
4A6C8
100
AcDbEntity
  8
CUTOUT
100
AcDbText
 10
27986.57776733651
 20
24383.62587610703
 30
0.0
 40
40.0
  1
INSET CUT OUT
100
AcDbText
  0
ENDBLK
  5
496B5
330
4A6C8
100
AcDbEntity
  8
0
100
AcDbBlockEnd
  0
BLOCK
  5
4A6CB
330
4A6CA
100
AcDbEntity
  8
0
100
AcDbBlockBegin
  2
*U13
 70
     1
 10
0.0
 20
0.0
 30
0.0
  3
*U13
  1

  0
TEXT
  5
496B7
330
4A6CA
100
AcDbEntity
  8
0
 62
     1
100
AcDbText
 10
27216.85780347565
 20
24224.0366160831
 30
0.0
 40
8.0
  1
All details are provided in good faith and
  7
ACISOTS
100
AcDbText
  0
TEXT
  5
496B8
330
4A6CA
100
AcDbEntity
  8
0
 62
     1
100
AcDbText
 10
27198.40980347565
 20
24210.70328274976
 30
0.0
 40
8.0
  1
within
  7
ACISOTS
100
AcDbText
  0
TEXT
  5
496B9
330
4A6CA
100
AcDbEntity
  8
0
 62
     1
100
AcDbText
 10
27234.38080347565
 20
24197.36994941644
 30
0.0
 40
8.0
  1
the tolerances of the manufacturing process.
  7
ACISOTS
100
AcDbText
  0
TEXT
  5
496BA
330
4A6CA
100
AcDbEntity
  8
0
 62
     1
100
AcDbText
 10
27199.71460347565
 20
24184.03661608311
 30
0.0
 40
8.0
  1
Note: the dimensions on ceramic fireclay
  7
ACISOTS
100
AcDbText
  0
TEXT
  5
496BB
330
4A6CA
100
AcDbEntity
  8
0
 62
     1
100
AcDbText
 10
27198.40980347565
 20
24170.70328274978
 30
0.0
 40
8.0
  1
products
  7
ACISOTS
100
AcDbText
  0
TEXT
  5
496BC
330
4A6CA
100
AcDbEntity
  8
0
 62
     1
100
AcDbText
 10
27201.23840347565
 20
24157.36994941644
 30
0.0
 40
8.0
  1
are subject to wider tolerances due to the
  7
ACISOTS
100
AcDbText
  0
TEXT
  5
496BD
330
4A6CA
100
AcDbEntity
  8
0
 62
     1
100
AcDbText
 10
27198.40980347565
 20
24144.03661608311
 30
0.0
 40
8.0
  1
nature
  7
ACISOTS
100
AcDbText
  0
TEXT
  5
496BE
330
4A6CA
100
AcDbEntity
  8
0
 62
     1
100
AcDbText
 10
27222.95280347565
 20
24130.70328274978
 30
0.0
 40
8.0
  1
of this natural material and the firing
  7
ACISOTS
100
AcDbText
  0
TEXT
  5
496BF
330
4A6CA
100
AcDbEntity
  8
0
 62
     1
100
AcDbText
 10
27198.40980347565
 20
24117.36994941645
 30
0.0
 40
8.0
  1
process.
  7
ACISOTS
100
AcDbText
  0
TEXT
  5
496C0
330
4A6CA
100
AcDbEntity
  8
0
 62
     1
100
AcDbText
 10
27227.90480347565
 20
24090.70328274978
 30
0.0
 40
8.0
  1
We recommend that a test cutout is made in
  7
ACISOTS
100
AcDbText
  0
TEXT
  5
496C1
330
4A6CA
100
AcDbEntity
  8
0
 62
     1
100
AcDbText
 10
27203.52410347565
 20
24077.36994941645
 30
0.0
 40
8.0
  1
scrap timber and checked against the actual
  7
ACISOTS
100
AcDbText
  0
TEXT
  5
496C2
330
4A6CA
100
AcDbEntity
  8
0
 62
     1
100
AcDbText
 10
27198.40980347565
 20
24064.03661608312
 30
0.0
 40
8.0
  1
sink
  7
ACISOTS
100
AcDbText
  0
TEXT
  5
496C3
330
4A6CA
100
AcDbEntity
  8
0
 62
     1
100
AcDbText
 10
27254.57180347565
 20
24050.70328274979
 30
0.0
 40
8.0
  1
supplied before committing to cutting
  7
ACISOTS
100
AcDbText
  0
TEXT
  5
496C4
330
4A6CA
100
AcDbEntity
  8
0
 62
     1
100
AcDbText
 10
27198.40980347565
 20
24037.36994941645
 30
0.0
 40
8.0
  1
the
  7
ACISOTS
100
AcDbText
  0
TEXT
  5
496C5
330
4A6CA
100
AcDbEntity
  8
0
 62
     1
100
AcDbText
 10
27445.04980347565
 20
24024.03661608312
 30
0.0
 40
8.0
  1
worksurface.
  7
ACISOTS
100
AcDbText
  0
TEXT
  5
496C6
330
4A6CA
100
AcDbEntity
  8
0
 62
     1
100
AcDbText
 10
27225.23880347565
 20
23997.36994941646
 30
0.0
 40
8.0
  1
Abode can not accept liability for problems
  7
ACISOTS
100
AcDbText
  0
TEXT
  5
496C7
330
4A6CA
100
AcDbEntity
  8
0
 62
     1
100
AcDbText
 10
27198.40980347565
 20
23984.03661608313
 30
0.0
 40
8.0
  1
or
  7
ACISOTS
100
AcDbText
  0
TEXT
  5
496C8
330
4A6CA
100
AcDbEntity
  8
0
 62
     1
100
AcDbText
 10
27229.42880347565
 20
23970.70328274979
 30
0.0
 40
8.0
  1
costs incurred by failure to follow this advise,
  7
ACISOTS
100
AcDbText
  0
TEXT
  5
496C9
330
4A6CA
100
AcDbEntity
  8
0
 62
     1
100
AcDbText
 10
27222.19080347565
 20
23957.36994941646
 30
0.0
 40
8.0
  1
dimensions weights & measures are subject
  7
ACISOTS
100
AcDbText
  0
TEXT
  5
496CA
330
4A6CA
100
AcDbEntity
  8
0
 62
     1
100
AcDbText
 10
27198.40980347565
 20
23944.03661608313
 30
0.0
 40
8.0
  1
to
  7
ACISOTS
100
AcDbText
  0
TEXT
  5
496CB
330
4A6CA
100
AcDbEntity
  8
0
 62
     1
100
AcDbText
 10
27205.42880347565
 20
23930.7032827498
 30
0.0
 40
8.0
  1
change without prior notice. Errors and omissions
  7
ACISOTS
100
AcDbText
  0
TEXT
  5
496CC
330
4A6CA
100
AcDbEntity
  8
0
 62
     1
100
AcDbText
 10
27465.99980347565
 20
23917.36994941647
 30
0.0
 40
8.0
  1
excepted
  7
ACISOTS
100
AcDbText
  0
ENDBLK
  5
496CE
330
4A6CA
100
AcDbEntity
  8
0
100
AcDbBlockEnd
  0
BLOCK
  5
4A6D2
330
4A6D1
100
AcDbEntity
  8
0
100
AcDbBlockBegin
  2
*D14
 70
     1
 10
0.0
 20
0.0
 30
0.0
  3
*D14
  1

  0
LINE
  5
4A6D3
330
4A6D1
100
AcDbEntity
  8
DIMS SPECS
370
    25
100
AcDbLine
 10
201332.8401786975
 20
846.881204769153
 30
0.0
 11
201332.8401786975
 21
794.6898412078923
 31
0.0
  0
LINE
  5
4A6D4
330
4A6D1
100
AcDbEntity
  8
DIMS SPECS
370
    25
100
AcDbLine
 10
201836.3173319164
 20
846.881204769153
 30
0.0
 11
201836.3173319164
 21
794.6898412078923
 31
0.0
  0
LINE
  5
4A6D5
330
4A6D1
100
AcDbEntity
  8
DIMS SPECS
370
    25
100
AcDbLine
 10
201345.3401786975
 20
794.6898412078923
 30
0.0
 11
201823.8173319164
 21
794.6898412078923
 31
0.0
  0
INSERT
  5
4A6D6
330
4A6D1
100
AcDbEntity
  8
DIMS SPECS
370
    25
100
AcDbBlockReference
  2
FILLED-1
 10
201332.8401786975
 20
794.6898412078923
 30
0.0
 41
12.5
 42
12.5
 43
12.5
 50
180.0
  0
INSERT
  5
4A6D7
330
4A6D1
100
AcDbEntity
  8
DIMS SPECS
370
    25
100
AcDbBlockReference
  2
FILLED-1
 10
201836.3173319164
 20
794.6898412078923
 30
0.0
 41
12.5
 42
12.5
 43
12.5
  0
MTEXT
  5
4A6D8
330
4A6D1
100
AcDbEntity
  8
DIMS SPECS
100
AcDbMText
 10
201584.5787553069
 20
811.117441479816
 30
0.0
 40
17.0
 41
0.0
 71
     5
 72
     1
  1
\A1;506
  7
ABODE-ISO
 73
     1
 44
1.0
  0
POINT
  5
4A6D9
330
4A6D1
100
AcDbEntity
  8
DEFPOINTS
 62
     0
100
AcDbPoint
 10
201332.8401786975
 20
861.881204769153
 30
0.0
  0
POINT
  5
4A6DA
330
4A6D1
100
AcDbEntity
  8
DEFPOINTS
 62
     0
100
AcDbPoint
 10
201836.3173319164
 20
861.881204769153
 30
0.0
  0
POINT
  5
4A6DB
330
4A6D1
100
AcDbEntity
  8
DEFPOINTS
 62
     0
100
AcDbPoint
 10
201836.3173319164
 20
794.6898412078923
 30
0.0
  0
ENDBLK
  5
4A6DC
330
4A6D1
100
AcDbEntity
  8
0
100
AcDbBlockEnd
  0
BLOCK
  5
4A6DE
330
4A6DD
100
AcDbEntity
  8
0
100
AcDbBlockBegin
  2
*D15
 70
     1
 10
0.0
 20
0.0
 30
0.0
  3
*D15
  1

  0
LINE
  5
4A6DF
330
4A6DD
100
AcDbEntity
  8
DIMS SPECS
370
    25
100
AcDbLine
 10
201834.4827689753
 20
1248.523773019223
 30
0.0
 11
201890.3747593038
 21
1248.523773019223
 31
0.0
  0
LINE
  5
4A6E0
330
4A6DD
100
AcDbEntity
  8
DIMS SPECS
370
    25
100
AcDbLine
 10
201834.4827689753
 20
845.0466480181161
 30
0.0
 11
201890.3747593038
 21
845.0466480181161
 31
0.0
  0
LINE
  5
4A6E1
330
4A6DD
100
AcDbEntity
  8
DIMS SPECS
370
    25
100
AcDbLine
 10
201890.3747593038
 20
1236.023773019223
 30
0.0
 11
201890.3747593038
 21
1063.212810790593
 31
0.0
  0
LINE
  5
4A6E2
330
4A6DD
100
AcDbEntity
  8
DIMS SPECS
370
    25
100
AcDbLine
 10
201890.3747593038
 20
857.5466480181161
 30
0.0
 11
201890.3747593038
 21
1030.357610246745
 31
0.0
  0
INSERT
  5
4A6E3
330
4A6DD
100
AcDbEntity
  8
DIMS SPECS
370
    25
100
AcDbBlockReference
  2
FILLED-1
 10
201890.3747593038
 20
1248.523773019223
 30
0.0
 41
12.5
 42
12.5
 43
12.5
 50
90.0
  0
INSERT
  5
4A6E4
330
4A6DD
100
AcDbEntity
  8
DIMS SPECS
370
    25
100
AcDbBlockReference
  2
FILLED-1
 10
201890.3747593038
 20
845.0466480181161
 30
0.0
 41
12.5
 42
12.5
 43
12.5
 50
270.0
  0
MTEXT
  5
4A6E5
330
4A6DD
100
AcDbEntity
  8
DIMS SPECS
100
AcDbMText
 10
201890.3747593038
 20
1046.785210518702
 30
0.0
 40
17.0
 41
0.0
 71
     5
 72
     1
  1
\A1;406
  7
ABODE-ISO
 73
     1
 44
1.0
  0
POINT
  5
4A6E6
330
4A6DD
100
AcDbEntity
  8
DEFPOINTS
 62
     0
100
AcDbPoint
 10
201819.4827689753
 20
1248.523773019223
 30
0.0
  0
POINT
  5
4A6E7
330
4A6DD
100
AcDbEntity
  8
DEFPOINTS
 62
     0
100
AcDbPoint
 10
201819.4827689753
 20
845.0466480181161
 30
0.0
  0
POINT
  5
4A6E8
330
4A6DD
100
AcDbEntity
  8
DEFPOINTS
 62
     0
100
AcDbPoint
 10
201890.3747593038
 20
845.0466480181161
 30
0.0
  0
ENDBLK
  5
4A6E9
330
4A6DD
100
AcDbEntity
  8
0
100
AcDbBlockEnd
  0
BLOCK
  5
4A6EB
330
4A6EA
100
AcDbEntity
  8
0
100
AcDbBlockBegin
  2
*D16
 70
     1
 10
0.0
 20
0.0
 30
0.0
  3
*D16
  1

  0
LINE
  5
4A6EC
330
4A6EA
100
AcDbEntity
  8
DIMS SPECS
370
    25
100
AcDbLine
 10
201919.4592375733
 20
802.4501648762816
 30
0.0
 11
201877.9372797211
 21
802.4501648762962
 31
0.0
  0
LINE
  5
4A6ED
330
4A6EA
100
AcDbEntity
  8
DIMS SPECS
370
    25
100
AcDbLine
 10
201877.9372797211
 20
802.4501648762962
 30
0.0
 11
201840.0726470019
 21
840.9479628461991
 31
0.0
  0
MTEXT
  5
4A6EE
330
4A6EA
100
AcDbEntity
  8
DIMS SPECS
100
AcDbMText
 10
201902.4482586475
 20
818.6639650122581
 30
0.0
 40
17.0
 41
0.0
 71
     5
 72
     1
  1
\A1;R17
  7
ABODE-ISO
 73
     1
 44
1.0
  0
LINE
  5
4A6EF
330
4A6EA
100
AcDbEntity
  8
DIMS SPECS
370
    25
100
AcDbLine
 10
201819.5388354207
 20
861.8251369539791
 30
0.0
 11
201831.3074014497
 21
849.8597791822978
 31
0.0
  0
INSERT
  5
4A6F0
330
4A6EA
100
AcDbEntity
  8
DIMS SPECS
370
    25
100
AcDbBlockReference
  2
FILLED-1
 10
201831.3074014497
 20
849.8597791822978
 30
0.0
 41
12.5
 42
12.5
 43
12.5
 50
134.5249383114128
  0
POINT
  5
4A6F1
330
4A6EA
100
AcDbEntity
  8
DEFPOINTS
 62
     0
100
AcDbPoint
 10
201831.3074014497
 20
849.8597791822978
 30
0.0
  0
POINT
  5
4A6F2
330
4A6EA
100
AcDbEntity
  8
DEFPOINTS
 62
     0
100
AcDbPoint
 10
201819.5388354207
 20
861.8251369539791
 30
0.0
  0
ENDBLK
  5
4A6F3
330
4A6EA
100
AcDbEntity
  8
0
100
AcDbBlockEnd
  0
BLOCK
  5
4A6F5
330
4A6F4
100
AcDbEntity
  8
0
100
AcDbBlockBegin
  2
*D17
 70
     1
 10
0.0
 20
0.0
 30
0.0
  3
*D17
  1

  0
LINE
  5
4A6F6
330
4A6F4
100
AcDbEntity
  8
DIMS SPECS
370
    25
100
AcDbLine
 10
202027.6421771519
 20
1052.142262123938
 30
0.0
 11
202027.6421771519
 21
800.2835027410764
 31
0.0
  0
LINE
  5
4A6F7
330
4A6F4
100
AcDbEntity
  8
DIMS SPECS
370
    25
100
AcDbLine
 10
202537.6421771519
 20
1052.046640702692
 30
0.0
 11
202537.6421771519
 21
800.2835027410764
 31
0.0
  0
LINE
  5
4A6F8
330
4A6F4
100
AcDbEntity
  8
DIMS SPECS
370
    25
100
AcDbLine
 10
202040.142177152
 20
800.2835027410764
 30
0.0
 11
202525.1421771519
 21
800.2835027410764
 31
0.0
  0
INSERT
  5
4A6F9
330
4A6F4
100
AcDbEntity
  8
DIMS SPECS
370
    25
100
AcDbBlockReference
  2
FILLED-1
 10
202027.6421771519
 20
800.2835027410764
 30
0.0
 41
12.5
 42
12.5
 43
12.5
 50
180.0
  0
INSERT
  5
4A6FA
330
4A6F4
100
AcDbEntity
  8
DIMS SPECS
370
    25
100
AcDbBlockReference
  2
FILLED-1
 10
202537.6421771519
 20
800.2835027410764
 30
0.0
 41
12.5
 42
12.5
 43
12.5
  0
MTEXT
  5
4A6FB
330
4A6F4
100
AcDbEntity
  8
DIMS SPECS
100
AcDbMText
 10
202282.6421771519
 20
816.7111030130001
 30
0.0
 40
17.0
 41
0.0
 71
     5
 72
     1
  1
\A1;510
  7
ABODE-ISO
 73
     1
 44
1.0
  0
POINT
  5
4A6FC
330
4A6F4
100
AcDbEntity
  8
DEFPOINTS
 62
     0
100
AcDbPoint
 10
202027.6421771519
 20
1067.142262123938
 30
0.0
  0
POINT
  5
4A6FD
330
4A6F4
100
AcDbEntity
  8
DEFPOINTS
 62
     0
100
AcDbPoint
 10
202537.6421771519
 20
1067.046640702692
 30
0.0
  0
POINT
  5
4A6FE
330
4A6F4
100
AcDbEntity
  8
DEFPOINTS
 62
     0
100
AcDbPoint
 10
202537.6421771519
 20
800.2835027410764
 30
0.0
  0
ENDBLK
  5
4A6FF
330
4A6F4
100
AcDbEntity
  8
0
100
AcDbBlockEnd
  0
BLOCK
  5
4A701
330
4A700
100
AcDbEntity
  8
0
100
AcDbBlockBegin
  2
*D18
 70
     1
 10
0.0
 20
0.0
 30
0.0
  3
*D18
  1

  0
LINE
  5
4A702
330
4A700
100
AcDbEntity
  8
DIMS SPECS
370
    25
100
AcDbLine
 10
202297.642177152
 20
845.0466407026906
 30
0.0
 11
202603.6071427643
 21
845.0466407026905
 31
0.0
  0
LINE
  5
4A703
330
4A700
100
AcDbEntity
  8
DIMS SPECS
370
    25
100
AcDbLine
 10
202297.6421771521
 20
1289.04664070269
 30
0.0
 11
202603.6071427643
 21
1289.04664070269
 31
0.0
  0
LINE
  5
4A704
330
4A700
100
AcDbEntity
  8
DIMS SPECS
370
    25
100
AcDbLine
 10
202603.6071427643
 20
857.5466407026905
 30
0.0
 11
202603.6071427643
 21
1050.832840566728
 31
0.0
  0
LINE
  5
4A705
330
4A700
100
AcDbEntity
  8
DIMS SPECS
370
    25
100
AcDbLine
 10
202603.6071427643
 20
1276.54664070269
 30
0.0
 11
202603.6071427643
 21
1083.260440838652
 31
0.0
  0
INSERT
  5
4A706
330
4A700
100
AcDbEntity
  8
DIMS SPECS
370
    25
100
AcDbBlockReference
  2
FILLED-1
 10
202603.6071427643
 20
845.0466407026905
 30
0.0
 41
12.5
 42
12.5
 43
12.5
 50
270.0
  0
INSERT
  5
4A707
330
4A700
100
AcDbEntity
  8
DIMS SPECS
370
    25
100
AcDbBlockReference
  2
FILLED-1
 10
202603.6071427643
 20
1289.04664070269
 30
0.0
 41
12.5
 42
12.5
 43
12.5
 50
90.0
  0
MTEXT
  5
4A708
330
4A700
100
AcDbEntity
  8
DIMS SPECS
100
AcDbMText
 10
202603.6071427643
 20
1067.046640702723
 30
0.0
 40
17.0
 41
0.0
 71
     5
 72
     1
  1
\A1;444
  7
ABODE-ISO
 73
     1
 44
1.0
  0
POINT
  5
4A709
330
4A700
100
AcDbEntity
  8
DEFPOINTS
 62
     0
100
AcDbPoint
 10
202282.642177152
 20
845.0466407026906
 30
0.0
  0
POINT
  5
4A70A
330
4A700
100
AcDbEntity
  8
DEFPOINTS
 62
     0
100
AcDbPoint
 10
202282.6421771521
 20
1289.04664070269
 30
0.0
  0
POINT
  5
4A70B
330
4A700
100
AcDbEntity
  8
DEFPOINTS
 62
     0
100
AcDbPoint
 10
202603.6071427643
 20
1289.04664070269
 30
0.0
  0
ENDBLK
  5
4A70C
330
4A700
100
AcDbEntity
  8
0
100
AcDbBlockEnd
  0
BLOCK
  5
4A70E
330
4A70D
100
AcDbEntity
  8
0
100
AcDbBlockBegin
  2
*D19
 70
     1
 10
0.0
 20
0.0
 30
0.0
  3
*D19
  1

  0
LINE
  5
4A70F
330
4A70D
100
AcDbEntity
  8
DIMS SPECS
370
    25
100
AcDbLine
 10
202010.6421771522
 20
1052.046640702698
 30
0.0
 11
202010.6421771522
 21
742.1601006144482
 31
0.0
  0
LINE
  5
4A710
330
4A70D
100
AcDbEntity
  8
DIMS SPECS
370
    25
100
AcDbLine
 10
202554.6421771519
 20
1052.046640702689
 30
0.0
 11
202554.6421771519
 21
742.1601006144482
 31
0.0
  0
LINE
  5
4A711
330
4A70D
100
AcDbEntity
  8
DIMS SPECS
370
    25
100
AcDbLine
 10
202023.1421771522
 20
742.1601006144482
 30
0.0
 11
202542.142177152
 21
742.1601006144482
 31
0.0
  0
INSERT
  5
4A712
330
4A70D
100
AcDbEntity
  8
DIMS SPECS
370
    25
100
AcDbBlockReference
  2
FILLED-1
 10
202010.6421771522
 20
742.1601006144482
 30
0.0
 41
12.5
 42
12.5
 43
12.5
 50
180.0
  0
INSERT
  5
4A713
330
4A70D
100
AcDbEntity
  8
DIMS SPECS
370
    25
100
AcDbBlockReference
  2
FILLED-1
 10
202554.6421771519
 20
742.1601006144482
 30
0.0
 41
12.5
 42
12.5
 43
12.5
  0
MTEXT
  5
4A714
330
4A70D
100
AcDbEntity
  8
DIMS SPECS
100
AcDbMText
 10
202282.6421771521
 20
758.5877008863722
 30
0.0
 40
17.0
 41
0.0
 71
     5
 72
     1
  1
\A1;544
  7
ABODE-ISO
 73
     1
 44
1.0
  0
POINT
  5
4A715
330
4A70D
100
AcDbEntity
  8
DEFPOINTS
 62
     0
100
AcDbPoint
 10
202010.6421771522
 20
1067.046640702698
 30
0.0
  0
POINT
  5
4A716
330
4A70D
100
AcDbEntity
  8
DEFPOINTS
 62
     0
100
AcDbPoint
 10
202554.6421771519
 20
1067.046640702689
 30
0.0
  0
POINT
  5
4A717
330
4A70D
100
AcDbEntity
  8
DEFPOINTS
 62
     0
100
AcDbPoint
 10
202554.6421771519
 20
742.1601006144482
 30
0.0
  0
ENDBLK
  5
4A718
330
4A70D
100
AcDbEntity
  8
0
100
AcDbBlockEnd
  0
BLOCK
  5
4A71A
330
4A719
100
AcDbEntity
  8
0
100
AcDbBlockBegin
  2
*D20
 70
     1
 10
0.0
 20
0.0
 30
0.0
  3
*D20
  1

  0
LINE
  5
4A71B
330
4A719
100
AcDbEntity
  8
DIMS SPECS
370
    25
100
AcDbLine
 10
202663.0207582537
 20
769.3358006259512
 30
0.0
 11
202621.7068221559
 21
769.3358006259223
 31
0.0
  0
LINE
  5
4A71C
330
4A719
100
AcDbEntity
  8
DIMS SPECS
370
    25
100
AcDbLine
 10
202621.7068221559
 20
769.3358006259223
 30
0.0
 11
202555.8831725756
 21
841.5494618054363
 31
0.0
  0
MTEXT
  5
4A71D
330
4A719
100
AcDbEntity
  8
DIMS SPECS
100
AcDbMText
 10
202646.1137902048
 20
785.5496007618987
 30
0.0
 40
17.0
 41
0.0
 71
     5
 72
     1
  1
\A1;R22
  7
ABODE-ISO
 73
     1
 44
1.0
  0
LINE
  5
4A71E
330
4A719
100
AcDbEntity
  8
DIMS SPECS
370
    25
100
AcDbLine
 10
202532.6421771518
 20
867.0466407025815
 30
0.0
 11
202547.4625220597
 21
850.7875701015001
 31
0.0
  0
INSERT
  5
4A71F
330
4A719
100
AcDbEntity
  8
DIMS SPECS
370
    25
100
AcDbBlockReference
  2
FILLED-1
 10
202547.4625220597
 20
850.7875701015001
 30
0.0
 41
12.5
 42
12.5
 43
12.5
 50
132.3495607503894
  0
POINT
  5
4A720
330
4A719
100
AcDbEntity
  8
DEFPOINTS
 62
     0
100
AcDbPoint
 10
202547.4625220597
 20
850.7875701015001
 30
0.0
  0
POINT
  5
4A721
330
4A719
100
AcDbEntity
  8
DEFPOINTS
 62
     0
100
AcDbPoint
 10
202532.6421771518
 20
867.0466407025815
 30
0.0
  0
ENDBLK
  5
4A722
330
4A719
100
AcDbEntity
  8
0
100
AcDbBlockEnd
  0
BLOCK
  5
4A79F
330
4A79E
100
AcDbEntity
  8
0
100
AcDbBlockBegin
  2
*D21
 70
     1
 10
0.0
 20
0.0
 30
0.0
  3
*D21
  1

  0
LINE
  5
4A81A
330
4A79E
100
AcDbEntity
  8
DIMS SPECS
370
    25
100
AcDbLine
 10
27729.59082202568
 20
23912.94706576109
 30
0.0
 11
27729.59082202568
 21
23860.75570219983
 31
0.0
  0
LINE
  5
4A81B
330
4A79E
100
AcDbEntity
  8
DIMS SPECS
370
    25
100
AcDbLine
 10
28233.06797524462
 20
23912.94706576109
 30
0.0
 11
28233.06797524462
 21
23860.75570219983
 31
0.0
  0
LINE
  5
4A81C
330
4A79E
100
AcDbEntity
  8
DIMS SPECS
370
    25
100
AcDbLine
 10
27742.09082202568
 20
23860.75570219983
 30
0.0
 11
28220.56797524462
 21
23860.75570219983
 31
0.0
  0
INSERT
  5
4A81D
330
4A79E
100
AcDbEntity
  8
DIMS SPECS
370
    25
100
AcDbBlockReference
  2
FILLED-1
 10
27729.59082202568
 20
23860.75570219983
 30
0.0
 41
12.5
 42
12.5
 43
12.5
 50
180.0
  0
INSERT
  5
4A81E
330
4A79E
100
AcDbEntity
  8
DIMS SPECS
370
    25
100
AcDbBlockReference
  2
FILLED-1
 10
28233.06797524462
 20
23860.75570219983
 30
0.0
 41
12.5
 42
12.5
 43
12.5
  0
MTEXT
  5
4A81F
330
4A79E
100
AcDbEntity
  8
DIMS SPECS
100
AcDbMText
 10
27981.32939863515
 20
23876.75570219983
 30
0.0
 40
17.0
 41
0.0
 71
     5
 72
     1
  1
\A1;506
  7
ABODE-ISO
 73
     1
 44
1.0
  0
POINT
  5
4A820
330
4A79E
100
AcDbEntity
  8
DEFPOINTS
 62
     0
100
AcDbPoint
 10
27729.59082202568
 20
23927.94706576109
 30
0.0
  0
POINT
  5
4A821
330
4A79E
100
AcDbEntity
  8
DEFPOINTS
 62
     0
100
AcDbPoint
 10
28233.06797524462
 20
23927.94706576109
 30
0.0
  0
POINT
  5
4A822
330
4A79E
100
AcDbEntity
  8
DEFPOINTS
 62
     0
100
AcDbPoint
 10
28233.06797524462
 20
23860.75570219983
 30
0.0
  0
ENDBLK
  5
4A7A0
330
4A79E
100
AcDbEntity
  8
0
100
AcDbBlockEnd
  0
BLOCK
  5
4A7AB
330
4A7AA
100
AcDbEntity
  8
0
100
AcDbBlockBegin
  2
*D22
 70
     1
 10
0.0
 20
0.0
 30
0.0
  3
*D22
  1

  0
LINE
  5
4A823
330
4A7AA
100
AcDbEntity
  8
DIMS SPECS
370
    25
100
AcDbLine
 10
28231.23341230351
 20
24314.58963401116
 30
0.0
 11
28287.12540263202
 21
24314.58963401116
 31
0.0
  0
LINE
  5
4A824
330
4A7AA
100
AcDbEntity
  8
DIMS SPECS
370
    25
100
AcDbLine
 10
28231.23341230351
 20
23911.11250901005
 30
0.0
 11
28287.12540263202
 21
23911.11250901005
 31
0.0
  0
LINE
  5
4A825
330
4A7AA
100
AcDbEntity
  8
DIMS SPECS
370
    25
100
AcDbLine
 10
28287.12540263202
 20
24302.08963401116
 30
0.0
 11
28287.12540263202
 21
24128.8510715106
 31
0.0
  0
LINE
  5
4A826
330
4A7AA
100
AcDbEntity
  8
DIMS SPECS
370
    25
100
AcDbLine
 10
28287.12540263202
 20
23923.61250901005
 30
0.0
 11
28287.12540263202
 21
24096.8510715106
 31
0.0
  0
INSERT
  5
4A827
330
4A7AA
100
AcDbEntity
  8
DIMS SPECS
370
    25
100
AcDbBlockReference
  2
FILLED-1
 10
28287.12540263202
 20
24314.58963401116
 30
0.0
 41
12.5
 42
12.5
 43
12.5
 50
90.0
  0
INSERT
  5
4A828
330
4A7AA
100
AcDbEntity
  8
DIMS SPECS
370
    25
100
AcDbBlockReference
  2
FILLED-1
 10
28287.12540263202
 20
23911.11250901005
 30
0.0
 41
12.5
 42
12.5
 43
12.5
 50
270.0
  0
MTEXT
  5
4A829
330
4A7AA
100
AcDbEntity
  8
DIMS SPECS
100
AcDbMText
 10
28287.12540263202
 20
24112.85107151061
 30
0.0
 40
17.0
 41
0.0
 71
     5
 72
     1
  1
\A1;406
  7
ABODE-ISO
 73
     1
 44
1.0
  0
POINT
  5
4A82A
330
4A7AA
100
AcDbEntity
  8
DEFPOINTS
 62
     0
100
AcDbPoint
 10
28216.23341230351
 20
24314.58963401116
 30
0.0
  0
POINT
  5
4A82B
330
4A7AA
100
AcDbEntity
  8
DEFPOINTS
 62
     0
100
AcDbPoint
 10
28216.23341230351
 20
23911.11250901005
 30
0.0
  0
POINT
  5
4A82C
330
4A7AA
100
AcDbEntity
  8
DEFPOINTS
 62
     0
100
AcDbPoint
 10
28287.12540263202
 20
23911.11250901005
 30
0.0
  0
ENDBLK
  5
4A7AC
330
4A7AA
100
AcDbEntity
  8
0
100
AcDbBlockEnd
  0
BLOCK
  5
4A7B8
330
4A7B7
100
AcDbEntity
  8
0
100
AcDbBlockBegin
  2
*D23
 70
     1
 10
0.0
 20
0.0
 30
0.0
  3
*D23
  1

  0
LINE
  5
4A857
330
4A7B7
100
AcDbEntity
  8
DIMS SPECS
370
    25
100
AcDbLine
 10
28317.88792304936
 20
23868.51602586821
 30
0.0
 11
28274.68792304936
 21
23868.51602586821
 31
0.0
  0
LINE
  5
4A858
330
4A7B7
100
AcDbEntity
  8
DIMS SPECS
370
    25
100
AcDbLine
 10
28274.68792304936
 20
23868.51602586821
 30
0.0
 11
28236.82329033013
 21
23907.01382383812
 31
0.0
  0
MTEXT
  5
4A859
330
4A7B7
100
AcDbEntity
  8
DIMS SPECS
100
AcDbMText
 10
28300.03792304936
 20
23884.51602586821
 30
0.0
 40
17.0
 41
0.0
 71
     5
 72
     1
  1
\A1;R17
  7
ABODE-ISO
 73
     1
 44
1.0
  0
LINE
  5
4A85A
330
4A7B7
100
AcDbEntity
  8
DIMS SPECS
370
    25
100
AcDbLine
 10
28216.28947874891
 20
23927.89099794591
 30
0.0
 11
28228.05804477788
 21
23915.92564017424
 31
0.0
  0
INSERT
  5
4A85B
330
4A7B7
100
AcDbEntity
  8
DIMS SPECS
370
    25
100
AcDbBlockReference
  2
FILLED-1
 10
28228.05804477788
 20
23915.92564017424
 30
0.0
 41
12.5
 42
12.5
 43
12.5
 50
134.5249383114401
  0
POINT
  5
4A85C
330
4A7B7
100
AcDbEntity
  8
DEFPOINTS
 62
     0
100
AcDbPoint
 10
28228.05804477788
 20
23915.92564017424
 30
0.0
  0
POINT
  5
4A85D
330
4A7B7
100
AcDbEntity
  8
DEFPOINTS
 62
     0
100
AcDbPoint
 10
28216.28947874891
 20
23927.89099794591
 30
0.0
  0
ENDBLK
  5
4A7B9
330
4A7B7
100
AcDbEntity
  8
0
100
AcDbBlockEnd
  0
BLOCK
  5
4A7C2
330
4A7C1
100
AcDbEntity
  8
0
100
AcDbBlockBegin
  2
*D24
 70
     1
 10
0.0
 20
0.0
 30
0.0
  3
*D24
  1

  0
LINE
  5
4A834
330
4A7C1
100
AcDbEntity
  8
DIMS SPECS
370
    25
100
AcDbLine
 10
28424.39282048013
 20
24118.20812311587
 30
0.0
 11
28424.39282048013
 21
23866.34936373301
 31
0.0
  0
LINE
  5
4A835
330
4A7C1
100
AcDbEntity
  8
DIMS SPECS
370
    25
100
AcDbLine
 10
28934.39282048014
 20
24118.11250169463
 30
0.0
 11
28934.39282048014
 21
23866.34936373301
 31
0.0
  0
LINE
  5
4A836
330
4A7C1
100
AcDbEntity
  8
DIMS SPECS
370
    25
100
AcDbLine
 10
28436.89282048014
 20
23866.34936373301
 30
0.0
 11
28921.89282048013
 21
23866.34936373301
 31
0.0
  0
INSERT
  5
4A837
330
4A7C1
100
AcDbEntity
  8
DIMS SPECS
370
    25
100
AcDbBlockReference
  2
FILLED-1
 10
28424.39282048013
 20
23866.34936373301
 30
0.0
 41
12.5
 42
12.5
 43
12.5
 50
180.0
  0
INSERT
  5
4A838
330
4A7C1
100
AcDbEntity
  8
DIMS SPECS
370
    25
100
AcDbBlockReference
  2
FILLED-1
 10
28934.39282048014
 20
23866.34936373301
 30
0.0
 41
12.5
 42
12.5
 43
12.5
  0
MTEXT
  5
4A839
330
4A7C1
100
AcDbEntity
  8
DIMS SPECS
100
AcDbMText
 10
28679.39282048014
 20
23882.34936373301
 30
0.0
 40
17.0
 41
0.0
 71
     5
 72
     1
  1
\A1;510
  7
ABODE-ISO
 73
     1
 44
1.0
  0
POINT
  5
4A83A
330
4A7C1
100
AcDbEntity
  8
DEFPOINTS
 62
     0
100
AcDbPoint
 10
28424.39282048013
 20
24133.20812311587
 30
0.0
  0
POINT
  5
4A83B
330
4A7C1
100
AcDbEntity
  8
DEFPOINTS
 62
     0
100
AcDbPoint
 10
28934.39282048014
 20
24133.11250169463
 30
0.0
  0
POINT
  5
4A83C
330
4A7C1
100
AcDbEntity
  8
DEFPOINTS
 62
     0
100
AcDbPoint
 10
28934.39282048014
 20
23866.34936373301
 30
0.0
  0
ENDBLK
  5
4A7C3
330
4A7C1
100
AcDbEntity
  8
0
100
AcDbBlockEnd
  0
BLOCK
  5
4A7CE
330
4A7CD
100
AcDbEntity
  8
0
100
AcDbBlockBegin
  2
*D25
 70
     1
 10
0.0
 20
0.0
 30
0.0
  3
*D25
  1

  0
LINE
  5
4A83D
330
4A7CD
100
AcDbEntity
  8
DIMS SPECS
370
    25
100
AcDbLine
 10
28694.39282048022
 20
23911.11250169462
 30
0.0
 11
29000.3577860925
 21
23911.11250169462
 31
0.0
  0
LINE
  5
4A83E
330
4A7CD
100
AcDbEntity
  8
DIMS SPECS
370
    25
100
AcDbLine
 10
28694.39282048031
 20
24355.11250169462
 30
0.0
 11
29000.3577860925
 21
24355.11250169462
 31
0.0
  0
LINE
  5
4A83F
330
4A7CD
100
AcDbEntity
  8
DIMS SPECS
370
    25
100
AcDbLine
 10
29000.3577860925
 20
23923.61250169463
 30
0.0
 11
29000.3577860925
 21
24117.11250169465
 31
0.0
  0
LINE
  5
4A840
330
4A7CD
100
AcDbEntity
  8
DIMS SPECS
370
    25
100
AcDbLine
 10
29000.3577860925
 20
24342.61250169463
 30
0.0
 11
29000.3577860925
 21
24149.11250169465
 31
0.0
  0
INSERT
  5
4A841
330
4A7CD
100
AcDbEntity
  8
DIMS SPECS
370
    25
100
AcDbBlockReference
  2
FILLED-1
 10
29000.3577860925
 20
23911.11250169462
 30
0.0
 41
12.5
 42
12.5
 43
12.5
 50
270.0
  0
INSERT
  5
4A842
330
4A7CD
100
AcDbEntity
  8
DIMS SPECS
370
    25
100
AcDbBlockReference
  2
FILLED-1
 10
29000.3577860925
 20
24355.11250169462
 30
0.0
 41
12.5
 42
12.5
 43
12.5
 50
90.0
  0
MTEXT
  5
4A843
330
4A7CD
100
AcDbEntity
  8
DIMS SPECS
100
AcDbMText
 10
29000.3577860925
 20
24133.11250169466
 30
0.0
 40
17.0
 41
0.0
 71
     5
 72
     1
  1
\A1;444
  7
ABODE-ISO
 73
     1
 44
1.0
  0
POINT
  5
4A844
330
4A7CD
100
AcDbEntity
  8
DEFPOINTS
 62
     0
100
AcDbPoint
 10
28679.39282048022
 20
23911.11250169462
 30
0.0
  0
POINT
  5
4A845
330
4A7CD
100
AcDbEntity
  8
DEFPOINTS
 62
     0
100
AcDbPoint
 10
28679.39282048031
 20
24355.11250169462
 30
0.0
  0
POINT
  5
4A846
330
4A7CD
100
AcDbEntity
  8
DEFPOINTS
 62
     0
100
AcDbPoint
 10
29000.3577860925
 20
24355.11250169462
 30
0.0
  0
ENDBLK
  5
4A7CF
330
4A7CD
100
AcDbEntity
  8
0
100
AcDbBlockEnd
  0
BLOCK
  5
4A7DB
330
4A7DA
100
AcDbEntity
  8
0
100
AcDbBlockBegin
  2
*D26
 70
     1
 10
0.0
 20
0.0
 30
0.0
  3
*D26
  1

  0
LINE
  5
4A847
330
4A7DA
100
AcDbEntity
  8
DIMS SPECS
370
    25
100
AcDbLine
 10
28407.39282048037
 20
24118.11250169463
 30
0.0
 11
28407.39282048037
 21
23808.22596160638
 31
0.0
  0
LINE
  5
4A848
330
4A7DA
100
AcDbEntity
  8
DIMS SPECS
370
    25
100
AcDbLine
 10
28951.39282048014
 20
24118.11250169463
 30
0.0
 11
28951.39282048014
 21
23808.22596160638
 31
0.0
  0
LINE
  5
4A849
330
4A7DA
100
AcDbEntity
  8
DIMS SPECS
370
    25
100
AcDbLine
 10
28419.89282048037
 20
23808.22596160638
 30
0.0
 11
28938.89282048013
 21
23808.22596160638
 31
0.0
  0
INSERT
  5
4A84A
330
4A7DA
100
AcDbEntity
  8
DIMS SPECS
370
    25
100
AcDbBlockReference
  2
FILLED-1
 10
28407.39282048037
 20
23808.22596160638
 30
0.0
 41
12.5
 42
12.5
 43
12.5
 50
180.0
  0
INSERT
  5
4A84B
330
4A7DA
100
AcDbEntity
  8
DIMS SPECS
370
    25
100
AcDbBlockReference
  2
FILLED-1
 10
28951.39282048014
 20
23808.22596160638
 30
0.0
 41
12.5
 42
12.5
 43
12.5
  0
MTEXT
  5
4A84C
330
4A7DA
100
AcDbEntity
  8
DIMS SPECS
100
AcDbMText
 10
28679.39282048022
 20
23824.22596160638
 30
0.0
 40
17.0
 41
0.0
 71
     5
 72
     1
  1
\A1;544
  7
ABODE-ISO
 73
     1
 44
1.0
  0
POINT
  5
4A84D
330
4A7DA
100
AcDbEntity
  8
DEFPOINTS
 62
     0
100
AcDbPoint
 10
28407.39282048037
 20
24133.11250169463
 30
0.0
  0
POINT
  5
4A84E
330
4A7DA
100
AcDbEntity
  8
DEFPOINTS
 62
     0
100
AcDbPoint
 10
28951.39282048014
 20
24133.11250169463
 30
0.0
  0
POINT
  5
4A84F
330
4A7DA
100
AcDbEntity
  8
DEFPOINTS
 62
     0
100
AcDbPoint
 10
28951.39282048014
 20
23808.22596160638
 30
0.0
  0
ENDBLK
  5
4A7DC
330
4A7DA
100
AcDbEntity
  8
0
100
AcDbBlockEnd
  0
BLOCK
  5
4A7E7
330
4A7E6
100
AcDbEntity
  8
0
100
AcDbBlockBegin
  2
*D27
 70
     1
 10
0.0
 20
0.0
 30
0.0
  3
*D27
  1

  0
LINE
  5
4A85E
330
4A7E6
100
AcDbEntity
  8
DIMS SPECS
370
    25
100
AcDbLine
 10
29066.7574654841
 20
23835.40166161798
 30
0.0
 11
29018.45746548403
 21
23835.40166161798
 31
0.0
  0
LINE
  5
4A85F
330
4A7E6
100
AcDbEntity
  8
DIMS SPECS
370
    25
100
AcDbLine
 10
29018.45746548403
 20
23835.40166161798
 30
0.0
 11
28952.63381590393
 21
23907.61532279748
 31
0.0
  0
MTEXT
  5
4A860
330
4A7E6
100
AcDbEntity
  8
DIMS SPECS
100
AcDbMText
 10
29046.35746548411
 20
23851.40166161798
 30
0.0
 40
17.0
 41
0.0
 71
     5
 72
     1
  1
\A1;R22
  7
ABODE-ISO
 73
     1
 44
1.0
  0
LINE
  5
4A861
330
4A7E6
100
AcDbEntity
  8
DIMS SPECS
370
    25
100
AcDbLine
 10
28929.39282048015
 20
23933.11250169463
 30
0.0
 11
28944.21316538807
 21
23916.85343109354
 31
0.0
  0
INSERT
  5
4A862
330
4A7E6
100
AcDbEntity
  8
DIMS SPECS
370
    25
100
AcDbBlockReference
  2
FILLED-1
 10
28944.21316538807
 20
23916.85343109354
 30
0.0
 41
12.5
 42
12.5
 43
12.5
 50
132.3495607503435
  0
POINT
  5
4A863
330
4A7E6
100
AcDbEntity
  8
DEFPOINTS
 62
     0
100
AcDbPoint
 10
28944.21316538807
 20
23916.85343109354
 30
0.0
  0
POINT
  5
4A864
330
4A7E6
100
AcDbEntity
  8
DEFPOINTS
 62
     0
100
AcDbPoint
 10
28929.39282048015
 20
23933.11250169463
 30
0.0
  0
ENDBLK
  5
4A7E8
330
4A7E6
100
AcDbEntity
  8
0
100
AcDbBlockEnd
  0
BLOCK
  5
4A89C
330
4A89B
100
AcDbEntity
  8
0
100
AcDbBlockBegin
  2
*D28
 70
     1
 10
0.0
 20
0.0
 30
0.0
  3
*D28
  1

  0
LINE
  5
4A89D
330
4A89B
100
AcDbEntity
  8
DIMS SPECS
370
    25
100
AcDbLine
 10
204033.5679175107
 20
1052.142262123938
 30
0.0
 11
204033.5679175107
 21
800.2835027410764
 31
0.0
  0
LINE
  5
4A89E
330
4A89B
100
AcDbEntity
  8
DIMS SPECS
370
    25
100
AcDbLine
 10
204543.5679175107
 20
1052.046640702692
 30
0.0
 11
204543.5679175107
 21
800.2835027410764
 31
0.0
  0
LINE
  5
4A89F
330
4A89B
100
AcDbEntity
  8
DIMS SPECS
370
    25
100
AcDbLine
 10
204046.0679175107
 20
800.2835027410764
 30
0.0
 11
204531.0679175107
 21
800.2835027410764
 31
0.0
  0
INSERT
  5
4A8A0
330
4A89B
100
AcDbEntity
  8
DIMS SPECS
370
    25
100
AcDbBlockReference
  2
FILLED-1
 10
204033.5679175107
 20
800.2835027410764
 30
0.0
 41
12.5
 42
12.5
 43
12.5
 50
180.0
  0
INSERT
  5
4A8A1
330
4A89B
100
AcDbEntity
  8
DIMS SPECS
370
    25
100
AcDbBlockReference
  2
FILLED-1
 10
204543.5679175107
 20
800.2835027410764
 30
0.0
 41
12.5
 42
12.5
 43
12.5
  0
MTEXT
  5
4A8A2
330
4A89B
100
AcDbEntity
  8
DIMS SPECS
100
AcDbMText
 10
204288.5679175107
 20
816.7111030130001
 30
0.0
 40
17.0
 41
0.0
 71
     5
 72
     1
  1
\A1;510
  7
ABODE-ISO
 73
     1
 44
1.0
  0
POINT
  5
4A8A3
330
4A89B
100
AcDbEntity
  8
DEFPOINTS
 62
     0
100
AcDbPoint
 10
204033.5679175107
 20
1067.142262123938
 30
0.0
  0
POINT
  5
4A8A4
330
4A89B
100
AcDbEntity
  8
DEFPOINTS
 62
     0
100
AcDbPoint
 10
204543.5679175107
 20
1067.046640702692
 30
0.0
  0
POINT
  5
4A8A5
330
4A89B
100
AcDbEntity
  8
DEFPOINTS
 62
     0
100
AcDbPoint
 10
204543.5679175107
 20
800.2835027410764
 30
0.0
  0
ENDBLK
  5
4A8A6
330
4A89B
100
AcDbEntity
  8
0
100
AcDbBlockEnd
  0
BLOCK
  5
4A8A8
330
4A8A7
100
AcDbEntity
  8
0
100
AcDbBlockBegin
  2
*D29
 70
     1
 10
0.0
 20
0.0
 30
0.0
  3
*D29
  1

  0
LINE
  5
4A8A9
330
4A8A7
100
AcDbEntity
  8
DIMS SPECS
370
    25
100
AcDbLine
 10
204303.5679175108
 20
845.0466407026906
 30
0.0
 11
204609.532883123
 21
845.0466407026905
 31
0.0
  0
LINE
  5
4A8AA
330
4A8A7
100
AcDbEntity
  8
DIMS SPECS
370
    25
100
AcDbLine
 10
204303.5679175108
 20
1289.04664070269
 30
0.0
 11
204609.532883123
 21
1289.04664070269
 31
0.0
  0
LINE
  5
4A8AB
330
4A8A7
100
AcDbEntity
  8
DIMS SPECS
370
    25
100
AcDbLine
 10
204609.532883123
 20
857.5466407026905
 30
0.0
 11
204609.532883123
 21
1050.832840566728
 31
0.0
  0
LINE
  5
4A8AC
330
4A8A7
100
AcDbEntity
  8
DIMS SPECS
370
    25
100
AcDbLine
 10
204609.532883123
 20
1276.54664070269
 30
0.0
 11
204609.532883123
 21
1083.260440838652
 31
0.0
  0
INSERT
  5
4A8AD
330
4A8A7
100
AcDbEntity
  8
DIMS SPECS
370
    25
100
AcDbBlockReference
  2
FILLED-1
 10
204609.532883123
 20
845.0466407026905
 30
0.0
 41
12.5
 42
12.5
 43
12.5
 50
270.0
  0
INSERT
  5
4A8AE
330
4A8A7
100
AcDbEntity
  8
DIMS SPECS
370
    25
100
AcDbBlockReference
  2
FILLED-1
 10
204609.532883123
 20
1289.04664070269
 30
0.0
 41
12.5
 42
12.5
 43
12.5
 50
90.0
  0
MTEXT
  5
4A8AF
330
4A8A7
100
AcDbEntity
  8
DIMS SPECS
100
AcDbMText
 10
204609.532883123
 20
1067.046640702723
 30
0.0
 40
17.0
 41
0.0
 71
     5
 72
     1
  1
\A1;444
  7
ABODE-ISO
 73
     1
 44
1.0
  0
POINT
  5
4A8B0
330
4A8A7
100
AcDbEntity
  8
DEFPOINTS
 62
     0
100
AcDbPoint
 10
204288.5679175108
 20
845.0466407026906
 30
0.0
  0
POINT
  5
4A8B1
330
4A8A7
100
AcDbEntity
  8
DEFPOINTS
 62
     0
100
AcDbPoint
 10
204288.5679175109
 20
1289.04664070269
 30
0.0
  0
POINT
  5
4A8B2
330
4A8A7
100
AcDbEntity
  8
DEFPOINTS
 62
     0
100
AcDbPoint
 10
204609.532883123
 20
1289.04664070269
 30
0.0
  0
ENDBLK
  5
4A8B3
330
4A8A7
100
AcDbEntity
  8
0
100
AcDbBlockEnd
  0
BLOCK
  5
4A8B5
330
4A8B4
100
AcDbEntity
  8
0
100
AcDbBlockBegin
  2
*D30
 70
     1
 10
0.0
 20
0.0
 30
0.0
  3
*D30
  1

  0
LINE
  5
4A8B6
330
4A8B4
100
AcDbEntity
  8
DIMS SPECS
370
    25
100
AcDbLine
 10
204016.5679175109
 20
1052.046640702698
 30
0.0
 11
204016.5679175109
 21
742.1601006144482
 31
0.0
  0
LINE
  5
4A8B7
330
4A8B4
100
AcDbEntity
  8
DIMS SPECS
370
    25
100
AcDbLine
 10
204560.5679175107
 20
1052.046640702689
 30
0.0
 11
204560.5679175107
 21
742.1601006144482
 31
0.0
  0
LINE
  5
4A8B8
330
4A8B4
100
AcDbEntity
  8
DIMS SPECS
370
    25
100
AcDbLine
 10
204029.0679175109
 20
742.1601006144482
 30
0.0
 11
204548.0679175107
 21
742.1601006144482
 31
0.0
  0
INSERT
  5
4A8B9
330
4A8B4
100
AcDbEntity
  8
DIMS SPECS
370
    25
100
AcDbBlockReference
  2
FILLED-1
 10
204016.5679175109
 20
742.1601006144482
 30
0.0
 41
12.5
 42
12.5
 43
12.5
 50
180.0
  0
INSERT
  5
4A8BA
330
4A8B4
100
AcDbEntity
  8
DIMS SPECS
370
    25
100
AcDbBlockReference
  2
FILLED-1
 10
204560.5679175107
 20
742.1601006144482
 30
0.0
 41
12.5
 42
12.5
 43
12.5
  0
MTEXT
  5
4A8BB
330
4A8B4
100
AcDbEntity
  8
DIMS SPECS
100
AcDbMText
 10
204288.5679175108
 20
758.5877008863722
 30
0.0
 40
17.0
 41
0.0
 71
     5
 72
     1
  1
\A1;544
  7
ABODE-ISO
 73
     1
 44
1.0
  0
POINT
  5
4A8BC
330
4A8B4
100
AcDbEntity
  8
DEFPOINTS
 62
     0
100
AcDbPoint
 10
204016.5679175109
 20
1067.046640702698
 30
0.0
  0
POINT
  5
4A8BD
330
4A8B4
100
AcDbEntity
  8
DEFPOINTS
 62
     0
100
AcDbPoint
 10
204560.5679175107
 20
1067.046640702689
 30
0.0
  0
POINT
  5
4A8BE
330
4A8B4
100
AcDbEntity
  8
DEFPOINTS
 62
     0
100
AcDbPoint
 10
204560.5679175107
 20
742.1601006144482
 30
0.0
  0
ENDBLK
  5
4A8BF
330
4A8B4
100
AcDbEntity
  8
0
100
AcDbBlockEnd
  0
BLOCK
  5
4A8C1
330
4A8C0
100
AcDbEntity
  8
0
100
AcDbBlockBegin
  2
*D31
 70
     1
 10
0.0
 20
0.0
 30
0.0
  3
*D31
  1

  0
LINE
  5
4A8C2
330
4A8C0
100
AcDbEntity
  8
DIMS SPECS
370
    25
100
AcDbLine
 10
204668.9464986126
 20
769.3358006260533
 30
0.0
 11
204627.6325625146
 21
769.3358006260533
 31
0.0
  0
LINE
  5
4A8C3
330
4A8C0
100
AcDbEntity
  8
DIMS SPECS
370
    25
100
AcDbLine
 10
204627.6325625146
 20
769.3358006260533
 30
0.0
 11
204561.8089129345
 21
841.5494618055237
 31
0.0
  0
MTEXT
  5
4A8C4
330
4A8C0
100
AcDbEntity
  8
DIMS SPECS
100
AcDbMText
 10
204652.0395305638
 20
785.5496007620297
 30
0.0
 40
17.0
 41
0.0
 71
     5
 72
     1
  1
\A1;R22
  7
ABODE-ISO
 73
     1
 44
1.0
  0
LINE
  5
4A8C5
330
4A8C0
100
AcDbEntity
  8
DIMS SPECS
370
    25
100
AcDbLine
 10
204538.5679175107
 20
867.0466407026834
 30
0.0
 11
204553.3882624186
 21
850.7875701015873
 31
0.0
  0
INSERT
  5
4A8C6
330
4A8C0
100
AcDbEntity
  8
DIMS SPECS
370
    25
100
AcDbBlockReference
  2
FILLED-1
 10
204553.3882624186
 20
850.7875701015873
 30
0.0
 41
12.5
 42
12.5
 43
12.5
 50
132.3495607503384
  0
POINT
  5
4A8C7
330
4A8C0
100
AcDbEntity
  8
DEFPOINTS
 62
     0
100
AcDbPoint
 10
204553.3882624186
 20
850.7875701015873
 30
0.0
  0
POINT
  5
4A8C8
330
4A8C0
100
AcDbEntity
  8
DEFPOINTS
 62
     0
100
AcDbPoint
 10
204538.5679175107
 20
867.0466407026834
 30
0.0
  0
ENDBLK
  5
4A8C9
330
4A8C0
100
AcDbEntity
  8
0
100
AcDbBlockEnd
  0
BLOCK
  5
4A8CB
330
4A8CA
100
AcDbEntity
  8
0
100
AcDbBlockBegin
  2
*D32
 70
     1
 10
0.0
 20
0.0
 30
0.0
  3
*D32
  1

  0
LINE
  5
4A8CC
330
4A8CA
100
AcDbEntity
  8
DIMS SPECS
370
    25
100
AcDbLine
 10
203338.7659190562
 20
846.881204769153
 30
0.0
 11
203338.7659190562
 21
794.6898412078923
 31
0.0
  0
LINE
  5
4A8CD
330
4A8CA
100
AcDbEntity
  8
DIMS SPECS
370
    25
100
AcDbLine
 10
203842.2430722752
 20
846.881204769153
 30
0.0
 11
203842.2430722752
 21
794.6898412078923
 31
0.0
  0
LINE
  5
4A8CE
330
4A8CA
100
AcDbEntity
  8
DIMS SPECS
370
    25
100
AcDbLine
 10
203351.2659190563
 20
794.6898412078923
 30
0.0
 11
203829.7430722752
 21
794.6898412078923
 31
0.0
  0
INSERT
  5
4A8CF
330
4A8CA
100
AcDbEntity
  8
DIMS SPECS
370
    25
100
AcDbBlockReference
  2
FILLED-1
 10
203338.7659190562
 20
794.6898412078923
 30
0.0
 41
12.5
 42
12.5
 43
12.5
 50
180.0
  0
INSERT
  5
4A8D0
330
4A8CA
100
AcDbEntity
  8
DIMS SPECS
370
    25
100
AcDbBlockReference
  2
FILLED-1
 10
203842.2430722752
 20
794.6898412078923
 30
0.0
 41
12.5
 42
12.5
 43
12.5
  0
MTEXT
  5
4A8D1
330
4A8CA
100
AcDbEntity
  8
DIMS SPECS
100
AcDbMText
 10
203590.5044956657
 20
811.117441479816
 30
0.0
 40
17.0
 41
0.0
 71
     5
 72
     1
  1
\A1;506
  7
ABODE-ISO
 73
     1
 44
1.0
  0
POINT
  5
4A8D2
330
4A8CA
100
AcDbEntity
  8
DEFPOINTS
 62
     0
100
AcDbPoint
 10
203338.7659190562
 20
861.881204769153
 30
0.0
  0
POINT
  5
4A8D3
330
4A8CA
100
AcDbEntity
  8
DEFPOINTS
 62
     0
100
AcDbPoint
 10
203842.2430722752
 20
861.881204769153
 30
0.0
  0
POINT
  5
4A8D4
330
4A8CA
100
AcDbEntity
  8
DEFPOINTS
 62
     0
100
AcDbPoint
 10
203842.2430722752
 20
794.6898412078923
 30
0.0
  0
ENDBLK
  5
4A8D5
330
4A8CA
100
AcDbEntity
  8
0
100
AcDbBlockEnd
  0
BLOCK
  5
4A8D7
330
4A8D6
100
AcDbEntity
  8
0
100
AcDbBlockBegin
  2
*D33
 70
     1
 10
0.0
 20
0.0
 30
0.0
  3
*D33
  1

  0
LINE
  5
4A8D8
330
4A8D6
100
AcDbEntity
  8
DIMS SPECS
370
    25
100
AcDbLine
 10
203840.4085093342
 20
1248.523773019223
 30
0.0
 11
203896.3004996626
 21
1248.523773019223
 31
0.0
  0
LINE
  5
4A8D9
330
4A8D6
100
AcDbEntity
  8
DIMS SPECS
370
    25
100
AcDbLine
 10
203840.4085093342
 20
845.0466480181161
 30
0.0
 11
203896.3004996626
 21
845.0466480181161
 31
0.0
  0
LINE
  5
4A8DA
330
4A8D6
100
AcDbEntity
  8
DIMS SPECS
370
    25
100
AcDbLine
 10
203896.3004996626
 20
1236.023773019223
 30
0.0
 11
203896.3004996626
 21
1063.212810790593
 31
0.0
  0
LINE
  5
4A8DB
330
4A8D6
100
AcDbEntity
  8
DIMS SPECS
370
    25
100
AcDbLine
 10
203896.3004996626
 20
857.5466480181161
 30
0.0
 11
203896.3004996626
 21
1030.357610246745
 31
0.0
  0
INSERT
  5
4A8DC
330
4A8D6
100
AcDbEntity
  8
DIMS SPECS
370
    25
100
AcDbBlockReference
  2
FILLED-1
 10
203896.3004996626
 20
1248.523773019223
 30
0.0
 41
12.5
 42
12.5
 43
12.5
 50
90.0
  0
INSERT
  5
4A8DD
330
4A8D6
100
AcDbEntity
  8
DIMS SPECS
370
    25
100
AcDbBlockReference
  2
FILLED-1
 10
203896.3004996626
 20
845.0466480181161
 30
0.0
 41
12.5
 42
12.5
 43
12.5
 50
270.0
  0
MTEXT
  5
4A8DE
330
4A8D6
100
AcDbEntity
  8
DIMS SPECS
100
AcDbMText
 10
203896.3004996626
 20
1046.785210518702
 30
0.0
 40
17.0
 41
0.0
 71
     5
 72
     1
  1
\A1;406
  7
ABODE-ISO
 73
     1
 44
1.0
  0
POINT
  5
4A8DF
330
4A8D6
100
AcDbEntity
  8
DEFPOINTS
 62
     0
100
AcDbPoint
 10
203825.4085093341
 20
1248.523773019223
 30
0.0
  0
POINT
  5
4A8E0
330
4A8D6
100
AcDbEntity
  8
DEFPOINTS
 62
     0
100
AcDbPoint
 10
203825.4085093341
 20
845.0466480181161
 30
0.0
  0
POINT
  5
4A8E1
330
4A8D6
100
AcDbEntity
  8
DEFPOINTS
 62
     0
100
AcDbPoint
 10
203896.3004996626
 20
845.0466480181161
 30
0.0
  0
ENDBLK
  5
4A8E2
330
4A8D6
100
AcDbEntity
  8
0
100
AcDbBlockEnd
  0
BLOCK
  5
4A8E4
330
4A8E3
100
AcDbEntity
  8
0
100
AcDbBlockBegin
  2
*D34
 70
     1
 10
0.0
 20
0.0
 30
0.0
  3
*D34
  1

  0
LINE
  5
4A8E5
330
4A8E3
100
AcDbEntity
  8
DIMS SPECS
370
    25
100
AcDbLine
 10
203925.3849779321
 20
802.4501648762816
 30
0.0
 11
203883.86302008
 21
802.4501648763108
 31
0.0
  0
LINE
  5
4A8E6
330
4A8E3
100
AcDbEntity
  8
DIMS SPECS
370
    25
100
AcDbLine
 10
203883.86302008
 20
802.4501648763108
 30
0.0
 11
203845.9983873607
 21
840.947962846214
 31
0.0
  0
MTEXT
  5
4A8E7
330
4A8E3
100
AcDbEntity
  8
DIMS SPECS
100
AcDbMText
 10
203908.3739990062
 20
818.6639650122435
 30
0.0
 40
17.0
 41
0.0
 71
     5
 72
     1
  1
\A1;R17
  7
ABODE-ISO
 73
     1
 44
1.0
  0
LINE
  5
4A8E8
330
4A8E3
100
AcDbEntity
  8
DIMS SPECS
370
    25
100
AcDbLine
 10
203825.4645757795
 20
861.8251369539647
 30
0.0
 11
203837.2331418084
 21
849.8597791823122
 31
0.0
  0
INSERT
  5
4A8E9
330
4A8E3
100
AcDbEntity
  8
DIMS SPECS
370
    25
100
AcDbBlockReference
  2
FILLED-1
 10
203837.2331418084
 20
849.8597791823122
 30
0.0
 41
12.5
 42
12.5
 43
12.5
 50
134.5249383114837
  0
POINT
  5
4A8EA
330
4A8E3
100
AcDbEntity
  8
DEFPOINTS
 62
     0
100
AcDbPoint
 10
203837.2331418084
 20
849.8597791823122
 30
0.0
  0
POINT
  5
4A8EB
330
4A8E3
100
AcDbEntity
  8
DEFPOINTS
 62
     0
100
AcDbPoint
 10
203825.4645757795
 20
861.8251369539647
 30
0.0
  0
ENDBLK
  5
4A8EC
330
4A8E3
100
AcDbEntity
  8
0
100
AcDbBlockEnd
  0
BLOCK
  5
4A95C
330
4A95B
100
AcDbEntity
  8
0
100
AcDbBlockBegin
  2
*D35
 70
     1
 10
0.0
 20
0.0
 30
0.0
  3
*D35
  1

  0
LINE
  5
4A9D7
330
4A95B
100
AcDbEntity
  8
DIMS SPECS
370
    25
100
AcDbLine
 10
27774.36590814911
 20
23863.04113984323
 30
0.0
 11
27774.36590814911
 21
23810.84977628197
 31
0.0
  0
LINE
  5
4A9D8
330
4A95B
100
AcDbEntity
  8
DIMS SPECS
370
    25
100
AcDbLine
 10
28277.84306136803
 20
23863.04113984323
 30
0.0
 11
28277.84306136803
 21
23810.84977628197
 31
0.0
  0
LINE
  5
4A9D9
330
4A95B
100
AcDbEntity
  8
DIMS SPECS
370
    25
100
AcDbLine
 10
27786.8659081491
 20
23810.84977628197
 30
0.0
 11
28265.34306136803
 21
23810.84977628197
 31
0.0
  0
INSERT
  5
4A9DA
330
4A95B
100
AcDbEntity
  8
DIMS SPECS
370
    25
100
AcDbBlockReference
  2
FILLED-1
 10
27774.36590814911
 20
23810.84977628197
 30
0.0
 41
12.5
 42
12.5
 43
12.5
 50
180.0
  0
INSERT
  5
4A9DB
330
4A95B
100
AcDbEntity
  8
DIMS SPECS
370
    25
100
AcDbBlockReference
  2
FILLED-1
 10
28277.84306136803
 20
23810.84977628197
 30
0.0
 41
12.5
 42
12.5
 43
12.5
  0
MTEXT
  5
4A9DC
330
4A95B
100
AcDbEntity
  8
DIMS SPECS
100
AcDbMText
 10
28026.10448475856
 20
23826.84977628196
 30
0.0
 40
17.0
 41
0.0
 71
     5
 72
     1
  1
\A1;506
  7
ABODE-ISO
 73
     1
 44
1.0
  0
POINT
  5
4A9DD
330
4A95B
100
AcDbEntity
  8
DEFPOINTS
 62
     0
100
AcDbPoint
 10
27774.36590814911
 20
23878.04113984323
 30
0.0
  0
POINT
  5
4A9DE
330
4A95B
100
AcDbEntity
  8
DEFPOINTS
 62
     0
100
AcDbPoint
 10
28277.84306136803
 20
23878.04113984323
 30
0.0
  0
POINT
  5
4A9DF
330
4A95B
100
AcDbEntity
  8
DEFPOINTS
 62
     0
100
AcDbPoint
 10
28277.84306136803
 20
23810.84977628197
 30
0.0
  0
ENDBLK
  5
4A95D
330
4A95B
100
AcDbEntity
  8
0
100
AcDbBlockEnd
  0
BLOCK
  5
4A968
330
4A967
100
AcDbEntity
  8
0
100
AcDbBlockBegin
  2
*D36
 70
     1
 10
0.0
 20
0.0
 30
0.0
  3
*D36
  1

  0
LINE
  5
4A9E0
330
4A967
100
AcDbEntity
  8
DIMS SPECS
370
    25
100
AcDbLine
 10
28276.00849842693
 20
24264.6837080933
 30
0.0
 11
28331.90048875543
 21
24264.6837080933
 31
0.0
  0
LINE
  5
4A9E1
330
4A967
100
AcDbEntity
  8
DIMS SPECS
370
    25
100
AcDbLine
 10
28276.00849842693
 20
23861.2065830922
 30
0.0
 11
28331.90048875543
 21
23861.2065830922
 31
0.0
  0
LINE
  5
4A9E2
330
4A967
100
AcDbEntity
  8
DIMS SPECS
370
    25
100
AcDbLine
 10
28331.90048875543
 20
24252.1837080933
 30
0.0
 11
28331.90048875543
 21
24078.94514559274
 31
0.0
  0
LINE
  5
4A9E3
330
4A967
100
AcDbEntity
  8
DIMS SPECS
370
    25
100
AcDbLine
 10
28331.90048875543
 20
23873.70658309219
 30
0.0
 11
28331.90048875543
 21
24046.94514559274
 31
0.0
  0
INSERT
  5
4A9E4
330
4A967
100
AcDbEntity
  8
DIMS SPECS
370
    25
100
AcDbBlockReference
  2
FILLED-1
 10
28331.90048875543
 20
24264.6837080933
 30
0.0
 41
12.5
 42
12.5
 43
12.5
 50
90.0
  0
INSERT
  5
4A9E5
330
4A967
100
AcDbEntity
  8
DIMS SPECS
370
    25
100
AcDbBlockReference
  2
FILLED-1
 10
28331.90048875543
 20
23861.2065830922
 30
0.0
 41
12.5
 42
12.5
 43
12.5
 50
270.0
  0
MTEXT
  5
4A9E6
330
4A967
100
AcDbEntity
  8
DIMS SPECS
100
AcDbMText
 10
28331.90048875542
 20
24062.94514559275
 30
0.0
 40
17.0
 41
0.0
 71
     5
 72
     1
  1
\A1;406
  7
ABODE-ISO
 73
     1
 44
1.0
  0
POINT
  5
4A9E7
330
4A967
100
AcDbEntity
  8
DEFPOINTS
 62
     0
100
AcDbPoint
 10
28261.00849842693
 20
24264.6837080933
 30
0.0
  0
POINT
  5
4A9E8
330
4A967
100
AcDbEntity
  8
DEFPOINTS
 62
     0
100
AcDbPoint
 10
28261.00849842693
 20
23861.2065830922
 30
0.0
  0
POINT
  5
4A9E9
330
4A967
100
AcDbEntity
  8
DEFPOINTS
 62
     0
100
AcDbPoint
 10
28331.90048875543
 20
23861.2065830922
 30
0.0
  0
ENDBLK
  5
4A969
330
4A967
100
AcDbEntity
  8
0
100
AcDbBlockEnd
  0
BLOCK
  5
4A975
330
4A974
100
AcDbEntity
  8
0
100
AcDbBlockBegin
  2
*D37
 70
     1
 10
0.0
 20
0.0
 30
0.0
  3
*D37
  1

  0
LINE
  5
4AA14
330
4A974
100
AcDbEntity
  8
DIMS SPECS
370
    25
100
AcDbLine
 10
28362.66300917279
 20
23818.61009995037
 30
0.0
 11
28319.46300917275
 21
23818.61009995037
 31
0.0
  0
LINE
  5
4AA15
330
4A974
100
AcDbEntity
  8
DIMS SPECS
370
    25
100
AcDbLine
 10
28319.46300917275
 20
23818.61009995037
 30
0.0
 11
28281.59837645353
 21
23857.10789792028
 31
0.0
  0
MTEXT
  5
4AA16
330
4A974
100
AcDbEntity
  8
DIMS SPECS
100
AcDbMText
 10
28344.81300917278
 20
23834.61009995037
 30
0.0
 40
17.0
 41
0.0
 71
     5
 72
     1
  1
\A1;R17
  7
ABODE-ISO
 73
     1
 44
1.0
  0
LINE
  5
4AA17
330
4A974
100
AcDbEntity
  8
DIMS SPECS
370
    25
100
AcDbLine
 10
28261.06456487233
 20
23877.98507202805
 30
0.0
 11
28272.83313090127
 21
23866.01971425639
 31
0.0
  0
INSERT
  5
4AA18
330
4A974
100
AcDbEntity
  8
DIMS SPECS
370
    25
100
AcDbBlockReference
  2
FILLED-1
 10
28272.83313090127
 20
23866.01971425639
 30
0.0
 41
12.5
 42
12.5
 43
12.5
 50
134.524938311439
  0
POINT
  5
4AA19
330
4A974
100
AcDbEntity
  8
DEFPOINTS
 62
     0
100
AcDbPoint
 10
28272.83313090127
 20
23866.01971425639
 30
0.0
  0
POINT
  5
4AA1A
330
4A974
100
AcDbEntity
  8
DEFPOINTS
 62
     0
100
AcDbPoint
 10
28261.06456487233
 20
23877.98507202805
 30
0.0
  0
ENDBLK
  5
4A976
330
4A974
100
AcDbEntity
  8
0
100
AcDbBlockEnd
  0
BLOCK
  5
4A97F
330
4A97E
100
AcDbEntity
  8
0
100
AcDbBlockBegin
  2
*D38
 70
     1
 10
0.0
 20
0.0
 30
0.0
  3
*D38
  1

  0
LINE
  5
4A9F1
330
4A97E
100
AcDbEntity
  8
DIMS SPECS
370
    25
100
AcDbLine
 10
28469.16790660355
 20
24068.30219719801
 30
0.0
 11
28469.16790660355
 21
23816.44343781515
 31
0.0
  0
LINE
  5
4A9F2
330
4A97E
100
AcDbEntity
  8
DIMS SPECS
370
    25
100
AcDbLine
 10
28979.16790660355
 20
24068.20657577676
 30
0.0
 11
28979.16790660355
 21
23816.44343781515
 31
0.0
  0
LINE
  5
4A9F3
330
4A97E
100
AcDbEntity
  8
DIMS SPECS
370
    25
100
AcDbLine
 10
28481.66790660355
 20
23816.44343781515
 30
0.0
 11
28966.66790660355
 21
23816.44343781515
 31
0.0
  0
INSERT
  5
4A9F4
330
4A97E
100
AcDbEntity
  8
DIMS SPECS
370
    25
100
AcDbBlockReference
  2
FILLED-1
 10
28469.16790660355
 20
23816.44343781515
 30
0.0
 41
12.5
 42
12.5
 43
12.5
 50
180.0
  0
INSERT
  5
4A9F5
330
4A97E
100
AcDbEntity
  8
DIMS SPECS
370
    25
100
AcDbBlockReference
  2
FILLED-1
 10
28979.16790660355
 20
23816.44343781515
 30
0.0
 41
12.5
 42
12.5
 43
12.5
  0
MTEXT
  5
4A9F6
330
4A97E
100
AcDbEntity
  8
DIMS SPECS
100
AcDbMText
 10
28724.16790660355
 20
23832.44343781515
 30
0.0
 40
17.0
 41
0.0
 71
     5
 72
     1
  1
\A1;510
  7
ABODE-ISO
 73
     1
 44
1.0
  0
POINT
  5
4A9F7
330
4A97E
100
AcDbEntity
  8
DEFPOINTS
 62
     0
100
AcDbPoint
 10
28469.16790660355
 20
24083.30219719801
 30
0.0
  0
POINT
  5
4A9F8
330
4A97E
100
AcDbEntity
  8
DEFPOINTS
 62
     0
100
AcDbPoint
 10
28979.16790660355
 20
24083.20657577676
 30
0.0
  0
POINT
  5
4A9F9
330
4A97E
100
AcDbEntity
  8
DEFPOINTS
 62
     0
100
AcDbPoint
 10
28979.16790660355
 20
23816.44343781515
 30
0.0
  0
ENDBLK
  5
4A980
330
4A97E
100
AcDbEntity
  8
0
100
AcDbBlockEnd
  0
BLOCK
  5
4A98B
330
4A98A
100
AcDbEntity
  8
0
100
AcDbBlockBegin
  2
*D39
 70
     1
 10
0.0
 20
0.0
 30
0.0
  3
*D39
  1

  0
LINE
  5
4A9FA
330
4A98A
100
AcDbEntity
  8
DIMS SPECS
370
    25
100
AcDbLine
 10
28739.16790660364
 20
23861.20657577676
 30
0.0
 11
29045.13287221592
 21
23861.20657577676
 31
0.0
  0
LINE
  5
4A9FB
330
4A98A
100
AcDbEntity
  8
DIMS SPECS
370
    25
100
AcDbLine
 10
28739.16790660373
 20
24305.20657577676
 30
0.0
 11
29045.13287221592
 21
24305.20657577676
 31
0.0
  0
LINE
  5
4A9FC
330
4A98A
100
AcDbEntity
  8
DIMS SPECS
370
    25
100
AcDbLine
 10
29045.13287221592
 20
23873.70657577676
 30
0.0
 11
29045.13287221592
 21
24067.20657577679
 31
0.0
  0
LINE
  5
4A9FD
330
4A98A
100
AcDbEntity
  8
DIMS SPECS
370
    25
100
AcDbLine
 10
29045.13287221592
 20
24292.70657577677
 30
0.0
 11
29045.13287221592
 21
24099.20657577679
 31
0.0
  0
INSERT
  5
4A9FE
330
4A98A
100
AcDbEntity
  8
DIMS SPECS
370
    25
100
AcDbBlockReference
  2
FILLED-1
 10
29045.13287221592
 20
23861.20657577676
 30
0.0
 41
12.5
 42
12.5
 43
12.5
 50
270.0
  0
INSERT
  5
4A9FF
330
4A98A
100
AcDbEntity
  8
DIMS SPECS
370
    25
100
AcDbBlockReference
  2
FILLED-1
 10
29045.13287221592
 20
24305.20657577676
 30
0.0
 41
12.5
 42
12.5
 43
12.5
 50
90.0
  0
MTEXT
  5
4AA00
330
4A98A
100
AcDbEntity
  8
DIMS SPECS
100
AcDbMText
 10
29045.13287221591
 20
24083.2065757768
 30
0.0
 40
17.0
 41
0.0
 71
     5
 72
     1
  1
\A1;444
  7
ABODE-ISO
 73
     1
 44
1.0
  0
POINT
  5
4AA01
330
4A98A
100
AcDbEntity
  8
DEFPOINTS
 62
     0
100
AcDbPoint
 10
28724.16790660364
 20
23861.20657577676
 30
0.0
  0
POINT
  5
4AA02
330
4A98A
100
AcDbEntity
  8
DEFPOINTS
 62
     0
100
AcDbPoint
 10
28724.16790660373
 20
24305.20657577676
 30
0.0
  0
POINT
  5
4AA03
330
4A98A
100
AcDbEntity
  8
DEFPOINTS
 62
     0
100
AcDbPoint
 10
29045.13287221592
 20
24305.20657577676
 30
0.0
  0
ENDBLK
  5
4A98C
330
4A98A
100
AcDbEntity
  8
0
100
AcDbBlockEnd
  0
BLOCK
  5
4A998
330
4A997
100
AcDbEntity
  8
0
100
AcDbBlockBegin
  2
*D40
 70
     1
 10
0.0
 20
0.0
 30
0.0
  3
*D40
  1

  0
LINE
  5
4AA04
330
4A997
100
AcDbEntity
  8
DIMS SPECS
370
    25
100
AcDbLine
 10
28452.16790660378
 20
24068.20657577677
 30
0.0
 11
28452.16790660378
 21
23758.32003568852
 31
0.0
  0
LINE
  5
4AA05
330
4A997
100
AcDbEntity
  8
DIMS SPECS
370
    25
100
AcDbLine
 10
28996.16790660355
 20
24068.20657577676
 30
0.0
 11
28996.16790660355
 21
23758.32003568852
 31
0.0
  0
LINE
  5
4AA06
330
4A997
100
AcDbEntity
  8
DIMS SPECS
370
    25
100
AcDbLine
 10
28464.66790660378
 20
23758.32003568852
 30
0.0
 11
28983.66790660355
 21
23758.32003568852
 31
0.0
  0
INSERT
  5
4AA07
330
4A997
100
AcDbEntity
  8
DIMS SPECS
370
    25
100
AcDbBlockReference
  2
FILLED-1
 10
28452.16790660378
 20
23758.32003568852
 30
0.0
 41
12.5
 42
12.5
 43
12.5
 50
180.0
  0
INSERT
  5
4AA08
330
4A997
100
AcDbEntity
  8
DIMS SPECS
370
    25
100
AcDbBlockReference
  2
FILLED-1
 10
28996.16790660355
 20
23758.32003568852
 30
0.0
 41
12.5
 42
12.5
 43
12.5
  0
MTEXT
  5
4AA09
330
4A997
100
AcDbEntity
  8
DIMS SPECS
100
AcDbMText
 10
28724.16790660364
 20
23774.32003568852
 30
0.0
 40
17.0
 41
0.0
 71
     5
 72
     1
  1
\A1;544
  7
ABODE-ISO
 73
     1
 44
1.0
  0
POINT
  5
4AA0A
330
4A997
100
AcDbEntity
  8
DEFPOINTS
 62
     0
100
AcDbPoint
 10
28452.16790660378
 20
24083.20657577677
 30
0.0
  0
POINT
  5
4AA0B
330
4A997
100
AcDbEntity
  8
DEFPOINTS
 62
     0
100
AcDbPoint
 10
28996.16790660355
 20
24083.20657577676
 30
0.0
  0
POINT
  5
4AA0C
330
4A997
100
AcDbEntity
  8
DEFPOINTS
 62
     0
100
AcDbPoint
 10
28996.16790660355
 20
23758.32003568852
 30
0.0
  0
ENDBLK
  5
4A999
330
4A997
100
AcDbEntity
  8
0
100
AcDbBlockEnd
  0
BLOCK
  5
4A9A4
330
4A9A3
100
AcDbEntity
  8
0
100
AcDbBlockBegin
  2
*D41
 70
     1
 10
0.0
 20
0.0
 30
0.0
  3
*D41
  1

  0
LINE
  5
4AA1B
330
4A9A3
100
AcDbEntity
  8
DIMS SPECS
370
    25
100
AcDbLine
 10
29111.53255160741
 20
23785.49573570015
 30
0.0
 11
29063.23255160738
 21
23785.49573570015
 31
0.0
  0
LINE
  5
4AA1C
330
4A9A3
100
AcDbEntity
  8
DIMS SPECS
370
    25
100
AcDbLine
 10
29063.23255160738
 20
23785.49573570015
 30
0.0
 11
28997.40890202735
 21
23857.7093968796
 31
0.0
  0
MTEXT
  5
4AA1D
330
4A9A3
100
AcDbEntity
  8
DIMS SPECS
100
AcDbMText
 10
29091.13255160741
 20
23801.49573570016
 30
0.0
 40
17.0
 41
0.0
 71
     5
 72
     1
  1
\A1;R22
  7
ABODE-ISO
 73
     1
 44
1.0
  0
LINE
  5
4AA1E
330
4A9A3
100
AcDbEntity
  8
DIMS SPECS
370
    25
100
AcDbLine
 10
28974.16790660356
 20
23883.20657577676
 30
0.0
 11
28988.98825151149
 21
23866.94750517567
 31
0.0
  0
INSERT
  5
4AA1F
330
4A9A3
100
AcDbEntity
  8
DIMS SPECS
370
    25
100
AcDbBlockReference
  2
FILLED-1
 10
28988.98825151149
 20
23866.94750517567
 30
0.0
 41
12.5
 42
12.5
 43
12.5
 50
132.3495607503313
  0
POINT
  5
4AA20
330
4A9A3
100
AcDbEntity
  8
DEFPOINTS
 62
     0
100
AcDbPoint
 10
28988.98825151149
 20
23866.94750517567
 30
0.0
  0
POINT
  5
4AA21
330
4A9A3
100
AcDbEntity
  8
DEFPOINTS
 62
     0
100
AcDbPoint
 10
28974.16790660356
 20
23883.20657577676
 30
0.0
  0
ENDBLK
  5
4A9A5
330
4A9A3
100
AcDbEntity
  8
0
100
AcDbBlockEnd
  0
BLOCK
  5
4AAD0
330
4AACE
100
AcDbEntity
  8
0
100
AcDbBlockBegin
  2
GENAXEH
 70
     0
 10
0.0
 20
0.0
 30
0.0
  3
GENAXEH
  1

  0
LINE
  5
4AACF
330
4AACE
100
AcDbEntity
  8
0
100
AcDbLine
 10
-1.0
 20
0.0
 30
0.0
 11
1.0
 21
0.0
 31
0.0
  0
ENDBLK
  5
4AAD1
330
4AACE
100
AcDbEntity
  8
0
100
AcDbBlockEnd
  0
ENDSEC
  0
SECTION
  2
ENTITIES
  0
TEXT
  5
46C38
330
4A68F
100
AcDbEntity
  8
LAYER1
100
AcDbText
 10
27842.47310966858
 20
24851.81826505856
 30
0.0
 40
150.0
  1
AW3131
100
AcDbText
  0
INSERT
  5
46C49
330
4A68F
100
AcDbEntity
  8
0
100
AcDbBlockReference
  2
*U13
 10
0.0
 20
0.0
 30
0.0
  0
TEXT
  5
46C4A
330
4A68F
100
AcDbEntity
  8
LAYER1
100
AcDbText
 10
27290.41072649939
 20
23962.54225930285
 30
0.0
 40
30.0
  1
file version 1
100
AcDbText
  0
ELLIPSE
  5
4A927
330
4A68F
100
AcDbEntity
  8
CUTOUT
100
AcDbEllipse
 10
27791.53298117598
 20
24247.51664698733
 30
0.0
 11
-12.25594726765448
 21
12.25594726765448
 31
0.0
210
0.0
220
0.0
230
0.9999999999999998
 40
0.9808148484639943
 41
5.507472325450621
 42
7.058898288908557
  0
LINE
  5
4A928
330
4A68F
100
AcDbEntity
  8
CUTOUT
100
AcDbLine
 10
28101.34644088376
 20
24264.6837080933
 30
0.0
 11
28261.00849842693
 21
24264.6837080933
 31
0.0
  0
LINE
  5
4A929
330
4A68F
100
AcDbEntity
  8
CUTOUT
100
AcDbLine
 10
28101.34644088376
 20
23861.2065830922
 30
0.0
 11
28055.86251912306
 21
23861.2065830922
 31
0.0
  0
LINE
  5
4A92A
102
{ACAD_REACTORS
330
4A93D
102
}
330
4A68F
100
AcDbEntity
  8
CUTOUT
100
AcDbLine
 10
28261.00849842693
 20
23861.2065830922
 30
0.0
 11
28101.34644088376
 21
23861.2065830922
 31
0.0
  0
ELLIPSE
  5
4A92B
330
4A68F
100
AcDbEntity
  8
CUTOUT
100
AcDbEllipse
 10
27791.53298117598
 20
23878.37364419816
 30
0.0
 11
-12.25594726765445
 21
-12.25594726765449
 31
0.0
210
0.0
220
0.0
230
1.0
 40
0.9808148484639978
 41
5.507472325450619
 42
7.058898288908557
  0
LINE
  5
4A92C
102
{ACAD_REACTORS
330
4A93A
102
}
330
4A68F
100
AcDbEntity
  8
CUTOUT
100
AcDbLine
 10
27774.36590814911
 20
23878.04113984323
 30
0.0
 11
27774.36590814911
 21
24247.84915134226
 31
0.0
  0
LINE
  5
4A92D
330
4A68F
100
AcDbEntity
  8
CUTOUT
100
AcDbLine
 10
28055.86251912306
 20
23861.2065830922
 30
0.0
 11
27791.20046490017
 21
23861.2065830922
 31
0.0
  0
LINE
  5
4A92E
330
4A68F
100
AcDbEntity
  8
CUTOUT
100
AcDbLine
 10
28277.843055178
 20
24247.84915134226
 30
0.0
 11
28277.843055178
 21
23878.04113984323
 31
0.0
  0
ELLIPSE
  5
4A92F
330
4A68F
100
AcDbEntity
  8
CUTOUT
100
AcDbEllipse
 10
28260.67598215123
 20
24247.51664698733
 30
0.0
 11
-12.25594726765449
 21
-12.25594726765434
 31
0.0
210
0.0
220
0.0
230
1.0
 40
0.9808148484640019
 41
2.36587967186083
 42
3.917305635318781
  0
LINE
  5
4A930
330
4A68F
100
AcDbEntity
  8
CUTOUT
100
AcDbLine
 10
28055.86251912306
 20
24264.6837080933
 30
0.0
 11
28101.34644088376
 21
24264.6837080933
 31
0.0
  0
LINE
  5
4A931
330
4A68F
100
AcDbEntity
  8
CUTOUT
100
AcDbLine
 10
27791.20046490017
 20
24264.6837080933
 30
0.0
 11
28055.86251912306
 21
24264.6837080933
 31
0.0
  0
LINE
  5
4A932
330
4A68F
100
AcDbEntity
  8
CUTOUT
100
AcDbLine
 10
27774.36591252247
 20
24247.84915134226
 30
0.0
 11
27774.36591275458
 21
23878.04113263998
 31
0.0
  0
LINE
  5
4A933
102
{ACAD_REACTORS
330
4A93A
102
}
330
4A68F
100
AcDbEntity
  8
CUTOUT
100
AcDbLine
 10
28277.84306136803
 20
24247.84915134226
 30
0.0
 11
28277.84306136803
 21
23878.04113984323
 31
0.0
  0
LINE
  5
4A934
102
{ACAD_REACTORS
330
4A93D
102
}
330
4A68F
100
AcDbEntity
  8
CUTOUT
100
AcDbLine
 10
27791.20046961781
 20
24264.68371540873
 30
0.0
 11
28261.00849842693
 21
24264.6837080933
 31
0.0
  0
LINE
  5
4A935
330
4A68F
100
AcDbEntity
  8
CUTOUT
100
AcDbLine
 10
27791.20046961781
 20
23861.20657577676
 30
0.0
 11
28261.0084937094
 21
23861.20657577676
 31
0.0
  0
MTEXT
  5
4A936
102
{ACAD_XDICTIONARY
360
4AAED
102
}
330
4A68F
100
AcDbEntity
  8
CUTOUT
100
AcDbMText
 10
28304.57345220569
 20
24346.75897511447
 30
0.000000000001
 40
40.0
 41
559.4757407245922
 71
     3
 72
     5
  1
UNDERMOUNT CUT OUT
 73
     1
 44
1.0
  0
DIMENSION
  5
4A938
102
{ACAD_XDICTIONARY
360
4A939
102
}
102
{ACAD_REACTORS
330
4A93A
102
}
330
4A68F
100
AcDbEntity
  8
DIMS SPECS
100
AcDbDimension
  2
*D35
 10
28277.84306136803
 20
23810.84977628197
 30
0.0
 11
28026.10448475856
 21
23826.84977628196
 31
0.0
 70
    32
  1
506
 71
     5
 42
503.4771532189333
  3
abode-iso$0
100
AcDbAlignedDimension
 13
27774.36590814911
 23
23878.04113984323
 33
0.0
 14
28277.84306136803
 24
23878.04113984323
 34
0.0
100
AcDbRotatedDimension
  0
DIMENSION
  5
4A93B
102
{ACAD_XDICTIONARY
360
4A93C
102
}
102
{ACAD_REACTORS
330
4A93D
102
}
330
4A68F
100
AcDbEntity
  8
DIMS SPECS
100
AcDbDimension
  2
*D36
 10
28331.90048875543
 20
23861.2065830922
 30
0.0
 11
28331.90048875542
 21
24062.94514559275
 31
0.0
 70
    32
  1
406
 71
     5
 42
403.4771250011072
  3
abode-iso$0
100
AcDbAlignedDimension
 13
28261.00849842693
 23
24264.6837080933
 33
0.0
 14
28261.00849842693
 24
23861.2065830922
 34
0.0
 50
90.0
100
AcDbRotatedDimension
  0
ARC
  5
4A93E
102
{ACAD_REACTORS
330
4A941
102
}
330
4A68F
100
AcDbEntity
  8
CUTOUT
100
AcDbCircle
 10
28261.06456487232
 20
23877.98507202805
 30
0.0
 40
16.78299535200576
100
AcDbArc
 50
268.6732916774979
 51
1.326672292598574
  0
DIMENSION
  5
4A93F
102
{ACAD_XDICTIONARY
360
4A940
102
}
102
{ACAD_REACTORS
330
4A941
102
}
330
4A68F
100
AcDbEntity
  8
DIMS SPECS
100
AcDbDimension
  2
*D37
 10
28261.06456487233
 20
23877.98507202805
 30
0.0
 11
28344.81300917278
 21
23818.61009995037
 31
0.0
 70
   164
 71
     5
 42
16.78299535188489
  3
abode-iso$4
100
AcDbRadialDimension
 15
28272.83313090127
 25
23866.01971425639
 35
0.0
 40
0.0
1001
ACAD_DSTYLE_DIMRADIAL_EXTENSION
1070
   387
1070
     1
1070
   388
1040
4.689233551943416
1070
   390
1040
0.0231547996008267
  0
LINE
  5
4A942
102
{ACAD_REACTORS
330
4A951
102
}
330
4A68F
100
AcDbEntity
  8
CUTOUT
100
AcDbLine
 10
28474.16790660385
 20
24305.20657577676
 30
0.0
 11
28974.16790660356
 21
24305.20657577676
 31
0.0
  0
ARC
  5
4A943
330
4A68F
100
AcDbEntity
  8
CUTOUT
100
AcDbCircle
 10
28974.16790660356
 20
24283.20657577677
 30
0.0
 40
22.0
100
AcDbArc
 50
0.0
 51
90.0
  0
ARC
  5
4A944
330
4A68F
100
AcDbEntity
  8
CUTOUT
100
AcDbCircle
 10
28474.16790660385
 20
24283.20657577677
 30
0.0
 40
22.0
100
AcDbArc
 50
90.0
 51
180.0
  0
LINE
  5
4A945
102
{ACAD_REACTORS
330
4A954
102
}
330
4A68F
100
AcDbEntity
  8
CUTOUT
100
AcDbLine
 10
28996.16790660357
 20
24283.20657577677
 30
0.0
 11
28996.16790660357
 21
23883.20657577676
 31
0.0
  0
ARC
  5
4A946
102
{ACAD_REACTORS
330
4A95A
102
}
330
4A68F
100
AcDbEntity
  8
CUTOUT
100
AcDbCircle
 10
28974.16790660356
 20
23883.20657577676
 30
0.0
 40
22.0
100
AcDbArc
 50
270.0
 51
0.0
  0
LINE
  5
4A947
102
{ACAD_REACTORS
330
4A94E
102
}
330
4A68F
100
AcDbEntity
  8
CUTOUT
  6
DASHED2
 48
5.0
100
AcDbLine
 10
28979.16790660357
 20
24304.63086106239
 30
0.0
 11
28979.16790660357
 21
23861.78229049114
 31
0.0
  0
LINE
  5
4A948
102
{ACAD_REACTORS
330
4A951
102
}
330
4A68F
100
AcDbEntity
  8
CUTOUT
100
AcDbLine
 10
28974.16790660356
 20
23861.20657577676
 30
0.0
 11
28474.16790660371
 21
23861.20657577676
 31
0.0
  0
ARC
  5
4A949
330
4A68F
100
AcDbEntity
  8
CUTOUT
100
AcDbCircle
 10
28474.16790660371
 20
23883.20657577676
 30
0.0
 40
22.0
100
AcDbArc
 50
180.0
 51
270.0
  0
LINE
  5
4A94A
102
{ACAD_REACTORS
330
4A954
102
}
330
4A68F
100
AcDbEntity
  8
CUTOUT
100
AcDbLine
 10
28452.16790660371
 20
23883.20657577677
 30
0.0
 11
28452.16790660386
 21
24283.20657577677
 31
0.0
  0
LINE
  5
4A94B
102
{ACAD_REACTORS
330
4A94E
102
}
330
4A68F
100
AcDbEntity
  8
CUTOUT
  6
DASHED2
 48
5.0
100
AcDbLine
 10
28469.16790660356
 20
23861.78229049117
 30
0.0
 11
28469.16790660354
 21
24304.82210390485
 31
0.0
  0
DIMENSION
  5
4A94C
102
{ACAD_XDICTIONARY
360
4A94D
102
}
102
{ACAD_REACTORS
330
4A94E
102
}
330
4A68F
100
AcDbEntity
  8
DIMS SPECS
100
AcDbDimension
  2
*D38
 10
28979.16790660355
 20
23816.44343781515
 30
0.0
 11
28724.16790660355
 21
23816.44343781515
 31
0.0
 70
   160
 71
     5
 42
510.0
  3
abode-iso$0
100
AcDbAlignedDimension
 13
28469.16790660355
 23
24083.30219719801
 33
0.0
 14
28979.16790660355
 24
24083.20657577676
 34
0.0
100
AcDbRotatedDimension
  0
DIMENSION
  5
4A94F
102
{ACAD_XDICTIONARY
360
4A950
102
}
102
{ACAD_REACTORS
330
4A951
102
}
330
4A68F
100
AcDbEntity
  8
DIMS SPECS
100
AcDbDimension
  2
*D39
 10
29045.13287221592
 20
24305.20657577676
 30
0.0
 11
29045.13287221591
 21
24083.2065757768
 31
0.0
 70
   160
 71
     5
 42
444.0
  3
abode-iso$0
100
AcDbAlignedDimension
 13
28724.16790660364
 23
23861.20657577676
 33
0.0
 14
28724.16790660373
 24
24305.20657577676
 34
0.0
 50
90.0
100
AcDbRotatedDimension
  0
DIMENSION
  5
4A952
102
{ACAD_XDICTIONARY
360
4A953
102
}
102
{ACAD_REACTORS
330
4A954
102
}
330
4A68F
100
AcDbEntity
  8
DIMS SPECS
100
AcDbDimension
  2
*D40
 10
28996.16790660355
 20
23758.32003568852
 30
0.0
 11
28724.16790660364
 21
23758.32003568852
 31
0.0
 70
   160
 71
     5
 42
543.9999999997671
  3
abode-iso$0
100
AcDbAlignedDimension
 13
28452.16790660378
 23
24083.20657577677
 33
0.0
 14
28996.16790660355
 24
24083.20657577676
 34
0.0
100
AcDbRotatedDimension
  0
MTEXT
  5
4A955
102
{ACAD_XDICTIONARY
360
4AAEF
102
}
330
4A68F
100
AcDbEntity
  8
CUTOUT
100
AcDbMText
 10
28466.19788340682
 20
24398.76234404208
 30
0.0
 40
40.0
 41
559.4757407245922
 71
     1
 72
     5
  1
\pi107.74;INSET CUT OUT
 73
     1
 44
1.0
  0
MTEXT
  5
4A956
102
{ACAD_XDICTIONARY
360
4AAF1
102
}
330
4A68F
100
AcDbEntity
  8
CUTOUT
  6
DASHED2
 48
5.0
100
AcDbMText
 10
28455.9828533249
 20
24184.04128096832
 30
0.0
 40
40.0
 41
559.4757407245922
 71
     1
 72
     5
  1
\pi178.74;BOWL(S), \P\pi148.74;OVERFLOW,\P\pi161.74;TAP AREA
 73
     1
 44
1.0
  0
LWPOLYLINE
  5
4A957
330
4A68F
100
AcDbEntity
  8
CUTOUT
  6
DASHED2
 48
5.0
100
AcDbPolyline
 90
        8
 70
     1
 43
0.0
 10
28860.59463294275
 20
24196.0266425626
 10
28607.43435891988
 20
24196.0266425626
 42
0.4142135623730951
 10
28587.43435891988
 20
24176.0266425626
 10
28587.43435891988
 20
24008.06868782973
 42
0.4142135623730951
 10
28607.43435891988
 20
23988.06868782973
 10
28860.59463294275
 20
23988.06868782973
 42
0.4142135623730951
 10
28880.59463294275
 20
24008.06868782973
 10
28880.59463294275
 20
24176.0266425626
 42
0.4142135623730951
1001
GENIUS_GENREC_14
1002
{
1000
PYDIR
1011
28880.59463294275
1021
23988.06868782973
1031
0.0
1002
}
1002
{
1000
PXDIR
1011
28587.43435891988
1021
24196.0266425626
1031
0.0
1002
}
1002
{
1000
PORI
1011
28880.59463294275
1021
24196.0266425626
1031
0.0
1002
}
1002
{
1000
PINS
1011
28880.59463294275
1021
24196.0266425626
1031
0.0
1002
}
1002
{
1000
PINS2
1011
28587.43435891988
1021
23988.06868782973
1031
0.0
1002
}
1002
{
1000
C
1070
     1
1002
}
1001
GENIUS_GENOBJ-N-REC_13
1002
{
1000
OWNER
1000
GEN
1002
}
1001
GENIUS_GENODEF_13
1002
{
1000
HIER
1070
     0
1002
}
1002
{
1000
MANEDIT
1070
     0
1002
}
1002
{
1000
NOSEL
1070
     0
1002
}
1002
{
1000
BEHIND
1070
     0
1002
}
1002
{
1000
OTHER
1070
     0
1002
}
1002
{
1000
REACTOR
1002
}
  0
DIMENSION
  5
4A958
102
{ACAD_XDICTIONARY
360
4A959
102
}
102
{ACAD_REACTORS
330
4A95A
102
}
330
4A68F
100
AcDbEntity
  8
DIMS SPECS
100
AcDbDimension
  2
*D41
 10
28974.16790660356
 20
23883.20657577676
 30
0.0
 11
29091.13255160741
 21
23785.49573570015
 31
0.0
 70
   164
 71
     5
 42
22.0000000000291
  3
abode-iso$4
100
AcDbRadialDimension
 15
28988.98825151149
 25
23866.94750517567
 35
0.0
 40
0.0
1001
ACAD_DSTYLE_DIMRADIAL_EXTENSION
1070
   387
1070
     1
1070
   388
1040
4.712388980384688
1070
   390
1040
0.0
  0
ENDSEC
  0
SECTION
  2
OBJECTS
  0
DICTIONARY
  5
4A627
330
0
100
AcDbDictionary
281
     1
  3
ACAD_2007HEADERVARS_RT
350
4AAF3
  3
ACAD_COLOR
350
4A685
  3
ACAD_GROUP
350
4A628
  3
ACAD_LAYOUT
350
4A684
  3
ACAD_MATERIAL
350
4A62B
  3
ACAD_MLEADERSTYLE
350
4A688
  3
ACAD_MLINESTYLE
350
4A681
  3
ACAD_PLOTSETTINGS
350
4A683
  3
ACAD_PLOTSTYLENAME
350
4A629
  3
ACAD_SCALELIST
350
4A655
  3
ACAD_TABLESTYLE
350
4A686
  3
ACAD_VISUALSTYLE
350
4A644
  3
ACDB_RECOMPOSE_DATA
350
4A883
  3
AcDbVariableDictionary
350
4A873
  3
AcmDictionary
350
4AAA2
  3
AcmSystemVariableManager
350
4AB00
  3
AMG
350
4AA82
  3
AMGSNAPSETTINGS
350
4AAE2
  0
DICTIONARY
  5
4A72E
330
4A61D
100
AcDbDictionary
280
     1
281
     1
  3
ACAD_LAYERSTATES
360
4A72F
  0
DICTIONARY
  5
4A865
330
4A677
100
AcDbDictionary
280
     1
281
     1
  3
ADSK_XREC_LAYER_RECONCILED
360
4A866
  0
DICTIONARY
  5
4A867
330
4A695
100
AcDbDictionary
280
     1
281
     1
  3
ADSK_XREC_LAYER_RECONCILED
360
4A868
  0
DICTIONARY
  5
4A869
330
4A697
100
AcDbDictionary
280
     1
281
     1
  3
ADSK_XREC_LAYER_RECONCILED
360
4A86A
  0
DICTIONARY
  5
4A86B
330
4A698
100
AcDbDictionary
280
     1
281
     1
  3
ADSK_XREC_LAYER_RECONCILED
360
4A86C
  0
DICTIONARY
  5
4A86D
330
4A723
100
AcDbDictionary
280
     1
281
     1
  3
ADSK_XREC_LAYER_RECONCILED
360
4A86E
  0
DICTIONARY
  5
4A86F
330
4A724
100
AcDbDictionary
280
     1
281
     1
  3
ADSK_XREC_LAYER_RECONCILED
360
4A870
  0
DICTIONARY
  5
4A871
330
4A725
100
AcDbDictionary
280
     1
281
     1
  3
ADSK_XREC_LAYER_RECONCILED
360
4A872
  0
DICTIONARY
  5
4AAED
330
4A936
100
AcDbDictionary
280
     1
281
     1
  3
ACAD_MTEXT_2008_RT
360
4AAEE
  0
DICTIONARY
  5
4A939
330
4A938
100
AcDbDictionary
280
     1
281
     1
  3
ACAD_DIMASSOC
360
4A93A
  0
DICTIONARY
  5
4A93C
330
4A93B
100
AcDbDictionary
280
     1
281
     1
  3
ACAD_DIMASSOC
360
4A93D
  0
DICTIONARY
  5
4A940
330
4A93F
100
AcDbDictionary
280
     1
281
     1
  3
ACAD_DIMASSOC
360
4A941
  0
DICTIONARY
  5
4A94D
330
4A94C
100
AcDbDictionary
280
     1
281
     1
  3
ACAD_DIMASSOC
360
4A94E
  0
DICTIONARY
  5
4A950
330
4A94F
100
AcDbDictionary
280
     1
281
     1
  3
ACAD_DIMASSOC
360
4A951
  0
DICTIONARY
  5
4A953
330
4A952
100
AcDbDictionary
280
     1
281
     1
  3
ACAD_DIMASSOC
360
4A954
  0
DICTIONARY
  5
4AAEF
330
4A955
100
AcDbDictionary
280
     1
281
     1
  3
ACAD_MTEXT_2008_RT
360
4AAF0
  0
DICTIONARY
  5
4AAF1
330
4A956
100
AcDbDictionary
280
     1
281
     1
  3
ACAD_MTEXT_2008_RT
360
4AAF2
  0
DICTIONARY
  5
4A959
330
4A958
100
AcDbDictionary
280
     1
281
     1
  3
ACAD_DIMASSOC
360
4A95A
  0
DICTIONARY
  5
4AAF3
102
{ACAD_REACTORS
330
4A627
102
}
330
4A627
100
AcDbDictionary
281
     1
  3
DIMARCSYM
350
4AAF4
  3
DIMLTEX1
350
4AAF6
  3
DIMLTEX2
350
4AAF7
  3
DIMLTYPE
350
4AAF5
  0
DICTIONARY
  5
4A685
102
{ACAD_REACTORS
330
4A627
102
}
330
4A627
100
AcDbDictionary
281
     1
  0
DICTIONARY
  5
4A628
102
{ACAD_REACTORS
330
4A627
102
}
330
4A627
100
AcDbDictionary
281
     1
  0
DICTIONARY
  5
4A684
102
{ACAD_REACTORS
330
4A627
102
}
330
4A627
100
AcDbDictionary
281
     1
  3
Layout1
350
4A68E
  3
Model
350
4A692
  0
DICTIONARY
  5
4A62B
102
{ACAD_REACTORS
330
4A627
102
}
330
4A627
100
AcDbDictionary
281
     1
  3
ByBlock
350
4A634
  3
ByLayer
350
4A62C
  3
Global
350
4A63C
  0
DICTIONARY
  5
4A688
102
{ACAD_REACTORS
330
4A627
102
}
330
4A627
100
AcDbDictionary
281
     1
  3
Standard
350
4A689
  0
DICTIONARY
  5
4A681
102
{ACAD_REACTORS
330
4A627
102
}
330
4A627
100
AcDbDictionary
281
     1
  3
Standard
350
4A682
  0
DICTIONARY
  5
4A683
102
{ACAD_REACTORS
330
4A627
102
}
330
4A627
100
AcDbDictionary
281
     1
  0
ACDBDICTIONARYWDFLT
  5
4A629
102
{ACAD_REACTORS
330
4A627
102
}
330
4A627
100
AcDbDictionary
281
     1
  3
Normal
350
4A62A
100
AcDbDictionaryWithDefault
340
4A62A
  0
DICTIONARY
  5
4A655
102
{ACAD_REACTORS
330
4A627
102
}
330
4A627
100
AcDbDictionary
281
     1
  3
A0
350
4A656
  3
A1
350
4A657
  3
A2
350
4A658
  3
A3
350
4A659
  3
A4
350
4A65A
  3
A5
350
4A65B
  3
A6
350
4A65C
  3
A7
350
4A65D
  3
A8
350
4A65E
  3
A9
350
4A65F
  3
B0
350
4A660
  3
B1
350
4A661
  3
B2
350
4A662
  3
B3
350
4A663
  3
B4
350
4A664
  3
B5
350
4A665
  3
B6
350
4A666
  3
B7
350
4A667
  3
B8
350
4A668
  3
B9
350
4A669
  3
C0
350
4A66A
  3
C1
350
4A66B
  3
C2
350
4A66C
  3
C3
350
4A66D
  3
C4
350
4A66E
  3
C5
350
4A66F
  3
C6
350
4A670
  3
C7
350
4A671
  3
C8
350
4A672
  3
C9
350
4A673
  3
D0
350
4A674
  3
D1
350
4A675
  3
D2
350
4A676
  0
DICTIONARY
  5
4A686
102
{ACAD_REACTORS
330
4A627
102
}
330
4A627
100
AcDbDictionary
281
     1
  3
Standard
350
4A687
  0
DICTIONARY
  5
4A644
102
{ACAD_REACTORS
330
4A627
102
}
330
4A627
100
AcDbDictionary
281
     1
  3
2dWireframe
350
4A64A
  3
3D Hidden
350
4A64C
  3
3dWireframe
350
4A64B
  3
Basic
350
4A649
  3
Brighten
350
4A650
  3
ColorChange
350
4A654
  3
Conceptual
350
4A64D
  3
Dim
350
4A64F
  3
Facepattern
350
4A653
  3
Flat
350
4A645
  3
FlatWithEdges
350
4A646
  3
Gouraud
350
4A647
  3
GouraudWithEdges
350
4A648
  3
Linepattern
350
4A652
  3
Realistic
350
4A64E
  3
Thicken
350
4A651
  0
XRECORD
  5
4A883
102
{ACAD_REACTORS
330
4A627
102
}
330
4A627
100
AcDbXrecord
280
     1
 90
        1
330
4A687
330
4A936
330
4A955
330
4A956
  0
DICTIONARY
  5
4A873
102
{ACAD_REACTORS
330
4A627
102
}
330
4A627
100
AcDbDictionary
281
     1
  3
CANNOSCALE
350
4A877
  3
CMLEADERSTYLE
350
4A875
  3
CTABLESTYLE
350
4A874
  3
LAYEREVAL
350
4A879
  3
LAYERNOTIFY
350
4A87A
  3
LIGHTINGUNITS
350
4A878
  3
LOFTANG1
350
4AAE9
  3
LOFTANG2
350
4AAEA
  3
LONGITUDE
350
4AAEB
  3
MSLTSCALE
350
4A876
  0
DICTIONARY
  5
4AAA2
102
{ACAD_REACTORS
330
4A627
102
}
330
4A627
100
AcDbDictionary
281
     1
  3
AcmStdDictionary
350
4AAAB
  0
DICTIONARY
  5
4AA82
102
{ACAD_REACTORS
330
4A627
102
}
330
4A627
100
AcDbDictionary
281
     1
  0
DICTIONARY
  5
4AAE2
102
{ACAD_REACTORS
330
4A627
102
}
330
4A627
100
AcDbDictionary
281
     1
  0
DICTIONARY
  5
4A72F
102
{ACAD_REACTORS
330
4A72E
102
}
330
4A72E
100
AcDbDictionary
281
     1
  0
XRECORD
  5
4A866
102
{ACAD_REACTORS
330
4A865
102
}
330
4A865
100
AcDbXrecord
280
     1
290
     1
  0
XRECORD
  5
4A868
102
{ACAD_REACTORS
330
4A867
102
}
330
4A867
100
AcDbXrecord
280
     1
290
     1
  0
XRECORD
  5
4A86A
102
{ACAD_REACTORS
330
4A869
102
}
330
4A869
100
AcDbXrecord
280
     1
290
     1
  0
XRECORD
  5
4A86C
102
{ACAD_REACTORS
330
4A86B
102
}
330
4A86B
100
AcDbXrecord
280
     1
290
     1
  0
XRECORD
  5
4A86E
102
{ACAD_REACTORS
330
4A86D
102
}
330
4A86D
100
AcDbXrecord
280
     1
290
     1
  0
XRECORD
  5
4A870
102
{ACAD_REACTORS
330
4A86F
102
}
330
4A86F
100
AcDbXrecord
280
     1
290
     1
  0
XRECORD
  5
4A872
102
{ACAD_REACTORS
330
4A871
102
}
330
4A871
100
AcDbXrecord
280
     1
290
     1
  0
XRECORD
  5
4AAEE
102
{ACAD_REACTORS
330
4AAED
102
}
330
4AAED
100
AcDbXrecord
280
     1
 40
12506.0
  1
\pxqc;UNDERMOUNT CUT OUT
  0
DIMASSOC
  5
4A93A
102
{ACAD_REACTORS
330
4A939
102
}
330
4A939
100
AcDbDimAssoc
330
4A938
 90
        3
 70
     0
 71
     0
  1
AcDbOsnapPointRef
 72
    13
331
4A92C
 73
     2
 91
        0
 40
0.0
 10
0.0
 20
0.0
 30
2.000000000000000E+50
 75
     0
  1
AcDbOsnapPointRef
 72
     1
331
4A933
 73
     2
 91
        0
 40
1.0
 10
0.0
 20
0.0
 30
2.000000000000000E+50
 75
     0
  0
DIMASSOC
  5
4A93D
102
{ACAD_REACTORS
330
4A93C
102
}
330
4A93C
100
AcDbDimAssoc
330
4A93B
 90
        3
 70
     0
 71
     0
  1
AcDbOsnapPointRef
 72
     1
331
4A934
 73
     2
 91
        0
 40
1.0
 10
0.0
 20
0.0
 30
2.000000000000000E+50
 75
     0
  1
AcDbOsnapPointRef
 72
    13
331
4A92A
 73
     2
 91
        0
 40
0.0
 10
0.0
 20
0.0
 30
2.000000000000000E+50
 75
     0
  0
DIMASSOC
  5
4A941
102
{ACAD_REACTORS
330
4A940
102
}
330
4A940
100
AcDbDimAssoc
330
4A93F
 90
        2
 70
     0
 71
     0
  1
AcDbOsnapPointRef
 72
     3
331
4A93E
 73
     2
 91
        0
 40
0.0
 10
0.0
 20
0.0
 30
0.0
 75
     0
  0
DIMASSOC
  5
4A94E
102
{ACAD_REACTORS
330
4A94D
102
}
330
4A94D
100
AcDbDimAssoc
330
4A94C
 90
        3
 70
     0
 71
     0
  1
AcDbOsnapPointRef
 72
     2
331
4A94B
 73
     2
 91
        0
 40
0.5
 10
0.0
 20
0.0
 30
0.0
 75
     0
  1
AcDbOsnapPointRef
 72
     2
331
4A947
 73
     2
 91
        0
 40
0.5
 10
0.0
 20
0.0
 30
0.0
 75
     0
  0
DIMASSOC
  5
4A951
102
{ACAD_REACTORS
330
4A950
102
}
330
4A950
100
AcDbDimAssoc
330
4A94F
 90
        3
 70
     0
 71
     0
  1
AcDbOsnapPointRef
 72
     2
331
4A948
 73
     2
 91
        0
 40
0.5
 10
0.0
 20
0.0
 30
0.0
 75
     0
  1
AcDbOsnapPointRef
 72
     2
331
4A942
 73
     2
 91
        0
 40
0.500000000000029
 10
0.0
 20
0.0
 30
0.0
 75
     0
  0
DIMASSOC
  5
4A954
102
{ACAD_REACTORS
330
4A953
102
}
330
4A953
100
AcDbDimAssoc
330
4A952
 90
        3
 70
     0
 71
     0
  1
AcDbOsnapPointRef
 72
     2
331
4A94A
 73
     2
 91
        0
 40
0.5
 10
0.0
 20
0.0
 30
0.0
 75
     0
  1
AcDbOsnapPointRef
 72
     2
331
4A945
 73
     2
 91
        0
 40
0.5
 10
0.0
 20
0.0
 30
0.0
 75
     0
  0
XRECORD
  5
4AAF0
102
{ACAD_REACTORS
330
4AAEF
102
}
330
4AAEF
100
AcDbXrecord
280
     1
 40
19139.0
  1
\pxqc;INSET CUT OUT
  0
XRECORD
  5
4AAF2
102
{ACAD_REACTORS
330
4AAF1
102
}
330
4AAF1
100
AcDbXrecord
280
     1
 40
125417.0
  1
\pxqc;BOWL(S), \POVERFLOW,\PTAP AREA
  0
DIMASSOC
  5
4A95A
102
{ACAD_REACTORS
330
4A959
102
}
330
4A959
100
AcDbDimAssoc
330
4A958
 90
        2
 70
     0
 71
     0
  1
AcDbOsnapPointRef
 72
     3
331
4A946
 73
     2
 91
        0
 40
0.0
 10
0.0
 20
0.0
 30
0.0
 75
     0
  0
XRECORD
  5
4AAF4
102
{ACAD_REACTORS
330
4AAF3
102
}
330
4AAF3
100
AcDbXrecord
280
     1
 70
     1
  0
XRECORD
  5
4AAF6
102
{ACAD_REACTORS
330
4AAF3
102
}
330
4AAF3
100
AcDbXrecord
280
     1
340
4A67D
  0
XRECORD
  5
4AAF7
102
{ACAD_REACTORS
330
4AAF3
102
}
330
4AAF3
100
AcDbXrecord
280
     1
340
4A67D
  0
XRECORD
  5
4AAF5
102
{ACAD_REACTORS
330
4AAF3
102
}
330
4AAF3
100
AcDbXrecord
280
     1
340
4A67D
  0
LAYOUT
  5
4A68E
102
{ACAD_REACTORS
330
4A684
102
}
330
4A684
100
AcDbPlotSettings
  1

  2
\\ABODESERVER\upstairs
  4

  6

 40
0.0
 41
0.0
 42
0.0
 43
0.0
 44
0.0
 45
0.0
 46
0.0
 47
0.0
 48
0.0
 49
0.0
140
0.0
141
0.0
142
1.0
143
1.0
 70
   688
 72
     0
 73
     0
 74
     5
  7

 75
    16
147
1.0
 76
     0
 77
     2
 78
   300
148
0.0
149
0.0
100
AcDbLayout
  1
Layout1
 70
     1
 71
     1
 10
0.0
 20
0.0
 11
420.0
 21
297.0
 12
0.0
 22
0.0
 32
0.0
 14
1.000000000000000E+20
 24
1.000000000000000E+20
 34
1.000000000000000E+20
 15
-1.000000000000000E+20
 25
-1.000000000000000E+20
 35
-1.000000000000000E+20
146
0.0
 13
0.0
 23
0.0
 33
0.0
 16
1.0
 26
0.0
 36
0.0
 17
0.0
 27
1.0
 37
0.0
 76
     0
330
4A68B
  0
LAYOUT
  5
4A692
102
{ACAD_REACTORS
330
4A684
102
}
330
4A684
100
AcDbPlotSettings
  1

  2
\\ABODESERVER\upstairs
  4

  6

 40
0.0
 41
0.0
 42
0.0
 43
0.0
 44
0.0
 45
0.0
 46
0.0
 47
0.0
 48
0.0
 49
0.0
140
0.0
141
0.0
142
1.0
143
1.0
 70
  1712
 72
     0
 73
     0
 74
     0
  7

 75
     0
147
1.0
 76
     0
 77
     2
 78
   300
148
0.0
149
0.0
100
AcDbLayout
  1
Model
 70
     1
 71
     0
 10
0.0
 20
0.0
 11
12.0
 21
9.0
 12
0.0
 22
0.0
 32
0.0
 14
0.0
 24
0.0
 34
0.0
 15
0.0
 25
0.0
 35
0.0
146
0.0
 13
0.0
 23
0.0
 33
0.0
 16
1.0
 26
0.0
 36
0.0
 17
0.0
 27
1.0
 37
0.0
 76
     0
330
4A68F
331
4A693
  0
MATERIAL
  5
4A634
102
{ACAD_XDICTIONARY
360
4A635
102
}
102
{ACAD_REACTORS
330
4A62B
102
}
330
4A62B
100
AcDbMaterial
  1
ByBlock
 72
     0
 43
0.0208333333333333
 43
0.0
 43
0.0
 43
0.0
 43
0.0
 43
0.0208333333333333
 43
0.0
 43
0.0
 43
0.0
 43
0.0
 43
1.0
 43
0.0
 43
0.0
 43
0.0
 43
0.0
 43
1.0
 77
     0
 47
0.0208333333333333
 47
0.0
 47
0.0
 47
0.0
 47
0.0
 47
0.0208333333333333
 47
0.0
 47
0.0
 47
0.0
 47
0.0
 47
1.0
 47
0.0
 47
0.0
 47
0.0
 47
0.0
 47
1.0
171
     0
 49
0.0208333333333333
 49
0.0
 49
0.0
 49
0.0
 49
0.0
 49
0.0208333333333333
 49
0.0
 49
0.0
 49
0.0
 49
0.0
 49
1.0
 49
0.0
 49
0.0
 49
0.0
 49
0.0
 49
1.0
175
     0
142
0.0208333333333333
142
0.0
142
0.0
142
0.0
142
0.0
142
0.0208333333333333
142
0.0
142
0.0
142
0.0
142
0.0
142
1.0
142
0.0
142
0.0
142
0.0
142
0.0
142
1.0
179
     0
144
0.0208333333333333
144
0.0
144
0.0
144
0.0
144
0.0
144
0.0208333333333333
144
0.0
144
0.0
144
0.0
144
0.0
144
1.0
144
0.0
144
0.0
144
0.0
144
0.0
144
1.0
147
0.0208333333333333
147
0.0
147
0.0
147
0.0
147
0.0
147
0.0208333333333333
147
0.0
147
0.0
147
0.0
147
0.0
147
1.0
147
0.0
147
0.0
147
0.0
147
0.0
147
1.0
  0
MATERIAL
  5
4A62C
102
{ACAD_XDICTIONARY
360
4A62D
102
}
102
{ACAD_REACTORS
330
4A62B
102
}
330
4A62B
100
AcDbMaterial
  1
ByLayer
 72
     0
 43
0.0208333333333333
 43
0.0
 43
0.0
 43
0.0
 43
0.0
 43
0.0208333333333333
 43
0.0
 43
0.0
 43
0.0
 43
0.0
 43
1.0
 43
0.0
 43
0.0
 43
0.0
 43
0.0
 43
1.0
 77
     0
 47
0.0208333333333333
 47
0.0
 47
0.0
 47
0.0
 47
0.0
 47
0.0208333333333333
 47
0.0
 47
0.0
 47
0.0
 47
0.0
 47
1.0
 47
0.0
 47
0.0
 47
0.0
 47
0.0
 47
1.0
171
     0
 49
0.0208333333333333
 49
0.0
 49
0.0
 49
0.0
 49
0.0
 49
0.0208333333333333
 49
0.0
 49
0.0
 49
0.0
 49
0.0
 49
1.0
 49
0.0
 49
0.0
 49
0.0
 49
0.0
 49
1.0
175
     0
142
0.0208333333333333
142
0.0
142
0.0
142
0.0
142
0.0
142
0.0208333333333333
142
0.0
142
0.0
142
0.0
142
0.0
142
1.0
142
0.0
142
0.0
142
0.0
142
0.0
142
1.0
179
     0
144
0.0208333333333333
144
0.0
144
0.0
144
0.0
144
0.0
144
0.0208333333333333
144
0.0
144
0.0
144
0.0
144
0.0
144
1.0
144
0.0
144
0.0
144
0.0
144
0.0
144
1.0
147
0.0208333333333333
147
0.0
147
0.0
147
0.0
147
0.0
147
0.0208333333333333
147
0.0
147
0.0
147
0.0
147
0.0
147
1.0
147
0.0
147
0.0
147
0.0
147
0.0
147
1.0
  0
MATERIAL
  5
4A63C
102
{ACAD_XDICTIONARY
360
4A63D
102
}
102
{ACAD_REACTORS
330
4A62B
102
}
330
4A62B
100
AcDbMaterial
  1
Global
 72
     0
 43
0.0208333333333333
 43
0.0
 43
0.0
 43
0.0
 43
0.0
 43
0.0208333333333333
 43
0.0
 43
0.0
 43
0.0
 43
0.0
 43
1.0
 43
0.0
 43
0.0
 43
0.0
 43
0.0
 43
1.0
 77
     0
 47
0.0208333333333333
 47
0.0
 47
0.0
 47
0.0
 47
0.0
 47
0.0208333333333333
 47
0.0
 47
0.0
 47
0.0
 47
0.0
 47
1.0
 47
0.0
 47
0.0
 47
0.0
 47
0.0
 47
1.0
171
     0
 49
0.0208333333333333
 49
0.0
 49
0.0
 49
0.0
 49
0.0
 49
0.0208333333333333
 49
0.0
 49
0.0
 49
0.0
 49
0.0
 49
1.0
 49
0.0
 49
0.0
 49
0.0
 49
0.0
 49
1.0
175
     0
142
0.0208333333333333
142
0.0
142
0.0
142
0.0
142
0.0
142
0.0208333333333333
142
0.0
142
0.0
142
0.0
142
0.0
142
1.0
142
0.0
142
0.0
142
0.0
142
0.0
142
1.0
179
     0
144
0.0208333333333333
144
0.0
144
0.0
144
0.0
144
0.0
144
0.0208333333333333
144
0.0
144
0.0
144
0.0
144
0.0
144
1.0
144
0.0
144
0.0
144
0.0
144
0.0
144
1.0
147
0.0208333333333333
147
0.0
147
0.0
147
0.0
147
0.0
147
0.0208333333333333
147
0.0
147
0.0
147
0.0
147
0.0
147
1.0
147
0.0
147
0.0
147
0.0
147
0.0
147
1.0
  0
MLEADERSTYLE
  5
4A689
102
{ACAD_REACTORS
330
4A688
102
}
330
4A688
100
AcDbMLeaderStyle
170
     2
171
     1
172
     0
 90
        2
 40
0.0
 41
0.0
173
     1
 91
-1056964608
340
4A67D
 92
       -2
290
     1
 42
0.09
291
     1
 43
0.36
  3
Standard
 44
0.18
300

342
4A678
174
     1
178
     6
175
     1
176
     0
 93
-1056964608
 45
0.18
292
     0
297
     0
 46
0.18
 94
-1056964608
 47
1.0
 49
1.0
140
1.0
293
     1
141
0.0
294
     1
177
     0
142
1.0
295
     0
296
     0
143
0.125
1001
ACAD_MLEADERVER
1070
     2
  0
MLINESTYLE
  5
4A682
102
{ACAD_REACTORS
330
4A681
102
}
330
4A681
100
AcDbMlineStyle
  2
STANDARD
 70
     0
  3

 62
   256
 51
90.0
 52
90.0
 71
     2
 49
0.5
 62
   256
  6
BYLAYER
 49
-0.5
 62
   256
  6
BYLAYER
  0
ACDBPLACEHOLDER
  5
4A62A
102
{ACAD_REACTORS
330
4A629
102
}
330
4A629
  0
SCALE
  5
4A656
102
{ACAD_REACTORS
330
4A655
102
}
330
4A655
100
AcDbScale
 70
     0
300
1:1
140
1.0
141
1.0
290
     1
  0
SCALE
  5
4A657
102
{ACAD_REACTORS
330
4A655
102
}
330
4A655
100
AcDbScale
 70
     0
300
1:2
140
1.0
141
2.0
290
     0
  0
SCALE
  5
4A658
102
{ACAD_REACTORS
330
4A655
102
}
330
4A655
100
AcDbScale
 70
     0
300
1:4
140
1.0
141
4.0
290
     0
  0
SCALE
  5
4A659
102
{ACAD_REACTORS
330
4A655
102
}
330
4A655
100
AcDbScale
 70
     0
300
1:5
140
1.0
141
5.0
290
     0
  0
SCALE
  5
4A65A
102
{ACAD_REACTORS
330
4A655
102
}
330
4A655
100
AcDbScale
 70
     0
300
1:8
140
1.0
141
8.0
290
     0
  0
SCALE
  5
4A65B
102
{ACAD_REACTORS
330
4A655
102
}
330
4A655
100
AcDbScale
 70
     0
300
1:10
140
1.0
141
10.0
290
     0
  0
SCALE
  5
4A65C
102
{ACAD_REACTORS
330
4A655
102
}
330
4A655
100
AcDbScale
 70
     0
300
1:16
140
1.0
141
16.0
290
     0
  0
SCALE
  5
4A65D
102
{ACAD_REACTORS
330
4A655
102
}
330
4A655
100
AcDbScale
 70
     0
300
1:20
140
1.0
141
20.0
290
     0
  0
SCALE
  5
4A65E
102
{ACAD_REACTORS
330
4A655
102
}
330
4A655
100
AcDbScale
 70
     0
300
1:30
140
1.0
141
30.0
290
     0
  0
SCALE
  5
4A65F
102
{ACAD_REACTORS
330
4A655
102
}
330
4A655
100
AcDbScale
 70
     0
300
1:40
140
1.0
141
40.0
290
     0
  0
SCALE
  5
4A660
102
{ACAD_REACTORS
330
4A655
102
}
330
4A655
100
AcDbScale
 70
     0
300
1:50
140
1.0
141
50.0
290
     0
  0
SCALE
  5
4A661
102
{ACAD_REACTORS
330
4A655
102
}
330
4A655
100
AcDbScale
 70
     0
300
1:100
140
1.0
141
100.0
290
     0
  0
SCALE
  5
4A662
102
{ACAD_REACTORS
330
4A655
102
}
330
4A655
100
AcDbScale
 70
     0
300
2:1
140
2.0
141
1.0
290
     0
  0
SCALE
  5
4A663
102
{ACAD_REACTORS
330
4A655
102
}
330
4A655
100
AcDbScale
 70
     0
300
4:1
140
4.0
141
1.0
290
     0
  0
SCALE
  5
4A664
102
{ACAD_REACTORS
330
4A655
102
}
330
4A655
100
AcDbScale
 70
     0
300
8:1
140
8.0
141
1.0
290
     0
  0
SCALE
  5
4A665
102
{ACAD_REACTORS
330
4A655
102
}
330
4A655
100
AcDbScale
 70
     0
300
10:1
140
10.0
141
1.0
290
     0
  0
SCALE
  5
4A666
102
{ACAD_REACTORS
330
4A655
102
}
330
4A655
100
AcDbScale
 70
     0
300
100:1
140
100.0
141
1.0
290
     0
  0
SCALE
  5
4A667
102
{ACAD_REACTORS
330
4A655
102
}
330
4A655
100
AcDbScale
 70
     0
300
1/128" = 1'-0"
140
0.0078125
141
12.0
290
     0
  0
SCALE
  5
4A668
102
{ACAD_REACTORS
330
4A655
102
}
330
4A655
100
AcDbScale
 70
     0
300
1/64" = 1'-0"
140
0.015625
141
12.0
290
     0
  0
SCALE
  5
4A669
102
{ACAD_REACTORS
330
4A655
102
}
330
4A655
100
AcDbScale
 70
     0
300
1/32" = 1'-0"
140
0.03125
141
12.0
290
     0
  0
SCALE
  5
4A66A
102
{ACAD_REACTORS
330
4A655
102
}
330
4A655
100
AcDbScale
 70
     0
300
1/16" = 1'-0"
140
0.0625
141
12.0
290
     0
  0
SCALE
  5
4A66B
102
{ACAD_REACTORS
330
4A655
102
}
330
4A655
100
AcDbScale
 70
     0
300
3/32" = 1'-0"
140
0.09375
141
12.0
290
     0
  0
SCALE
  5
4A66C
102
{ACAD_REACTORS
330
4A655
102
}
330
4A655
100
AcDbScale
 70
     0
300
1/8" = 1'-0"
140
0.125
141
12.0
290
     0
  0
SCALE
  5
4A66D
102
{ACAD_REACTORS
330
4A655
102
}
330
4A655
100
AcDbScale
 70
     0
300
3/16" = 1'-0"
140
0.1875
141
12.0
290
     0
  0
SCALE
  5
4A66E
102
{ACAD_REACTORS
330
4A655
102
}
330
4A655
100
AcDbScale
 70
     0
300
1/4" = 1'-0"
140
0.25
141
12.0
290
     0
  0
SCALE
  5
4A66F
102
{ACAD_REACTORS
330
4A655
102
}
330
4A655
100
AcDbScale
 70
     0
300
3/8" = 1'-0"
140
0.375
141
12.0
290
     0
  0
SCALE
  5
4A670
102
{ACAD_REACTORS
330
4A655
102
}
330
4A655
100
AcDbScale
 70
     0
300
1/2" = 1'-0"
140
0.5
141
12.0
290
     0
  0
SCALE
  5
4A671
102
{ACAD_REACTORS
330
4A655
102
}
330
4A655
100
AcDbScale
 70
     0
300
3/4" = 1'-0"
140
0.75
141
12.0
290
     0
  0
SCALE
  5
4A672
102
{ACAD_REACTORS
330
4A655
102
}
330
4A655
100
AcDbScale
 70
     0
300
1" = 1'-0"
140
1.0
141
12.0
290
     0
  0
SCALE
  5
4A673
102
{ACAD_REACTORS
330
4A655
102
}
330
4A655
100
AcDbScale
 70
     0
300
1-1/2" = 1'-0"
140
1.5
141
12.0
290
     0
  0
SCALE
  5
4A674
102
{ACAD_REACTORS
330
4A655
102
}
330
4A655
100
AcDbScale
 70
     0
300
3" = 1'-0"
140
3.0
141
12.0
290
     0
  0
SCALE
  5
4A675
102
{ACAD_REACTORS
330
4A655
102
}
330
4A655
100
AcDbScale
 70
     0
300
6" = 1'-0"
140
6.0
141
12.0
290
     0
  0
SCALE
  5
4A676
102
{ACAD_REACTORS
330
4A655
102
}
330
4A655
100
AcDbScale
 70
     0
300
1'-0" = 1'-0"
140
12.0
141
12.0
290
     0
  0
TABLESTYLE
  5
4A687
102
{ACAD_XDICTIONARY
360
4A87B
102
}
102
{ACAD_REACTORS
330
4A686
102
}
330
4A686
100
AcDbTableStyle
  3
Standard
 70
     0
 71
     0
 40
0.06
 41
0.06
280
     0
281
     0
  7
STANDARD
140
0.18
170
     2
 62
     0
 63
     7
283
     0
274
    -2
284
     1
 64
     0
275
    -2
285
     1
 65
     0
276
    -2
286
     1
 66
     0
277
    -2
287
     1
 67
     0
278
    -2
288
     1
 68
     0
279
    -2
289
     1
 69
     0
  7
STANDARD
140
0.25
170
     5
 62
     0
 63
     7
283
     0
274
    -2
284
     1
 64
     0
275
    -2
285
     1
 65
     0
276
    -2
286
     1
 66
     0
277
    -2
287
     1
 67
     0
278
    -2
288
     1
 68
     0
279
    -2
289
     1
 69
     0
  7
STANDARD
140
0.18
170
     5
 62
     0
 63
     7
283
     0
274
    -2
284
     1
 64
     0
275
    -2
285
     1
 65
     0
276
    -2
286
     1
 66
     0
277
    -2
287
     1
 67
     0
278
    -2
288
     1
 68
     0
279
    -2
289
     1
 69
     0
  0
VISUALSTYLE
  5
4A64A
102
{ACAD_REACTORS
330
4A644
102
}
330
4A644
100
AcDbVisualStyle
  2
2dWireframe
 70
     4
 71
     0
 72
     2
 73
     0
 90
        0
 40
-0.6
 41
-30.0
 62
     5
 63
     7
421
 16777215
 74
     1
 91
        4
 64
     7
 65
   257
 75
     1
175
     1
 42
1.0
 92
        0
 66
   257
 43
1.0
 76
     1
 77
     6
 78
     2
 67
     7
 79
     5
170
     0
171
     0
290
     0
174
     0
 93
        1
 44
0.0
173
     0
291
     0
 45
0.0
1001
ACAD
1000
AcDbSavedByObjectVersion
1070
     0
  0
VISUALSTYLE
  5
4A64C
102
{ACAD_REACTORS
330
4A644
102
}
330
4A644
100
AcDbVisualStyle
  2
3D Hidden
 70
     6
 71
     1
 72
     2
 73
     2
 90
        0
 40
-0.6
 41
-30.0
 62
     5
 63
     7
421
 16777215
 74
     2
 91
        2
 64
     7
 65
   257
 75
     2
175
     1
 42
40.0
 92
        0
 66
   257
 43
1.0
 76
     1
 77
     6
 78
     2
 67
     7
 79
     3
170
     0
171
     0
290
     0
174
     0
 93
        1
 44
0.0
173
     0
291
     0
 45
0.0
1001
ACAD
1000
AcDbSavedByObjectVersion
1070
     0
  0
VISUALSTYLE
  5
4A64B
102
{ACAD_REACTORS
330
4A644
102
}
330
4A644
100
AcDbVisualStyle
  2
3dWireframe
 70
     5
 71
     0
 72
     2
 73
     0
 90
        0
 40
-0.6
 41
-30.0
 62
     5
 63
     7
421
 16777215
 74
     1
 91
        4
 64
     7
 65
   257
 75
     1
175
     1
 42
1.0
 92
        0
 66
   257
 43
1.0
 76
     1
 77
     6
 78
     2
 67
     7
 79
     5
170
     0
171
     0
290
     0
174
     0
 93
        1
 44
0.0
173
     0
291
     0
 45
0.0
1001
ACAD
1000
AcDbSavedByObjectVersion
1070
     0
  0
VISUALSTYLE
  5
4A649
102
{ACAD_REACTORS
330
4A644
102
}
330
4A644
100
AcDbVisualStyle
  2
Basic
 70
     7
 71
     1
 72
     0
 73
     1
 90
        0
 40
-0.6
 41
-30.0
 62
     5
 63
     7
421
 16777215
 74
     0
 91
        4
 64
     7
 65
   257
 75
     1
175
     1
 42
1.0
 92
        8
 66
     7
 43
1.0
 76
     1
 77
     6
 78
     2
 67
     7
 79
     5
170
     0
171
     0
290
     0
174
     0
 93
        1
 44
0.0
173
     0
291
     1
 45
0.0
1001
ACAD
1000
AcDbSavedByObjectVersion
1070
     0
  0
VISUALSTYLE
  5
4A650
102
{ACAD_REACTORS
330
4A644
102
}
330
4A644
100
AcDbVisualStyle
  2
Brighten
 70
    12
 71
     2
 72
     2
 73
     0
 90
        0
 40
-0.6
 41
-30.0
 62
     5
 63
     7
421
 16777215
 74
     1
 91
        4
 64
     7
 65
   257
 75
     1
175
     1
 42
1.0
 92
        8
 66
     7
 43
1.0
 76
     1
 77
     6
 78
     2
 67
     7
 79
     5
170
     0
171
     0
290
     0
174
     0
 93
        1
 44
50.0
173
     0
291
     1
 45
0.0
1001
ACAD
1000
AcDbSavedByObjectVersion
1070
     0
  0
VISUALSTYLE
  5
4A654
102
{ACAD_REACTORS
330
4A644
102
}
330
4A644
100
AcDbVisualStyle
  2
ColorChange
 70
    16
 71
     2
 72
     2
 73
     3
 90
        0
 40
-0.6
 41
-30.0
 62
     5
 63
     8
421
  8421504
 74
     1
 91
        4
 64
     7
 65
   257
 75
     1
175
     1
 42
1.0
 92
        8
 66
     8
424
  8421504
 43
1.0
 76
     1
 77
     6
 78
     2
 67
     7
 79
     5
170
     0
171
     0
290
     0
174
     0
 93
        1
 44
0.0
173
     0
291
     1
 45
0.0
1001
ACAD
1000
AcDbSavedByObjectVersion
1070
     0
  0
VISUALSTYLE
  5
4A64D
102
{ACAD_REACTORS
330
4A644
102
}
330
4A644
100
AcDbVisualStyle
  2
Conceptual
 70
     9
 71
     3
 72
     2
 73
     0
 90
        0
 40
-0.6
 41
-30.0
 62
     5
 63
     7
421
 16777215
 74
     2
 91
        2
 64
     7
 65
   257
 75
     1
175
     1
 42
40.0
 92
        8
 66
     7
 43
1.0
 76
     1
 77
     6
 78
     2
 67
     7
 79
     3
170
     0
171
     0
290
     0
174
     0
 93
        1
 44
0.0
173
     0
291
     0
 45
0.0
1001
ACAD
1000
AcDbSavedByObjectVersion
1070
     0
  0
VISUALSTYLE
  5
4A64F
102
{ACAD_REACTORS
330
4A644
102
}
330
4A644
100
AcDbVisualStyle
  2
Dim
 70
    11
 71
     2
 72
     2
 73
     0
 90
        0
 40
-0.6
 41
-30.0
 62
     5
 63
     7
421
 16777215
 74
     1
 91
        4
 64
     7
 65
   257
 75
     1
175
     1
 42
1.0
 92
        8
 66
     7
 43
1.0
 76
     1
 77
     6
 78
     2
 67
     7
 79
     5
170
     0
171
     0
290
     0
174
     0
 93
        1
 44
-50.0
173
     0
291
     1
 45
0.0
1001
ACAD
1000
AcDbSavedByObjectVersion
1070
     0
  0
VISUALSTYLE
  5
4A653
102
{ACAD_REACTORS
330
4A644
102
}
330
4A644
100
AcDbVisualStyle
  2
Facepattern
 70
    15
 71
     2
 72
     2
 73
     0
 90
        0
 40
-0.6
 41
-30.0
 62
     5
 63
     7
421
 16777215
 74
     1
 91
        4
 64
     7
 65
   257
 75
     1
175
     1
 42
1.0
 92
        8
 66
     7
 43
1.0
 76
     1
 77
     6
 78
     2
 67
     7
 79
     5
170
     0
171
     0
290
     0
174
     0
 93
        1
 44
0.0
173
     0
291
     1
 45
0.0
1001
ACAD
1000
AcDbSavedByObjectVersion
1070
     0
  0
VISUALSTYLE
  5
4A645
102
{ACAD_REACTORS
330
4A644
102
}
330
4A644
100
AcDbVisualStyle
  2
Flat
 70
     0
 71
     2
 72
     1
 73
     1
 90
        2
 40
-0.6
 41
30.0
 62
     5
 63
     7
421
 16777215
 74
     0
 91
        4
 64
     7
 65
   257
 75
     1
175
     1
 42
1.0
 92
        8
 66
     7
 43
1.0
 76
     1
 77
     6
 78
     2
 67
     7
 79
     5
170
     0
171
     0
290
     0
174
     0
 93
       13
 44
0.0
173
     0
291
     1
 45
0.0
1001
ACAD
1000
AcDbSavedByObjectVersion
1070
     0
  0
VISUALSTYLE
  5
4A646
102
{ACAD_REACTORS
330
4A644
102
}
330
4A644
100
AcDbVisualStyle
  2
FlatWithEdges
 70
     1
 71
     2
 72
     1
 73
     1
 90
        2
 40
-0.6
 41
30.0
 62
     5
 63
     7
421
 16777215
 74
     1
 91
        4
 64
     7
 65
   257
 75
     1
175
     1
 42
1.0
 92
        0
 66
   257
 43
1.0
 76
     1
 77
     6
 78
     2
 67
     7
 79
     5
170
     0
171
     0
290
     0
174
     0
 93
       13
 44
0.0
173
     0
291
     1
 45
0.0
1001
ACAD
1000
AcDbSavedByObjectVersion
1070
     0
  0
VISUALSTYLE
  5
4A647
102
{ACAD_REACTORS
330
4A644
102
}
330
4A644
100
AcDbVisualStyle
  2
Gouraud
 70
     2
 71
     2
 72
     2
 73
     1
 90
        2
 40
-0.6
 41
30.0
 62
     5
 63
     7
421
 16777215
 74
     0
 91
        4
 64
     7
 65
   257
 75
     1
175
     1
 42
1.0
 92
        0
 66
     7
 43
1.0
 76
     1
 77
     6
 78
     2
 67
     7
 79
     5
170
     0
171
     0
290
     0
174
     0
 93
       13
 44
0.0
173
     0
291
     1
 45
0.0
1001
ACAD
1000
AcDbSavedByObjectVersion
1070
     0
  0
VISUALSTYLE
  5
4A648
102
{ACAD_REACTORS
330
4A644
102
}
330
4A644
100
AcDbVisualStyle
  2
GouraudWithEdges
 70
     3
 71
     2
 72
     2
 73
     1
 90
        2
 40
-0.6
 41
30.0
 62
     5
 63
     7
421
 16777215
 74
     1
 91
        4
 64
     7
 65
   257
 75
     1
175
     1
 42
1.0
 92
        0
 66
   257
 43
1.0
 76
     1
 77
     6
 78
     2
 67
     7
 79
     5
170
     0
171
     0
290
     0
174
     0
 93
       13
 44
0.0
173
     0
291
     1
 45
0.0
1001
ACAD
1000
AcDbSavedByObjectVersion
1070
     0
  0
VISUALSTYLE
  5
4A652
102
{ACAD_REACTORS
330
4A644
102
}
330
4A644
100
AcDbVisualStyle
  2
Linepattern
 70
    14
 71
     2
 72
     2
 73
     0
 90
        0
 40
-0.6
 41
-30.0
 62
     5
 63
     7
421
 16777215
 74
     1
 91
        4
 64
     7
 65
   257
 75
     7
175
     7
 42
1.0
 92
        8
 66
     7
 43
1.0
 76
     1
 77
     6
 78
     2
 67
     7
 79
     5
170
     0
171
     0
290
     0
174
     0
 93
        1
 44
0.0
173
     0
291
     1
 45
0.0
1001
ACAD
1000
AcDbSavedByObjectVersion
1070
     0
  0
VISUALSTYLE
  5
4A64E
102
{ACAD_REACTORS
330
4A644
102
}
330
4A644
100
AcDbVisualStyle
  2
Realistic
 70
     8
 71
     2
 72
     2
 73
     0
 90
        0
 40
-0.6
 41
-30.0
 62
     5
 63
     7
421
 16777215
 74
     1
 91
        0
 64
     7
 65
   257
 75
     1
175
     1
 42
1.0
 92
        8
 66
     8
424
  7895160
 43
1.0
 76
     1
 77
     6
 78
     2
 67
     7
 79
     5
170
     0
171
     0
290
     0
174
     0
 93
       13
 44
0.0
173
     0
291
     0
 45
0.0
1001
ACAD
1000
AcDbSavedByObjectVersion
1070
     0
  0
VISUALSTYLE
  5
4A651
102
{ACAD_REACTORS
330
4A644
102
}
330
4A644
100
AcDbVisualStyle
  2
Thicken
 70
    13
 71
     2
 72
     2
 73
     0
 90
        0
 40
-0.6
 41
-30.0
 62
     5
 63
     7
421
 16777215
 74
     1
 91
        4
 64
     7
 65
   257
 75
     1
175
     1
 42
1.0
 92
       12
 66
     7
 43
1.0
 76
     1
 77
     6
 78
     2
 67
     7
 79
     5
170
     0
171
     0
290
     0
174
     0
 93
        1
 44
0.0
173
     0
291
     1
 45
0.0
1001
ACAD
1000
AcDbSavedByObjectVersion
1070
     0
  0
DICTIONARYVAR
  5
4A877
102
{ACAD_REACTORS
330
4A873
102
}
330
4A873
100
DictionaryVariables
280
     0
  1
1:1
  0
DICTIONARYVAR
  5
4A875
102
{ACAD_REACTORS
330
4A873
102
}
330
4A873
100
DictionaryVariables
280
     0
  1
STANDARD
  0
DICTIONARYVAR
  5
4A874
102
{ACAD_REACTORS
330
4A873
102
}
330
4A873
100
DictionaryVariables
280
     0
  1
STANDARD
  0
DICTIONARYVAR
  5
4A879
102
{ACAD_REACTORS
330
4A873
102
}
330
4A873
100
DictionaryVariables
280
     0
  1
1
  0
DICTIONARYVAR
  5
4A87A
102
{ACAD_REACTORS
330
4A873
102
}
330
4A873
100
DictionaryVariables
280
     0
  1
15
  0
DICTIONARYVAR
  5
4A878
102
{ACAD_REACTORS
330
4A873
102
}
330
4A873
100
DictionaryVariables
280
     0
  1
0
  0
DICTIONARYVAR
  5
4AAE9
102
{ACAD_REACTORS
330
4A873
102
}
330
4A873
100
DictionaryVariables
280
     0
  1
1.570796
  0
DICTIONARYVAR
  5
4AAEA
102
{ACAD_REACTORS
330
4A873
102
}
330
4A873
100
DictionaryVariables
280
     0
  1
1.570796
  0
DICTIONARYVAR
  5
4AAEB
102
{ACAD_REACTORS
330
4A873
102
}
330
4A873
100
DictionaryVariables
280
     0
  1
-122.394000
  0
DICTIONARYVAR
  5
4A876
102
{ACAD_REACTORS
330
4A873
102
}
330
4A873
100
DictionaryVariables
280
     0
  1
0
  0
DICTIONARY
  5
4AAAB
102
{ACAD_REACTORS
330
4AAA2
102
}
330
4AAA2
100
AcDbDictionary
281
     1
  0
DICTIONARY
  5
4A635
330
4A634
100
AcDbDictionary
280
     1
281
     1
  3
ACAD_XREC_ROUNDTRIP
360
4AAF9
  3
BUMPTILE
360
4A637
  3
DIFFUSETILE
360
4A636
  3
OPACITYTILE
360
4A63A
  3
REFLECTIONTILE
360
4A639
  3
REFRACTIONTILE
360
4A63B
  3
SPECULARTILE
360
4A638
  0
DICTIONARY
  5
4A62D
330
4A62C
100
AcDbDictionary
280
     1
281
     1
  3
ACAD_XREC_ROUNDTRIP
360
4AAF8
  3
BUMPTILE
360
4A62F
  3
DIFFUSETILE
360
4A62E
  3
OPACITYTILE
360
4A632
  3
REFLECTIONTILE
360
4A631
  3
REFRACTIONTILE
360
4A633
  3
SPECULARTILE
360
4A630
  0
DICTIONARY
  5
4A63D
330
4A63C
100
AcDbDictionary
280
     1
281
     1
  3
ACAD_XREC_ROUNDTRIP
360
4AAFA
  3
BUMPTILE
360
4A63F
  3
DIFFUSETILE
360
4A63E
  3
OPACITYTILE
360
4A642
  3
REFLECTIONTILE
360
4A641
  3
REFRACTIONTILE
360
4A643
  3
SPECULARTILE
360
4A640
  0
DICTIONARY
  5
4A87B
330
4A687
100
AcDbDictionary
280
     1
281
     1
  3
ACAD_ROUNDTRIP_2008_TABLESTYLE_CELLSTYLEMAP
360
4AAEC
  3
ACAD_XREC_ROUNDTRIP
360
4AAFB
  0
XRECORD
  5
4AAF9
102
{ACAD_REACTORS
330
4A635
102
}
330
4A635
100
AcDbXrecord
280
     1
102
MATERIAL
148
0.0
149
0.0
149
0.0
 93
        0
 94
      127
282
     0
 72
     0
 77
     0
171
     0
175
     0
179
     0
273
     0
  0
XRECORD
  5
4A637
102
{ACAD_REACTORS
330
4A635
102
}
330
4A635
100
AcDbXrecord
280
     1
270
     1
271
     1
  0
XRECORD
  5
4A636
102
{ACAD_REACTORS
330
4A635
102
}
330
4A635
100
AcDbXrecord
280
     1
270
     1
271
     1
  0
XRECORD
  5
4A63A
102
{ACAD_REACTORS
330
4A635
102
}
330
4A635
100
AcDbXrecord
280
     1
270
     1
271
     1
  0
XRECORD
  5
4A639
102
{ACAD_REACTORS
330
4A635
102
}
330
4A635
100
AcDbXrecord
280
     1
270
     1
271
     1
  0
XRECORD
  5
4A63B
102
{ACAD_REACTORS
330
4A635
102
}
330
4A635
100
AcDbXrecord
280
     1
270
     1
271
     1
  0
XRECORD
  5
4A638
102
{ACAD_REACTORS
330
4A635
102
}
330
4A635
100
AcDbXrecord
280
     1
270
     1
271
     1
  0
XRECORD
  5
4AAF8
102
{ACAD_REACTORS
330
4A62D
102
}
330
4A62D
100
AcDbXrecord
280
     1
102
MATERIAL
148
0.0
149
0.0
149
0.0
 93
        0
 94
      127
282
     0
 72
     0
 77
     0
171
     0
175
     0
179
     0
273
     0
  0
XRECORD
  5
4A62F
102
{ACAD_REACTORS
330
4A62D
102
}
330
4A62D
100
AcDbXrecord
280
     1
270
     1
271
     1
  0
XRECORD
  5
4A62E
102
{ACAD_REACTORS
330
4A62D
102
}
330
4A62D
100
AcDbXrecord
280
     1
270
     1
271
     1
  0
XRECORD
  5
4A632
102
{ACAD_REACTORS
330
4A62D
102
}
330
4A62D
100
AcDbXrecord
280
     1
270
     1
271
     1
  0
XRECORD
  5
4A631
102
{ACAD_REACTORS
330
4A62D
102
}
330
4A62D
100
AcDbXrecord
280
     1
270
     1
271
     1
  0
XRECORD
  5
4A633
102
{ACAD_REACTORS
330
4A62D
102
}
330
4A62D
100
AcDbXrecord
280
     1
270
     1
271
     1
  0
XRECORD
  5
4A630
102
{ACAD_REACTORS
330
4A62D
102
}
330
4A62D
100
AcDbXrecord
280
     1
270
     1
271
     1
  0
XRECORD
  5
4AAFA
102
{ACAD_REACTORS
330
4A63D
102
}
330
4A63D
100
AcDbXrecord
280
     1
102
MATERIAL
148
0.0
149
0.0
149
0.0
 93
        0
 94
      127
282
     0
 72
     0
 77
     0
171
     0
175
     0
179
     0
273
     0
  0
XRECORD
  5
4A63F
102
{ACAD_REACTORS
330
4A63D
102
}
330
4A63D
100
AcDbXrecord
280
     1
270
     1
271
     1
  0
XRECORD
  5
4A63E
102
{ACAD_REACTORS
330
4A63D
102
}
330
4A63D
100
AcDbXrecord
280
     1
270
     1
271
     1
  0
XRECORD
  5
4A642
102
{ACAD_REACTORS
330
4A63D
102
}
330
4A63D
100
AcDbXrecord
280
     1
270
     1
271
     1
  0
XRECORD
  5
4A641
102
{ACAD_REACTORS
330
4A63D
102
}
330
4A63D
100
AcDbXrecord
280
     1
270
     1
271
     1
  0
XRECORD
  5
4A643
102
{ACAD_REACTORS
330
4A63D
102
}
330
4A63D
100
AcDbXrecord
280
     1
270
     1
271
     1
  0
XRECORD
  5
4A640
102
{ACAD_REACTORS
330
4A63D
102
}
330
4A63D
100
AcDbXrecord
280
     1
270
     1
271
     1
  0
CELLSTYLEMAP
  5
4AAEC
102
{ACAD_REACTORS
330
4A87B
102
}
330
4A87B
100
AcDbCellStyleMap
 90
        3
300
CELLSTYLE
  1
TABLEFORMAT_BEGIN
 90
        5
170
     1
 91
        0
 92
    32768
 62
   257
 93
        1
300
CONTENTFORMAT
  1
CONTENTFORMAT_BEGIN
 90
        0
 91
        0
 92
      512
 93
        0
300

 40
0.0
140
1.0
 94
        5
 62
     0
340
4A678
144
0.25
309
CONTENTFORMAT_END
171
     1
301
MARGIN
  1
CELLMARGIN_BEGIN
 40
0.06
 40
0.06
 40
0.06
 40
0.06
 40
0.18
 40
0.18
309
CELLMARGIN_END
 94
        6
 95
        1
302
GRIDFORMAT
  1
GRIDFORMAT_BEGIN
 90
        0
 91
        1
 62
     0
 92
       -2
340
0
 93
        0
 40
0.045
309
GRIDFORMAT_END
 95
        2
302
GRIDFORMAT
  1
GRIDFORMAT_BEGIN
 90
        0
 91
        1
 62
     0
 92
       -2
340
0
 93
        0
 40
0.045
309
GRIDFORMAT_END
 95
        4
302
GRIDFORMAT
  1
GRIDFORMAT_BEGIN
 90
        0
 91
        1
 62
     0
 92
       -2
340
0
 93
        0
 40
0.045
309
GRIDFORMAT_END
 95
        8
302
GRIDFORMAT
  1
GRIDFORMAT_BEGIN
 90
        0
 91
        1
 62
     0
 92
       -2
340
0
 93
        0
 40
0.045
309
GRIDFORMAT_END
 95
       16
302
GRIDFORMAT
  1
GRIDFORMAT_BEGIN
 90
        0
 91
        1
 62
     0
 92
       -2
340
0
 93
        0
 40
0.045
309
GRIDFORMAT_END
 95
       32
302
GRIDFORMAT
  1
GRIDFORMAT_BEGIN
 90
        0
 91
        1
 62
     0
 92
       -2
340
0
 93
        0
 40
0.045
309
GRIDFORMAT_END
309
TABLEFORMAT_END
  1
CELLSTYLE_BEGIN
 90
        1
 91
        1
300
_TITLE
309
CELLSTYLE_END
300
CELLSTYLE
  1
TABLEFORMAT_BEGIN
 90
        5
170
     1
 91
        0
 92
        0
 62
   257
 93
        1
300
CONTENTFORMAT
  1
CONTENTFORMAT_BEGIN
 90
        0
 91
        0
 92
      512
 93
        0
300

 40
0.0
140
1.0
 94
        5
 62
     0
340
4A678
144
0.18
309
CONTENTFORMAT_END
171
     1
301
MARGIN
  1
CELLMARGIN_BEGIN
 40
0.06
 40
0.06
 40
0.06
 40
0.06
 40
0.18
 40
0.18
309
CELLMARGIN_END
 94
        6
 95
        1
302
GRIDFORMAT
  1
GRIDFORMAT_BEGIN
 90
        0
 91
        1
 62
     0
 92
       -2
340
0
 93
        0
 40
0.045
309
GRIDFORMAT_END
 95
        2
302
GRIDFORMAT
  1
GRIDFORMAT_BEGIN
 90
        0
 91
        1
 62
     0
 92
       -2
340
0
 93
        0
 40
0.045
309
GRIDFORMAT_END
 95
        4
302
GRIDFORMAT
  1
GRIDFORMAT_BEGIN
 90
        0
 91
        1
 62
     0
 92
       -2
340
0
 93
        0
 40
0.045
309
GRIDFORMAT_END
 95
        8
302
GRIDFORMAT
  1
GRIDFORMAT_BEGIN
 90
        0
 91
        1
 62
     0
 92
       -2
340
0
 93
        0
 40
0.045
309
GRIDFORMAT_END
 95
       16
302
GRIDFORMAT
  1
GRIDFORMAT_BEGIN
 90
        0
 91
        1
 62
     0
 92
       -2
340
0
 93
        0
 40
0.045
309
GRIDFORMAT_END
 95
       32
302
GRIDFORMAT
  1
GRIDFORMAT_BEGIN
 90
        0
 91
        1
 62
     0
 92
       -2
340
0
 93
        0
 40
0.045
309
GRIDFORMAT_END
309
TABLEFORMAT_END
  1
CELLSTYLE_BEGIN
 90
        2
 91
        1
300
_HEADER
309
CELLSTYLE_END
300
CELLSTYLE
  1
TABLEFORMAT_BEGIN
 90
        5
170
     1
 91
        0
 92
        0
 62
   257
 93
        1
300
CONTENTFORMAT
  1
CONTENTFORMAT_BEGIN
 90
        0
 91
        0
 92
      512
 93
        0
300

 40
0.0
140
1.0
 94
        2
 62
     0
340
4A678
144
0.18
309
CONTENTFORMAT_END
171
     1
301
MARGIN
  1
CELLMARGIN_BEGIN
 40
0.06
 40
0.06
 40
0.06
 40
0.06
 40
0.18
 40
0.18
309
CELLMARGIN_END
 94
        6
 95
        1
302
GRIDFORMAT
  1
GRIDFORMAT_BEGIN
 90
        0
 91
        1
 62
     0
 92
       -2
340
0
 93
        0
 40
0.045
309
GRIDFORMAT_END
 95
        2
302
GRIDFORMAT
  1
GRIDFORMAT_BEGIN
 90
        0
 91
        1
 62
     0
 92
       -2
340
0
 93
        0
 40
0.045
309
GRIDFORMAT_END
 95
        4
302
GRIDFORMAT
  1
GRIDFORMAT_BEGIN
 90
        0
 91
        1
 62
     0
 92
       -2
340
0
 93
        0
 40
0.045
309
GRIDFORMAT_END
 95
        8
302
GRIDFORMAT
  1
GRIDFORMAT_BEGIN
 90
        0
 91
        1
 62
     0
 92
       -2
340
0
 93
        0
 40
0.045
309
GRIDFORMAT_END
 95
       16
302
GRIDFORMAT
  1
GRIDFORMAT_BEGIN
 90
        0
 91
        1
 62
     0
 92
       -2
340
0
 93
        0
 40
0.045
309
GRIDFORMAT_END
 95
       32
302
GRIDFORMAT
  1
GRIDFORMAT_BEGIN
 90
        0
 91
        1
 62
     0
 92
       -2
340
0
 93
        0
 40
0.045
309
GRIDFORMAT_END
309
TABLEFORMAT_END
  1
CELLSTYLE_BEGIN
 90
        3
 91
        2
300
_DATA
309
CELLSTYLE_END
  0
XRECORD
  5
4AAFB
102
{ACAD_REACTORS
330
4A87B
102
}
330
4A87B
100
AcDbXrecord
280
     1
102
ACAD_ROUNDTRIP_PRE2007_TABLESTYLE
 90
      512
 91
        0
  1

 92
      512
 93
        0
  2

 94
      512
 95
        0
  3

  0
ENDSEC
  0
EOF
