  0
SECTION
  2
HEADER
  9
$ACADVER
  1
AC1021
  9
$ACADMAINTVER
 70
    50
  9
$DWGCODEPAGE
  3
ANSI_1252
  9
$LASTSAVEDBY
  1
Mark
  9
$INSBASE
 10
0.0
 20
0.0
 30
0.0
  9
$EXTMIN
 10
21446.38354567252
 20
15857.00390894008
 30
0.0
  9
$EXTMAX
 10
22890.05036127412
 20
16851.93727588493
 30
0.0
  9
$LIMMIN
 10
0.0
 20
0.0
  9
$LIMMAX
 10
420.0
 20
297.0
  9
$ORTHOMODE
 70
     0
  9
$REGENMODE
 70
     1
  9
$FILLMODE
 70
     1
  9
$QTEXTMODE
 70
     0
  9
$MIRRTEXT
 70
     0
  9
$LTSCALE
 40
1.0
  9
$ATTMODE
 70
     1
  9
$TEXTSIZE
 40
2.5
  9
$TRACEWID
 40
1.0
  9
$TEXTSTYLE
  7
STANDARD
  9
$CLAYER
  8
0
  9
$CELTYPE
  6
ByLayer
  9
$CECOLOR
 62
   256
  9
$CELTSCALE
 40
1.0
  9
$DISPSILH
 70
     0
  9
$DIMSCALE
 40
1.0
  9
$DIMASZ
 40
3.5
  9
$DIMEXO
 40
1.0
  9
$DIMDLI
 40
10.0
  9
$DIMRND
 40
0.0
  9
$DIMDLE
 40
0.0
  9
$DIMEXE
 40
1.0
  9
$DIMTP
 40
0.1
  9
$DIMTM
 40
0.1
  9
$DIMTXT
 40
3.5
  9
$DIMCEN
 40
0.0
  9
$DIMTSZ
 40
0.0
  9
$DIMTOL
 70
     0
  9
$DIMLIM
 70
     0
  9
$DIMTIH
 70
     0
  9
$DIMTOH
 70
     0
  9
$DIMSE1
 70
     0
  9
$DIMSE2
 70
     0
  9
$DIMTAD
 70
     1
  9
$DIMZIN
 70
     8
  9
$DIMBLK
  1

  9
$DIMASO
 70
     1
  9
$DIMSHO
 70
     1
  9
$DIMPOST
  1

  9
$DIMAPOST
  1
"
  9
$DIMALT
 70
     0
  9
$DIMALTD
 70
     2
  9
$DIMALTF
 40
0.0393701
  9
$DIMLFAC
 40
1.0
  9
$DIMTOFL
 70
     1
  9
$DIMTVP
 40
0.0
  9
$DIMTIX
 70
     0
  9
$DIMSOXD
 70
     0
  9
$DIMSAH
 70
     0
  9
$DIMBLK1
  1

  9
$DIMBLK2
  1

  9
$DIMSTYLE
  2
AM_ISO
  9
$DIMCLRD
 70
   256
  9
$DIMCLRE
 70
   256
  9
$DIMCLRT
 70
     2
  9
$DIMTFAC
 40
0.71
  9
$DIMGAP
 40
1.5
  9
$DIMJUST
 70
     0
  9
$DIMSD1
 70
     0
  9
$DIMSD2
 70
     0
  9
$DIMTOLJ
 70
     1
  9
$DIMTZIN
 70
     0
  9
$DIMALTZ
 70
     0
  9
$DIMALTTZ
 70
     0
  9
$DIMUPT
 70
     0
  9
$DIMDEC
 70
     4
  9
$DIMTDEC
 70
     4
  9
$DIMALTU
 70
     2
  9
$DIMALTTD
 70
     2
  9
$DIMTXSTY
  7
STANDARD
  9
$DIMAUNIT
 70
     0
  9
$DIMADEC
 70
     0
  9
$DIMALTRND
 40
0.0
  9
$DIMAZIN
 70
     0
  9
$DIMDSEP
 70
    46
  9
$DIMATFIT
 70
     3
  9
$DIMFRAC
 70
     0
  9
$DIMLDRBLK
  1

  9
$DIMLUNIT
 70
     2
  9
$DIMLWD
 70
    -2
  9
$DIMLWE
 70
    -2
  9
$DIMTMOVE
 70
     0
  9
$DIMFXL
 40
1.0
  9
$DIMFXLON
 70
     0
  9
$DIMJOGANG
 40
0.7853981633974483
  9
$DIMTFILL
 70
     0
  9
$DIMTFILLCLR
 70
     0
  9
$DIMARCSYM
 70
     0
  9
$DIMLTYPE
  6

  9
$DIMLTEX1
  6

  9
$DIMLTEX2
  6

  9
$LUNITS
 70
     2
  9
$LUPREC
 70
     2
  9
$SKETCHINC
 40
1.0
  9
$FILLETRAD
 40
2.5
  9
$AUNITS
 70
     0
  9
$AUPREC
 70
     0
  9
$MENU
  1
.
  9
$ELEVATION
 40
0.0
  9
$PELEVATION
 40
0.0
  9
$THICKNESS
 40
0.0
  9
$LIMCHECK
 70
     0
  9
$CHAMFERA
 40
2.5
  9
$CHAMFERB
 40
2.5
  9
$CHAMFERC
 40
0.0
  9
$CHAMFERD
 40
0.0
  9
$SKPOLY
 70
     0
  9
$TDCREATE
 40
2455251.642918206
  9
$TDUCREATE
 40
2455251.601251539
  9
$TDUPDATE
 40
2456476.634827847
  9
$TDUUPDATE
 40
2456476.593161181
  9
$TDINDWG
 40
0.0604052315
  9
$TDUSRTIMER
 40
0.0604048264
  9
$USRTIMER
 70
     1
  9
$ANGBASE
 50
0.0
  9
$ANGDIR
 70
     0
  9
$PDMODE
 70
     0
  9
$PDSIZE
 40
0.0
  9
$PLINEWID
 40
0.0
  9
$SPLFRAME
 70
     0
  9
$SPLINETYPE
 70
     6
  9
$SPLINESEGS
 70
     8
  9
$HANDSEED
  5
242F5
  9
$SURFTAB1
 70
     6
  9
$SURFTAB2
 70
     6
  9
$SURFTYPE
 70
     6
  9
$SURFU
 70
     6
  9
$SURFV
 70
     6
  9
$UCSBASE
  2

  9
$UCSNAME
  2

  9
$UCSORG
 10
0.0
 20
0.0
 30
0.0
  9
$UCSXDIR
 10
1.0
 20
0.0
 30
0.0
  9
$UCSYDIR
 10
0.0
 20
1.0
 30
0.0
  9
$UCSORTHOREF
  2

  9
$UCSORTHOVIEW
 70
     0
  9
$UCSORGTOP
 10
0.0
 20
0.0
 30
0.0
  9
$UCSORGBOTTOM
 10
0.0
 20
0.0
 30
0.0
  9
$UCSORGLEFT
 10
0.0
 20
0.0
 30
0.0
  9
$UCSORGRIGHT
 10
0.0
 20
0.0
 30
0.0
  9
$UCSORGFRONT
 10
0.0
 20
0.0
 30
0.0
  9
$UCSORGBACK
 10
0.0
 20
0.0
 30
0.0
  9
$PUCSBASE
  2

  9
$PUCSNAME
  2

  9
$PUCSORG
 10
0.0
 20
0.0
 30
0.0
  9
$PUCSXDIR
 10
1.0
 20
0.0
 30
0.0
  9
$PUCSYDIR
 10
0.0
 20
1.0
 30
0.0
  9
$PUCSORTHOREF
  2

  9
$PUCSORTHOVIEW
 70
     0
  9
$PUCSORGTOP
 10
0.0
 20
0.0
 30
0.0
  9
$PUCSORGBOTTOM
 10
0.0
 20
0.0
 30
0.0
  9
$PUCSORGLEFT
 10
0.0
 20
0.0
 30
0.0
  9
$PUCSORGRIGHT
 10
0.0
 20
0.0
 30
0.0
  9
$PUCSORGFRONT
 10
0.0
 20
0.0
 30
0.0
  9
$PUCSORGBACK
 10
0.0
 20
0.0
 30
0.0
  9
$USERI1
 70
     0
  9
$USERI2
 70
     0
  9
$USERI3
 70
     0
  9
$USERI4
 70
     0
  9
$USERI5
 70
     0
  9
$USERR1
 40
0.0
  9
$USERR2
 40
0.0
  9
$USERR3
 40
0.0
  9
$USERR4
 40
0.0
  9
$USERR5
 40
0.0
  9
$WORLDVIEW
 70
     1
  9
$SHADEDGE
 70
     3
  9
$SHADEDIF
 70
    70
  9
$TILEMODE
 70
     1
  9
$MAXACTVP
 70
    64
  9
$PINSBASE
 10
0.0
 20
0.0
 30
0.0
  9
$PLIMCHECK
 70
     0
  9
$PEXTMIN
 10
1.000000000000000E+20
 20
1.000000000000000E+20
 30
1.000000000000000E+20
  9
$PEXTMAX
 10
-1.000000000000000E+20
 20
-1.000000000000000E+20
 30
-1.000000000000000E+20
  9
$PLIMMIN
 10
0.0
 20
0.0
  9
$PLIMMAX
 10
420.0
 20
297.0
  9
$UNITMODE
 70
     0
  9
$VISRETAIN
 70
     1
  9
$PLINEGEN
 70
     0
  9
$PSLTSCALE
 70
     1
  9
$TREEDEPTH
 70
  3020
  9
$CMLSTYLE
  2
Standard
  9
$CMLJUST
 70
     0
  9
$CMLSCALE
 40
1.0
  9
$PROXYGRAPHICS
 70
     1
  9
$MEASUREMENT
 70
     0
  9
$CELWEIGHT
370
    -1
  9
$ENDCAPS
280
     0
  9
$JOINSTYLE
280
     0
  9
$LWDISPLAY
290
     0
  9
$INSUNITS
 70
     0
  9
$HYPERLINKBASE
  1

  9
$STYLESHEET
  1

  9
$XEDIT
290
     1
  9
$CEPSNTYPE
380
     0
  9
$PSTYLEMODE
290
     1
  9
$FINGERPRINTGUID
  2
{C575030C-1CEF-41A5-B996-EB9CBDBA8DF3}
  9
$VERSIONGUID
  2
{76ACA5FC-AE36-45EE-861E-CF5925D563CF}
  9
$EXTNAMES
290
     1
  9
$PSVPSCALE
 40
0.0
  9
$OLESTARTUP
290
     0
  9
$SORTENTS
280
   127
  9
$INDEXCTL
280
     0
  9
$HIDETEXT
280
     0
  9
$XCLIPFRAME
290
     0
  9
$HALOGAP
280
     0
  9
$OBSCOLOR
 70
   257
  9
$OBSLTYPE
280
     0
  9
$INTERSECTIONDISPLAY
280
     0
  9
$INTERSECTIONCOLOR
 70
   257
  9
$DIMASSOC
280
     1
  9
$PROJECTNAME
  1

  9
$CAMERADISPLAY
290
     0
  9
$LENSLENGTH
 40
50.0
  9
$CAMERAHEIGHT
 40
0.0
  9
$STEPSPERSEC
 40
2.0
  9
$STEPSIZE
 40
6.0
  9
$3DDWFPREC
 40
2.0
  9
$PSOLWIDTH
 40
0.25
  9
$PSOLHEIGHT
 40
4.0
  9
$LOFTANG1
 40
1.570796326794896
  9
$LOFTANG2
 40
1.570796326794896
  9
$LOFTMAG1
 40
0.0
  9
$LOFTMAG2
 40
0.0
  9
$LOFTPARAM
 70
     7
  9
$LOFTNORMALS
280
     1
  9
$LATITUDE
 40
37.795
  9
$LONGITUDE
 40
-122.394
  9
$NORTHDIRECTION
 40
0.0
  9
$TIMEZONE
 70
 -8000
  9
$LIGHTGLYPHDISPLAY
280
     1
  9
$TILEMODELIGHTSYNCH
280
     1
  9
$CMATERIAL
347
23F52
  9
$SOLIDHIST
280
     1
  9
$SHOWHIST
280
     1
  9
$DWFFRAME
280
     2
  9
$DGNFRAME
280
     0
  9
$REALWORLDSCALE
290
     1
  9
$INTERFERECOLOR
 62
     1
  9
$INTERFEREOBJVS
345
23F74
  9
$INTERFEREVPVS
346
23F71
  9
$CSHADOW
280
     0
  9
$SHADOWPLANELOCATION
 40
0.0
  0
ENDSEC
  0
SECTION
  2
CLASSES
  0
CLASS
  1
ACDBDICTIONARYWDFLT
  2
AcDbDictionaryWithDefault
  3
ObjectDBX Classes
 90
        0
 91
        1
280
     0
281
     0
  0
CLASS
  1
MATERIAL
  2
AcDbMaterial
  3
ObjectDBX Classes
 90
     1153
 91
        3
280
     0
281
     0
  0
CLASS
  1
VISUALSTYLE
  2
AcDbVisualStyle
  3
ObjectDBX Classes
 90
     4095
 91
       16
280
     0
281
     0
  0
CLASS
  1
SCALE
  2
AcDbScale
  3
ObjectDBX Classes
 90
     1153
 91
       33
280
     0
281
     0
  0
CLASS
  1
TABLESTYLE
  2
AcDbTableStyle
  3
ObjectDBX Classes
 90
     4095
 91
        1
280
     0
281
     0
  0
CLASS
  1
MLEADERSTYLE
  2
AcDbMLeaderStyle
  3
ACDB_MLEADERSTYLE_CLASS
 90
     4095
 91
        1
280
     0
281
     0
  0
CLASS
  1
EXACXREFPANELOBJECT
  2
ExAcXREFPanelObject
  3
EXAC_ESW
 90
     1025
 91
        2
280
     0
281
     0
  0
CLASS
  1
NPOCOLLECTION
  2
AcDbImpNonPersistentObjectsCollection
  3
ObjectDBX Classes
 90
     1153
 91
        1
280
     0
281
     0
  0
CLASS
  1
DIMASSOC
  2
AcDbDimAssoc
  3
"AcDbDimAssoc|Product Desc:     AcDim ARX App For Dimension|Company:          Autodesk, Inc.|WEB Address:      www.autodesk.com"
 90
        0
 91
        6
280
     0
281
     0
  0
CLASS
  1
SORTENTSTABLE
  2
AcDbSortentsTable
  3
ObjectDBX Classes
 90
        0
 91
        0
280
     0
281
     0
  0
CLASS
  1
CELLSTYLEMAP
  2
AcDbCellStyleMap
  3
ObjectDBX Classes
 90
     1152
 91
        2
280
     0
281
     0
  0
CLASS
  1
DICTIONARYVAR
  2
AcDbDictionaryVar
  3
ObjectDBX Classes
 90
        0
 91
        7
280
     0
281
     0
  0
ENDSEC
  0
SECTION
  2
TABLES
  0
TABLE
  2
VPORT
  5
23F49
330
0
100
AcDbSymbolTable
 70
     1
  0
VPORT
  5
23FB9
330
23F49
100
AcDbSymbolTableRecord
100
AcDbViewportTableRecord
  2
*ACTIVE
 70
     0
 10
0.0
 20
0.0
 11
1.0
 21
1.0
 12
23127.21734963421
 22
16042.3234748994
 13
0.0
 23
0.0
 14
2.5
 24
2.5
 15
10.0
 25
10.0
 16
0.0
 26
0.0
 36
1.0
 17
0.0
 27
0.0
 37
0.0
 40
2260.837736113258
 41
1.695999999999999
 42
50.0
 43
0.0
 44
0.0
 50
0.0
 51
0.0
 71
     0
 72
  1000
 73
     1
 74
     3
 75
     0
 76
     0
 77
     0
 78
     0
281
     0
 65
     1
110
0.0
120
0.0
130
0.0
111
1.0
121
0.0
131
0.0
112
0.0
122
1.0
132
0.0
 79
     0
146
0.0
348
23F70
 60
     3
 61
     5
292
     1
282
     0
141
0.0
142
0.0
 63
   250
421
  3355443
  0
ENDTAB
  0
TABLE
  2
LTYPE
  5
23F46
330
0
100
AcDbSymbolTable
 70
     2
  0
LTYPE
  5
23FA3
330
23F46
100
AcDbSymbolTableRecord
100
AcDbLinetypeTableRecord
  2
ByBlock
 70
     0
  3

 72
    65
 73
     0
 40
0.0
  0
LTYPE
  5
23FA4
330
23F46
100
AcDbSymbolTableRecord
100
AcDbLinetypeTableRecord
  2
ByLayer
 70
     0
  3

 72
    65
 73
     0
 40
0.0
  0
LTYPE
  5
23FA5
330
23F46
100
AcDbSymbolTableRecord
100
AcDbLinetypeTableRecord
  2
CONTINUOUS
 70
     0
  3
Solid line
 72
    65
 73
     0
 40
0.0
  0
LTYPE
  5
23FBA
330
23F46
100
AcDbSymbolTableRecord
100
AcDbLinetypeTableRecord
  2
DASHED2
 70
     0
  3
Dashed (.5x) _ _ _ _ _ _ _ _ _ _ _ _ _ _ _ _ _
 72
    65
 73
     2
 40
9.524999999999998
 49
6.349999999999997
 74
     0
 49
-3.174999999999998
 74
     0
  0
ENDTAB
  0
TABLE
  2
LAYER
  5
23F43
102
{ACAD_XDICTIONARY
360
240E9
102
}
330
0
100
AcDbSymbolTable
 70
     9
  0
LAYER
  5
23F9D
102
{ACAD_XDICTIONARY
360
242CB
102
}
330
23F43
100
AcDbSymbolTableRecord
100
AcDbLayerTableRecord
  2
0
 70
     0
 62
     7
  6
CONTINUOUS
370
    -3
390
23F50
347
23F62
  0
LAYER
  5
23FBB
102
{ACAD_XDICTIONARY
360
242CD
102
}
330
23F43
100
AcDbSymbolTableRecord
100
AcDbLayerTableRecord
  2
LAYER1
 70
     0
 62
     1
  6
CONTINUOUS
370
    -3
390
23F50
347
23F62
  0
LAYER
  5
23FBC
330
23F43
100
AcDbSymbolTableRecord
100
AcDbLayerTableRecord
  2
DEFPOINTS
 70
     0
 62
     7
  6
CONTINUOUS
290
     0
370
    -3
390
23F50
347
23F62
  0
LAYER
  5
23FBD
102
{ACAD_XDICTIONARY
360
242CF
102
}
330
23F43
100
AcDbSymbolTableRecord
100
AcDbLayerTableRecord
  2
DIMS_SPECS
 70
     0
 62
    41
  6
CONTINUOUS
370
    -3
390
23F50
347
23F62
  0
LAYER
  5
23FBE
102
{ACAD_XDICTIONARY
360
242D1
102
}
330
23F43
100
AcDbSymbolTableRecord
100
AcDbLayerTableRecord
  2
CUTOUT
 70
     0
 62
    60
  6
CONTINUOUS
370
    -3
390
23F50
347
23F62
  0
LAYER
  5
23FBF
102
{ACAD_XDICTIONARY
360
242D3
102
}
330
23F43
100
AcDbSymbolTableRecord
100
AcDbLayerTableRecord
  2
DIMS_SPECS0
 70
     0
 62
    41
  6
CONTINUOUS
370
    -3
390
23F50
347
23F62
  0
LAYER
  5
23FC0
102
{ACAD_XDICTIONARY
360
242D5
102
}
330
23F43
100
AcDbSymbolTableRecord
100
AcDbLayerTableRecord
  2
DRAINER_MAT_2
 70
     0
 62
     2
  6
CONTINUOUS
370
    -3
390
23F50
347
23F62
  0
LAYER
  5
240E6
102
{ACAD_XDICTIONARY
360
242D7
102
}
330
23F43
100
AcDbSymbolTableRecord
100
AcDbLayerTableRecord
  2
DIMS SPECS
 70
     0
 62
    41
  6
CONTINUOUS
370
    35
390
23F50
347
23F62
  0
LAYER
  5
240E7
102
{ACAD_XDICTIONARY
360
242D9
102
}
330
23F43
100
AcDbSymbolTableRecord
100
AcDbLayerTableRecord
  2
sink_brouchure
 70
     0
 62
   124
  6
CONTINUOUS
370
    50
390
23F50
347
23F62
1001
ACAECLAYERSTANDARD
1000

1000

  0
ENDTAB
  0
TABLE
  2
STYLE
  5
23F44
330
0
100
AcDbSymbolTable
 70
     6
  0
STYLE
  5
23F9E
330
23F44
100
AcDbSymbolTableRecord
100
AcDbTextStyleTableRecord
  2
STANDARD
 70
     0
 40
0.0
 41
1.0
 50
0.0
 71
     0
 42
2.5
  3
ISOCP.SHX
  4

  0
STYLE
  5
23FA2
330
23F44
100
AcDbSymbolTableRecord
100
AcDbTextStyleTableRecord
  2
ANNOTATIVE
 70
     0
 40
0.0
 41
1.0
 50
0.0
 71
     0
 42
0.2
  3
txt
  4

1001
ACADANNOTATIVE
1000
AnnotativeData
1002
{
1070
     1
1070
     1
1002
}
  0
STYLE
  5
23FC1
330
23F44
100
AcDbSymbolTableRecord
100
AcDbTextStyleTableRecord
  2
ACISOTS
 70
     0
 40
1.0
 41
1.0
 50
0.0
 71
     0
 42
2.5
  3
isocp.shx
  4

  0
STYLE
  5
23FC2
330
23F44
100
AcDbSymbolTableRecord
100
AcDbTextStyleTableRecord
  2
ABODE-ISO
 70
     0
 40
17.0
 41
0.9
 50
0.0
 71
     0
 42
0.2
  3
txt
  4

  0
STYLE
  5
23FC3
330
23F44
100
AcDbSymbolTableRecord
100
AcDbTextStyleTableRecord
  2
SLDTEXTSTYLE0
 70
     0
 40
0.0
 41
0.75
 50
0.0
 71
     0
 42
0.2
  3
TXT
  4

  0
STYLE
  5
240E8
330
23F44
100
AcDbSymbolTableRecord
100
AcDbTextStyleTableRecord
  2
Abode ISO Bold
 70
     0
 40
17.0
 41
0.9
 50
0.0
 71
     0
 42
1.0
  3
GOTHICB.TTF
  4

1001
ACAD
1000
Century Gothic
1071
 33554466
  0
ENDTAB
  0
TABLE
  2
VIEW
  5
23F47
330
0
100
AcDbSymbolTable
 70
     0
  0
ENDTAB
  0
TABLE
  2
UCS
  5
23F48
330
0
100
AcDbSymbolTable
 70
     0
  0
ENDTAB
  0
TABLE
  2
APPID
  5
23F4A
330
0
100
AcDbSymbolTable
 70
    22
  0
APPID
  5
23F9F
330
23F4A
100
AcDbSymbolTableRecord
100
AcDbRegAppTableRecord
  2
ACAD
 70
     0
  0
APPID
  5
23FA6
330
23F4A
100
AcDbSymbolTableRecord
100
AcDbRegAppTableRecord
  2
ACADANNOTATIVE
 70
     0
  0
APPID
  5
23FB0
330
23F4A
100
AcDbSymbolTableRecord
100
AcDbRegAppTableRecord
  2
ACAD_MLEADERVER
 70
     0
  0
APPID
  5
23FC4
330
23F4A
100
AcDbSymbolTableRecord
100
AcDbRegAppTableRecord
  2
MCAD_NO_VIS
 70
     0
  0
APPID
  5
23FC5
330
23F4A
100
AcDbSymbolTableRecord
100
AcDbRegAppTableRecord
  2
ACAD_TEMP_GRAPHIC
 70
     0
  0
APPID
  5
23FC6
330
23F4A
100
AcDbSymbolTableRecord
100
AcDbRegAppTableRecord
  2
AD_DRAW
 70
     0
  0
APPID
  5
23FC7
330
23F4A
100
AcDbSymbolTableRecord
100
AcDbRegAppTableRecord
  2
ACATTRIBSERVICES
 70
     0
  0
APPID
  5
23FC8
330
23F4A
100
AcDbSymbolTableRecord
100
AcDbRegAppTableRecord
  2
DESIGNERASSEMBLIES
 70
     0
  0
APPID
  5
23FC9
330
23F4A
100
AcDbSymbolTableRecord
100
AcDbRegAppTableRecord
  2
ACADM_DIM_EDIT
 70
     0
  0
APPID
  5
23FCA
330
23F4A
100
AcDbSymbolTableRecord
100
AcDbRegAppTableRecord
  2
AMDT_DM_ADJ
 70
     0
  0
APPID
  5
23FCB
330
23F4A
100
AcDbSymbolTableRecord
100
AcDbRegAppTableRecord
  2
ACAD_DSTYLE_DIMJOGGED_JOGA
 70
     0
  0
APPID
  5
23FCC
330
23F4A
100
AcDbSymbolTableRecord
100
AcDbRegAppTableRecord
  2
ACAECLAYERSTANDARD
 70
     0
  0
APPID
  5
23FCD
330
23F4A
100
AcDbSymbolTableRecord
100
AcDbRegAppTableRecord
  2
ACAD_PSEXT
 70
     0
  0
APPID
  5
23FCE
330
23F4A
100
AcDbSymbolTableRecord
100
AcDbRegAppTableRecord
  2
ACAD_DSTYLE_DIMJAG
 70
     0
  0
APPID
  5
23FCF
330
23F4A
100
AcDbSymbolTableRecord
100
AcDbRegAppTableRecord
  2
ACAD_DSTYLE_DIMTALN
 70
     0
  0
APPID
  5
23FD0
330
23F4A
100
AcDbSymbolTableRecord
100
AcDbRegAppTableRecord
  2
GENIUS_GENODEF_13
 70
     0
  0
APPID
  5
23FD1
330
23F4A
100
AcDbSymbolTableRecord
100
AcDbRegAppTableRecord
  2
ACAD_DSTYLE_DIMINSPECT
 70
     0
  0
APPID
  5
23FD2
330
23F4A
100
AcDbSymbolTableRecord
100
AcDbRegAppTableRecord
  2
GENIUS_GENREC_14
 70
     0
  0
APPID
  5
23FD3
330
23F4A
100
AcDbSymbolTableRecord
100
AcDbRegAppTableRecord
  2
GENIUS_GENOBJ-N-REC_13
 70
     0
  0
APPID
  5
23FD4
330
23F4A
100
AcDbSymbolTableRecord
100
AcDbRegAppTableRecord
  2
ACAD_DSTYLE_DIMRADIAL_EXTENSION
 70
     0
  0
APPID
  5
23FD5
330
23F4A
100
AcDbSymbolTableRecord
100
AcDbRegAppTableRecord
  2
ACAD_DSTYLE_DIMBREAK
 70
     0
  0
APPID
  5
23FD6
330
23F4A
100
AcDbSymbolTableRecord
100
AcDbRegAppTableRecord
  2
ACAD_EXEMPT_FROM_CAD_STANDARDS
 70
     0
  0
ENDTAB
  0
TABLE
  2
DIMSTYLE
  5
23F4B
330
0
100
AcDbSymbolTable
 70
    10
100
AcDbDimStyleTable
 71
     0
  0
DIMSTYLE
105
23FA0
330
23F4B
100
AcDbSymbolTableRecord
100
AcDbDimStyleTableRecord
  2
STANDARD
 70
     0
271
     2
272
     2
279
     2
284
     8
285
     8
286
     8
340
23F9E
  0
DIMSTYLE
105
23FA1
330
23F4B
100
AcDbSymbolTableRecord
100
AcDbDimStyleTableRecord
  2
ANNOTATIVE
 70
     0
271
     2
272
     2
279
     2
284
     8
285
     8
286
     8
340
23F9E
1001
ACADANNOTATIVE
1000
AnnotativeData
1002
{
1070
     1
1070
     1
1002
}
  0
DIMSTYLE
105
23FD7
330
23F4B
100
AcDbSymbolTableRecord
100
AcDbDimStyleTableRecord
  2
AM_ISO
 70
     0
  4
"
 41
3.5
 42
1.0
 43
10.0
 44
1.0
 47
0.1
 48
0.1
 73
     0
 74
     0
 77
     1
 78
     8
140
3.5
141
0.0
143
0.0393701
146
0.71
147
1.5
172
     1
176
   256
177
   256
178
     2
271
     2
272
     2
279
     2
284
     8
285
     8
286
     8
340
23F9E
  0
DIMSTYLE
105
23FD8
330
23F4B
100
AcDbSymbolTableRecord
100
AcDbDimStyleTableRecord
  2
ISO-25
 70
     0
 41
2.5
 42
0.625
 43
3.75
 44
1.25
 73
     0
 74
     0
 77
     1
 78
     8
140
2.5
141
2.5
143
0.03937007874016
147
0.625
171
     3
172
     1
271
     2
272
     2
279
     2
284
     8
285
     8
286
     8
340
23F9E
  0
DIMSTYLE
105
23FD9
330
23F4B
100
AcDbSymbolTableRecord
100
AcDbDimStyleTableRecord
  2
ABODE-ISO
 70
     0
 40
10.0
 41
1.25
 42
1.5
 43
6.0
 44
0.0
 45
0.00000001
 46
10.0
 77
     1
 78
    12
140
17.0
143
0.03937
147
0.75
171
     3
172
     1
176
   256
177
   256
178
   256
271
     2
272
     2
279
     2
284
     8
285
     8
286
     8
340
23F9E
  0
DIMSTYLE
105
23FDA
102
{ACAD_REACTORS
330
24149
330
2414C
330
2414F
330
24150
330
2415B
330
2415E
102
}
330
23F4B
100
AcDbSymbolTableRecord
100
AcDbDimStyleTableRecord
  2
ABODE-ISO$4
 70
     0
 40
10.0
 41
1.25
 42
1.5
 43
6.0
 44
0.0
 45
0.00000001
 46
10.0
 77
     1
 78
    12
140
17.0
143
0.03937
147
0.75
171
     3
172
     1
176
   256
177
   256
178
   256
271
     2
272
     2
279
     2
284
     8
285
     8
286
     8
340
23F9E
  0
DIMSTYLE
105
23FDB
102
{ACAD_REACTORS
330
24138
330
24139
330
2413E
330
2413F
330
24147
330
24148
102
}
330
23F4B
100
AcDbSymbolTableRecord
100
AcDbDimStyleTableRecord
  2
ABODE-ISO$0
 70
     0
 40
10.0
 41
1.25
 42
1.5
 43
6.0
 44
0.0
 45
0.00000001
 46
10.0
 77
     1
 78
    12
140
17.0
143
0.03937
147
0.75
171
     3
172
     1
176
   256
177
   256
178
   256
271
     2
272
     2
279
     2
284
     8
285
     8
286
     8
340
23F9E
  0
DIMSTYLE
105
23FDC
330
23F4B
100
AcDbSymbolTableRecord
100
AcDbDimStyleTableRecord
  2
SLDDIMSTYLE0
 70
     0
 41
3.301999999999999
 44
0.0
 45
0.000000001
 73
     0
 77
     1
 78
    12
140
3.5
144
8.0
147
0.875
173
     1
271
     2
272
     2
279
     2
284
     8
285
     8
286
     8
340
23F9E
  0
DIMSTYLE
105
23FDD
330
23F4B
100
AcDbSymbolTableRecord
100
AcDbDimStyleTableRecord
  2
SLDDIMSTYLE1
 70
     0
 41
3.301999999999999
 44
0.0
 45
0.000000001
 73
     0
 77
     1
 78
    12
140
3.5
144
8.0
147
0.875
173
     1
271
     2
272
     2
279
     2
284
     8
285
     8
286
     8
340
23F9E
  0
DIMSTYLE
105
23FDE
330
23F4B
100
AcDbSymbolTableRecord
100
AcDbDimStyleTableRecord
  2
SLDDIMSTYLE3
 70
     0
 41
3.301999999999999
 44
0.0
 45
0.000000001
 73
     0
 77
     1
 78
    12
140
3.5
144
8.0
147
0.875
173
     1
271
     2
272
     2
279
     2
284
     8
285
     8
286
     8
340
23F9E
  0
ENDTAB
  0
TABLE
  2
BLOCK_RECORD
  5
23F42
330
0
100
AcDbSymbolTable
 70
    81
  0
BLOCK_RECORD
  5
23FB5
330
23F42
100
AcDbSymbolTableRecord
100
AcDbBlockTableRecord
  2
*Model_Space
340
23FB8
 70
     0
280
     1
281
     0
  0
BLOCK_RECORD
  5
23FB1
330
23F42
100
AcDbSymbolTableRecord
100
AcDbBlockTableRecord
  2
*Paper_Space
340
23FB4
 70
     0
280
     1
281
     0
  0
BLOCK_RECORD
  5
23FE1
330
23F42
100
AcDbSymbolTableRecord
100
AcDbBlockTableRecord
  2
$MODEL_SPACE
340
0
 70
     0
280
     1
281
     0
  0
BLOCK_RECORD
  5
23FE3
330
23F42
100
AcDbSymbolTableRecord
100
AcDbBlockTableRecord
  2
$PAPER_SPACE
340
0
 70
     0
280
     1
281
     0
  0
BLOCK_RECORD
  5
23FE5
330
23F42
100
AcDbSymbolTableRecord
100
AcDbBlockTableRecord
  2
FILLED-1
340
0
102
{BLKREFS
331
21A15
331
21A16
331
21A21
331
21A22
331
21A2E
331
21A2F
331
21A3B
331
21A45
331
21A46
331
23B67
331
23B68
331
23B78
331
23B79
331
23B8A
331
23B8B
331
23B9A
331
23B9B
331
23BAB
331
23CC3
331
23CC4
331
23CD0
331
23CD1
331
23CDC
331
23CE6
331
23D55
331
23D5C
331
23D3F
331
23D40
331
23D4C
331
23D4D
331
2405C
331
2405D
331
24069
331
2406A
331
24076
331
24077
331
24084
331
24085
331
24091
331
24092
331
240A0
331
240A1
331
240AD
331
240B8
331
240C2
331
240CD
331
240D8
331
240E2
102
}
 70
     0
280
     1
281
     0
  0
BLOCK_RECORD
  5
23FE9
330
23F42
100
AcDbSymbolTableRecord
100
AcDbBlockTableRecord
  2
*U4
340
0
102
{BLKREFS
331
21A17
102
}
 70
     0
280
     1
281
     0
  0
BLOCK_RECORD
  5
23FED
330
23F42
100
AcDbSymbolTableRecord
100
AcDbBlockTableRecord
  2
*U6
340
0
102
{BLKREFS
331
21A23
102
}
 70
     0
280
     1
281
     0
  0
BLOCK_RECORD
  5
23FF1
330
23F42
100
AcDbSymbolTableRecord
100
AcDbBlockTableRecord
  2
*U8
340
0
102
{BLKREFS
331
21A30
102
}
 70
     0
280
     1
281
     0
  0
BLOCK_RECORD
  5
23FF5
330
23F42
100
AcDbSymbolTableRecord
100
AcDbBlockTableRecord
  2
*U10
340
0
102
{BLKREFS
331
21A39
102
}
 70
     0
280
     1
281
     0
  0
BLOCK_RECORD
  5
23FF9
330
23F42
100
AcDbSymbolTableRecord
100
AcDbBlockTableRecord
  2
*U12
340
0
102
{BLKREFS
331
21A47
102
}
 70
     0
280
     1
281
     0
  0
BLOCK_RECORD
  5
24003
330
23F42
100
AcDbSymbolTableRecord
100
AcDbBlockTableRecord
  2
*U17
340
0
102
{BLKREFS
331
23B69
102
}
 70
     0
280
     1
281
     0
  0
BLOCK_RECORD
  5
24007
330
23F42
100
AcDbSymbolTableRecord
100
AcDbBlockTableRecord
  2
*U19
340
0
102
{BLKREFS
331
23B7A
102
}
 70
     0
280
     1
281
     0
  0
BLOCK_RECORD
  5
2400B
330
23F42
100
AcDbSymbolTableRecord
100
AcDbBlockTableRecord
  2
*U21
340
0
102
{BLKREFS
331
23B8C
102
}
 70
     0
280
     1
281
     0
  0
BLOCK_RECORD
  5
2400F
330
23F42
100
AcDbSymbolTableRecord
100
AcDbBlockTableRecord
  2
*U23
340
0
102
{BLKREFS
331
23B9C
102
}
 70
     0
280
     1
281
     0
  0
BLOCK_RECORD
  5
24013
330
23F42
100
AcDbSymbolTableRecord
100
AcDbBlockTableRecord
  2
*U25
340
0
102
{BLKREFS
331
23BA9
102
}
 70
     0
280
     1
281
     0
  0
BLOCK_RECORD
  5
24019
330
23F42
100
AcDbSymbolTableRecord
100
AcDbBlockTableRecord
  2
*U28
340
0
102
{BLKREFS
331
23C02
102
}
 70
     0
280
     1
281
     0
  0
BLOCK_RECORD
  5
2401D
330
23F42
100
AcDbSymbolTableRecord
100
AcDbBlockTableRecord
  2
*U30
340
0
102
{BLKREFS
331
23C44
102
}
 70
     0
280
     1
281
     0
  0
BLOCK_RECORD
  5
24020
330
23F42
100
AcDbSymbolTableRecord
100
AcDbBlockTableRecord
  2
*U32
340
0
102
{BLKREFS
331
23C4E
102
}
 70
     0
280
     1
281
     0
  0
BLOCK_RECORD
  5
24023
330
23F42
100
AcDbSymbolTableRecord
100
AcDbBlockTableRecord
  2
*U34
340
0
102
{BLKREFS
331
23C58
102
}
 70
     0
280
     1
281
     0
  0
BLOCK_RECORD
  5
24026
330
23F42
100
AcDbSymbolTableRecord
100
AcDbBlockTableRecord
  2
*U36
340
0
102
{BLKREFS
331
23C64
102
}
 70
     0
280
     1
281
     0
  0
BLOCK_RECORD
  5
24029
330
23F42
100
AcDbSymbolTableRecord
100
AcDbBlockTableRecord
  2
*U38
340
0
102
{BLKREFS
331
23C69
102
}
 70
     0
280
     1
281
     0
  0
BLOCK_RECORD
  5
2402C
330
23F42
100
AcDbSymbolTableRecord
100
AcDbBlockTableRecord
  2
*U40
340
0
102
{BLKREFS
331
23CC5
102
}
 70
     0
280
     1
281
     0
  0
BLOCK_RECORD
  5
2402F
330
23F42
100
AcDbSymbolTableRecord
100
AcDbBlockTableRecord
  2
*U42
340
0
102
{BLKREFS
331
23CD2
102
}
 70
     0
280
     1
281
     0
  0
BLOCK_RECORD
  5
24032
330
23F42
100
AcDbSymbolTableRecord
100
AcDbBlockTableRecord
  2
*U44
340
0
102
{BLKREFS
331
23CDB
102
}
 70
     0
280
     1
281
     0
  0
BLOCK_RECORD
  5
24035
330
23F42
100
AcDbSymbolTableRecord
100
AcDbBlockTableRecord
  2
*U46
340
0
102
{BLKREFS
331
23CE4
102
}
 70
     0
280
     1
281
     0
  0
BLOCK_RECORD
  5
24038
330
23F42
100
AcDbSymbolTableRecord
100
AcDbBlockTableRecord
  2
*U48
340
0
102
{BLKREFS
331
23D54
102
}
 70
     0
280
     1
281
     0
  0
BLOCK_RECORD
  5
2403B
330
23F42
100
AcDbSymbolTableRecord
100
AcDbBlockTableRecord
  2
*U50
340
0
102
{BLKREFS
331
23D5A
102
}
 70
     0
280
     1
281
     0
  0
BLOCK_RECORD
  5
2403E
330
23F42
100
AcDbSymbolTableRecord
100
AcDbBlockTableRecord
  2
*U52
340
0
102
{BLKREFS
331
23D41
102
}
 70
     0
280
     1
281
     0
  0
BLOCK_RECORD
  5
24041
330
23F42
100
AcDbSymbolTableRecord
100
AcDbBlockTableRecord
  2
*U54
340
0
102
{BLKREFS
331
23D4E
102
}
 70
     0
280
     1
281
     0
  0
BLOCK_RECORD
  5
24161
330
23F42
100
AcDbSymbolTableRecord
100
AcDbBlockTableRecord
  2
*D69
340
0
 70
     0
280
     1
281
     0
  0
BLOCK_RECORD
  5
2416D
330
23F42
100
AcDbSymbolTableRecord
100
AcDbBlockTableRecord
  2
*D70
340
0
 70
     0
280
     1
281
     0
  0
BLOCK_RECORD
  5
2417A
330
23F42
100
AcDbSymbolTableRecord
100
AcDbBlockTableRecord
  2
*D71
340
0
 70
     0
280
     1
281
     0
  0
BLOCK_RECORD
  5
24188
330
23F42
100
AcDbSymbolTableRecord
100
AcDbBlockTableRecord
  2
*D72
340
0
 70
     0
280
     1
281
     0
  0
BLOCK_RECORD
  5
24195
330
23F42
100
AcDbSymbolTableRecord
100
AcDbBlockTableRecord
  2
*D73
340
0
 70
     0
280
     1
281
     0
  0
BLOCK_RECORD
  5
241A3
330
23F42
100
AcDbSymbolTableRecord
100
AcDbBlockTableRecord
  2
*D74
340
0
 70
     0
280
     1
281
     0
  0
BLOCK_RECORD
  5
241B6
330
23F42
100
AcDbSymbolTableRecord
100
AcDbBlockTableRecord
  2
*D75
340
0
 70
     0
280
     1
281
     0
  0
BLOCK_RECORD
  5
241ED
330
23F42
100
AcDbSymbolTableRecord
100
AcDbBlockTableRecord
  2
*D76
340
0
 70
     0
280
     1
281
     0
  0
BLOCK_RECORD
  5
241F8
330
23F42
100
AcDbSymbolTableRecord
100
AcDbBlockTableRecord
  2
*D77
340
0
 70
     0
280
     1
281
     0
  0
BLOCK_RECORD
  5
24208
330
23F42
100
AcDbSymbolTableRecord
100
AcDbBlockTableRecord
  2
*D78
340
0
 70
     0
280
     1
281
     0
  0
BLOCK_RECORD
  5
24212
330
23F42
100
AcDbSymbolTableRecord
100
AcDbBlockTableRecord
  2
*D79
340
0
 70
     0
280
     1
281
     0
  0
BLOCK_RECORD
  5
2421B
330
23F42
100
AcDbSymbolTableRecord
100
AcDbBlockTableRecord
  2
*D80
340
0
 70
     0
280
     1
281
     0
  0
ENDTAB
  0
ENDSEC
  0
SECTION
  2
BLOCKS
  0
BLOCK
  5
23FB6
330
23FB5
100
AcDbEntity
  8
0
100
AcDbBlockBegin
  2
*Model_Space
 70
     0
 10
0.0
 20
0.0
 30
0.0
  3
*Model_Space
  1

  0
ENDBLK
  5
23FB7
330
23FB5
100
AcDbEntity
  8
0
100
AcDbBlockEnd
  0
BLOCK
  5
23FB2
330
23FB1
100
AcDbEntity
 67
     1
  8
0
100
AcDbBlockBegin
  2
*Paper_Space
 70
     0
 10
0.0
 20
0.0
 30
0.0
  3
*Paper_Space
  1

  0
ENDBLK
  5
23FB3
330
23FB1
100
AcDbEntity
 67
     1
  8
0
100
AcDbBlockEnd
  0
BLOCK
  5
23FE2
330
23FE1
100
AcDbEntity
  8
0
100
AcDbBlockBegin
  2
$MODEL_SPACE
 70
     0
 10
0.0
 20
0.0
 30
0.0
  3
$MODEL_SPACE
  1

  0
ENDBLK
  5
23B20
330
23FE1
100
AcDbEntity
  8
0
100
AcDbBlockEnd
  0
BLOCK
  5
23FE4
330
23FE3
100
AcDbEntity
  8
0
100
AcDbBlockBegin
  2
$PAPER_SPACE
 70
     0
 10
0.0
 20
0.0
 30
0.0
  3
$PAPER_SPACE
  1

  0
ENDBLK
  5
23B1C
330
23FE3
100
AcDbEntity
  8
0
100
AcDbBlockEnd
  0
BLOCK
  5
23FE6
330
23FE5
100
AcDbEntity
  8
0
100
AcDbBlockBegin
  2
FILLED-1
 70
     0
 10
0.0
 20
0.0
 30
0.0
  3
FILLED-1
  1

  0
LINE
  5
13A
330
23FE5
100
AcDbEntity
  8
0
 62
     0
100
AcDbLine
 10
-1.0
 20
0.0
 30
0.0
 11
0.0
 21
0.0
 31
0.0
  0
LWPOLYLINE
  5
13B
330
23FE5
100
AcDbEntity
  8
0
 62
     0
100
AcDbPolyline
 90
        4
 70
   128
 43
0.0
 10
-1.0
 20
-0.3333333333333333
 10
0.0
 20
0.0
 10
-1.0
 20
0.3333333333333333
 10
-1.0
 20
-0.3333333333333333
  0
SOLID
  5
141
330
23FE5
100
AcDbEntity
  8
0
 62
     0
100
AcDbTrace
 10
-1.0
 20
-0.3333333333333333
 30
0.0
 11
0.0
 21
0.0
 31
0.0
 12
-1.0
 22
0.3333333333333333
 32
0.0
 13
-1.0
 23
-0.3333333333333333
 33
0.0
  0
LINE
  5
142
330
23FE5
100
AcDbEntity
  8
0
 62
     0
100
AcDbLine
 10
-1.0
 20
-0.3333333333333333
 30
0.0
 11
0.0
 21
0.0
 31
0.0
  0
LINE
  5
143
330
23FE5
100
AcDbEntity
  8
0
 62
     0
100
AcDbLine
 10
0.0
 20
0.0
 30
0.0
 11
-1.0
 21
0.3333333333333333
 31
0.0
  0
LINE
  5
144
330
23FE5
100
AcDbEntity
  8
0
 62
     0
100
AcDbLine
 10
-1.0
 20
0.3333333333333333
 30
0.0
 11
-1.0
 21
-0.3333333333333333
 31
0.0
  0
ENDBLK
  5
145
330
23FE5
100
AcDbEntity
  8
0
100
AcDbBlockEnd
  0
BLOCK
  5
23FEA
330
23FE9
100
AcDbEntity
  8
0
100
AcDbBlockBegin
  2
*U4
 70
     1
 10
0.0
 20
0.0
 30
0.0
  3
*U4
  1

  0
TEXT
  5
22F4B
330
23FE9
100
AcDbEntity
  8
DIMS_SPECS
100
AcDbText
 10
19854.35279027728
 20
15821.73600336248
 30
0.0
 40
17.0
  1
20
 41
0.9
  7
ABODE-ISO
100
AcDbText
  0
ENDBLK
  5
22F4D
330
23FE9
100
AcDbEntity
  8
0
100
AcDbBlockEnd
  0
BLOCK
  5
23FEE
330
23FED
100
AcDbEntity
  8
0
100
AcDbBlockBegin
  2
*U6
 70
     1
 10
0.0
 20
0.0
 30
0.0
  3
*U6
  1

  0
TEXT
  5
22F4F
330
23FED
100
AcDbEntity
  8
DIMS_SPECS
100
AcDbText
 10
19481.85335243556
 20
15801.70251549672
 30
0.0
 40
17.0
  1
860
 41
0.9
  7
ABODE-ISO
100
AcDbText
  0
ENDBLK
  5
22F51
330
23FED
100
AcDbEntity
  8
0
100
AcDbBlockEnd
  0
BLOCK
  5
23FF2
330
23FF1
100
AcDbEntity
  8
0
100
AcDbBlockBegin
  2
*U8
 70
     1
 10
0.0
 20
0.0
 30
0.0
  3
*U8
  1

  0
TEXT
  5
22F53
330
23FF1
100
AcDbEntity
  8
DIMS_SPECS
100
AcDbText
 10
18980.35040226943
 20
16124.20364105056
 30
0.0
 40
17.0
  1
480
 41
0.9
  7
ABODE-ISO
100
AcDbText
  0
ENDBLK
  5
22F55
330
23FF1
100
AcDbEntity
  8
0
100
AcDbBlockEnd
  0
BLOCK
  5
23FF6
330
23FF5
100
AcDbEntity
  8
0
100
AcDbBlockBegin
  2
*U10
 70
     1
 10
0.0
 20
0.0
 30
0.0
  3
*U10
  1

  0
TEXT
  5
22F57
330
23FF5
100
AcDbEntity
  8
DIMS_SPECS
100
AcDbText
 10
19001.44790325729
 20
15862.44366673348
 30
0.0
 40
17.0
  1
R10
 41
0.9
  7
ABODE-ISO
100
AcDbText
  0
ENDBLK
  5
22F59
330
23FF5
100
AcDbEntity
  8
0
100
AcDbBlockEnd
  0
BLOCK
  5
23FFA
330
23FF9
100
AcDbEntity
  8
0
100
AcDbBlockBegin
  2
*U12
 70
     1
 10
0.0
 20
0.0
 30
0.0
  3
*U12
  1

  0
TEXT
  5
22F5B
330
23FF9
100
AcDbEntity
  8
DIMS_SPECS
100
AcDbText
 10
19481.90015733017
 20
15859.11103199058
 30
0.0
 40
17.0
  1
832
 41
0.9
  7
ABODE-ISO
100
AcDbText
  0
ENDBLK
  5
22F5D
330
23FF9
100
AcDbEntity
  8
0
100
AcDbBlockEnd
  0
BLOCK
  5
24004
330
24003
100
AcDbEntity
  8
0
100
AcDbBlockBegin
  2
*U17
 70
     1
 10
0.0
 20
0.0
 30
0.0
  3
*U17
  1

  0
TEXT
  5
23B70
330
24003
100
AcDbEntity
  8
DIMS_SPECS
100
AcDbText
 10
4179.160197533628
 20
249.108011561464
 30
0.0
 40
17.0
  1
976
 41
0.9
  7
ABODE-ISO
100
AcDbText
  0
ENDBLK
  5
23B71
330
24003
100
AcDbEntity
  8
0
100
AcDbBlockEnd
  0
BLOCK
  5
24008
330
24007
100
AcDbEntity
  8
0
100
AcDbBlockBegin
  2
*U19
 70
     1
 10
0.0
 20
0.0
 30
0.0
  3
*U19
  1

  0
TEXT
  5
23B81
330
24007
100
AcDbEntity
  8
DIMS_SPECS
100
AcDbText
 10
4707.726469004214
 20
564.5764423548151
 30
0.0
 40
17.0
  1
476
 41
0.9
  7
ABODE-ISO
100
AcDbText
  0
ENDBLK
  5
23B82
330
24007
100
AcDbEntity
  8
0
100
AcDbBlockEnd
  0
BLOCK
  5
2400C
330
2400B
100
AcDbEntity
  8
0
100
AcDbBlockBegin
  2
*U21
 70
     1
 10
0.0
 20
0.0
 30
0.0
  3
*U21
  1

  0
TEXT
  5
23B93
330
2400B
100
AcDbEntity
  8
DIMS_SPECS
100
AcDbText
 10
3711.646023502368
 20
296.1395321801428
 30
0.0
 40
17.0
  1
33
 41
0.9
  7
ABODE-ISO
100
AcDbText
  0
ENDBLK
  5
23B94
330
2400B
100
AcDbEntity
  8
0
100
AcDbBlockEnd
  0
BLOCK
  5
24010
330
2400F
100
AcDbEntity
  8
0
100
AcDbBlockBegin
  2
*U23
 70
     1
 10
0.0
 20
0.0
 30
0.0
  3
*U23
  1

  0
TEXT
  5
23BA3
330
2400F
100
AcDbEntity
  8
DIMS_SPECS
100
AcDbText
 10
3993.165398077479
 20
296.1395321801433
 30
0.0
 40
17.0
  1
542
 41
0.9
  7
ABODE-ISO
100
AcDbText
  0
ENDBLK
  5
23BA4
330
2400F
100
AcDbEntity
  8
0
100
AcDbBlockEnd
  0
BLOCK
  5
24014
330
24013
100
AcDbEntity
  8
0
100
AcDbBlockBegin
  2
*U25
 70
     1
 10
0.0
 20
0.0
 30
0.0
  3
*U25
  1

  0
TEXT
  5
23BB1
330
24013
100
AcDbEntity
  8
DIMS_SPECS
100
AcDbText
 10
4718.426734193223
 20
299.8408989991478
 30
0.0
 40
17.0
  1
R10
 41
0.9
  7
ABODE-ISO
100
AcDbText
  0
ENDBLK
  5
23BB2
330
24013
100
AcDbEntity
  8
0
100
AcDbBlockEnd
  0
BLOCK
  5
2401A
330
24019
100
AcDbEntity
  8
0
100
AcDbBlockBegin
  2
*U28
 70
     1
 10
0.0
 20
0.0
 30
0.0
  3
*U28
  1

  0
TEXT
  5
23BBF
330
24019
100
AcDbEntity
  8
0
 62
     1
100
AcDbText
 10
3226.262994231689
 20
675.441054963422
 30
0.0
 40
8.0
  1
All details are provided in good faith and
  7
ACISOTS
100
AcDbText
  0
TEXT
  5
23BC0
330
24019
100
AcDbEntity
  8
0
 62
     1
100
AcDbText
 10
3207.814994231688
 20
662.1077216300883
 30
0.0
 40
8.0
  1
within
  7
ACISOTS
100
AcDbText
  0
TEXT
  5
23BC1
330
24019
100
AcDbEntity
  8
0
 62
     1
100
AcDbText
 10
3243.785994231688
 20
648.7743882967552
 30
0.0
 40
8.0
  1
the tolerances of the manufacturing process.
  7
ACISOTS
100
AcDbText
  0
TEXT
  5
23BC2
330
24019
100
AcDbEntity
  8
0
 62
     1
100
AcDbText
 10
3209.119794231689
 20
635.4410549634218
 30
0.0
 40
8.0
  1
Note: the dimensions on ceramic fireclay
  7
ACISOTS
100
AcDbText
  0
TEXT
  5
23BC3
330
24019
100
AcDbEntity
  8
0
 62
     1
100
AcDbText
 10
3207.814994231688
 20
622.1077216300884
 30
0.0
 40
8.0
  1
products
  7
ACISOTS
100
AcDbText
  0
TEXT
  5
23BC4
330
24019
100
AcDbEntity
  8
0
 62
     1
100
AcDbText
 10
3210.643594231689
 20
608.7743882967551
 30
0.0
 40
8.0
  1
are subject to wider tolerances due to the
  7
ACISOTS
100
AcDbText
  0
TEXT
  5
23BC5
330
24019
100
AcDbEntity
  8
0
 62
     1
100
AcDbText
 10
3207.814994231688
 20
595.4410549634216
 30
0.0
 40
8.0
  1
nature
  7
ACISOTS
100
AcDbText
  0
TEXT
  5
23BC6
330
24019
100
AcDbEntity
  8
0
 62
     1
100
AcDbText
 10
3232.357994231689
 20
582.1077216300883
 30
0.0
 40
8.0
  1
of this natural material and the firing
  7
ACISOTS
100
AcDbText
  0
TEXT
  5
23BC7
330
24019
100
AcDbEntity
  8
0
 62
     1
100
AcDbText
 10
3207.814994231688
 20
568.7743882967549
 30
0.0
 40
8.0
  1
process.
  7
ACISOTS
100
AcDbText
  0
TEXT
  5
23BC8
330
24019
100
AcDbEntity
  8
0
 62
     1
100
AcDbText
 10
3237.309994231689
 20
542.1077216300882
 30
0.0
 40
8.0
  1
We recommend that a test cutout is made in
  7
ACISOTS
100
AcDbText
  0
TEXT
  5
23BC9
330
24019
100
AcDbEntity
  8
0
 62
     1
100
AcDbText
 10
3212.929294231689
 20
528.7743882967548
 30
0.0
 40
8.0
  1
scrap timber and checked against the actual
  7
ACISOTS
100
AcDbText
  0
TEXT
  5
23BCA
330
24019
100
AcDbEntity
  8
0
 62
     1
100
AcDbText
 10
3207.814994231688
 20
515.4410549634214
 30
0.0
 40
8.0
  1
sink
  7
ACISOTS
100
AcDbText
  0
TEXT
  5
23BCB
330
24019
100
AcDbEntity
  8
0
 62
     1
100
AcDbText
 10
3263.976994231688
 20
502.1077216300882
 30
0.0
 40
8.0
  1
supplied before committing to cutting
  7
ACISOTS
100
AcDbText
  0
TEXT
  5
23BCC
330
24019
100
AcDbEntity
  8
0
 62
     1
100
AcDbText
 10
3207.814994231688
 20
488.7743882967548
 30
0.0
 40
8.0
  1
the
  7
ACISOTS
100
AcDbText
  0
TEXT
  5
23BCD
330
24019
100
AcDbEntity
  8
0
 62
     1
100
AcDbText
 10
3454.454994231689
 20
475.4410549634212
 30
0.0
 40
8.0
  1
worksurface.
  7
ACISOTS
100
AcDbText
  0
TEXT
  5
23BCE
330
24019
100
AcDbEntity
  8
0
 62
     1
100
AcDbText
 10
3234.643994231689
 20
448.7743882967548
 30
0.0
 40
8.0
  1
Abode can not accept liability for problems
  7
ACISOTS
100
AcDbText
  0
TEXT
  5
23BCF
330
24019
100
AcDbEntity
  8
0
 62
     1
100
AcDbText
 10
3207.814994231688
 20
435.4410549634216
 30
0.0
 40
8.0
  1
or
  7
ACISOTS
100
AcDbText
  0
TEXT
  5
23BD0
330
24019
100
AcDbEntity
  8
0
 62
     1
100
AcDbText
 10
3238.833994231689
 20
422.1077216300883
 30
0.0
 40
8.0
  1
costs incurred by failure to follow this advise,
  7
ACISOTS
100
AcDbText
  0
TEXT
  5
23BD1
330
24019
100
AcDbEntity
  8
0
 62
     1
100
AcDbText
 10
3231.595994231689
 20
408.7743882967548
 30
0.0
 40
8.0
  1
dimensions weights & measures are subject
  7
ACISOTS
100
AcDbText
  0
TEXT
  5
23BD2
330
24019
100
AcDbEntity
  8
0
 62
     1
100
AcDbText
 10
3207.814994231688
 20
395.4410549634216
 30
0.0
 40
8.0
  1
to
  7
ACISOTS
100
AcDbText
  0
TEXT
  5
23BD3
330
24019
100
AcDbEntity
  8
0
 62
     1
100
AcDbText
 10
3214.833994231689
 20
382.1077216300884
 30
0.0
 40
8.0
  1
change without prior notice. Errors and omissions
  7
ACISOTS
100
AcDbText
  0
TEXT
  5
23BD4
330
24019
100
AcDbEntity
  8
0
 62
     1
100
AcDbText
 10
3475.404994231689
 20
368.7743882967549
 30
0.0
 40
8.0
  1
excepted
  7
ACISOTS
100
AcDbText
  0
ENDBLK
  5
23BD5
330
24019
100
AcDbEntity
  8
0
100
AcDbBlockEnd
  0
BLOCK
  5
24042
330
2401D
100
AcDbEntity
  8
0
100
AcDbBlockBegin
  2
*U30
 70
     1
 10
0.0
 20
0.0
 30
0.0
  3
*U30
  1

  0
TEXT
  5
23D83
330
2401D
100
AcDbEntity
  8
DIMS_SPECS
 62
     0
100
AcDbText
 10
21206.96121872985
 20
15829.74571061812
 30
0.0
 40
0.18
  1
976.00
100
AcDbText
  0
ENDBLK
  5
23D85
330
2401D
100
AcDbEntity
  8
0
100
AcDbBlockEnd
  0
BLOCK
  5
24043
330
24020
100
AcDbEntity
  8
0
100
AcDbBlockBegin
  2
*U32
 70
     1
 10
0.0
 20
0.0
 30
0.0
  3
*U32
  1

  0
TEXT
  5
23D87
330
24020
100
AcDbEntity
  8
DIMS_SPECS
 62
     0
100
AcDbText
 10
21735.26576515316
 20
16161.6417416834
 30
0.0
 40
0.18
  1
476.00
100
AcDbText
  0
ENDBLK
  5
23D89
330
24020
100
AcDbEntity
  8
0
100
AcDbBlockEnd
  0
BLOCK
  5
24044
330
24023
100
AcDbEntity
  8
0
100
AcDbBlockBegin
  2
*U34
 70
     1
 10
0.0
 20
0.0
 30
0.0
  3
*U34
  1

  0
TEXT
  5
23D8B
330
24023
100
AcDbEntity
  8
DIMS_SPECS
 62
     0
100
AcDbText
 10
20733.52111978728
 20
15876.7772312368
 30
0.0
 40
0.18
  1
33.00
100
AcDbText
  0
ENDBLK
  5
23D8D
330
24023
100
AcDbEntity
  8
0
100
AcDbBlockEnd
  0
BLOCK
  5
24045
330
24026
100
AcDbEntity
  8
0
100
AcDbBlockBegin
  2
*U36
 70
     1
 10
0.0
 20
0.0
 30
0.0
  3
*U36
  1

  0
TEXT
  5
23D8F
330
24026
100
AcDbEntity
  8
DIMS_SPECS
 62
     0
100
AcDbText
 10
21020.94911978727
 20
15876.7772312368
 30
0.0
 40
0.18
  1
542.00
100
AcDbText
  0
ENDBLK
  5
23D91
330
24026
100
AcDbEntity
  8
0
100
AcDbBlockEnd
  0
BLOCK
  5
24046
330
24029
100
AcDbEntity
  8
0
100
AcDbBlockBegin
  2
*U38
 70
     1
 10
0.0
 20
0.0
 30
0.0
  3
*U38
  1

  0
TEXT
  5
23D93
330
24029
100
AcDbEntity
  8
DIMS_SPECS
 62
     0
100
AcDbText
 10
21747.37777609337
 20
15880.4785980558
 30
0.0
 40
0.18
  1
R10.00
100
AcDbText
  0
ENDBLK
  5
23D95
330
24029
100
AcDbEntity
  8
0
100
AcDbBlockEnd
  0
BLOCK
  5
24047
330
2402C
100
AcDbEntity
  8
0
100
AcDbBlockBegin
  2
*U40
 70
     1
 10
0.0
 20
0.0
 30
0.0
  3
*U40
  1

  0
TEXT
  5
23D97
330
2402C
100
AcDbEntity
  8
DIMS_SPECS0
100
AcDbText
 10
149694.4684104588
 20
889.9852570332207
 30
0.0
 40
17.0
  1
555
 41
0.9
  7
ABODE-ISO
100
AcDbText
  0
ENDBLK
  5
23D99
330
2402C
100
AcDbEntity
  8
0
100
AcDbBlockEnd
  0
BLOCK
  5
24048
330
2402F
100
AcDbEntity
  8
0
100
AcDbBlockBegin
  2
*U42
 70
     1
 10
0.0
 20
0.0
 30
0.0
  3
*U42
  1

  0
TEXT
  5
23D9B
330
2402F
100
AcDbEntity
  8
DIMS_SPECS0
100
AcDbText
 10
150069.4264371075
 20
1029.089094271726
 30
0.0
 40
17.0
  1
436
 41
0.9
  7
ABODE-ISO
100
AcDbText
  0
ENDBLK
  5
23D9D
330
2402F
100
AcDbEntity
  8
0
100
AcDbBlockEnd
  0
BLOCK
  5
24049
330
24032
100
AcDbEntity
  8
0
100
AcDbBlockBegin
  2
*U44
 70
     1
 10
0.0
 20
0.0
 30
0.0
  3
*U44
  1

  0
TEXT
  5
23D9F
330
24032
100
AcDbEntity
  8
DIMS_SPECS0
100
AcDbText
 10
149916.4839582491
 20
1217.066608685342
 30
0.0
 40
17.0
  1
R25
 41
0.9
  7
ABODE-ISO
100
AcDbText
  0
ENDBLK
  5
23DA1
330
24032
100
AcDbEntity
  8
0
100
AcDbBlockEnd
  0
BLOCK
  5
2404A
330
24035
100
AcDbEntity
  8
0
100
AcDbBlockBegin
  2
*U46
 70
     1
 10
0.0
 20
0.0
 30
0.0
  3
*U46
  1

  0
TEXT
  5
23DA3
330
24035
100
AcDbEntity
  8
DIMS_SPECS0
100
AcDbText
 10
149940.7517516852
 20
814.9294068931599
 30
0.0
 40
17.0
  1
R25
 41
0.9
  7
ABODE-ISO
100
AcDbText
  0
ENDBLK
  5
23DA5
330
24035
100
AcDbEntity
  8
0
100
AcDbBlockEnd
  0
BLOCK
  5
24051
330
24038
100
AcDbEntity
  8
0
100
AcDbBlockBegin
  2
*U48
 70
     1
 10
0.0
 20
0.0
 30
0.0
  3
*U48
  1

  0
TEXT
  5
23DB7
330
24038
100
AcDbEntity
  8
DIMS_SPECS0
100
AcDbText
 10
22660.8406466383
 20
16246.17508116669
 30
0.0
 40
17.0
  1
R25
 41
0.9
  7
ABODE-ISO
100
AcDbText
  0
ENDBLK
  5
23DB9
330
24038
100
AcDbEntity
  8
0
100
AcDbBlockEnd
  0
BLOCK
  5
24052
330
2403B
100
AcDbEntity
  8
0
100
AcDbBlockBegin
  2
*U50
 70
     1
 10
0.0
 20
0.0
 30
0.0
  3
*U50
  1

  0
TEXT
  5
23DBB
330
2403B
100
AcDbEntity
  8
DIMS_SPECS0
100
AcDbText
 10
22685.10844007442
 20
15844.03787937451
 30
0.0
 40
17.0
  1
R25
 41
0.9
  7
ABODE-ISO
100
AcDbText
  0
ENDBLK
  5
23DBD
330
2403B
100
AcDbEntity
  8
0
100
AcDbBlockEnd
  0
BLOCK
  5
2404F
330
2403E
100
AcDbEntity
  8
0
100
AcDbBlockBegin
  2
*U52
 70
     1
 10
0.0
 20
0.0
 30
0.0
  3
*U52
  1

  0
TEXT
  5
23DAF
330
2403E
100
AcDbEntity
  8
DIMS_SPECS0
100
AcDbText
 10
22442.39613895676
 20
15919.30752965054
 30
0.0
 40
17.0
  1
555
 41
0.9
  7
ABODE-ISO
100
AcDbText
  0
ENDBLK
  5
23DB1
330
2403E
100
AcDbEntity
  8
0
100
AcDbBlockEnd
  0
BLOCK
  5
24050
330
24041
100
AcDbEntity
  8
0
100
AcDbBlockBegin
  2
*U54
 70
     1
 10
0.0
 20
0.0
 30
0.0
  3
*U54
  1

  0
TEXT
  5
23DB3
330
24041
100
AcDbEntity
  8
DIMS_SPECS0
100
AcDbText
 10
22817.35416560549
 20
16058.62516702498
 30
0.0
 40
17.0
  1
436
 41
0.9
  7
ABODE-ISO
100
AcDbText
  0
ENDBLK
  5
23DB5
330
24041
100
AcDbEntity
  8
0
100
AcDbBlockEnd
  0
BLOCK
  5
24162
330
24161
100
AcDbEntity
  8
0
100
AcDbBlockBegin
  2
*D69
 70
     1
 10
0.0
 20
0.0
 30
0.0
  3
*D69
  1

  0
LINE
  5
24245
330
24161
100
AcDbEntity
  8
DIMS SPECS
100
AcDbLine
 10
22183.86625985972
 20
15924.88472248553
 30
0.0
 11
22183.86625985972
 21
15966.00921691477
 31
0.0
  0
LINE
  5
24246
330
24161
100
AcDbEntity
  8
DIMS SPECS
100
AcDbLine
 10
22728.86625985962
 20
15924.88472248553
 30
0.0
 11
22728.86625985962
 21
15966.00921691477
 31
0.0
  0
LINE
  5
24247
330
24161
100
AcDbEntity
  8
DIMS SPECS
100
AcDbLine
 10
22196.36625985972
 20
15966.00921691477
 30
0.0
 11
22716.36625985962
 21
15966.00921691477
 31
0.0
  0
SOLID
  5
24248
330
24161
100
AcDbEntity
  8
DIMS SPECS
100
AcDbTrace
 10
22196.36625985972
 20
15968.09255024811
 30
0.0
 11
22196.36625985972
 21
15963.92588358144
 31
0.0
 12
22183.86625985972
 22
15966.00921691477
 32
0.0
 13
22183.86625985972
 23
15966.00921691477
 33
0.0
  0
SOLID
  5
24249
330
24161
100
AcDbEntity
  8
DIMS SPECS
100
AcDbTrace
 10
22716.36625985962
 20
15968.09255024811
 30
0.0
 11
22716.36625985962
 21
15963.92588358144
 31
0.0
 12
22728.86625985962
 22
15966.00921691477
 32
0.0
 13
22728.86625985962
 23
15966.00921691477
 33
0.0
  0
MTEXT
  5
2424A
330
24161
100
AcDbEntity
  8
DIMS SPECS
100
AcDbMText
 10
22456.36625985967
 20
15982.4368171867
 30
0.0
 40
17.0
 41
0.0
 46
0.0
 71
     5
 72
     1
  1
\A1;545
  7
Abode ISO Bold
 73
     1
 44
1.0
  0
POINT
  5
2424B
330
24161
100
AcDbEntity
  8
DEFPOINTS
 62
     0
100
AcDbPoint
 10
22183.86625985972
 20
15909.88472248553
 30
0.0
  0
POINT
  5
2424C
330
24161
100
AcDbEntity
  8
DEFPOINTS
 62
     0
100
AcDbPoint
 10
22728.86625985962
 20
15909.88472248553
 30
0.0
  0
POINT
  5
2424D
330
24161
100
AcDbEntity
  8
DEFPOINTS
 62
     0
100
AcDbPoint
 10
22728.86625985962
 20
15966.00921691477
 30
0.0
  0
ENDBLK
  5
24163
330
24161
100
AcDbEntity
  8
0
100
AcDbBlockEnd
  0
BLOCK
  5
2416E
330
2416D
100
AcDbEntity
  8
0
100
AcDbBlockBegin
  2
*D70
 70
     1
 10
0.0
 20
0.0
 30
0.0
  3
*D70
  1

  0
LINE
  5
24258
330
2416D
100
AcDbEntity
  8
DIMS SPECS
100
AcDbLine
 10
22181.86625985972
 20
15892.88472248553
 30
0.0
 11
22360.69162712958
 21
15892.88472248553
 31
0.0
  0
LINE
  5
24259
330
2416D
100
AcDbEntity
  8
DIMS SPECS
100
AcDbLine
 10
22186.36625985969
 20
16122.88472248553
 30
0.0
 11
22360.69162712958
 21
16122.88472248553
 31
0.0
  0
LINE
  5
2425A
330
2416D
100
AcDbEntity
  8
DIMS SPECS
100
AcDbLine
 10
22360.69162712958
 20
15905.38472248553
 30
0.0
 11
22360.69162712958
 21
15991.45712221362
 31
0.0
  0
LINE
  5
2425B
330
2416D
100
AcDbEntity
  8
DIMS SPECS
100
AcDbLine
 10
22360.69162712958
 20
16110.38472248553
 30
0.0
 11
22360.69162712958
 21
16024.31232275746
 31
0.0
  0
MTEXT
  5
2425C
330
2416D
100
AcDbEntity
  8
DIMS SPECS
100
AcDbMText
 10
22360.69162712958
 20
16007.88472248554
 30
0.0
 40
17.0
 41
0.0
 46
0.0
 71
     5
 72
     1
  1
\A1;230
  7
Abode ISO Bold
 73
     1
 44
1.0
  0
SOLID
  5
2425D
330
2416D
100
AcDbEntity
  8
DIMS SPECS
100
AcDbTrace
 10
22358.60829379625
 20
15905.38472248553
 30
0.0
 11
22362.77496046291
 21
15905.38472248553
 31
0.0
 12
22360.69162712958
 22
15892.88472248553
 32
0.0
 13
22360.69162712958
 23
15892.88472248553
 33
0.0
  0
SOLID
  5
2425E
330
2416D
100
AcDbEntity
  8
DIMS SPECS
100
AcDbTrace
 10
22358.60829379625
 20
16110.38472248553
 30
0.0
 11
22362.77496046291
 21
16110.38472248553
 31
0.0
 12
22360.69162712958
 22
16122.88472248553
 32
0.0
 13
22360.69162712958
 23
16122.88472248553
 33
0.0
  0
POINT
  5
2425F
330
2416D
100
AcDbEntity
  8
DEFPOINTS
 62
     0
100
AcDbPoint
 10
22166.86625985972
 20
15892.88472248553
 30
0.0
  0
POINT
  5
24260
330
2416D
100
AcDbEntity
  8
DEFPOINTS
 62
     0
100
AcDbPoint
 10
22171.36625985969
 20
16122.88472248553
 30
0.0
  0
POINT
  5
24261
330
2416D
100
AcDbEntity
  8
DEFPOINTS
 62
     0
100
AcDbPoint
 10
22360.69162712958
 20
16122.88472248553
 30
0.0
  0
ENDBLK
  5
2416F
330
2416D
100
AcDbEntity
  8
0
100
AcDbBlockEnd
  0
BLOCK
  5
2417B
330
2417A
100
AcDbEntity
  8
0
100
AcDbBlockBegin
  2
*D71
 70
     1
 10
0.0
 20
0.0
 30
0.0
  3
*D71
  1

  0
LINE
  5
24262
330
2417A
100
AcDbEntity
  8
DIMS SPECS
100
AcDbLine
 10
22171.36625985969
 20
16137.88472248553
 30
0.0
 11
22171.36625985969
 21
16129.41113902937
 31
0.0
  0
LINE
  5
24263
330
2417A
100
AcDbEntity
  8
DIMS SPECS
100
AcDbLine
 10
22183.86625985969
 20
16144.48472248553
 30
0.0
 11
22183.86625985969
 21
16129.41113902937
 31
0.0
  0
LINE
  5
24264
330
2417A
100
AcDbEntity
  8
DIMS SPECS
100
AcDbLine
 10
22158.86625985969
 20
16129.41113902937
 30
0.0
 11
22146.36625985969
 21
16129.41113902937
 31
0.0
  0
LINE
  5
24265
330
2417A
100
AcDbEntity
  8
DIMS SPECS
100
AcDbLine
 10
22196.36625985969
 20
16129.41113902937
 30
0.0
 11
22208.86625985969
 21
16129.41113902937
 31
0.0
  0
MTEXT
  5
24266
330
2417A
100
AcDbEntity
  8
DIMS SPECS
100
AcDbMText
 10
22177.61625985969
 20
16107.80593848553
 30
0.0
 40
17.0
 41
0.0
 46
0.0
 71
     5
 72
     1
  1
\A1;12.5
  7
Abode ISO Bold
 73
     1
 44
1.0
  0
LINE
  5
24267
330
2417A
100
AcDbEntity
  8
DIMS SPECS
100
AcDbLine
 10
22171.36625985969
 20
16129.41113902937
 30
0.0
 11
22183.86625985969
 21
16129.41113902937
 31
0.0
  0
SOLID
  5
24268
330
2417A
100
AcDbEntity
  8
DIMS SPECS
100
AcDbTrace
 10
22158.86625985969
 20
16131.49447236271
 30
0.0
 11
22158.86625985969
 21
16127.32780569604
 31
0.0
 12
22171.36625985969
 22
16129.41113902937
 32
0.0
 13
22171.36625985969
 23
16129.41113902937
 33
0.0
  0
SOLID
  5
24269
330
2417A
100
AcDbEntity
  8
DIMS SPECS
100
AcDbTrace
 10
22196.36625985969
 20
16131.49447236271
 30
0.0
 11
22196.36625985969
 21
16127.32780569604
 31
0.0
 12
22183.86625985969
 22
16129.41113902937
 32
0.0
 13
22183.86625985969
 23
16129.41113902937
 33
0.0
  0
POINT
  5
2426A
330
2417A
100
AcDbEntity
  8
DEFPOINTS
 62
     0
100
AcDbPoint
 10
22171.36625985969
 20
16122.88472248553
 30
0.0
  0
POINT
  5
2426B
330
2417A
100
AcDbEntity
  8
DEFPOINTS
 62
     0
100
AcDbPoint
 10
22183.86625985969
 20
16159.48472248553
 30
0.0
  0
POINT
  5
2426C
330
2417A
100
AcDbEntity
  8
DEFPOINTS
 62
     0
100
AcDbPoint
 10
22183.86625985969
 20
16129.41113902937
 30
0.0
  0
ENDBLK
  5
2417C
330
2417A
100
AcDbEntity
  8
0
100
AcDbBlockEnd
  0
BLOCK
  5
24189
330
24188
100
AcDbEntity
  8
0
100
AcDbBlockBegin
  2
*D72
 70
     1
 10
0.0
 20
0.0
 30
0.0
  3
*D72
  1

  0
LINE
  5
2426D
330
24188
100
AcDbEntity
  8
DIMS SPECS
100
AcDbLine
 10
22156.3662598597
 20
16182.03535758016
 30
0.0
 11
22129.90903230498
 21
16182.03535758016
 31
0.0
  0
LINE
  5
2426E
330
24188
100
AcDbEntity
  8
DIMS SPECS
100
AcDbLine
 10
22156.36625985978
 20
16063.73408739098
 30
0.0
 11
22129.90903230498
 21
16063.73408739098
 31
0.0
  0
LINE
  5
2426F
330
24188
100
AcDbEntity
  8
DIMS SPECS
100
AcDbLine
 10
22129.90903230498
 20
16169.53535758016
 30
0.0
 11
22129.90903230498
 21
16122.88472248553
 31
0.0
  0
LINE
  5
24270
330
24188
100
AcDbEntity
  8
DIMS SPECS
100
AcDbLine
 10
22129.90903230498
 20
16076.23408739098
 30
0.0
 11
22129.90903230498
 21
16090.02952194168
 31
0.0
  0
MTEXT
  5
24271
330
24188
100
AcDbEntity
  8
DIMS SPECS
100
AcDbMText
 10
22129.90903230498
 20
16106.45712221361
 30
0.0
 40
17.0
 41
0.0
 46
0.0
 71
     5
 72
     1
  1
\A1;118.3
  7
Abode ISO Bold
 73
     1
 44
1.0
  0
SOLID
  5
24272
330
24188
100
AcDbEntity
  8
DIMS SPECS
100
AcDbTrace
 10
22127.82569897165
 20
16169.53535758016
 30
0.0
 11
22131.99236563831
 21
16169.53535758016
 31
0.0
 12
22129.90903230498
 22
16182.03535758016
 32
0.0
 13
22129.90903230498
 23
16182.03535758016
 33
0.0
  0
SOLID
  5
24273
330
24188
100
AcDbEntity
  8
DIMS SPECS
100
AcDbTrace
 10
22127.82569897165
 20
16076.23408739098
 30
0.0
 11
22131.99236563831
 21
16076.23408739098
 31
0.0
 12
22129.90903230498
 22
16063.73408739098
 32
0.0
 13
22129.90903230498
 23
16063.73408739098
 33
0.0
  0
POINT
  5
24274
330
24188
100
AcDbEntity
  8
DEFPOINTS
 62
     0
100
AcDbPoint
 10
22171.36625985971
 20
16182.03535758016
 30
0.0
  0
POINT
  5
24275
330
24188
100
AcDbEntity
  8
DEFPOINTS
 62
     0
100
AcDbPoint
 10
22171.36625985978
 20
16063.73408739098
 30
0.0
  0
POINT
  5
24276
330
24188
100
AcDbEntity
  8
DEFPOINTS
 62
     0
100
AcDbPoint
 10
22129.90903230498
 20
16063.73408739098
 30
0.0
  0
ENDBLK
  5
2418A
330
24188
100
AcDbEntity
  8
0
100
AcDbBlockEnd
  0
BLOCK
  5
24196
330
24195
100
AcDbEntity
  8
0
100
AcDbBlockBegin
  2
*D73
 70
     1
 10
0.0
 20
0.0
 30
0.0
  3
*D73
  1

  0
LINE
  5
24277
330
24195
100
AcDbEntity
  8
DIMS SPECS
100
AcDbLine
 10
22198.86625985969
 20
16160.38472248553
 30
0.0
 11
22317.556954793
 21
16160.38472248553
 31
0.0
  0
LINE
  5
24278
330
24195
100
AcDbEntity
  8
DIMS SPECS
100
AcDbLine
 10
22198.86625985969
 20
16085.38472248553
 30
0.0
 11
22317.556954793
 21
16085.38472248553
 31
0.0
  0
LINE
  5
24279
330
24195
100
AcDbEntity
  8
DIMS SPECS
100
AcDbLine
 10
22317.556954793
 20
16172.88472248553
 30
0.0
 11
22317.556954793
 21
16185.38472248553
 31
0.0
  0
LINE
  5
2427A
330
24195
100
AcDbEntity
  8
DIMS SPECS
100
AcDbLine
 10
22317.556954793
 20
16072.88472248553
 30
0.0
 11
22317.556954793
 21
16060.38472248553
 31
0.0
  0
MTEXT
  5
2427B
330
24195
100
AcDbEntity
  8
DIMS SPECS
100
AcDbMText
 10
22317.556954793
 20
16138.4614036469
 30
0.0
 40
17.0
 41
0.0
 46
0.0
 71
     5
 72
     1
  1
\A1;75
  7
Abode ISO Bold
 73
     1
 44
1.0
  0
LINE
  5
2427C
330
24195
100
AcDbEntity
  8
DIMS SPECS
100
AcDbLine
 10
22317.556954793
 20
16160.38472248553
 30
0.0
 11
22317.556954793
 21
16085.38472248553
 31
0.0
  0
SOLID
  5
2427D
330
24195
100
AcDbEntity
  8
DIMS SPECS
100
AcDbTrace
 10
22315.47362145966
 20
16172.88472248553
 30
0.0
 11
22319.64028812633
 21
16172.88472248553
 31
0.0
 12
22317.556954793
 22
16160.38472248553
 32
0.0
 13
22317.556954793
 23
16160.38472248553
 33
0.0
  0
SOLID
  5
2427E
330
24195
100
AcDbEntity
  8
DIMS SPECS
100
AcDbTrace
 10
22315.47362145966
 20
16072.88472248553
 30
0.0
 11
22319.64028812633
 21
16072.88472248553
 31
0.0
 12
22317.556954793
 22
16085.38472248553
 32
0.0
 13
22317.556954793
 23
16085.38472248553
 33
0.0
  0
POINT
  5
2427F
330
24195
100
AcDbEntity
  8
DEFPOINTS
 62
     0
100
AcDbPoint
 10
22183.86625985969
 20
16160.38472248553
 30
0.0
  0
POINT
  5
24280
330
24195
100
AcDbEntity
  8
DEFPOINTS
 62
     0
100
AcDbPoint
 10
22183.86625985969
 20
16085.38472248553
 30
0.0
  0
POINT
  5
24281
330
24195
100
AcDbEntity
  8
DEFPOINTS
 62
     0
100
AcDbPoint
 10
22317.556954793
 20
16085.38472248553
 30
0.0
  0
ENDBLK
  5
24197
330
24195
100
AcDbEntity
  8
0
100
AcDbBlockEnd
  0
BLOCK
  5
241A4
330
241A3
100
AcDbEntity
  8
0
100
AcDbBlockBegin
  2
*D74
 70
     1
 10
0.0
 20
0.0
 30
0.0
  3
*D74
  1

  0
LINE
  5
24290
330
241A3
100
AcDbEntity
  8
DIMS SPECS
100
AcDbLine
 10
22195.51330556191
 20
16057.25950757014
 30
0.0
 11
22207.58682841301
 21
16054.02221765973
 31
0.0
  0
MTEXT
  5
24291
330
241A3
100
AcDbEntity
  8
DIMS SPECS
100
AcDbMText
 10
22272.48127744184
 20
16045.49216222288
 30
0.0
 40
17.0
 41
0.0
 46
0.0
 71
     5
 72
     1
  1
\A1;R12.5
  7
Abode ISO Bold
 73
     1
 44
1.0
  0
LINE
  5
24292
330
241A3
100
AcDbEntity
  8
DIMS SPECS
100
AcDbLine
 10
22171.36625985974
 20
16063.73408739094
 30
0.0
 11
22183.43978271081
 21
16060.49679748054
 31
0.0
  0
SOLID
  5
24293
330
241A3
100
AcDbEntity
  8
DIMS SPECS
100
AcDbTrace
 10
22196.05285388031
 20
16059.27176137865
 30
0.0
 11
22194.97375724351
 21
16055.24725376162
 31
0.0
 12
22183.43978271081
 22
16060.49679748054
 32
0.0
 13
22183.43978271081
 23
16060.49679748054
 33
0.0
  0
ARC
  5
24294
330
241A3
100
AcDbEntity
  8
DIMS SPECS
100
AcDbCircle
 10
22171.36625985974
 20
16063.73408739094
 30
0.0
 40
12.49999999997453
100
AcDbArc
 50
344.9902630346472
 51
291.2450645841663
  0
POINT
  5
24295
330
241A3
100
AcDbEntity
  8
DEFPOINTS
 62
     0
100
AcDbPoint
 10
22183.43978271081
 20
16060.49679748054
 30
0.0
  0
POINT
  5
24296
330
241A3
100
AcDbEntity
  8
DEFPOINTS
 62
     0
100
AcDbPoint
 10
22171.36625985974
 20
16063.73408739094
 30
0.0
  0
ENDBLK
  5
241A5
330
241A3
100
AcDbEntity
  8
0
100
AcDbBlockEnd
  0
BLOCK
  5
241B7
330
241B6
100
AcDbEntity
  8
0
100
AcDbBlockBegin
  2
*D75
 70
     1
 10
0.0
 20
0.0
 30
0.0
  3
*D75
  1

  0
LINE
  5
2424E
330
241B6
100
AcDbEntity
  8
DIMS SPECS
100
AcDbLine
 10
22802.62585911769
 20
15892.88472248553
 30
0.0
 11
22792.03647231142
 21
15892.88472248553
 31
0.0
  0
LINE
  5
2424F
330
241B6
100
AcDbEntity
  8
DIMS SPECS
100
AcDbLine
 10
22718.86625985966
 20
16322.88472248553
 30
0.0
 11
22792.03647231142
 21
16322.88472248553
 31
0.0
  0
LINE
  5
24250
330
241B6
100
AcDbEntity
  8
DIMS SPECS
100
AcDbLine
 10
22792.03647231142
 20
15905.38472248553
 30
0.0
 11
22792.03647231142
 21
16091.45712221361
 31
0.0
  0
LINE
  5
24251
330
241B6
100
AcDbEntity
  8
DIMS SPECS
100
AcDbLine
 10
22792.03647231142
 20
16310.38472248553
 30
0.0
 11
22792.03647231142
 21
16124.31232275745
 31
0.0
  0
SOLID
  5
24252
330
241B6
100
AcDbEntity
  8
DIMS SPECS
100
AcDbTrace
 10
22789.95313897809
 20
15905.38472248553
 30
0.0
 11
22794.11980564475
 21
15905.38472248553
 31
0.0
 12
22792.03647231142
 22
15892.88472248553
 32
0.0
 13
22792.03647231142
 23
15892.88472248553
 33
0.0
  0
SOLID
  5
24253
330
241B6
100
AcDbEntity
  8
DIMS SPECS
100
AcDbTrace
 10
22789.95313897809
 20
16310.38472248553
 30
0.0
 11
22794.11980564475
 21
16310.38472248553
 31
0.0
 12
22792.03647231142
 22
16322.88472248553
 32
0.0
 13
22792.03647231142
 23
16322.88472248553
 33
0.0
  0
MTEXT
  5
24254
330
241B6
100
AcDbEntity
  8
DIMS SPECS
100
AcDbMText
 10
22792.03647231142
 20
16107.88472248553
 30
0.0
 40
17.0
 41
0.0
 46
0.0
 71
     5
 72
     1
  1
\A1;430
  7
Abode ISO Bold
 73
     1
 44
1.0
  0
POINT
  5
24255
330
241B6
100
AcDbEntity
  8
DEFPOINTS
 62
     0
100
AcDbPoint
 10
22787.62585911769
 20
15892.88472248553
 30
0.0
  0
POINT
  5
24256
330
241B6
100
AcDbEntity
  8
DEFPOINTS
 62
     0
100
AcDbPoint
 10
22703.86625985966
 20
16322.88472248553
 30
0.0
  0
POINT
  5
24257
330
241B6
100
AcDbEntity
  8
DEFPOINTS
 62
     0
100
AcDbPoint
 10
22792.03647231142
 20
16322.88472248553
 30
0.0
  0
ENDBLK
  5
241B8
330
241B6
100
AcDbEntity
  8
0
100
AcDbBlockEnd
  0
BLOCK
  5
241EE
330
241ED
100
AcDbEntity
  8
0
100
AcDbBlockBegin
  2
*D76
 70
     1
 10
0.0
 20
0.0
 30
0.0
  3
*D76
  1

  0
LINE
  5
242C3
330
241ED
100
AcDbEntity
  8
DIMS SPECS
100
AcDbLine
 10
22092.83457137405
 20
16012.0675462536
 30
0.0
 11
22151.49752174795
 21
16012.0675462536
 31
0.0
  0
LINE
  5
242C4
330
241ED
100
AcDbEntity
  8
DIMS SPECS
100
AcDbLine
 10
22151.49752174795
 20
16012.0675462536
 30
0.0
 11
22162.39296651213
 21
16040.39999202603
 31
0.0
  0
MTEXT
  5
242C5
330
241ED
100
AcDbEntity
  8
DIMS SPECS
100
AcDbMText
 10
22118.416046561
 20
16028.49514652552
 30
0.0
 40
17.0
 41
0.0
 46
0.0
 71
     5
 72
     1
  1
\A1;R12.5
  7
Abode ISO Bold
 73
     1
 44
1.0
  0
LINE
  5
242C6
330
241ED
100
AcDbEntity
  8
DIMS SPECS
100
AcDbLine
 10
22171.36625985971
 20
16063.73408739091
 30
0.0
 11
22166.87961318592
 21
16052.06703970848
 31
0.0
  0
SOLID
  5
242C7
330
241ED
100
AcDbEntity
  8
DIMS SPECS
100
AcDbTrace
 10
22160.44845856506
 20
16041.14776647166
 30
0.0
 11
22164.33747445921
 21
16039.6522175804
 31
0.0
 12
22166.87961318592
 22
16052.06703970848
 32
0.0
 13
22166.87961318592
 23
16052.06703970848
 33
0.0
  0
ARC
  5
242C8
330
241ED
100
AcDbEntity
  8
DIMS SPECS
100
AcDbCircle
 10
22171.36625985971
 20
16063.73408739091
 30
0.0
 40
12.49999999997817
100
AcDbArc
 50
248.9653953636182
 51
291.2450645841811
  0
POINT
  5
242C9
330
241ED
100
AcDbEntity
  8
DEFPOINTS
 62
     0
100
AcDbPoint
 10
22166.87961318592
 20
16052.06703970848
 30
0.0
  0
POINT
  5
242CA
330
241ED
100
AcDbEntity
  8
DEFPOINTS
 62
     0
100
AcDbPoint
 10
22171.36625985971
 20
16063.73408739091
 30
0.0
  0
ENDBLK
  5
241EF
330
241ED
100
AcDbEntity
  8
0
100
AcDbBlockEnd
  0
BLOCK
  5
241F9
330
241F8
100
AcDbEntity
  8
0
100
AcDbBlockBegin
  2
*D77
 70
     1
 10
0.0
 20
0.0
 30
0.0
  3
*D77
  1

  0
LINE
  5
242B6
330
241F8
100
AcDbEntity
  8
DIMS SPECS
100
AcDbLine
 10
22166.44521669683
 20
16178.31534587455
 30
0.0
 11
22157.7346951154
 21
16187.28065756905
 31
0.0
  0
MTEXT
  5
242B7
330
241F8
100
AcDbEntity
  8
DIMS SPECS
100
AcDbMText
 10
22108.78477880984
 20
16203.61326399261
 30
0.0
 40
17.0
 41
0.0
 46
0.0
 71
     5
 72
     1
  1
\A1;R12.5
  7
Abode ISO Bold
 73
     1
 44
1.0
  0
LINE
  5
242B8
330
241F8
100
AcDbEntity
  8
DIMS SPECS
100
AcDbLine
 10
22183.86625985969
 20
16160.38472248553
 30
0.0
 11
22175.15573827825
 21
16169.35003418005
 31
0.0
  0
SOLID
  5
242B9
330
241F8
100
AcDbEntity
  8
DIMS SPECS
100
AcDbTrace
 10
22167.93943531258
 20
16179.76709947145
 30
0.0
 11
22164.95099808108
 21
16176.86359227764
 31
0.0
 12
22175.15573827825
 22
16169.35003418005
 32
0.0
 13
22175.15573827825
 23
16169.35003418005
 33
0.0
  0
POINT
  5
242BA
330
241F8
100
AcDbEntity
  8
DEFPOINTS
 62
     0
100
AcDbPoint
 10
22175.15573827825
 20
16169.35003418005
 30
0.0
  0
POINT
  5
242BB
330
241F8
100
AcDbEntity
  8
DEFPOINTS
 62
     0
100
AcDbPoint
 10
22183.86625985969
 20
16160.38472248553
 30
0.0
  0
ENDBLK
  5
241FA
330
241F8
100
AcDbEntity
  8
0
100
AcDbBlockEnd
  0
BLOCK
  5
24209
330
24208
100
AcDbEntity
  8
0
100
AcDbBlockBegin
  2
*D78
 70
     1
 10
0.0
 20
0.0
 30
0.0
  3
*D78
  1

  0
LINE
  5
242BC
330
24208
100
AcDbEntity
  8
DIMS SPECS
100
AcDbLine
 10
22195.403394892
 20
16188.90675768842
 30
0.0
 11
22207.42196240806
 21
16192.34245774253
 31
0.0
  0
MTEXT
  5
242BD
330
24208
100
AcDbEntity
  8
DIMS SPECS
100
AcDbMText
 10
22301.00629895138
 20
16209.63816987779
 30
0.0
 40
17.0
 41
0.0
 46
0.0
 71
     5
 72
     1
  1
\A1;R12.5
  7
Abode ISO Bold
 73
     1
 44
1.0
  0
LINE
  5
242BE
330
24208
100
AcDbEntity
  8
DIMS SPECS
100
AcDbLine
 10
22171.36625985971
 20
16182.03535758015
 30
0.0
 11
22183.38482737593
 21
16185.47105763431
 31
0.0
  0
SOLID
  5
242BF
330
24208
100
AcDbEntity
  8
DIMS SPECS
100
AcDbTrace
 10
22194.83077821631
 20
16190.90985227443
 30
0.0
 11
22195.97601156768
 21
16186.9036631024
 31
0.0
 12
22183.38482737593
 22
16185.47105763431
 32
0.0
 13
22183.38482737593
 23
16185.47105763431
 33
0.0
  0
ARC
  5
242C0
330
24208
100
AcDbEntity
  8
DIMS SPECS
100
AcDbCircle
 10
22171.36625985971
 20
16182.03535758015
 30
0.0
 40
12.50000000017098
100
AcDbArc
 50
68.75493541475837
 51
15.95343314760525
  0
POINT
  5
242C1
330
24208
100
AcDbEntity
  8
DEFPOINTS
 62
     0
100
AcDbPoint
 10
22183.38482737593
 20
16185.47105763431
 30
0.0
  0
POINT
  5
242C2
330
24208
100
AcDbEntity
  8
DEFPOINTS
 62
     0
100
AcDbPoint
 10
22171.36625985971
 20
16182.03535758015
 30
0.0
  0
ENDBLK
  5
2420A
330
24208
100
AcDbEntity
  8
0
100
AcDbBlockEnd
  0
BLOCK
  5
24213
330
24212
100
AcDbEntity
  8
0
100
AcDbBlockBegin
  2
*D79
 70
     1
 10
0.0
 20
0.0
 30
0.0
  3
*D79
  1

  0
LINE
  5
242AA
330
24212
100
AcDbEntity
  8
DIMS SPECS
100
AcDbLine
 10
22726.31926426725
 20
15892.44041007922
 30
0.0
 11
22717.13693240311
 21
15883.95897261044
 31
0.0
  0
MTEXT
  5
242AB
330
24212
100
AcDbEntity
  8
DIMS SPECS
100
AcDbMText
 10
22678.23916080703
 20
15870.50220941594
 30
0.0
 40
17.0
 41
0.0
 46
0.0
 71
     5
 72
     1
  1
\A1;R25
  7
Abode ISO Bold
 73
     1
 44
1.0
  0
LINE
  5
242AC
330
24212
100
AcDbEntity
  8
DIMS SPECS
100
AcDbLine
 10
22753.86625985966
 20
15917.88472248552
 30
0.0
 11
22735.50159613139
 21
15900.92184754799
 31
0.0
  0
SOLID
  5
242AD
330
24212
100
AcDbEntity
  8
DIMS SPECS
100
AcDbTrace
 10
22724.90569135579
 20
15893.97079872324
 30
0.0
 11
22727.73283717871
 21
15890.9100214352
 31
0.0
 12
22735.50159613139
 22
15900.92184754799
 32
0.0
 13
22735.50159613139
 23
15900.92184754799
 33
0.0
  0
POINT
  5
242AE
330
24212
100
AcDbEntity
  8
DEFPOINTS
 62
     0
100
AcDbPoint
 10
22735.50159613139
 20
15900.92184754799
 30
0.0
  0
POINT
  5
242AF
330
24212
100
AcDbEntity
  8
DEFPOINTS
 62
     0
100
AcDbPoint
 10
22753.86625985966
 20
15917.88472248552
 30
0.0
  0
ENDBLK
  5
24214
330
24212
100
AcDbEntity
  8
0
100
AcDbBlockEnd
  0
BLOCK
  5
2421C
330
2421B
100
AcDbEntity
  8
0
100
AcDbBlockBegin
  2
*D80
 70
     1
 10
0.0
 20
0.0
 30
0.0
  3
*D80
  1

  0
LINE
  5
242B0
330
2421B
100
AcDbEntity
  8
DIMS SPECS
100
AcDbLine
 10
22183.9153830763
 20
16325.87943176682
 30
0.0
 11
22175.59842414853
 21
16335.21100152725
 31
0.0
  0
MTEXT
  5
242B1
330
2421B
100
AcDbEntity
  8
DIMS SPECS
100
AcDbMText
 10
22150.56442627905
 20
16336.00204920882
 30
0.0
 40
17.0
 41
0.0
 46
0.0
 71
     5
 72
     1
  1
\A1;R25
  7
Abode ISO Bold
 73
     1
 44
1.0
  0
LINE
  5
242B2
330
2421B
100
AcDbEntity
  8
DIMS SPECS
100
AcDbLine
 10
22208.86625985962
 20
16297.88472248554
 30
0.0
 11
22192.23234200407
 21
16316.54786200639
 31
0.0
  0
SOLID
  5
242B3
330
2421B
100
AcDbEntity
  8
DIMS SPECS
100
AcDbTrace
 10
22185.47064470304
 20
16327.26559158811
 30
0.0
 11
22182.36012144957
 21
16324.49327194552
 31
0.0
 12
22192.23234200407
 22
16316.54786200639
 32
0.0
 13
22192.23234200407
 23
16316.54786200639
 33
0.0
  0
POINT
  5
242B4
330
2421B
100
AcDbEntity
  8
DEFPOINTS
 62
     0
100
AcDbPoint
 10
22192.23234200407
 20
16316.54786200639
 30
0.0
  0
POINT
  5
242B5
330
2421B
100
AcDbEntity
  8
DEFPOINTS
 62
     0
100
AcDbPoint
 10
22208.86625985962
 20
16297.88472248554
 30
0.0
  0
ENDBLK
  5
2421D
330
2421B
100
AcDbEntity
  8
0
100
AcDbBlockEnd
  0
ENDSEC
  0
SECTION
  2
ENTITIES
  0
INSERT
  5
23C02
330
23FB5
100
AcDbEntity
  8
0
100
AcDbBlockReference
  2
*U28
 10
18237.39542243547
 20
15581.39666740179
 30
0.0
  0
TEXT
  5
23C03
330
23FB5
100
AcDbEntity
  8
LAYER1
100
AcDbText
 10
21536.43837442522
 20
15898.00656715983
 30
0.0
 40
30.0
  1
file version 1
100
AcDbText
  0
TEXT
  5
23D5F
330
23FB5
100
AcDbEntity
  8
LAYER1
100
AcDbText
 10
22096.07268295
 20
16709.37822076682
 30
0.0
 40
150.0
  1
AW1011
100
AcDbText
  0
LINE
  5
2412A
330
23FB5
100
AcDbEntity
  8
CUTOUT
100
AcDbLine
 10
22728.86625985966
 20
16297.88472248553
 30
0.0
 11
22728.86625985966
 21
15917.88472248553
 31
0.0
  0
ARC
  5
2412B
102
{ACAD_REACTORS
330
2415D
102
}
330
23FB5
100
AcDbEntity
  8
CUTOUT
100
AcDbCircle
 10
22753.86625985966
 20
15917.88472248553
 30
0.0
 40
25.0
100
AcDbArc
 50
180.0
 51
270.0
  0
LINE
  5
2412C
330
23FB5
100
AcDbEntity
  8
CUTOUT
100
AcDbLine
 10
22183.86625985962
 20
16297.88472248551
 30
0.0
 11
22183.8662598597
 21
16182.03535758016
 31
0.0
  0
LINE
  5
2412D
330
23FB5
100
AcDbEntity
  8
CUTOUT
100
AcDbLine
 10
22183.8662598597
 20
16063.73408739091
 30
0.0
 11
22183.8662598597
 21
15917.88472248553
 31
0.0
  0
ARC
  5
2412E
330
23FB5
100
AcDbEntity
  8
CUTOUT
100
AcDbCircle
 10
22158.8662598597
 20
15917.88472248553
 30
0.0
 40
25.0
100
AcDbArc
 50
270.0
 51
0.0
  0
LINE
  5
2412F
102
{ACAD_REACTORS
330
2413B
102
}
330
23FB5
100
AcDbEntity
  8
CUTOUT
100
AcDbLine
 10
22821.38545837573
 20
15892.88472248553
 30
0.0
 11
22753.86625985966
 21
15892.88472248553
 31
0.0
  0
LINE
  5
24130
330
23FB5
100
AcDbEntity
  8
CUTOUT
100
AcDbLine
 10
22158.8662598597
 20
15892.88472248553
 30
0.0
 11
22032.75218065577
 21
15892.88472248553
 31
0.0
  0
LINE
  5
24131
330
23FB5
100
AcDbEntity
  8
CUTOUT
100
AcDbLine
 10
22889.29079163551
 20
16416.7238558286
 30
0.0
 11
22101.73422797756
 21
16416.7238558286
 31
0.0
  0
SPLINE
  5
24132
330
23FB5
100
AcDbEntity
  8
CUTOUT
100
AcDbSpline
210
0.0
220
0.0
230
1.0
 70
     8
 71
     3
 72
    10
 73
     6
 74
     0
 42
0.0000000001
 43
0.0000000001
 40
47.5134302537985
 40
47.5134302537985
 40
47.5134302537985
 40
47.5134302537985
 40
184.5960566417767
 40
339.2665877918436
 40
590.5607315150189
 40
590.5607315150189
 40
590.5607315150189
 40
590.5607315150189
 10
22101.73422797756
 20
16416.7238558286
 30
0.0
 10
22079.07850105501
 20
16374.60902152099
 30
0.0
 10
22040.46449207805
 20
16284.13210073275
 30
0.0
 10
22116.40776828553
 20
16102.73756470024
 30
0.0
 10
22069.50246690073
 20
15972.85608266551
 30
0.0
 10
22032.75218065577
 20
15892.88472248554
 30
0.0
  0
SPLINE
  5
24133
330
23FB5
100
AcDbEntity
  8
CUTOUT
100
AcDbSpline
210
0.0
220
0.0
230
1.0
 70
     8
 71
     3
 72
    10
 73
     6
 74
     0
 42
0.0000000001
 43
0.0000000001
 40
73.76202825123086
 40
73.76202825123086
 40
73.76202825123086
 40
73.76202825123086
 40
184.5960566417767
 40
339.2665877918436
 40
615.9665950130873
 40
615.9665950130873
 40
615.9665950130873
 40
615.9665950130873
 10
22889.29079163551
 20
16416.7238558286
 30
0.0
 10
22872.75638320561
 20
16382.51649774551
 30
0.0
 10
22844.11843051303
 20
16299.60836364664
 30
0.0
 10
22919.94385323207
 20
16118.49532691107
 30
0.0
 10
22863.20877657434
 20
15980.8662545528
 30
0.0
 10
22821.3854583757
 20
15892.88472248553
 30
0.0
  0
MTEXT
  5
24134
102
{ACAD_XDICTIONARY
360
242F3
102
}
330
23FB5
100
AcDbEntity
  8
CUTOUT
100
AcDbMText
 10
22203.20998825731
 20
16475.39152859709
 30
0.0
 40
40.0
 41
559.4757407245924
 46
0.0
 71
     1
 72
     5
  1
\pi7.7379;APRON FRONT CUT OUT
 73
     1
 44
1.0
  0
LINE
  5
24135
102
{ACAD_REACTORS
330
2413B
102
}
330
23FB5
100
AcDbEntity
  8
CUTOUT
100
AcDbLine
 10
22208.86625985962
 20
16322.88472248553
 30
0.0
 11
22703.86625985966
 21
16322.88472248553
 31
0.0
  0
ARC
  5
24136
102
{ACAD_REACTORS
330
24160
102
}
330
23FB5
100
AcDbEntity
  8
CUTOUT
100
AcDbCircle
 10
22208.86625985962
 20
16297.88472248553
 30
0.0
 40
25.0
100
AcDbArc
 50
90.0
 51
180.0
  0
ARC
  5
24137
330
23FB5
100
AcDbEntity
  8
CUTOUT
100
AcDbCircle
 10
22703.86625985966
 20
16297.88472248553
 30
0.0
 40
25.0
100
AcDbArc
 50
0.0
 51
90.0
  0
DIMENSION
  5
24138
330
23FB5
100
AcDbEntity
  8
DIMS SPECS
100
AcDbDimension
  2
*D69
 10
22728.86625985962
 20
15966.00921691477
 30
0.0
 11
22456.36625985967
 21
15982.4368171867
 31
0.0
 70
    32
 71
     5
 42
544.9999999998981
 73
     0
 74
     0
 75
     0
  3
ABODE-ISO$0
100
AcDbAlignedDimension
 13
22183.86625985972
 23
15909.88472248553
 33
0.0
 14
22728.86625985962
 24
15909.88472248553
 34
0.0
100
AcDbRotatedDimension
1001
ACAD
1000
DSTYLE
1002
{
1070
   340
1005
240E8
1070
   371
1070
    -1
1070
   372
1070
    -1
1002
}
  0
DIMENSION
  5
24139
102
{ACAD_XDICTIONARY
360
2413A
102
}
102
{ACAD_REACTORS
330
2413B
102
}
330
23FB5
100
AcDbEntity
  8
DIMS SPECS
100
AcDbDimension
  2
*D75
 10
22792.03647231142
 20
16322.88472248553
 30
0.0
 11
22792.03647231142
 21
16107.88472248553
 31
0.0
 70
    32
 71
     5
 42
430.0000000000018
 73
     0
 74
     0
 75
     0
  3
ABODE-ISO$0
100
AcDbAlignedDimension
 13
22787.62585911769
 23
15892.88472248553
 33
0.0
 14
22703.86625985966
 24
16322.88472248553
 34
0.0
 50
90.0
100
AcDbRotatedDimension
1001
ACAD
1000
DSTYLE
1002
{
1070
   340
1005
240E8
1070
   371
1070
    -1
1070
   372
1070
    -1
1002
}
  0
LINE
  5
2413C
330
23FB5
100
AcDbEntity
  8
CUTOUT
100
AcDbLine
 10
22183.8662598597
 20
16072.88472248553
 30
0.0
 11
22183.86625985969
 21
16072.88472248553
 31
0.0
  0
LINE
  5
2413D
330
23FB5
100
AcDbEntity
  8
CUTOUT
100
AcDbLine
 10
22183.8662598597
 20
16172.88472248553
 30
0.0
 11
22183.86625985968
 21
16172.88472248553
 31
0.0
  0
DIMENSION
  5
2413E
330
23FB5
100
AcDbEntity
  8
DIMS SPECS
100
AcDbDimension
  2
*D70
 10
22360.69162712958
 20
16122.88472248553
 30
0.0
 11
22360.69162712958
 21
16007.88472248554
 31
0.0
 70
   160
 71
     5
 42
230.0
 73
     0
 74
     0
 75
     0
  3
ABODE-ISO$0
100
AcDbAlignedDimension
 13
22166.86625985972
 23
15892.88472248553
 33
0.0
 14
22171.36625985969
 24
16122.88472248553
 34
0.0
 50
90.0
100
AcDbRotatedDimension
1001
ACAD
1000
DSTYLE
1002
{
1070
   340
1005
240E8
1070
   371
1070
    -1
1070
   372
1070
    -1
1002
}
  0
DIMENSION
  5
2413F
330
23FB5
100
AcDbEntity
  8
DIMS SPECS
100
AcDbDimension
  2
*D71
 10
22183.86625985969
 20
16129.41113902937
 30
0.0
 11
22177.61625985969
 21
16107.80593848553
 31
0.0
 70
    32
 71
     5
 42
12.5
 73
     0
 74
     0
 75
     0
  3
ABODE-ISO$0
100
AcDbAlignedDimension
 13
22171.36625985969
 23
16122.88472248553
 33
0.0
 14
22183.86625985969
 24
16159.48472248553
 34
0.0
100
AcDbRotatedDimension
1001
ACAD
1000
DSTYLE
1002
{
1070
    45
1040
0.0
1070
   271
1070
     1
1070
   340
1005
240E8
1070
   371
1070
    -1
1070
   372
1070
    -1
1002
}
  0
LINE
  5
24140
330
23FB5
100
AcDbEntity
  8
CUTOUT
100
AcDbLine
 10
22171.36625985969
 20
16160.38472248553
 30
0.0
 11
22171.36625985969
 21
16085.38472248553
 31
0.0
  0
LINE
  5
24141
330
23FB5
100
AcDbEntity
  8
CUTOUT
100
AcDbLine
 10
22183.86625985969
 20
16172.88472248553
 30
0.0
 11
22183.8662598597
 21
16172.88472248553
 31
0.0
  0
ARC
  5
24142
102
{ACAD_REACTORS
330
2414E
102
}
330
23FB5
100
AcDbEntity
  8
CUTOUT
100
AcDbCircle
 10
22183.86625985969
 20
16160.38472248553
 30
0.0
 40
12.5
100
AcDbArc
 50
120.0000000000138
 51
180.0
  0
ARC
  5
24143
102
{ACAD_REACTORS
330
24152
102
}
330
23FB5
100
AcDbEntity
  8
CUTOUT
100
AcDbCircle
 10
22171.36625985971
 20
16182.03535758015
 30
0.0
 40
12.5
100
AcDbArc
 50
300.0000000000138
 51
0.0
  0
LINE
  5
24144
330
23FB5
100
AcDbEntity
  8
CUTOUT
100
AcDbLine
 10
22183.86625985969
 20
16072.88472248553
 30
0.0
 11
22183.8662598597
 21
16072.88472248553
 31
0.0
  0
ARC
  5
24145
330
23FB5
100
AcDbEntity
  8
CUTOUT
100
AcDbCircle
 10
22183.86625985969
 20
16085.38472248553
 30
0.0
 40
12.5
100
AcDbArc
 50
180.0
 51
239.9999999999861
  0
ARC
  5
24146
102
{ACAD_REACTORS
330
2414B
102
}
330
23FB5
100
AcDbEntity
  8
CUTOUT
100
AcDbCircle
 10
22171.36625985971
 20
16063.73408739091
 30
0.0
 40
12.5
100
AcDbArc
 50
0.0
 51
59.99999999998614
  0
DIMENSION
  5
24147
330
23FB5
100
AcDbEntity
  8
DIMS SPECS
100
AcDbDimension
  2
*D72
 10
22129.90903230498
 20
16063.73408739098
 30
0.0
 11
22129.90903230498
 21
16106.45712221361
 31
0.0
 70
   160
 71
     5
 42
118.3012701891803
 73
     0
 74
     0
 75
     0
  3
ABODE-ISO$0
100
AcDbAlignedDimension
 13
22171.36625985971
 23
16182.03535758016
 33
0.0
 14
22171.36625985978
 24
16063.73408739098
 34
0.0
 50
90.0
100
AcDbRotatedDimension
1001
ACAD
1000
DSTYLE
1002
{
1070
   340
1005
240E8
1070
   371
1070
    -1
1070
   372
1070
    -1
1002
}
  0
DIMENSION
  5
24148
330
23FB5
100
AcDbEntity
  8
DIMS SPECS
100
AcDbDimension
  2
*D73
 10
22317.556954793
 20
16085.38472248553
 30
0.0
 11
22317.556954793
 21
16138.4614036469
 31
0.0
 70
   160
 71
     5
 42
74.99999999999818
 73
     0
 74
     0
 75
     0
  3
ABODE-ISO$0
100
AcDbAlignedDimension
 13
22183.86625985969
 23
16160.38472248553
 33
0.0
 14
22183.86625985969
 24
16085.38472248553
 34
0.0
 50
90.0
100
AcDbRotatedDimension
1001
ACAD
1000
DSTYLE
1002
{
1070
    45
1040
0.0
1070
   271
1070
     1
1070
   340
1005
240E8
1070
   371
1070
    -1
1070
   372
1070
    -1
1002
}
  0
DIMENSION
  5
24149
102
{ACAD_XDICTIONARY
360
2414A
102
}
102
{ACAD_REACTORS
330
2414B
102
}
330
23FB5
100
AcDbEntity
  8
DIMS SPECS
100
AcDbDimension
  2
*D76
 10
22171.36625985971
 20
16063.73408739091
 30
0.0
 11
22118.416046561
 21
16028.49514652552
 31
0.0
 70
    36
 71
     5
 42
12.49999999997817
 73
     0
 74
     0
 75
     0
  3
ABODE-ISO$4
100
AcDbRadialDimension
 15
22166.87961318592
 25
16052.06703970848
 35
0.0
 40
0.0
1001
ACAD
1000
DSTYLE
1002
{
1070
    45
1040
0.0
1070
   271
1070
     1
1070
   340
1005
240E8
1070
   371
1070
    -1
1070
   372
1070
    -1
1002
}
1001
ACAD_DSTYLE_DIMRADIAL_EXTENSION
1070
   387
1070
     1
1070
   388
1040
0.0
1070
   390
1040
1.047197551196355
  0
DIMENSION
  5
2414C
102
{ACAD_XDICTIONARY
360
2414D
102
}
102
{ACAD_REACTORS
330
2414E
102
}
330
23FB5
100
AcDbEntity
  8
DIMS SPECS
100
AcDbDimension
  2
*D77
 10
22183.86625985969
 20
16160.38472248553
 30
0.0
 11
22108.78477880984
 21
16203.61326399261
 31
0.0
 70
   164
 71
     5
 42
12.50000000002364
 73
     0
 74
     0
 75
     0
  3
ABODE-ISO$4
100
AcDbRadialDimension
 15
22175.15573827825
 25
16169.35003418005
 35
0.0
 40
0.0
1001
ACAD
1000
DSTYLE
1002
{
1070
    45
1040
0.0
1070
   271
1070
     1
1070
   340
1005
240E8
1070
   371
1070
    -1
1070
   372
1070
    -1
1002
}
1001
ACAD_DSTYLE_DIMRADIAL_EXTENSION
1070
   387
1070
     1
1070
   388
1040
2.094395102393437
1070
   390
1040
3.141592653589793
  0
DIMENSION
  5
2414F
330
23FB5
100
AcDbEntity
  8
DIMS SPECS
100
AcDbDimension
  2
*D74
 10
22171.36625985974
 20
16063.73408739094
 30
0.0
 11
22272.48127744184
 21
16045.49216222288
 31
0.0
 70
   164
 71
     5
 42
12.49999999997453
 73
     0
 74
     0
 75
     0
  3
ABODE-ISO$4
100
AcDbRadialDimension
 15
22183.43978271081
 25
16060.49679748054
 35
0.0
 40
0.0
1001
ACAD_DSTYLE_DIMRADIAL_EXTENSION
1070
   387
1070
     1
1070
   388
1040
0.0000000000000909
1070
   390
1040
1.047197551197744
1001
ACAD
1000
DSTYLE
1002
{
1070
   271
1070
     1
1070
    45
1040
0.0
1070
   340
1005
240E8
1070
   371
1070
    -1
1070
   372
1070
    -1
1002
}
  0
DIMENSION
  5
24150
102
{ACAD_XDICTIONARY
360
24151
102
}
102
{ACAD_REACTORS
330
24152
102
}
330
23FB5
100
AcDbEntity
  8
DIMS SPECS
100
AcDbDimension
  2
*D78
 10
22171.36625985971
 20
16182.03535758015
 30
0.0
 11
22301.00629895138
 21
16209.63816987779
 31
0.0
 70
   164
 71
     5
 42
12.50000000017098
 73
     0
 74
     0
 75
     0
  3
ABODE-ISO$4
100
AcDbRadialDimension
 15
22183.38482737593
 25
16185.47105763431
 35
0.0
 40
0.0
1001
ACAD
1000
DSTYLE
1002
{
1070
    45
1040
0.0
1070
   271
1070
     1
1070
   340
1005
240E8
1070
   371
1070
    -1
1070
   372
1070
    -1
1002
}
1001
ACAD_DSTYLE_DIMRADIAL_EXTENSION
1070
   387
1070
     1
1070
   388
1040
5.23598775598323
1070
   390
1040
0.0
  0
LINE
  5
24153
330
23FB5
100
AcDbEntity
  8
DIMS SPECS
100
AcDbLine
 10
22182.9662598597
 20
16160.38472248553
 30
0.0
 11
22184.76625985968
 21
16160.38472248553
 31
0.0
  0
LINE
  5
24154
330
23FB5
100
AcDbEntity
  8
DIMS SPECS
100
AcDbLine
 10
22183.86625985969
 20
16159.48472248553
 30
0.0
 11
22183.86625985969
 21
16161.28472248553
 31
0.0
  0
LINE
  5
24155
330
23FB5
100
AcDbEntity
  8
DIMS SPECS
100
AcDbLine
 10
22170.46625985971
 20
16182.03535758015
 30
0.0
 11
22172.2662598597
 21
16182.03535758015
 31
0.0
  0
LINE
  5
24156
330
23FB5
100
AcDbEntity
  8
DIMS SPECS
100
AcDbLine
 10
22171.36625985971
 20
16181.13535758015
 30
0.0
 11
22171.36625985971
 21
16182.93535758015
 31
0.0
  0
LINE
  5
24157
330
23FB5
100
AcDbEntity
  8
DIMS SPECS
100
AcDbLine
 10
22182.9662598597
 20
16085.38472248553
 30
0.0
 11
22184.76625985968
 21
16085.38472248553
 31
0.0
  0
LINE
  5
24158
330
23FB5
100
AcDbEntity
  8
DIMS SPECS
100
AcDbLine
 10
22183.86625985969
 20
16084.48472248553
 30
0.0
 11
22183.86625985969
 21
16086.28472248553
 31
0.0
  0
LINE
  5
24159
330
23FB5
100
AcDbEntity
  8
DIMS SPECS
100
AcDbLine
 10
22170.46625985971
 20
16063.73408739091
 30
0.0
 11
22172.2662598597
 21
16063.73408739091
 31
0.0
  0
LINE
  5
2415A
330
23FB5
100
AcDbEntity
  8
DIMS SPECS
100
AcDbLine
 10
22171.36625985971
 20
16062.83408739091
 30
0.0
 11
22171.36625985971
 21
16064.63408739091
 31
0.0
  0
DIMENSION
  5
2415B
102
{ACAD_XDICTIONARY
360
2415C
102
}
102
{ACAD_REACTORS
330
2415D
102
}
330
23FB5
100
AcDbEntity
  8
DIMS SPECS
100
AcDbDimension
  2
*D79
 10
22753.86625985966
 20
15917.88472248552
 30
0.0
 11
22678.23916080703
 21
15870.50220941594
 31
0.0
 70
   164
 71
     5
 42
24.99999999997454
 73
     0
 74
     0
 75
     0
  3
ABODE-ISO$4
100
AcDbRadialDimension
 15
22735.50159613139
 25
15900.92184754799
 35
0.0
 40
0.0
1001
ACAD
1000
DSTYLE
1002
{
1070
    45
1040
0.0
1070
   271
1070
     1
1070
   340
1005
240E8
1070
   371
1070
    -1
1070
   372
1070
    -1
1002
}
1001
ACAD_DSTYLE_DIMRADIAL_EXTENSION
1070
   387
1070
     1
1070
   388
1040
3.141592653589793
1070
   390
1040
4.712388980384689
  0
DIMENSION
  5
2415E
102
{ACAD_XDICTIONARY
360
2415F
102
}
102
{ACAD_REACTORS
330
24160
102
}
330
23FB5
100
AcDbEntity
  8
DIMS SPECS
100
AcDbDimension
  2
*D80
 10
22208.86625985962
 20
16297.88472248554
 30
0.0
 11
22150.56442627905
 21
16336.00204920882
 31
0.0
 70
   164
 71
     5
 42
25.0
 73
     0
 74
     0
 75
     0
  3
ABODE-ISO$4
100
AcDbRadialDimension
 15
22192.23234200407
 25
16316.54786200639
 35
0.0
 40
0.0
1001
ACAD
1000
DSTYLE
1002
{
1070
    45
1040
0.0
1070
   271
1070
     1
1070
   340
1005
240E8
1070
   371
1070
    -1
1070
   372
1070
    -1
1002
}
1001
ACAD_DSTYLE_DIMRADIAL_EXTENSION
1070
   387
1070
     1
1070
   388
1040
1.570796326794896
1070
   390
1040
3.141592653589793
  0
ENDSEC
  0
SECTION
  2
OBJECTS
  0
DICTIONARY
  5
23F4D
330
0
100
AcDbDictionary
281
     1
  3
ACAD_COLOR
350
23FAB
  3
ACAD_GROUP
350
23F4E
  3
ACAD_LAYOUT
350
23FAA
  3
ACAD_MATERIAL
350
23F51
  3
ACAD_MLEADERSTYLE
350
23FAE
  3
ACAD_MLINESTYLE
350
23FA7
  3
ACAD_PLOTSETTINGS
350
23FA9
  3
ACAD_PLOTSTYLENAME
350
23F4F
  3
ACAD_SCALELIST
350
23F7B
  3
ACAD_TABLESTYLE
350
23FAC
  3
ACAD_VISUALSTYLE
350
23F6A
  3
ACDB_RECOMPOSE_DATA
350
242DF
  3
AcDbVariableDictionary
350
242E0
  0
DICTIONARY
  5
240E9
330
23F43
100
AcDbDictionary
280
     1
281
     1
  3
ACAD_LAYERSTATES
360
240EA
  0
DICTIONARY
  5
242CB
330
23F9D
100
AcDbDictionary
280
     1
281
     1
  3
ADSK_XREC_LAYER_RECONCILED
360
242CC
  0
DICTIONARY
  5
242CD
330
23FBB
100
AcDbDictionary
280
     1
281
     1
  3
ADSK_XREC_LAYER_RECONCILED
360
242CE
  0
DICTIONARY
  5
242CF
330
23FBD
100
AcDbDictionary
280
     1
281
     1
  3
ADSK_XREC_LAYER_RECONCILED
360
242D0
  0
DICTIONARY
  5
242D1
330
23FBE
100
AcDbDictionary
280
     1
281
     1
  3
ADSK_XREC_LAYER_RECONCILED
360
242D2
  0
DICTIONARY
  5
242D3
330
23FBF
100
AcDbDictionary
280
     1
281
     1
  3
ADSK_XREC_LAYER_RECONCILED
360
242D4
  0
DICTIONARY
  5
242D5
330
23FC0
100
AcDbDictionary
280
     1
281
     1
  3
ADSK_XREC_LAYER_RECONCILED
360
242D6
  0
DICTIONARY
  5
242D7
330
240E6
100
AcDbDictionary
280
     1
281
     1
  3
ADSK_XREC_LAYER_RECONCILED
360
242D8
  0
DICTIONARY
  5
242D9
330
240E7
100
AcDbDictionary
280
     1
281
     1
  3
ADSK_XREC_LAYER_RECONCILED
360
242DA
  0
DICTIONARY
  5
242F3
330
24134
100
AcDbDictionary
280
     1
281
     1
  3
ACAD_MTEXT_2008_RT
360
242F4
  0
DICTIONARY
  5
2413A
330
24139
100
AcDbDictionary
280
     1
281
     1
  3
ACAD_DIMASSOC
360
2413B
  0
DICTIONARY
  5
2414A
330
24149
100
AcDbDictionary
280
     1
281
     1
  3
ACAD_DIMASSOC
360
2414B
  0
DICTIONARY
  5
2414D
330
2414C
100
AcDbDictionary
280
     1
281
     1
  3
ACAD_DIMASSOC
360
2414E
  0
DICTIONARY
  5
24151
330
24150
100
AcDbDictionary
280
     1
281
     1
  3
ACAD_DIMASSOC
360
24152
  0
DICTIONARY
  5
2415C
330
2415B
100
AcDbDictionary
280
     1
281
     1
  3
ACAD_DIMASSOC
360
2415D
  0
DICTIONARY
  5
2415F
330
2415E
100
AcDbDictionary
280
     1
281
     1
  3
ACAD_DIMASSOC
360
24160
  0
DICTIONARY
  5
23FAB
102
{ACAD_REACTORS
330
23F4D
102
}
330
23F4D
100
AcDbDictionary
281
     1
  0
DICTIONARY
  5
23F4E
102
{ACAD_REACTORS
330
23F4D
102
}
330
23F4D
100
AcDbDictionary
281
     1
  0
DICTIONARY
  5
23FAA
102
{ACAD_REACTORS
330
23F4D
102
}
330
23F4D
100
AcDbDictionary
281
     1
  3
Layout1
350
23FB4
  3
Model
350
23FB8
  0
DICTIONARY
  5
23F51
102
{ACAD_REACTORS
330
23F4D
102
}
330
23F4D
100
AcDbDictionary
281
     1
  3
ByBlock
350
23F5A
  3
ByLayer
350
23F52
  3
Global
350
23F62
  0
DICTIONARY
  5
23FAE
102
{ACAD_REACTORS
330
23F4D
102
}
330
23F4D
100
AcDbDictionary
281
     1
  3
Standard
350
23FAF
  0
DICTIONARY
  5
23FA7
102
{ACAD_REACTORS
330
23F4D
102
}
330
23F4D
100
AcDbDictionary
281
     1
  3
Standard
350
23FA8
  0
DICTIONARY
  5
23FA9
102
{ACAD_REACTORS
330
23F4D
102
}
330
23F4D
100
AcDbDictionary
281
     1
  0
ACDBDICTIONARYWDFLT
  5
23F4F
102
{ACAD_REACTORS
330
23F4D
102
}
330
23F4D
100
AcDbDictionary
281
     1
  3
Normal
350
23F50
100
AcDbDictionaryWithDefault
340
23F50
  0
DICTIONARY
  5
23F7B
102
{ACAD_REACTORS
330
23F4D
102
}
330
23F4D
100
AcDbDictionary
281
     1
  3
A0
350
23F7C
  3
A1
350
23F7D
  3
A2
350
23F7E
  3
A3
350
23F7F
  3
A4
350
23F80
  3
A5
350
23F81
  3
A6
350
23F82
  3
A7
350
23F83
  3
A8
350
23F84
  3
A9
350
23F85
  3
B0
350
23F86
  3
B1
350
23F87
  3
B2
350
23F88
  3
B3
350
23F89
  3
B4
350
23F8A
  3
B5
350
23F8B
  3
B6
350
23F8C
  3
B7
350
23F8D
  3
B8
350
23F8E
  3
B9
350
23F8F
  3
C0
350
23F90
  3
C1
350
23F91
  3
C2
350
23F92
  3
C3
350
23F93
  3
C4
350
23F94
  3
C5
350
23F95
  3
C6
350
23F96
  3
C7
350
23F97
  3
C8
350
23F98
  3
C9
350
23F99
  3
D0
350
23F9A
  3
D1
350
23F9B
  3
D2
350
23F9C
  0
DICTIONARY
  5
23FAC
102
{ACAD_REACTORS
330
23F4D
102
}
330
23F4D
100
AcDbDictionary
281
     1
  3
Standard
350
23FAD
  0
DICTIONARY
  5
23F6A
102
{ACAD_REACTORS
330
23F4D
102
}
330
23F4D
100
AcDbDictionary
281
     1
  3
2dWireframe
350
23F70
  3
3D Hidden
350
23F72
  3
3dWireframe
350
23F71
  3
Basic
350
23F6F
  3
Brighten
350
23F76
  3
ColorChange
350
23F7A
  3
Conceptual
350
23F73
  3
Dim
350
23F75
  3
Facepattern
350
23F79
  3
Flat
350
23F6B
  3
FlatWithEdges
350
23F6C
  3
Gouraud
350
23F6D
  3
GouraudWithEdges
350
23F6E
  3
Linepattern
350
23F78
  3
Realistic
350
23F74
  3
Thicken
350
23F77
  0
XRECORD
  5
242DF
102
{ACAD_REACTORS
330
23F4D
102
}
330
23F4D
100
AcDbXrecord
280
     1
 90
        1
330
23FAD
330
24134
  0
DICTIONARY
  5
242E0
102
{ACAD_REACTORS
330
23F4D
102
}
330
23F4D
100
AcDbDictionary
281
     1
  3
CANNOSCALE
350
242E4
  3
CMLEADERSTYLE
350
242E2
  3
CTABLESTYLE
350
242E1
  3
LAYEREVAL
350
242E6
  3
LAYERNOTIFY
350
242E7
  3
LIGHTINGUNITS
350
242E5
  3
MSLTSCALE
350
242E3
  0
DICTIONARY
  5
240EA
102
{ACAD_REACTORS
330
240E9
102
}
330
240E9
100
AcDbDictionary
281
     1
  0
XRECORD
  5
242CC
102
{ACAD_REACTORS
330
242CB
102
}
330
242CB
100
AcDbXrecord
280
     1
290
     1
  0
XRECORD
  5
242CE
102
{ACAD_REACTORS
330
242CD
102
}
330
242CD
100
AcDbXrecord
280
     1
290
     1
  0
XRECORD
  5
242D0
102
{ACAD_REACTORS
330
242CF
102
}
330
242CF
100
AcDbXrecord
280
     1
290
     1
  0
XRECORD
  5
242D2
102
{ACAD_REACTORS
330
242D1
102
}
330
242D1
100
AcDbXrecord
280
     1
290
     1
  0
XRECORD
  5
242D4
102
{ACAD_REACTORS
330
242D3
102
}
330
242D3
100
AcDbXrecord
280
     1
290
     1
  0
XRECORD
  5
242D6
102
{ACAD_REACTORS
330
242D5
102
}
330
242D5
100
AcDbXrecord
280
     1
290
     1
  0
XRECORD
  5
242D8
102
{ACAD_REACTORS
330
242D7
102
}
330
242D7
100
AcDbXrecord
280
     1
290
     1
  0
XRECORD
  5
242DA
102
{ACAD_REACTORS
330
242D9
102
}
330
242D9
100
AcDbXrecord
280
     1
290
     1
  0
XRECORD
  5
242F4
102
{ACAD_REACTORS
330
242F3
102
}
330
242F3
100
AcDbXrecord
280
     1
 40
30497.0
  1
\pxqc;APRON FRONT CUT OUT
  0
DIMASSOC
  5
2413B
102
{ACAD_REACTORS
330
2413A
102
}
330
2413A
100
AcDbDimAssoc
330
24139
 90
        3
 70
     0
 71
     0
  1
AcDbOsnapPointRef
 72
     2
331
2412F
 73
     2
 91
        0
 40
0.5
 10
0.0
 20
0.0
 30
0.0
 75
     0
  1
AcDbOsnapPointRef
 72
     1
331
24135
 73
     2
 91
        0
 40
1.0
 10
0.0
 20
0.0
 30
2.000000000000000E+50
 75
     0
  0
DIMASSOC
  5
2414B
102
{ACAD_REACTORS
330
2414A
102
}
330
2414A
100
AcDbDimAssoc
330
24149
 90
        2
 70
     0
 71
     0
  1
AcDbOsnapPointRef
 72
     3
331
24146
 73
     2
 91
        0
 40
0.0
 10
0.0
 20
0.0
 30
0.0
 75
     0
  0
DIMASSOC
  5
2414E
102
{ACAD_REACTORS
330
2414D
102
}
330
2414D
100
AcDbDimAssoc
330
2414C
 90
        2
 70
     0
 71
     0
  1
AcDbOsnapPointRef
 72
     3
331
24142
 73
     2
 91
        0
 40
0.0
 10
0.0
 20
0.0
 30
0.0
 75
     0
  0
DIMASSOC
  5
24152
102
{ACAD_REACTORS
330
24151
102
}
330
24151
100
AcDbDimAssoc
330
24150
 90
        2
 70
     0
 71
     0
  1
AcDbOsnapPointRef
 72
     3
331
24143
 73
     2
 91
        0
 40
0.0
 10
0.0
 20
0.0
 30
0.0
 75
     0
  0
DIMASSOC
  5
2415D
102
{ACAD_REACTORS
330
2415C
102
}
330
2415C
100
AcDbDimAssoc
330
2415B
 90
        2
 70
     0
 71
     0
  1
AcDbOsnapPointRef
 72
     3
331
2412B
 73
     2
 91
        0
 40
0.0
 10
0.0
 20
0.0
 30
0.0
 75
     0
  0
DIMASSOC
  5
24160
102
{ACAD_REACTORS
330
2415F
102
}
330
2415F
100
AcDbDimAssoc
330
2415E
 90
        2
 70
     0
 71
     0
  1
AcDbOsnapPointRef
 72
     3
331
24136
 73
     2
 91
        0
 40
0.0
 10
0.0
 20
0.0
 30
0.0
 75
     0
  0
LAYOUT
  5
23FB4
102
{ACAD_REACTORS
330
23FAA
102
}
330
23FAA
100
AcDbPlotSettings
  1

  2
\\ABODESERVER\upstairs
  4

  6

 40
0.0
 41
0.0
 42
0.0
 43
0.0
 44
0.0
 45
0.0
 46
0.0
 47
0.0
 48
0.0
 49
0.0
140
0.0
141
0.0
142
1.0
143
1.0
 70
   688
 72
     0
 73
     0
 74
     5
  7

 75
    16
147
1.0
 76
     0
 77
     2
 78
   300
148
0.0
149
0.0
100
AcDbLayout
  1
Layout1
 70
     1
 71
     1
 10
0.0
 20
0.0
 11
420.0
 21
297.0
 12
0.0
 22
0.0
 32
0.0
 14
1.000000000000000E+20
 24
1.000000000000000E+20
 34
1.000000000000000E+20
 15
-1.000000000000000E+20
 25
-1.000000000000000E+20
 35
-1.000000000000000E+20
146
0.0
 13
0.0
 23
0.0
 33
0.0
 16
1.0
 26
0.0
 36
0.0
 17
0.0
 27
1.0
 37
0.0
 76
     0
330
23FB1
  0
LAYOUT
  5
23FB8
102
{ACAD_REACTORS
330
23FAA
102
}
330
23FAA
100
AcDbPlotSettings
  1

  2
\\ABODESERVER\upstairs
  4

  6

 40
0.0
 41
0.0
 42
0.0
 43
0.0
 44
0.0
 45
0.0
 46
0.0
 47
0.0
 48
0.0
 49
0.0
140
0.0
141
0.0
142
1.0
143
1.0
 70
  1712
 72
     0
 73
     0
 74
     0
  7

 75
     0
147
1.0
 76
     0
 77
     2
 78
   300
148
0.0
149
0.0
100
AcDbLayout
  1
Model
 70
     1
 71
     0
 10
0.0
 20
0.0
 11
12.0
 21
9.0
 12
0.0
 22
0.0
 32
0.0
 14
0.0
 24
0.0
 34
0.0
 15
0.0
 25
0.0
 35
0.0
146
0.0
 13
0.0
 23
0.0
 33
0.0
 16
1.0
 26
0.0
 36
0.0
 17
0.0
 27
1.0
 37
0.0
 76
     0
330
23FB5
331
23FB9
  0
MATERIAL
  5
23F5A
102
{ACAD_XDICTIONARY
360
23F5B
102
}
102
{ACAD_REACTORS
330
23F51
102
}
330
23F51
100
AcDbMaterial
  1
ByBlock
 72
     0
 43
0.0208333333333333
 43
0.0
 43
0.0
 43
0.0
 43
0.0
 43
0.0208333333333333
 43
0.0
 43
0.0
 43
0.0
 43
0.0
 43
1.0
 43
0.0
 43
0.0
 43
0.0
 43
0.0
 43
1.0
 77
     0
 47
0.0208333333333333
 47
0.0
 47
0.0
 47
0.0
 47
0.0
 47
0.0208333333333333
 47
0.0
 47
0.0
 47
0.0
 47
0.0
 47
1.0
 47
0.0
 47
0.0
 47
0.0
 47
0.0
 47
1.0
171
     0
 49
0.0208333333333333
 49
0.0
 49
0.0
 49
0.0
 49
0.0
 49
0.0208333333333333
 49
0.0
 49
0.0
 49
0.0
 49
0.0
 49
1.0
 49
0.0
 49
0.0
 49
0.0
 49
0.0
 49
1.0
175
     0
142
0.0208333333333333
142
0.0
142
0.0
142
0.0
142
0.0
142
0.0208333333333333
142
0.0
142
0.0
142
0.0
142
0.0
142
1.0
142
0.0
142
0.0
142
0.0
142
0.0
142
1.0
179
     0
144
0.0208333333333333
144
0.0
144
0.0
144
0.0
144
0.0
144
0.0208333333333333
144
0.0
144
0.0
144
0.0
144
0.0
144
1.0
144
0.0
144
0.0
144
0.0
144
0.0
144
1.0
147
0.0208333333333333
147
0.0
147
0.0
147
0.0
147
0.0
147
0.0208333333333333
147
0.0
147
0.0
147
0.0
147
0.0
147
1.0
147
0.0
147
0.0
147
0.0
147
0.0
147
1.0
  0
MATERIAL
  5
23F52
102
{ACAD_XDICTIONARY
360
23F53
102
}
102
{ACAD_REACTORS
330
23F51
102
}
330
23F51
100
AcDbMaterial
  1
ByLayer
 72
     0
 43
0.0208333333333333
 43
0.0
 43
0.0
 43
0.0
 43
0.0
 43
0.0208333333333333
 43
0.0
 43
0.0
 43
0.0
 43
0.0
 43
1.0
 43
0.0
 43
0.0
 43
0.0
 43
0.0
 43
1.0
 77
     0
 47
0.0208333333333333
 47
0.0
 47
0.0
 47
0.0
 47
0.0
 47
0.0208333333333333
 47
0.0
 47
0.0
 47
0.0
 47
0.0
 47
1.0
 47
0.0
 47
0.0
 47
0.0
 47
0.0
 47
1.0
171
     0
 49
0.0208333333333333
 49
0.0
 49
0.0
 49
0.0
 49
0.0
 49
0.0208333333333333
 49
0.0
 49
0.0
 49
0.0
 49
0.0
 49
1.0
 49
0.0
 49
0.0
 49
0.0
 49
0.0
 49
1.0
175
     0
142
0.0208333333333333
142
0.0
142
0.0
142
0.0
142
0.0
142
0.0208333333333333
142
0.0
142
0.0
142
0.0
142
0.0
142
1.0
142
0.0
142
0.0
142
0.0
142
0.0
142
1.0
179
     0
144
0.0208333333333333
144
0.0
144
0.0
144
0.0
144
0.0
144
0.0208333333333333
144
0.0
144
0.0
144
0.0
144
0.0
144
1.0
144
0.0
144
0.0
144
0.0
144
0.0
144
1.0
147
0.0208333333333333
147
0.0
147
0.0
147
0.0
147
0.0
147
0.0208333333333333
147
0.0
147
0.0
147
0.0
147
0.0
147
1.0
147
0.0
147
0.0
147
0.0
147
0.0
147
1.0
  0
MATERIAL
  5
23F62
102
{ACAD_XDICTIONARY
360
23F63
102
}
102
{ACAD_REACTORS
330
23F51
102
}
330
23F51
100
AcDbMaterial
  1
Global
 72
     0
 43
0.0208333333333333
 43
0.0
 43
0.0
 43
0.0
 43
0.0
 43
0.0208333333333333
 43
0.0
 43
0.0
 43
0.0
 43
0.0
 43
1.0
 43
0.0
 43
0.0
 43
0.0
 43
0.0
 43
1.0
 77
     0
 47
0.0208333333333333
 47
0.0
 47
0.0
 47
0.0
 47
0.0
 47
0.0208333333333333
 47
0.0
 47
0.0
 47
0.0
 47
0.0
 47
1.0
 47
0.0
 47
0.0
 47
0.0
 47
0.0
 47
1.0
171
     0
 49
0.0208333333333333
 49
0.0
 49
0.0
 49
0.0
 49
0.0
 49
0.0208333333333333
 49
0.0
 49
0.0
 49
0.0
 49
0.0
 49
1.0
 49
0.0
 49
0.0
 49
0.0
 49
0.0
 49
1.0
175
     0
142
0.0208333333333333
142
0.0
142
0.0
142
0.0
142
0.0
142
0.0208333333333333
142
0.0
142
0.0
142
0.0
142
0.0
142
1.0
142
0.0
142
0.0
142
0.0
142
0.0
142
1.0
179
     0
144
0.0208333333333333
144
0.0
144
0.0
144
0.0
144
0.0
144
0.0208333333333333
144
0.0
144
0.0
144
0.0
144
0.0
144
1.0
144
0.0
144
0.0
144
0.0
144
0.0
144
1.0
147
0.0208333333333333
147
0.0
147
0.0
147
0.0
147
0.0
147
0.0208333333333333
147
0.0
147
0.0
147
0.0
147
0.0
147
1.0
147
0.0
147
0.0
147
0.0
147
0.0
147
1.0
  0
MLEADERSTYLE
  5
23FAF
102
{ACAD_REACTORS
330
23FAE
102
}
330
23FAE
100
AcDbMLeaderStyle
170
     2
171
     1
172
     0
 90
        2
 40
0.0
 41
0.0
173
     1
 91
-1056964608
340
23FA3
 92
       -2
290
     1
 42
0.09
291
     1
 43
0.36
  3
Standard
 44
0.18
300

342
23F9E
174
     1
178
     6
175
     1
176
     0
 93
-1056964608
 45
0.18
292
     0
297
     0
 46
0.18
 94
-1056964608
 47
1.0
 49
1.0
140
1.0
293
     1
141
0.0
294
     1
177
     0
142
1.0
295
     0
296
     0
143
0.125
1001
ACAD_MLEADERVER
1070
     2
  0
MLINESTYLE
  5
23FA8
102
{ACAD_REACTORS
330
23FA7
102
}
330
23FA7
100
AcDbMlineStyle
  2
STANDARD
 70
     0
  3

 62
   256
 51
90.0
 52
90.0
 71
     2
 49
0.5
 62
   256
  6
BYLAYER
 49
-0.5
 62
   256
  6
BYLAYER
  0
ACDBPLACEHOLDER
  5
23F50
102
{ACAD_REACTORS
330
23F4F
102
}
330
23F4F
  0
SCALE
  5
23F7C
102
{ACAD_REACTORS
330
23F7B
102
}
330
23F7B
100
AcDbScale
 70
     0
300
1:1
140
1.0
141
1.0
290
     1
  0
SCALE
  5
23F7D
102
{ACAD_REACTORS
330
23F7B
102
}
330
23F7B
100
AcDbScale
 70
     0
300
1:2
140
1.0
141
2.0
290
     0
  0
SCALE
  5
23F7E
102
{ACAD_REACTORS
330
23F7B
102
}
330
23F7B
100
AcDbScale
 70
     0
300
1:4
140
1.0
141
4.0
290
     0
  0
SCALE
  5
23F7F
102
{ACAD_REACTORS
330
23F7B
102
}
330
23F7B
100
AcDbScale
 70
     0
300
1:5
140
1.0
141
5.0
290
     0
  0
SCALE
  5
23F80
102
{ACAD_REACTORS
330
23F7B
102
}
330
23F7B
100
AcDbScale
 70
     0
300
1:8
140
1.0
141
8.0
290
     0
  0
SCALE
  5
23F81
102
{ACAD_REACTORS
330
23F7B
102
}
330
23F7B
100
AcDbScale
 70
     0
300
1:10
140
1.0
141
10.0
290
     0
  0
SCALE
  5
23F82
102
{ACAD_REACTORS
330
23F7B
102
}
330
23F7B
100
AcDbScale
 70
     0
300
1:16
140
1.0
141
16.0
290
     0
  0
SCALE
  5
23F83
102
{ACAD_REACTORS
330
23F7B
102
}
330
23F7B
100
AcDbScale
 70
     0
300
1:20
140
1.0
141
20.0
290
     0
  0
SCALE
  5
23F84
102
{ACAD_REACTORS
330
23F7B
102
}
330
23F7B
100
AcDbScale
 70
     0
300
1:30
140
1.0
141
30.0
290
     0
  0
SCALE
  5
23F85
102
{ACAD_REACTORS
330
23F7B
102
}
330
23F7B
100
AcDbScale
 70
     0
300
1:40
140
1.0
141
40.0
290
     0
  0
SCALE
  5
23F86
102
{ACAD_REACTORS
330
23F7B
102
}
330
23F7B
100
AcDbScale
 70
     0
300
1:50
140
1.0
141
50.0
290
     0
  0
SCALE
  5
23F87
102
{ACAD_REACTORS
330
23F7B
102
}
330
23F7B
100
AcDbScale
 70
     0
300
1:100
140
1.0
141
100.0
290
     0
  0
SCALE
  5
23F88
102
{ACAD_REACTORS
330
23F7B
102
}
330
23F7B
100
AcDbScale
 70
     0
300
2:1
140
2.0
141
1.0
290
     0
  0
SCALE
  5
23F89
102
{ACAD_REACTORS
330
23F7B
102
}
330
23F7B
100
AcDbScale
 70
     0
300
4:1
140
4.0
141
1.0
290
     0
  0
SCALE
  5
23F8A
102
{ACAD_REACTORS
330
23F7B
102
}
330
23F7B
100
AcDbScale
 70
     0
300
8:1
140
8.0
141
1.0
290
     0
  0
SCALE
  5
23F8B
102
{ACAD_REACTORS
330
23F7B
102
}
330
23F7B
100
AcDbScale
 70
     0
300
10:1
140
10.0
141
1.0
290
     0
  0
SCALE
  5
23F8C
102
{ACAD_REACTORS
330
23F7B
102
}
330
23F7B
100
AcDbScale
 70
     0
300
100:1
140
100.0
141
1.0
290
     0
  0
SCALE
  5
23F8D
102
{ACAD_REACTORS
330
23F7B
102
}
330
23F7B
100
AcDbScale
 70
     0
300
1/128" = 1'-0"
140
0.0078125
141
12.0
290
     0
  0
SCALE
  5
23F8E
102
{ACAD_REACTORS
330
23F7B
102
}
330
23F7B
100
AcDbScale
 70
     0
300
1/64" = 1'-0"
140
0.015625
141
12.0
290
     0
  0
SCALE
  5
23F8F
102
{ACAD_REACTORS
330
23F7B
102
}
330
23F7B
100
AcDbScale
 70
     0
300
1/32" = 1'-0"
140
0.03125
141
12.0
290
     0
  0
SCALE
  5
23F90
102
{ACAD_REACTORS
330
23F7B
102
}
330
23F7B
100
AcDbScale
 70
     0
300
1/16" = 1'-0"
140
0.0625
141
12.0
290
     0
  0
SCALE
  5
23F91
102
{ACAD_REACTORS
330
23F7B
102
}
330
23F7B
100
AcDbScale
 70
     0
300
3/32" = 1'-0"
140
0.09375
141
12.0
290
     0
  0
SCALE
  5
23F92
102
{ACAD_REACTORS
330
23F7B
102
}
330
23F7B
100
AcDbScale
 70
     0
300
1/8" = 1'-0"
140
0.125
141
12.0
290
     0
  0
SCALE
  5
23F93
102
{ACAD_REACTORS
330
23F7B
102
}
330
23F7B
100
AcDbScale
 70
     0
300
3/16" = 1'-0"
140
0.1875
141
12.0
290
     0
  0
SCALE
  5
23F94
102
{ACAD_REACTORS
330
23F7B
102
}
330
23F7B
100
AcDbScale
 70
     0
300
1/4" = 1'-0"
140
0.25
141
12.0
290
     0
  0
SCALE
  5
23F95
102
{ACAD_REACTORS
330
23F7B
102
}
330
23F7B
100
AcDbScale
 70
     0
300
3/8" = 1'-0"
140
0.375
141
12.0
290
     0
  0
SCALE
  5
23F96
102
{ACAD_REACTORS
330
23F7B
102
}
330
23F7B
100
AcDbScale
 70
     0
300
1/2" = 1'-0"
140
0.5
141
12.0
290
     0
  0
SCALE
  5
23F97
102
{ACAD_REACTORS
330
23F7B
102
}
330
23F7B
100
AcDbScale
 70
     0
300
3/4" = 1'-0"
140
0.75
141
12.0
290
     0
  0
SCALE
  5
23F98
102
{ACAD_REACTORS
330
23F7B
102
}
330
23F7B
100
AcDbScale
 70
     0
300
1" = 1'-0"
140
1.0
141
12.0
290
     0
  0
SCALE
  5
23F99
102
{ACAD_REACTORS
330
23F7B
102
}
330
23F7B
100
AcDbScale
 70
     0
300
1-1/2" = 1'-0"
140
1.5
141
12.0
290
     0
  0
SCALE
  5
23F9A
102
{ACAD_REACTORS
330
23F7B
102
}
330
23F7B
100
AcDbScale
 70
     0
300
3" = 1'-0"
140
3.0
141
12.0
290
     0
  0
SCALE
  5
23F9B
102
{ACAD_REACTORS
330
23F7B
102
}
330
23F7B
100
AcDbScale
 70
     0
300
6" = 1'-0"
140
6.0
141
12.0
290
     0
  0
SCALE
  5
23F9C
102
{ACAD_REACTORS
330
23F7B
102
}
330
23F7B
100
AcDbScale
 70
     0
300
1'-0" = 1'-0"
140
12.0
141
12.0
290
     0
  0
TABLESTYLE
  5
23FAD
102
{ACAD_XDICTIONARY
360
242DB
102
}
102
{ACAD_REACTORS
330
23FAC
102
}
330
23FAC
100
AcDbTableStyle
  3
Standard
 70
     0
 71
     0
 40
0.06
 41
0.06
280
     0
281
     0
  7
STANDARD
140
0.18
170
     2
 62
     0
 63
     7
283
     0
 90
      512
 91
        0
  1

274
    -2
284
     1
 64
     0
275
    -2
285
     1
 65
     0
276
    -2
286
     1
 66
     0
277
    -2
287
     1
 67
     0
278
    -2
288
     1
 68
     0
279
    -2
289
     1
 69
     0
  7
STANDARD
140
0.25
170
     5
 62
     0
 63
     7
283
     0
 90
      512
 91
        0
  1

274
    -2
284
     1
 64
     0
275
    -2
285
     1
 65
     0
276
    -2
286
     1
 66
     0
277
    -2
287
     1
 67
     0
278
    -2
288
     1
 68
     0
279
    -2
289
     1
 69
     0
  7
STANDARD
140
0.18
170
     5
 62
     0
 63
     7
283
     0
 90
      512
 91
        0
  1

274
    -2
284
     1
 64
     0
275
    -2
285
     1
 65
     0
276
    -2
286
     1
 66
     0
277
    -2
287
     1
 67
     0
278
    -2
288
     1
 68
     0
279
    -2
289
     1
 69
     0
  0
VISUALSTYLE
  5
23F70
102
{ACAD_REACTORS
330
23F6A
102
}
330
23F6A
100
AcDbVisualStyle
  2
2dWireframe
 70
     4
 71
     0
 72
     2
 73
     0
 90
        0
 40
-0.6
 41
-30.0
 62
     5
 63
     7
421
 16777215
 74
     1
 91
        4
 64
     7
 65
   257
 75
     1
175
     1
 42
1.0
 92
        0
 66
   257
 43
1.0
 76
     1
 77
     6
 78
     2
 67
     7
 79
     5
170
     0
171
     0
290
     0
174
     0
 93
        1
 44
0.0
173
     0
291
     0
 45
0.0
  0
VISUALSTYLE
  5
23F72
102
{ACAD_REACTORS
330
23F6A
102
}
330
23F6A
100
AcDbVisualStyle
  2
3D Hidden
 70
     6
 71
     1
 72
     2
 73
     2
 90
        0
 40
-0.6
 41
-30.0
 62
     5
 63
     7
421
 16777215
 74
     2
 91
        2
 64
     7
 65
   257
 75
     2
175
     1
 42
40.0
 92
        0
 66
   257
 43
1.0
 76
     1
 77
     6
 78
     2
 67
     7
 79
     3
170
     0
171
     0
290
     0
174
     0
 93
        1
 44
0.0
173
     0
291
     0
 45
0.0
  0
VISUALSTYLE
  5
23F71
102
{ACAD_REACTORS
330
23F6A
102
}
330
23F6A
100
AcDbVisualStyle
  2
3dWireframe
 70
     5
 71
     0
 72
     2
 73
     0
 90
        0
 40
-0.6
 41
-30.0
 62
     5
 63
     7
421
 16777215
 74
     1
 91
        4
 64
     7
 65
   257
 75
     1
175
     1
 42
1.0
 92
        0
 66
   257
 43
1.0
 76
     1
 77
     6
 78
     2
 67
     7
 79
     5
170
     0
171
     0
290
     0
174
     0
 93
        1
 44
0.0
173
     0
291
     0
 45
0.0
  0
VISUALSTYLE
  5
23F6F
102
{ACAD_REACTORS
330
23F6A
102
}
330
23F6A
100
AcDbVisualStyle
  2
Basic
 70
     7
 71
     1
 72
     0
 73
     1
 90
        0
 40
-0.6
 41
-30.0
 62
     5
 63
     7
421
 16777215
 74
     0
 91
        4
 64
     7
 65
   257
 75
     1
175
     1
 42
1.0
 92
        8
 66
     7
 43
1.0
 76
     1
 77
     6
 78
     2
 67
     7
 79
     5
170
     0
171
     0
290
     0
174
     0
 93
        1
 44
0.0
173
     0
291
     1
 45
0.0
  0
VISUALSTYLE
  5
23F76
102
{ACAD_REACTORS
330
23F6A
102
}
330
23F6A
100
AcDbVisualStyle
  2
Brighten
 70
    12
 71
     2
 72
     2
 73
     0
 90
        0
 40
-0.6
 41
-30.0
 62
     5
 63
     7
421
 16777215
 74
     1
 91
        4
 64
     7
 65
   257
 75
     1
175
     1
 42
1.0
 92
        8
 66
     7
 43
1.0
 76
     1
 77
     6
 78
     2
 67
     7
 79
     5
170
     0
171
     0
290
     0
174
     0
 93
        1
 44
50.0
173
     0
291
     1
 45
0.0
  0
VISUALSTYLE
  5
23F7A
102
{ACAD_REACTORS
330
23F6A
102
}
330
23F6A
100
AcDbVisualStyle
  2
ColorChange
 70
    16
 71
     2
 72
     2
 73
     3
 90
        0
 40
-0.6
 41
-30.0
 62
     5
 63
     8
421
  8421504
 74
     1
 91
        4
 64
     7
 65
   257
 75
     1
175
     1
 42
1.0
 92
        8
 66
     8
424
  8421504
 43
1.0
 76
     1
 77
     6
 78
     2
 67
     7
 79
     5
170
     0
171
     0
290
     0
174
     0
 93
        1
 44
0.0
173
     0
291
     1
 45
0.0
  0
VISUALSTYLE
  5
23F73
102
{ACAD_REACTORS
330
23F6A
102
}
330
23F6A
100
AcDbVisualStyle
  2
Conceptual
 70
     9
 71
     3
 72
     2
 73
     0
 90
        0
 40
-0.6
 41
-30.0
 62
     5
 63
     7
421
 16777215
 74
     2
 91
        2
 64
     7
 65
   257
 75
     1
175
     1
 42
40.0
 92
        8
 66
     7
 43
1.0
 76
     1
 77
     6
 78
     2
 67
     7
 79
     3
170
     0
171
     0
290
     0
174
     0
 93
        1
 44
0.0
173
     0
291
     0
 45
0.0
  0
VISUALSTYLE
  5
23F75
102
{ACAD_REACTORS
330
23F6A
102
}
330
23F6A
100
AcDbVisualStyle
  2
Dim
 70
    11
 71
     2
 72
     2
 73
     0
 90
        0
 40
-0.6
 41
-30.0
 62
     5
 63
     7
421
 16777215
 74
     1
 91
        4
 64
     7
 65
   257
 75
     1
175
     1
 42
1.0
 92
        8
 66
     7
 43
1.0
 76
     1
 77
     6
 78
     2
 67
     7
 79
     5
170
     0
171
     0
290
     0
174
     0
 93
        1
 44
-50.0
173
     0
291
     1
 45
0.0
  0
VISUALSTYLE
  5
23F79
102
{ACAD_REACTORS
330
23F6A
102
}
330
23F6A
100
AcDbVisualStyle
  2
Facepattern
 70
    15
 71
     2
 72
     2
 73
     0
 90
        0
 40
-0.6
 41
-30.0
 62
     5
 63
     7
421
 16777215
 74
     1
 91
        4
 64
     7
 65
   257
 75
     1
175
     1
 42
1.0
 92
        8
 66
     7
 43
1.0
 76
     1
 77
     6
 78
     2
 67
     7
 79
     5
170
     0
171
     0
290
     0
174
     0
 93
        1
 44
0.0
173
     0
291
     1
 45
0.0
  0
VISUALSTYLE
  5
23F6B
102
{ACAD_REACTORS
330
23F6A
102
}
330
23F6A
100
AcDbVisualStyle
  2
Flat
 70
     0
 71
     2
 72
     1
 73
     1
 90
        2
 40
-0.6
 41
30.0
 62
     5
 63
     7
421
 16777215
 74
     0
 91
        4
 64
     7
 65
   257
 75
     1
175
     1
 42
1.0
 92
        8
 66
     7
 43
1.0
 76
     1
 77
     6
 78
     2
 67
     7
 79
     5
170
     0
171
     0
290
     0
174
     0
 93
       13
 44
0.0
173
     0
291
     1
 45
0.0
  0
VISUALSTYLE
  5
23F6C
102
{ACAD_REACTORS
330
23F6A
102
}
330
23F6A
100
AcDbVisualStyle
  2
FlatWithEdges
 70
     1
 71
     2
 72
     1
 73
     1
 90
        2
 40
-0.6
 41
30.0
 62
     5
 63
     7
421
 16777215
 74
     1
 91
        4
 64
     7
 65
   257
 75
     1
175
     1
 42
1.0
 92
        0
 66
   257
 43
1.0
 76
     1
 77
     6
 78
     2
 67
     7
 79
     5
170
     0
171
     0
290
     0
174
     0
 93
       13
 44
0.0
173
     0
291
     1
 45
0.0
  0
VISUALSTYLE
  5
23F6D
102
{ACAD_REACTORS
330
23F6A
102
}
330
23F6A
100
AcDbVisualStyle
  2
Gouraud
 70
     2
 71
     2
 72
     2
 73
     1
 90
        2
 40
-0.6
 41
30.0
 62
     5
 63
     7
421
 16777215
 74
     0
 91
        4
 64
     7
 65
   257
 75
     1
175
     1
 42
1.0
 92
        0
 66
     7
 43
1.0
 76
     1
 77
     6
 78
     2
 67
     7
 79
     5
170
     0
171
     0
290
     0
174
     0
 93
       13
 44
0.0
173
     0
291
     1
 45
0.0
  0
VISUALSTYLE
  5
23F6E
102
{ACAD_REACTORS
330
23F6A
102
}
330
23F6A
100
AcDbVisualStyle
  2
GouraudWithEdges
 70
     3
 71
     2
 72
     2
 73
     1
 90
        2
 40
-0.6
 41
30.0
 62
     5
 63
     7
421
 16777215
 74
     1
 91
        4
 64
     7
 65
   257
 75
     1
175
     1
 42
1.0
 92
        0
 66
   257
 43
1.0
 76
     1
 77
     6
 78
     2
 67
     7
 79
     5
170
     0
171
     0
290
     0
174
     0
 93
       13
 44
0.0
173
     0
291
     1
 45
0.0
  0
VISUALSTYLE
  5
23F78
102
{ACAD_REACTORS
330
23F6A
102
}
330
23F6A
100
AcDbVisualStyle
  2
Linepattern
 70
    14
 71
     2
 72
     2
 73
     0
 90
        0
 40
-0.6
 41
-30.0
 62
     5
 63
     7
421
 16777215
 74
     1
 91
        4
 64
     7
 65
   257
 75
     7
175
     7
 42
1.0
 92
        8
 66
     7
 43
1.0
 76
     1
 77
     6
 78
     2
 67
     7
 79
     5
170
     0
171
     0
290
     0
174
     0
 93
        1
 44
0.0
173
     0
291
     1
 45
0.0
  0
VISUALSTYLE
  5
23F74
102
{ACAD_REACTORS
330
23F6A
102
}
330
23F6A
100
AcDbVisualStyle
  2
Realistic
 70
     8
 71
     2
 72
     2
 73
     0
 90
        0
 40
-0.6
 41
-30.0
 62
     5
 63
     7
421
 16777215
 74
     1
 91
        0
 64
     7
 65
   257
 75
     1
175
     1
 42
1.0
 92
        8
 66
     8
424
  7895160
 43
1.0
 76
     1
 77
     6
 78
     2
 67
     7
 79
     5
170
     0
171
     0
290
     0
174
     0
 93
       13
 44
0.0
173
     0
291
     0
 45
0.0
  0
VISUALSTYLE
  5
23F77
102
{ACAD_REACTORS
330
23F6A
102
}
330
23F6A
100
AcDbVisualStyle
  2
Thicken
 70
    13
 71
     2
 72
     2
 73
     0
 90
        0
 40
-0.6
 41
-30.0
 62
     5
 63
     7
421
 16777215
 74
     1
 91
        4
 64
     7
 65
   257
 75
     1
175
     1
 42
1.0
 92
       12
 66
     7
 43
1.0
 76
     1
 77
     6
 78
     2
 67
     7
 79
     5
170
     0
171
     0
290
     0
174
     0
 93
        1
 44
0.0
173
     0
291
     1
 45
0.0
  0
DICTIONARYVAR
  5
242E4
102
{ACAD_REACTORS
330
242E0
102
}
330
242E0
100
DictionaryVariables
280
     0
  1
1:1
  0
DICTIONARYVAR
  5
242E2
102
{ACAD_REACTORS
330
242E0
102
}
330
242E0
100
DictionaryVariables
280
     0
  1
STANDARD
  0
DICTIONARYVAR
  5
242E1
102
{ACAD_REACTORS
330
242E0
102
}
330
242E0
100
DictionaryVariables
280
     0
  1
STANDARD
  0
DICTIONARYVAR
  5
242E6
102
{ACAD_REACTORS
330
242E0
102
}
330
242E0
100
DictionaryVariables
280
     0
  1
1
  0
DICTIONARYVAR
  5
242E7
102
{ACAD_REACTORS
330
242E0
102
}
330
242E0
100
DictionaryVariables
280
     0
  1
15
  0
DICTIONARYVAR
  5
242E5
102
{ACAD_REACTORS
330
242E0
102
}
330
242E0
100
DictionaryVariables
280
     0
  1
0
  0
DICTIONARYVAR
  5
242E3
102
{ACAD_REACTORS
330
242E0
102
}
330
242E0
100
DictionaryVariables
280
     0
  1
0
  0
DICTIONARY
  5
23F5B
330
23F5A
100
AcDbDictionary
280
     1
281
     1
  3
BUMPTILE
360
23F5D
  3
DIFFUSETILE
360
23F5C
  3
OPACITYTILE
360
23F60
  3
REFLECTIONTILE
360
23F5F
  3
REFRACTIONTILE
360
23F61
  3
SPECULARTILE
360
23F5E
  0
DICTIONARY
  5
23F53
330
23F52
100
AcDbDictionary
280
     1
281
     1
  3
BUMPTILE
360
23F55
  3
DIFFUSETILE
360
23F54
  3
OPACITYTILE
360
23F58
  3
REFLECTIONTILE
360
23F57
  3
REFRACTIONTILE
360
23F59
  3
SPECULARTILE
360
23F56
  0
DICTIONARY
  5
23F63
330
23F62
100
AcDbDictionary
280
     1
281
     1
  3
BUMPTILE
360
23F65
  3
DIFFUSETILE
360
23F64
  3
OPACITYTILE
360
23F68
  3
REFLECTIONTILE
360
23F67
  3
REFRACTIONTILE
360
23F69
  3
SPECULARTILE
360
23F66
  0
DICTIONARY
  5
242DB
330
23FAD
100
AcDbDictionary
280
     1
281
     1
  3
ACAD_ROUNDTRIP_2008_TABLESTYLE_CELLSTYLEMAP
360
242F2
  0
XRECORD
  5
23F5D
102
{ACAD_REACTORS
330
23F5B
102
}
330
23F5B
100
AcDbXrecord
280
     1
270
     1
271
     1
  0
XRECORD
  5
23F5C
102
{ACAD_REACTORS
330
23F5B
102
}
330
23F5B
100
AcDbXrecord
280
     1
270
     1
271
     1
  0
XRECORD
  5
23F60
102
{ACAD_REACTORS
330
23F5B
102
}
330
23F5B
100
AcDbXrecord
280
     1
270
     1
271
     1
  0
XRECORD
  5
23F5F
102
{ACAD_REACTORS
330
23F5B
102
}
330
23F5B
100
AcDbXrecord
280
     1
270
     1
271
     1
  0
XRECORD
  5
23F61
102
{ACAD_REACTORS
330
23F5B
102
}
330
23F5B
100
AcDbXrecord
280
     1
270
     1
271
     1
  0
XRECORD
  5
23F5E
102
{ACAD_REACTORS
330
23F5B
102
}
330
23F5B
100
AcDbXrecord
280
     1
270
     1
271
     1
  0
XRECORD
  5
23F55
102
{ACAD_REACTORS
330
23F53
102
}
330
23F53
100
AcDbXrecord
280
     1
270
     1
271
     1
  0
XRECORD
  5
23F54
102
{ACAD_REACTORS
330
23F53
102
}
330
23F53
100
AcDbXrecord
280
     1
270
     1
271
     1
  0
XRECORD
  5
23F58
102
{ACAD_REACTORS
330
23F53
102
}
330
23F53
100
AcDbXrecord
280
     1
270
     1
271
     1
  0
XRECORD
  5
23F57
102
{ACAD_REACTORS
330
23F53
102
}
330
23F53
100
AcDbXrecord
280
     1
270
     1
271
     1
  0
XRECORD
  5
23F59
102
{ACAD_REACTORS
330
23F53
102
}
330
23F53
100
AcDbXrecord
280
     1
270
     1
271
     1
  0
XRECORD
  5
23F56
102
{ACAD_REACTORS
330
23F53
102
}
330
23F53
100
AcDbXrecord
280
     1
270
     1
271
     1
  0
XRECORD
  5
23F65
102
{ACAD_REACTORS
330
23F63
102
}
330
23F63
100
AcDbXrecord
280
     1
270
     1
271
     1
  0
XRECORD
  5
23F64
102
{ACAD_REACTORS
330
23F63
102
}
330
23F63
100
AcDbXrecord
280
     1
270
     1
271
     1
  0
XRECORD
  5
23F68
102
{ACAD_REACTORS
330
23F63
102
}
330
23F63
100
AcDbXrecord
280
     1
270
     1
271
     1
  0
XRECORD
  5
23F67
102
{ACAD_REACTORS
330
23F63
102
}
330
23F63
100
AcDbXrecord
280
     1
270
     1
271
     1
  0
XRECORD
  5
23F69
102
{ACAD_REACTORS
330
23F63
102
}
330
23F63
100
AcDbXrecord
280
     1
270
     1
271
     1
  0
XRECORD
  5
23F66
102
{ACAD_REACTORS
330
23F63
102
}
330
23F63
100
AcDbXrecord
280
     1
270
     1
271
     1
  0
CELLSTYLEMAP
  5
242F2
102
{ACAD_REACTORS
330
242DB
102
}
330
242DB
100
AcDbCellStyleMap
 90
        3
300
CELLSTYLE
  1
TABLEFORMAT_BEGIN
 90
        5
170
     1
 91
        0
 92
    32768
 62
   257
 93
        1
300
CONTENTFORMAT
  1
CONTENTFORMAT_BEGIN
 90
        0
 91
        0
 92
      512
 93
        0
300

 40
0.0
140
1.0
 94
        5
 62
     0
340
23F9E
144
0.25
309
CONTENTFORMAT_END
171
     0
 94
        0
309
TABLEFORMAT_END
  1
CELLSTYLE_BEGIN
 90
        1
 91
        1
300
_TITLE
309
CELLSTYLE_END
300
CELLSTYLE
  1
TABLEFORMAT_BEGIN
 90
        5
170
     1
 91
        0
 92
        0
 62
   257
 93
        1
300
CONTENTFORMAT
  1
CONTENTFORMAT_BEGIN
 90
        0
 91
        0
 92
      512
 93
        0
300

 40
0.0
140
1.0
 94
        5
 62
     0
340
23F9E
144
0.18
309
CONTENTFORMAT_END
171
     0
 94
        0
309
TABLEFORMAT_END
  1
CELLSTYLE_BEGIN
 90
        2
 91
        1
300
_HEADER
309
CELLSTYLE_END
300
CELLSTYLE
  1
TABLEFORMAT_BEGIN
 90
        5
170
     1
 91
        0
 92
        0
 62
   257
 93
        1
300
CONTENTFORMAT
  1
CONTENTFORMAT_BEGIN
 90
        0
 91
        0
 92
      512
 93
        0
300

 40
0.0
140
1.0
 94
        2
 62
     0
340
23F9E
144
0.18
309
CONTENTFORMAT_END
171
     0
 94
        0
309
TABLEFORMAT_END
  1
CELLSTYLE_BEGIN
 90
        3
 91
        2
300
_DATA
309
CELLSTYLE_END
  0
ENDSEC
  0
EOF
